  0
SECTION
  2
HEADER
  9
$ACADVER
  1
AC1027
  9
$ACADMAINTVER
 70
   105
  9
$DWGCODEPAGE
  3
ANSI_1252
  9
$LASTSAVEDBY
  1
hjones
  9
$REQUIREDVERSIONS
160
                 0
  9
$INSBASE
 10
0.0
 20
0.0
 30
0.0
  9
$EXTMIN
 10
0.8355102828185891
 20
0.7316894749315566
 30
-0.0015258207003583
  9
$EXTMAX
 10
1.570678726735849
 20
1.275512707274771
 30
0.0000000349246037
  9
$LIMMIN
 10
0.0
 20
0.0
  9
$LIMMAX
 10
12.0
 20
9.0
  9
$ORTHOMODE
 70
     1
  9
$REGENMODE
 70
     1
  9
$FILLMODE
 70
     1
  9
$QTEXTMODE
 70
     0
  9
$MIRRTEXT
 70
     0
  9
$LTSCALE
 40
1.0
  9
$ATTMODE
 70
     1
  9
$TEXTSIZE
 40
0.2
  9
$TRACEWID
 40
0.05
  9
$TEXTSTYLE
  7
Standard
  9
$CLAYER
  8
0
  9
$CELTYPE
  6
ByLayer
  9
$CECOLOR
 62
   256
  9
$CELTSCALE
 40
1.0
  9
$DISPSILH
 70
     0
  9
$DIMSCALE
 40
1.0
  9
$DIMASZ
 40
0.012
  9
$DIMEXO
 40
0.0075
  9
$DIMDLI
 40
0.38
  9
$DIMRND
 40
0.0
  9
$DIMDLE
 40
0.0
  9
$DIMEXE
 40
0.005
  9
$DIMTP
 40
0.0
  9
$DIMTM
 40
0.0
  9
$DIMTXT
 40
0.012
  9
$DIMCEN
 40
0.0
  9
$DIMTSZ
 40
0.0
  9
$DIMTOL
 70
     0
  9
$DIMLIM
 70
     0
  9
$DIMTIH
 70
     1
  9
$DIMTOH
 70
     1
  9
$DIMSE1
 70
     0
  9
$DIMSE2
 70
     0
  9
$DIMTAD
 70
     0
  9
$DIMZIN
 70
     0
  9
$DIMBLK
  1

  9
$DIMASO
 70
     1
  9
$DIMSHO
 70
     1
  9
$DIMPOST
  1

  9
$DIMAPOST
  1

  9
$DIMALT
 70
     0
  9
$DIMALTD
 70
     2
  9
$DIMALTF
 40
25.4
  9
$DIMLFAC
 40
1.0
  9
$DIMTOFL
 70
     0
  9
$DIMTVP
 40
0.0
  9
$DIMTIX
 70
     0
  9
$DIMSOXD
 70
     0
  9
$DIMSAH
 70
     0
  9
$DIMBLK1
  1

  9
$DIMBLK2
  1

  9
$DIMSTYLE
  2
Dan's Dim Style
  9
$DIMCLRD
 70
     0
  9
$DIMCLRE
 70
     0
  9
$DIMCLRT
 70
     0
  9
$DIMTFAC
 40
1.0
  9
$DIMGAP
 40
0.0075
  9
$DIMJUST
 70
     0
  9
$DIMSD1
 70
     0
  9
$DIMSD2
 70
     0
  9
$DIMTOLJ
 70
     1
  9
$DIMTZIN
 70
     0
  9
$DIMALTZ
 70
     0
  9
$DIMALTTZ
 70
     0
  9
$DIMUPT
 70
     0
  9
$DIMDEC
 70
     3
  9
$DIMTDEC
 70
     3
  9
$DIMALTU
 70
     2
  9
$DIMALTTD
 70
     2
  9
$DIMTXSTY
  7
Standard
  9
$DIMAUNIT
 70
     0
  9
$DIMADEC
 70
     0
  9
$DIMALTRND
 40
0.0
  9
$DIMAZIN
 70
     0
  9
$DIMDSEP
 70
    46
  9
$DIMATFIT
 70
     3
  9
$DIMFRAC
 70
     0
  9
$DIMLDRBLK
  1

  9
$DIMLUNIT
 70
     2
  9
$DIMLWD
 70
    -2
  9
$DIMLWE
 70
    -2
  9
$DIMTMOVE
 70
     0
  9
$DIMFXL
 40
1.0
  9
$DIMFXLON
 70
     0
  9
$DIMJOGANG
 40
0.7853981633974483
  9
$DIMTFILL
 70
     0
  9
$DIMTFILLCLR
 70
     0
  9
$DIMARCSYM
 70
     0
  9
$DIMLTYPE
  6

  9
$DIMLTEX1
  6

  9
$DIMLTEX2
  6

  9
$DIMTXTDIRECTION
 70
     0
  9
$LUNITS
 70
     2
  9
$LUPREC
 70
     4
  9
$SKETCHINC
 40
0.1
  9
$FILLETRAD
 40
0.0
  9
$AUNITS
 70
     0
  9
$AUPREC
 70
     0
  9
$MENU
  1
.
  9
$ELEVATION
 40
0.0
  9
$PELEVATION
 40
0.0
  9
$THICKNESS
 40
0.0
  9
$LIMCHECK
 70
     0
  9
$CHAMFERA
 40
0.0
  9
$CHAMFERB
 40
0.0
  9
$CHAMFERC
 40
0.0
  9
$CHAMFERD
 40
0.0
  9
$SKPOLY
 70
     0
  9
$TDCREATE
 40
2458921.459409387
  9
$TDUCREATE
 40
2458921.626076053
  9
$TDUPDATE
 40
2458964.570852373
  9
$TDUUPDATE
 40
2458964.737519039
  9
$TDINDWG
 40
1.4041465741
  9
$TDUSRTIMER
 40
1.4041464815
  9
$USRTIMER
 70
     1
  9
$ANGBASE
 50
0.0
  9
$ANGDIR
 70
     0
  9
$PDMODE
 70
     0
  9
$PDSIZE
 40
0.0
  9
$PLINEWID
 40
0.0
  9
$SPLFRAME
 70
     0
  9
$SPLINETYPE
 70
     6
  9
$SPLINESEGS
 70
     8
  9
$HANDSEED
  5
F67
  9
$SURFTAB1
 70
     6
  9
$SURFTAB2
 70
     6
  9
$SURFTYPE
 70
     6
  9
$SURFU
 70
     6
  9
$SURFV
 70
     6
  9
$UCSBASE
  2

  9
$UCSNAME
  2

  9
$UCSORG
 10
0.0
 20
0.0
 30
0.0
  9
$UCSXDIR
 10
1.0
 20
0.0
 30
0.0
  9
$UCSYDIR
 10
0.0
 20
1.0
 30
0.0
  9
$UCSORTHOREF
  2

  9
$UCSORTHOVIEW
 70
     0
  9
$UCSORGTOP
 10
0.0
 20
0.0
 30
0.0
  9
$UCSORGBOTTOM
 10
0.0
 20
0.0
 30
0.0
  9
$UCSORGLEFT
 10
0.0
 20
0.0
 30
0.0
  9
$UCSORGRIGHT
 10
0.0
 20
0.0
 30
0.0
  9
$UCSORGFRONT
 10
0.0
 20
0.0
 30
0.0
  9
$UCSORGBACK
 10
0.0
 20
0.0
 30
0.0
  9
$PUCSBASE
  2

  9
$PUCSNAME
  2

  9
$PUCSORG
 10
0.0
 20
0.0
 30
0.0
  9
$PUCSXDIR
 10
1.0
 20
0.0
 30
0.0
  9
$PUCSYDIR
 10
0.0
 20
1.0
 30
0.0
  9
$PUCSORTHOREF
  2

  9
$PUCSORTHOVIEW
 70
     0
  9
$PUCSORGTOP
 10
0.0
 20
0.0
 30
0.0
  9
$PUCSORGBOTTOM
 10
0.0
 20
0.0
 30
0.0
  9
$PUCSORGLEFT
 10
0.0
 20
0.0
 30
0.0
  9
$PUCSORGRIGHT
 10
0.0
 20
0.0
 30
0.0
  9
$PUCSORGFRONT
 10
0.0
 20
0.0
 30
0.0
  9
$PUCSORGBACK
 10
0.0
 20
0.0
 30
0.0
  9
$USERI1
 70
     0
  9
$USERI2
 70
     0
  9
$USERI3
 70
     0
  9
$USERI4
 70
     0
  9
$USERI5
 70
     0
  9
$USERR1
 40
0.0
  9
$USERR2
 40
0.0
  9
$USERR3
 40
0.0
  9
$USERR4
 40
0.0
  9
$USERR5
 40
0.0
  9
$WORLDVIEW
 70
     1
  9
$SHADEDGE
 70
     3
  9
$SHADEDIF
 70
    70
  9
$TILEMODE
 70
     1
  9
$MAXACTVP
 70
    64
  9
$PINSBASE
 10
0.0
 20
0.0
 30
0.0
  9
$PLIMCHECK
 70
     0
  9
$PEXTMIN
 10
1.049999952316284
 20
0.7999999523162842
 30
0.0
  9
$PEXTMAX
 10
9.449999570846559
 20
7.199999570846558
 30
0.0
  9
$PLIMMIN
 10
-0.2500002402958907
 20
-0.2499999962453767
  9
$PLIMMAX
 10
10.74999951940822
 20
8.249999763458733
  9
$UNITMODE
 70
     0
  9
$VISRETAIN
 70
     1
  9
$PLINEGEN
 70
     0
  9
$PSLTSCALE
 70
     1
  9
$TREEDEPTH
 70
  3020
  9
$CMLSTYLE
  2
Standard
  9
$CMLJUST
 70
     0
  9
$CMLSCALE
 40
1.0
  9
$PROXYGRAPHICS
 70
     1
  9
$MEASUREMENT
 70
     0
  9
$CELWEIGHT
370
    -1
  9
$ENDCAPS
280
     0
  9
$JOINSTYLE
280
     0
  9
$LWDISPLAY
290
     0
  9
$INSUNITS
 70
     1
  9
$HYPERLINKBASE
  1

  9
$STYLESHEET
  1

  9
$XEDIT
290
     1
  9
$CEPSNTYPE
380
     0
  9
$PSTYLEMODE
290
     1
  9
$FINGERPRINTGUID
  2
{BEB78063-58DF-4977-89CF-F00C96BB8AAF}
  9
$VERSIONGUID
  2
{ACBC4B9A-490A-41F5-BA61-A6505A8674CB}
  9
$EXTNAMES
290
     1
  9
$PSVPSCALE
 40
0.0
  9
$OLESTARTUP
290
     0
  9
$SORTENTS
280
   127
  9
$INDEXCTL
280
     0
  9
$HIDETEXT
280
     1
  9
$XCLIPFRAME
280
     2
  9
$HALOGAP
280
     0
  9
$OBSCOLOR
 70
   257
  9
$OBSLTYPE
280
     0
  9
$INTERSECTIONDISPLAY
280
     0
  9
$INTERSECTIONCOLOR
 70
   257
  9
$DIMASSOC
280
     2
  9
$PROJECTNAME
  1

  9
$CAMERADISPLAY
290
     0
  9
$LENSLENGTH
 40
50.0
  9
$CAMERAHEIGHT
 40
0.0
  9
$STEPSPERSEC
 40
2.0
  9
$STEPSIZE
 40
6.0
  9
$3DDWFPREC
 40
2.0
  9
$PSOLWIDTH
 40
0.25
  9
$PSOLHEIGHT
 40
4.0
  9
$LOFTANG1
 40
1.570796326794896
  9
$LOFTANG2
 40
1.570796326794896
  9
$LOFTMAG1
 40
0.0
  9
$LOFTMAG2
 40
0.0
  9
$LOFTPARAM
 70
     7
  9
$LOFTNORMALS
280
     1
  9
$LATITUDE
 40
37.795
  9
$LONGITUDE
 40
-122.394
  9
$NORTHDIRECTION
 40
0.0
  9
$TIMEZONE
 70
 -8000
  9
$LIGHTGLYPHDISPLAY
280
     1
  9
$TILEMODELIGHTSYNCH
280
     1
  9
$CMATERIAL
347
96
  9
$SOLIDHIST
280
     0
  9
$SHOWHIST
280
     1
  9
$DWFFRAME
280
     2
  9
$DGNFRAME
280
     0
  9
$REALWORLDSCALE
290
     1
  9
$INTERFERECOLOR
 62
     1
  9
$INTERFEREOBJVS
345
A3
  9
$INTERFEREVPVS
346
A0
  9
$CSHADOW
280
     0
  9
$SHADOWPLANELOCATION
 40
0.0
  0
ENDSEC
  0
SECTION
  2
CLASSES
  0
CLASS
  1
ACDBDICTIONARYWDFLT
  2
AcDbDictionaryWithDefault
  3
ObjectDBX Classes
 90
        0
 91
        1
280
     0
281
     0
  0
CLASS
  1
DICTIONARYVAR
  2
AcDbDictionaryVar
  3
ObjectDBX Classes
 90
        0
 91
       11
280
     0
281
     0
  0
CLASS
  1
TABLESTYLE
  2
AcDbTableStyle
  3
ObjectDBX Classes
 90
     4095
 91
        1
280
     0
281
     0
  0
CLASS
  1
MATERIAL
  2
AcDbMaterial
  3
ObjectDBX Classes
 90
     1153
 91
        3
280
     0
281
     0
  0
CLASS
  1
VISUALSTYLE
  2
AcDbVisualStyle
  3
ObjectDBX Classes
 90
     4095
 91
       25
280
     0
281
     0
  0
CLASS
  1
SCALE
  2
AcDbScale
  3
ObjectDBX Classes
 90
     1153
 91
       33
280
     0
281
     0
  0
CLASS
  1
MLEADERSTYLE
  2
AcDbMLeaderStyle
  3
ACDB_MLEADERSTYLE_CLASS
 90
     4095
 91
        2
280
     0
281
     0
  0
CLASS
  1
CELLSTYLEMAP
  2
AcDbCellStyleMap
  3
ObjectDBX Classes
 90
     1152
 91
        1
280
     0
281
     0
  0
CLASS
  1
EXACXREFPANELOBJECT
  2
ExAcXREFPanelObject
  3
EXAC_ESW
 90
     1025
 91
        0
280
     0
281
     0
  0
CLASS
  1
NPOCOLLECTION
  2
AcDbImpNonPersistentObjectsCollection
  3
ObjectDBX Classes
 90
     1153
 91
        0
280
     0
281
     0
  0
CLASS
  1
LAYER_INDEX
  2
AcDbLayerIndex
  3
ObjectDBX Classes
 90
        0
 91
        0
280
     0
281
     0
  0
CLASS
  1
SPATIAL_INDEX
  2
AcDbSpatialIndex
  3
ObjectDBX Classes
 90
        0
 91
        0
280
     0
281
     0
  0
CLASS
  1
IDBUFFER
  2
AcDbIdBuffer
  3
ObjectDBX Classes
 90
        0
 91
        0
280
     0
281
     0
  0
CLASS
  1
ACDBSECTIONVIEWSTYLE
  2
AcDbSectionViewStyle
  3
ObjectDBX Classes
 90
     1025
 91
        1
280
     0
281
     0
  0
CLASS
  1
ACDBDETAILVIEWSTYLE
  2
AcDbDetailViewStyle
  3
ObjectDBX Classes
 90
     1025
 91
        1
280
     0
281
     0
  0
CLASS
  1
SORTENTSTABLE
  2
AcDbSortentsTable
  3
ObjectDBX Classes
 90
        0
 91
        1
280
     0
281
     0
  0
CLASS
  1
DIMASSOC
  2
AcDbDimAssoc
  3
"AcDbDimAssoc|Product Desc:     AcDim ARX App For Dimension|Company:          Autodesk, Inc.|WEB Address:      www.autodesk.com"
 90
        0
 91
        6
280
     0
281
     0
  0
CLASS
  1
ACDB_ALDIMOBJECTCONTEXTDATA_CLASS
  2
AcDbAlignedDimensionObjectContextData
  3
ObjectDBX Classes
 90
     1153
 91
        0
280
     0
281
     0
  0
ENDSEC
  0
SECTION
  2
TABLES
  0
TABLE
  2
VPORT
  5
8
330
0
100
AcDbSymbolTable
 70
     1
  0
VPORT
  5
94
330
8
100
AcDbSymbolTableRecord
100
AcDbViewportTableRecord
  2
*Active
 70
     0
 10
0.0
 20
0.0
 11
1.0
 21
1.0
 12
1.203094504777219
 22
1.003601091103163
 13
0.0
 23
0.0
 14
0.5
 24
0.5
 15
0.5
 25
0.5
 16
0.0
 26
0.0
 36
1.0
 17
0.0
 27
0.0
 37
0.0
 40
0.5464252573783496
 41
2.300877893056664
 42
50.0
 43
0.0
 44
0.0
 50
0.0
 51
0.0
 71
     0
 72
  1000
 73
     1
 74
     3
 75
     0
 76
     0
 77
     0
 78
     0
281
     0
 65
     1
110
0.0
120
0.0
130
0.0
111
1.0
121
0.0
131
0.0
112
0.0
122
1.0
132
0.0
 79
     0
146
0.0
348
9F
 60
     3
 61
     5
292
     1
282
     1
141
0.0
142
0.0
 63
   250
421
  3355443
1001
ACAD_NAV_VCDISPLAY
1070
     3
  0
ENDTAB
  0
TABLE
  2
LTYPE
  5
5
330
0
100
AcDbSymbolTable
 70
     2
  0
LTYPE
  5
14
330
5
100
AcDbSymbolTableRecord
100
AcDbLinetypeTableRecord
  2
ByBlock
 70
     0
  3

 72
    65
 73
     0
 40
0.0
  0
LTYPE
  5
15
330
5
100
AcDbSymbolTableRecord
100
AcDbLinetypeTableRecord
  2
ByLayer
 70
     0
  3

 72
    65
 73
     0
 40
0.0
  0
LTYPE
  5
16
330
5
100
AcDbSymbolTableRecord
100
AcDbLinetypeTableRecord
  2
Continuous
 70
     0
  3
Solid line
 72
    65
 73
     0
 40
0.0
  0
LTYPE
  5
224
330
5
100
AcDbSymbolTableRecord
100
AcDbLinetypeTableRecord
  2
DASHED
 70
     0
  3
Dashed __ __ __ __ __ __ __ __ __ __ __ __ __ _
 72
    65
 73
     2
 40
0.2067
 49
0.1654
 74
     0
 49
-0.0413
 74
     0
  0
ENDTAB
  0
TABLE
  2
LAYER
  5
2
102
{ACAD_XDICTIONARY
360
18E
102
}
330
0
100
AcDbSymbolTable
 70
    13
  0
LAYER
  5
10
102
{ACAD_XDICTIONARY
360
E6
102
}
330
2
100
AcDbSymbolTableRecord
100
AcDbLayerTableRecord
  2
0
 70
     0
 62
     7
  6
Continuous
370
    -3
390
F
347
98
348
0
  0
LAYER
  5
225
102
{ACAD_XDICTIONARY
360
226
102
}
330
2
100
AcDbSymbolTableRecord
100
AcDbLayerTableRecord
  2
Notes
 70
     0
 62
   253
  6
Continuous
370
    -3
390
F
347
98
348
0
1001
AcAecLayerStandard
1000

1000

  0
LAYER
  5
227
102
{ACAD_XDICTIONARY
360
228
102
}
330
2
100
AcDbSymbolTableRecord
100
AcDbLayerTableRecord
  2
M1-M2_NPTH
 70
     0
 62
    92
  6
Continuous
370
    -3
390
F
347
98
348
0
  0
LAYER
  5
229
102
{ACAD_XDICTIONARY
360
22A
102
}
330
2
100
AcDbSymbolTableRecord
100
AcDbLayerTableRecord
  2
M1_P
 70
     0
 62
     5
  6
Continuous
370
    -3
390
F
347
98
348
0
  0
LAYER
  5
22B
102
{ACAD_XDICTIONARY
360
22C
102
}
330
2
100
AcDbSymbolTableRecord
100
AcDbLayerTableRecord
  2
C1
 70
     0
 62
    94
  6
Continuous
370
    -3
390
F
347
98
348
0
  0
LAYER
  5
22D
102
{ACAD_XDICTIONARY
360
22E
102
}
330
2
100
AcDbSymbolTableRecord
100
AcDbLayerTableRecord
  2
L1N
 70
     0
 62
     1
  6
Continuous
370
    -3
390
F
347
98
348
0
  0
LAYER
  5
22F
102
{ACAD_XDICTIONARY
360
230
102
}
330
2
100
AcDbSymbolTableRecord
100
AcDbLayerTableRecord
  2
PREPLATE
 70
     0
 62
     6
  6
Continuous
370
    -3
390
F
347
98
348
0
  0
LAYER
  5
231
102
{ACAD_XDICTIONARY
360
232
102
}
330
2
100
AcDbSymbolTableRecord
100
AcDbLayerTableRecord
  2
Saw Cut
 70
     0
 62
     2
  6
Continuous
370
    -3
390
F
347
98
348
0
1001
AcAecLayerStandard
1000

1000

  0
LAYER
  5
233
330
2
100
AcDbSymbolTableRecord
100
AcDbLayerTableRecord
  2
Hidden Narrow (ANSI)
 70
     0
 62
     7
  6
DASHED
370
    25
390
F
347
98
348
0
  0
LAYER
  5
234
330
2
100
AcDbSymbolTableRecord
100
AcDbLayerTableRecord
  2
Visible (ANSI)
 70
     0
 62
     7
  6
Continuous
370
    50
390
F
347
98
348
0
  0
LAYER
  5
235
102
{ACAD_XDICTIONARY
360
236
102
}
330
2
100
AcDbSymbolTableRecord
100
AcDbLayerTableRecord
  2
M_02_1_P
 70
     0
 62
    85
  6
Continuous
370
    -3
390
F
347
98
348
0
1001
AcAecLayerStandard
1000

1000

  0
LAYER
  5
237
102
{ACAD_XDICTIONARY
360
238
102
}
330
2
100
AcDbSymbolTableRecord
100
AcDbLayerTableRecord
  2
CERAMIC
 70
     0
 62
     1
  6
Continuous
370
    -3
390
F
347
98
348
0
  0
LAYER
  5
788
330
2
100
AcDbSymbolTableRecord
100
AcDbLayerTableRecord
  2
Defpoints
 70
     0
 62
     7
  6
Continuous
290
     0
370
    -3
390
F
347
98
348
0
  0
ENDTAB
  0
TABLE
  2
STYLE
  5
3
330
0
100
AcDbSymbolTable
 70
     2
  0
STYLE
  5
11
330
3
100
AcDbSymbolTableRecord
100
AcDbTextStyleTableRecord
  2
Standard
 70
     0
 40
0.0
 41
1.0
 50
0.0
 71
     0
 42
0.2
  3
arial.ttf
  4

1001
ACAD
1000
Arial
1071
       34
  0
STYLE
  5
DC
330
3
100
AcDbSymbolTableRecord
100
AcDbTextStyleTableRecord
  2
Annotative
 70
     0
 40
0.0
 41
1.0
 50
0.0
 71
     0
 42
0.2
  3
arial.ttf
  4

1001
AcadAnnotative
1000
AnnotativeData
1002
{
1070
     1
1070
     1
1002
}
1001
ACAD
1000
Arial
1071
       34
  0
ENDTAB
  0
TABLE
  2
VIEW
  5
6
330
0
100
AcDbSymbolTable
 70
     3
  0
ENDTAB
  0
TABLE
  2
UCS
  5
7
330
0
100
AcDbSymbolTable
 70
     0
  0
ENDTAB
  0
TABLE
  2
APPID
  5
9
330
0
100
AcDbSymbolTable
 70
    15
  0
APPID
  5
12
330
9
100
AcDbSymbolTableRecord
100
AcDbRegAppTableRecord
  2
ACAD
 70
     0
  0
APPID
  5
DD
330
9
100
AcDbSymbolTableRecord
100
AcDbRegAppTableRecord
  2
AcadAnnoPO
 70
     0
  0
APPID
  5
DE
330
9
100
AcDbSymbolTableRecord
100
AcDbRegAppTableRecord
  2
AcadAnnotative
 70
     0
  0
APPID
  5
DF
330
9
100
AcDbSymbolTableRecord
100
AcDbRegAppTableRecord
  2
ACAD_DSTYLE_DIMJAG
 70
     0
  0
APPID
  5
E0
330
9
100
AcDbSymbolTableRecord
100
AcDbRegAppTableRecord
  2
ACAD_DSTYLE_DIMTALN
 70
     0
  0
APPID
  5
107
330
9
100
AcDbSymbolTableRecord
100
AcDbRegAppTableRecord
  2
ACAD_MLEADERVER
 70
     0
  0
APPID
  5
1A6
330
9
100
AcDbSymbolTableRecord
100
AcDbRegAppTableRecord
  2
ACAD_NAV_VCDISPLAY
 70
     0
  0
APPID
  5
239
330
9
100
AcDbSymbolTableRecord
100
AcDbRegAppTableRecord
  2
AcAecLayerStandard
 70
     0
  0
APPID
  5
23A
330
9
100
AcDbSymbolTableRecord
100
AcDbRegAppTableRecord
  2
ACAD_PSEXT
 70
     0
  0
APPID
  5
85C
330
9
100
AcDbSymbolTableRecord
100
AcDbRegAppTableRecord
  2
ACAD_DSTYLE_DIMRADIAL_EXTENSION
 70
     0
  0
APPID
  5
975
330
9
100
AcDbSymbolTableRecord
100
AcDbRegAppTableRecord
  2
AcadAnnoMonitorAlertIconDisabled
 70
     0
  0
APPID
  5
976
330
9
100
AcDbSymbolTableRecord
100
AcDbRegAppTableRecord
  2
ACAD_EXEMPT_FROM_CAD_STANDARDS
 70
     0
  0
APPID
  5
A39
330
9
100
AcDbSymbolTableRecord
100
AcDbRegAppTableRecord
  2
ACAD_DSTYLE_DIMBREAK
 70
     0
  0
APPID
  5
B04
330
9
100
AcDbSymbolTableRecord
100
AcDbRegAppTableRecord
  2
GradientColor1ACI
 70
     0
  0
APPID
  5
B05
330
9
100
AcDbSymbolTableRecord
100
AcDbRegAppTableRecord
  2
GradientColor2ACI
 70
     0
  0
ENDTAB
  0
TABLE
  2
DIMSTYLE
  5
A
330
0
100
AcDbSymbolTable
 70
     3
100
AcDbDimStyleTable
 71
     3
340
A3A
340
27
340
E1
  0
DIMSTYLE
105
27
102
{ACAD_REACTORS
330
7AC
330
840
330
8E6
330
9C6
330
94E
102
}
330
A
100
AcDbSymbolTableRecord
100
AcDbDimStyleTableRecord
  2
Standard
 70
     0
 41
0.012
 42
0.0075
 44
0.005
140
0.012
141
0.0
147
0.0075
271
     3
272
     3
340
11
1001
ACAD_DSTYLE_DIMJAG
1070
   388
1040
1.5
1001
ACAD_DSTYLE_DIMTALN
1070
   392
1070
     0
  0
DIMSTYLE
105
E1
330
A
100
AcDbSymbolTableRecord
100
AcDbDimStyleTableRecord
  2
Annotative
 70
     0
 40
0.0
340
11
1001
AcadAnnotative
1000
AnnotativeData
1002
{
1070
     1
1070
     1
1002
}
1001
ACAD_DSTYLE_DIMJAG
1070
   388
1040
1.5
1001
ACAD_DSTYLE_DIMTALN
1070
   392
1070
     0
  0
DIMSTYLE
105
A3A
102
{ACAD_REACTORS
330
C8A
330
CBA
330
CFB
102
}
330
A
100
AcDbSymbolTableRecord
100
AcDbDimStyleTableRecord
  2
Dan's Dim Style
 70
     0
 41
0.012
 42
0.0075
 44
0.005
140
0.012
141
0.0
147
0.0075
271
     3
272
     3
340
11
1001
ACAD_DSTYLE_DIMBREAK
1070
   391
1040
0.125
1001
ACAD_DSTYLE_DIMJAG
1070
   388
1040
1.5
1001
ACAD_DSTYLE_DIMTALN
1070
   392
1070
     0
  0
ENDTAB
  0
TABLE
  2
BLOCK_RECORD
  5
1
330
0
100
AcDbSymbolTable
 70
    10
  0
BLOCK_RECORD
  5
1F
102
{ACAD_XDICTIONARY
360
15D
102
}
330
1
100
AcDbSymbolTableRecord
100
AcDbBlockTableRecord
  2
*Model_Space
340
22
 70
     0
280
     1
281
     0
  0
BLOCK_RECORD
  5
58
330
1
100
AcDbSymbolTableRecord
100
AcDbBlockTableRecord
  2
*Paper_Space
340
59
 70
     0
280
     1
281
     0
  0
BLOCK_RECORD
  5
5D
330
1
100
AcDbSymbolTableRecord
100
AcDbBlockTableRecord
  2
*Paper_Space0
340
5E
 70
     0
280
     1
281
     0
  0
BLOCK_RECORD
  5
1E9
330
1
100
AcDbSymbolTableRecord
100
AcDbBlockTableRecord
  2
fixture
340
0
310
2800000020000000200000000100080000000000000400000000000000000000000000000000000000000000000080000080000000808000800000008000800080800000C0C0C000C0DCC000F0CAA6000020400000206000002080000020A0000020C0000020E00000400000004020000040400000406000004080000040A0
310
000040C0000040E00000600000006020000060400000606000006080000060A0000060C0000060E00000800000008020000080400000806000008080000080A0000080C0000080E00000A0000000A0200000A0400000A0600000A0800000A0A00000A0C00000A0E00000C0000000C0200000C0400000C0600000C0800000C0
310
A00000C0C00000C0E00000E0000000E0200000E0400000E0600000E0800000E0A00000E0C00000E0E00040000000400020004000400040006000400080004000A0004000C0004000E00040200000402020004020400040206000402080004020A0004020C0004020E000404000004040200040404000404060004040800040
310
40A0004040C0004040E00040600000406020004060400040606000406080004060A0004060C0004060E00040800000408020004080400040806000408080004080A0004080C0004080E00040A0000040A0200040A0400040A0600040A0800040A0A00040A0C00040A0E00040C0000040C0200040C0400040C0600040C08000
310
40C0A00040C0C00040C0E00040E0000040E0200040E0400040E0600040E0800040E0A00040E0C00040E0E00080000000800020008000400080006000800080008000A0008000C0008000E00080200000802020008020400080206000802080008020A0008020C0008020E00080400000804020008040400080406000804080
310
008040A0008040C0008040E00080600000806020008060400080606000806080008060A0008060C0008060E00080800000808020008080400080806000808080008080A0008080C0008080E00080A0000080A0200080A0400080A0600080A0800080A0A00080A0C00080A0E00080C0000080C0200080C0400080C0600080C0
310
800080C0A00080C0C00080C0E00080E0000080E0200080E0400080E0600080E0800080E0A00080E0C00080E0E000C0000000C0002000C0004000C0006000C0008000C000A000C000C000C000E000C0200000C0202000C0204000C0206000C0208000C020A000C020C000C020E000C0400000C0402000C0404000C0406000C0
310
408000C040A000C040C000C040E000C0600000C0602000C0604000C0606000C0608000C060A000C060C000C060E000C0800000C0802000C0804000C0806000C0808000C080A000C080C000C080E000C0A00000C0A02000C0A04000C0A06000C0A08000C0A0A000C0A0C000C0A0E000C0C00000C0C02000C0C04000C0C06000
310
C0C08000C0C0A000F0FBFF00A4A0A000808080000000FF0000FF000000FFFF00FF000000FF00FF00FFFF0000FFFFFF0000000000000000000000000000000000000000000000000000000000000000000000000000000000000000000000000000000000000000000000000000000000000000000000000000000000000000
310
0000000000000000000000000000000000000000000000000000000000000000000000000000000000000000000000000000FFFFFFFFFFFFFFFFFFFFFFFFFFFFFFFFFFFFFFFFFFFFFFFFFFFFFFFFFFFF0000FF0000000000FF00000000FF0000FF000000FF00000000FF0000000000FF0000FF0000FFFF00FF00000000FF00
310
00FF000000FF00000000FF00FFFF0000FF0000FF0000FFFF00FFFFFFFFFFFF000000000000FFFFFFFFFFFF00FFFF0000FF0000FF00000000000000000000000000000000000000000000000000000000FF0000FFFFFFFFFF0000000000000000000000000000000000000000FFFFFFFFFF0000FF000000FF00000000000000
310
00000000000000000000000000FF000000FF0000FF000000FF0000000000000000000000000000000000000000FF000000FF0000FF000000FF0000000000000000000000000000000000000000FF000000FF0000FF000000FF0000000000000000000000000000000000000000FF000000FF0000FF0000FFFF000000000000
310
0000000000000000000000000000FFFF0000FF0000FFFFFFFF00000000000000000000000000000000000000000000FFFFFFFF0000FF00000000000000000000000000000000000000000000000000000000FF0000FF00000000000000000000000000000000000000000000000000000000FF0000FF000000000000000000
310
00000000000000000000000000000000000000FF0000FF00000000000000000000000000000000000000000000000000000000FF0000FF00000000000000000000000000000000000000000000000000000000FF0000FF00000000000000000000000000000000000000000000000000000000FF0000FF0000000000000000
310
0000000000000000000000000000000000000000FF0000FF00000000000000000000000000000000000000000000000000000000FF0000FF0000FFFF00FFFFFFFFFFFF0000FFFF0000FFFFFFFFFFFF00FFFF0000FF0000FF0000FFFF00FF00000000FF0000FFFF0000FF00000000FF00FFFF0000FF0000FF0000000000FF00
310
000000FF000000000000FF00000000FF0000000000FF0000FFFFFFFFFFFFFFFFFFFFFFFFFFFFFFFFFFFFFFFFFFFFFFFFFFFFFFFFFFFF00000000000000000000000000000000000000000000000000000000000000000000000000000000000000000000000000000000000000000000000000000000000000000000000000
310
0000000000000000000000000000000000000000000000000000000000000000000000000000000000000000000000000000000000000000
 70
     1
280
     1
281
     0
  0
BLOCK_RECORD
  5
7AD
330
1
100
AcDbSymbolTableRecord
100
AcDbBlockTableRecord
  2
*D2
340
0
 70
     0
280
     1
281
     0
  0
BLOCK_RECORD
  5
841
330
1
100
AcDbSymbolTableRecord
100
AcDbBlockTableRecord
  2
*D3
340
0
 70
     0
280
     1
281
     0
  0
BLOCK_RECORD
  5
8E7
330
1
100
AcDbSymbolTableRecord
100
AcDbBlockTableRecord
  2
*D4
340
0
 70
     0
280
     1
281
     0
  0
BLOCK_RECORD
  5
94F
330
1
100
AcDbSymbolTableRecord
100
AcDbBlockTableRecord
  2
*D5
340
0
 70
     0
280
     1
281
     0
  0
BLOCK_RECORD
  5
9C7
330
1
100
AcDbSymbolTableRecord
100
AcDbBlockTableRecord
  2
*D6
340
0
 70
     0
280
     1
281
     0
  0
BLOCK_RECORD
  5
C8B
330
1
100
AcDbSymbolTableRecord
100
AcDbBlockTableRecord
  2
*D7
340
0
 70
     0
280
     1
281
     0
  0
BLOCK_RECORD
  5
CBB
330
1
100
AcDbSymbolTableRecord
100
AcDbBlockTableRecord
  2
*D8
340
0
 70
     0
280
     1
281
     0
  0
BLOCK_RECORD
  5
CFC
330
1
100
AcDbSymbolTableRecord
100
AcDbBlockTableRecord
  2
*D9
340
0
 70
     0
280
     1
281
     0
  0
ENDTAB
  0
ENDSEC
  0
SECTION
  2
BLOCKS
  0
BLOCK
  5
20
330
1F
100
AcDbEntity
  8
0
100
AcDbBlockBegin
  2
*Model_Space
 70
     0
 10
0.0
 20
0.0
 30
0.0
  3
*Model_Space
  1

  0
ENDBLK
  5
21
330
1F
100
AcDbEntity
  8
0
100
AcDbBlockEnd
  0
BLOCK
  5
5A
330
58
100
AcDbEntity
 67
     1
  8
0
100
AcDbBlockBegin
  2
*Paper_Space
 70
     0
 10
0.0
 20
0.0
 30
0.0
  3
*Paper_Space
  1

  0
ENDBLK
  5
5B
330
58
100
AcDbEntity
 67
     1
  8
0
100
AcDbBlockEnd
  0
BLOCK
  5
5F
330
5D
100
AcDbEntity
 67
     1
  8
0
100
AcDbBlockBegin
  2
*Paper_Space0
 70
     0
 10
0.0
 20
0.0
 30
0.0
  3
*Paper_Space0
  1

  0
ENDBLK
  5
60
330
5D
100
AcDbEntity
 67
     1
  8
0
100
AcDbBlockEnd
  0
BLOCK
  5
1EA
330
1E9
100
AcDbEntity
  8
0
100
AcDbBlockBegin
  2
fixture
 70
     0
 10
0.0
 20
0.0
 30
0.0
  3
fixture
  1

  0
LINE
  5
1EB
330
1E9
100
AcDbEntity
  8
Visible (ANSI)
100
AcDbLine
 10
-0.240000000000002
 20
0.2299999999999898
 30
0.0
 11
-0.240000000000002
 21
0.6799999999999926
 31
0.0
  0
LINE
  5
1EC
330
1E9
100
AcDbEntity
  8
Visible (ANSI)
100
AcDbLine
 10
1.224999999999994
 20
1.779999999999986
 30
0.0
 11
1.674999999999997
 21
1.779999999999986
 31
0.0
  0
LINE
  5
1ED
330
1E9
100
AcDbEntity
  8
Visible (ANSI)
100
AcDbLine
 10
0.6949999999999932
 20
-0.25
 30
0.0
 11
0.2449999999999974
 21
-0.25
 31
0.0
  0
LINE
  5
1EE
330
1E9
100
AcDbEntity
  8
Visible (ANSI)
100
AcDbLine
 10
0.2449999999999974
 20
1.779999999999986
 30
0.0
 11
0.6949999999999932
 21
1.779999999999986
 31
0.0
  0
LINE
  5
1EF
330
1E9
100
AcDbEntity
  8
Visible (ANSI)
100
AcDbLine
 10
2.159999999999996
 20
0.6801193897179161
 30
0.0
 11
2.159999999999996
 21
0.2301193897179274
 31
0.0
  0
LINE
  5
1F0
330
1E9
100
AcDbEntity
  8
Visible (ANSI)
100
AcDbLine
 10
1.674999999999997
 20
-0.25
 30
0.0
 11
1.224999999999994
 21
-0.25
 31
0.0
  0
LINE
  5
1F1
330
1E9
100
AcDbEntity
  8
Visible (ANSI)
100
AcDbLine
 10
-0.240000000000002
 20
0.6799999999999926
 30
0.0
 11
-0.240000000000002
 21
1.779999999999986
 31
0.0
  0
LINE
  5
1F2
330
1E9
100
AcDbEntity
  8
Visible (ANSI)
100
AcDbLine
 10
-0.240000000000002
 20
-0.25
 30
0.0
 11
-0.240000000000002
 21
0.2299999999999898
 31
0.0
  0
LINE
  5
1F3
330
1E9
100
AcDbEntity
  8
Visible (ANSI)
100
AcDbLine
 10
1.674999999999997
 20
1.779999999999986
 30
0.0
 11
2.159999999999996
 21
1.779999999999986
 31
0.0
  0
LINE
  5
1F4
330
1E9
100
AcDbEntity
  8
Visible (ANSI)
100
AcDbLine
 10
-0.240000000000002
 20
1.779999999999986
 30
0.0
 11
0.2449999999999974
 21
1.779999999999986
 31
0.0
  0
LINE
  5
1F5
330
1E9
100
AcDbEntity
  8
Visible (ANSI)
100
AcDbLine
 10
0.6949999999999932
 20
1.779999999999986
 30
0.0
 11
1.224999999999994
 21
1.779999999999986
 31
0.0
  0
LINE
  5
1F6
330
1E9
100
AcDbEntity
  8
Visible (ANSI)
100
AcDbLine
 10
2.159999999999996
 20
0.2301193897179274
 30
0.0
 11
2.159999999999996
 21
-0.25
 31
0.0
  0
LINE
  5
1F7
330
1E9
100
AcDbEntity
  8
Visible (ANSI)
100
AcDbLine
 10
2.159999999999996
 20
1.779999999999986
 30
0.0
 11
2.159999999999996
 21
0.6801193897179161
 31
0.0
  0
LINE
  5
1F8
330
1E9
100
AcDbEntity
  8
Visible (ANSI)
100
AcDbLine
 10
0.2449999999999974
 20
-0.25
 30
0.0
 11
-0.240000000000002
 21
-0.25
 31
0.0
  0
LINE
  5
1F9
330
1E9
100
AcDbEntity
  8
Visible (ANSI)
100
AcDbLine
 10
2.159999999999996
 20
-0.25
 30
0.0
 11
1.674999999999997
 21
-0.25
 31
0.0
  0
LINE
  5
1FA
330
1E9
100
AcDbEntity
  8
Visible (ANSI)
100
AcDbLine
 10
1.224999999999994
 20
-0.25
 30
0.0
 11
0.6949999999999932
 21
-0.25
 31
0.0
  0
LINE
  5
1FB
330
1E9
100
AcDbEntity
  8
Visible (ANSI)
100
AcDbLine
 10
-0.240000000000002
 20
0.2299999999999898
 30
0.0
 11
0.009999999999998
 21
0.2299999999999898
 31
0.0
  0
CIRCLE
  5
1FC
330
1E9
100
AcDbEntity
  8
Visible (ANSI)
100
AcDbCircle
 10
0.9600000000000008
 20
1.549999999999997
 30
0.0
 40
0.03
  0
CIRCLE
  5
1FD
330
1E9
100
AcDbEntity
  8
Visible (ANSI)
100
AcDbCircle
 10
0.9099999999999965
 20
-0.0700000000000074
 30
0.0
 40
0.03
  0
CIRCLE
  5
1FE
330
1E9
100
AcDbEntity
  8
Visible (ANSI)
100
AcDbCircle
 10
0.0
 20
0.0
 30
0.0
 40
0.0425
  0
CIRCLE
  5
1FF
330
1E9
100
AcDbEntity
  8
Visible (ANSI)
100
AcDbCircle
 10
1.919999999999994
 20
1.530000000000001
 30
0.0
 40
0.0425
  0
CIRCLE
  5
200
330
1E9
100
AcDbEntity
  8
Visible (ANSI)
100
AcDbCircle
 10
1.919999999999994
 20
0.0
 30
0.0
 40
0.0425
  0
CIRCLE
  5
201
330
1E9
100
AcDbEntity
  8
Visible (ANSI)
100
AcDbCircle
 10
0.0
 20
1.530000000000001
 30
0.0
 40
0.0425
  0
LINE
  5
202
330
1E9
100
AcDbEntity
  8
Visible (ANSI)
100
AcDbLine
 10
2.159999999999996
 20
0.2301193897179274
 30
0.0
 11
1.909999999999996
 21
0.2301193897179274
 31
0.0
  0
ARC
  5
203
330
1E9
100
AcDbEntity
  8
Visible (ANSI)
100
AcDbCircle
 10
1.909999999999996
 20
0.2801193897179246
 30
0.0
 40
0.050000000000001
100
AcDbArc
 50
180.0
 51
270.0
  0
LINE
  5
204
330
1E9
100
AcDbEntity
  8
Visible (ANSI)
100
AcDbLine
 10
1.859999999999992
 20
0.2801193897179246
 30
0.0
 11
1.859999999999992
 21
0.630119389717919
 31
0.0
  0
ARC
  5
205
330
1E9
100
AcDbEntity
  8
Visible (ANSI)
100
AcDbCircle
 10
1.909999999999996
 20
0.630119389717919
 30
0.0
 40
0.0499999999999982
100
AcDbArc
 50
90.0
 51
180.0
  0
LINE
  5
206
330
1E9
100
AcDbEntity
  8
Visible (ANSI)
100
AcDbLine
 10
2.159999999999996
 20
0.6801193897179161
 30
0.0
 11
1.909999999999996
 21
0.6801193897179161
 31
0.0
  0
LINE
  5
207
330
1E9
100
AcDbEntity
  8
Visible (ANSI)
100
AcDbLine
 10
1.674999999999997
 20
1.779999999999986
 30
0.0
 11
1.67499999999999
 21
1.530000000000001
 31
0.0
  0
ARC
  5
208
330
1E9
100
AcDbEntity
  8
Visible (ANSI)
100
AcDbCircle
 10
1.625
 20
1.530000000000001
 30
0.0
 40
0.0499999999999982
100
AcDbArc
 50
270.0
 51
0.0
  0
LINE
  5
209
330
1E9
100
AcDbEntity
  8
Visible (ANSI)
100
AcDbLine
 10
1.625
 20
1.479999999999989
 30
0.0
 11
1.274999999999998
 21
1.479999999999989
 31
0.0
  0
ARC
  5
20A
330
1E9
100
AcDbEntity
  8
Visible (ANSI)
100
AcDbCircle
 10
1.274999999999991
 20
1.529999999999986
 30
0.0
 40
0.0499999999999898
100
AcDbArc
 50
180.0
 51
270.0000000000094
  0
LINE
  5
20B
330
1E9
100
AcDbEntity
  8
Visible (ANSI)
100
AcDbLine
 10
1.224999999999994
 20
1.530000000000001
 30
0.0
 11
1.224999999999994
 21
1.779999999999986
 31
0.0
  0
LINE
  5
20C
330
1E9
100
AcDbEntity
  8
Visible (ANSI)
100
AcDbLine
 10
0.6949999999999932
 20
1.779999999999986
 30
0.0
 11
0.6949999999999932
 21
1.530000000000001
 31
0.0
  0
ARC
  5
20D
330
1E9
100
AcDbEntity
  8
Visible (ANSI)
100
AcDbCircle
 10
0.6449999999999961
 20
1.530000000000001
 30
0.0
 40
0.0500000000000038
100
AcDbArc
 50
270.0
 51
0.0
  0
LINE
  5
20E
330
1E9
100
AcDbEntity
  8
Visible (ANSI)
100
AcDbLine
 10
0.6449999999999961
 20
1.479999999999989
 30
0.0
 11
0.2950000000000017
 21
1.479999999999989
 31
0.0
  0
ARC
  5
20F
330
1E9
100
AcDbEntity
  8
Visible (ANSI)
100
AcDbCircle
 10
0.2949999999999804
 20
1.529999999999972
 30
0.0
 40
0.0499999999999758
100
AcDbArc
 50
180.0
 51
270.0000000000256
  0
LINE
  5
210
330
1E9
100
AcDbEntity
  8
Visible (ANSI)
100
AcDbLine
 10
0.2449999999999974
 20
1.530000000000001
 30
0.0
 11
0.2449999999999974
 21
1.779999999999986
 31
0.0
  0
LINE
  5
211
330
1E9
100
AcDbEntity
  8
Visible (ANSI)
100
AcDbLine
 10
-0.240000000000002
 20
0.6799999999999926
 30
0.0
 11
0.0099999999999909
 21
0.6799999999999926
 31
0.0
  0
ARC
  5
212
330
1E9
100
AcDbEntity
  8
Visible (ANSI)
100
AcDbCircle
 10
0.0100000000000122
 20
0.6300000000000097
 30
0.0
 40
0.0499999999999758
100
AcDbArc
 50
0.0
 51
90.00000000002563
  0
LINE
  5
213
330
1E9
100
AcDbEntity
  8
Visible (ANSI)
100
AcDbLine
 10
0.0599999999999952
 20
0.6299999999999955
 30
0.0
 11
0.0599999999999952
 21
0.2800000000000011
 31
0.0
  0
ARC
  5
214
330
1E9
100
AcDbEntity
  8
Visible (ANSI)
100
AcDbCircle
 10
0.0100000000000051
 20
0.2799999999999869
 30
0.0
 40
0.0499999999999898
100
AcDbArc
 50
269.9999999999935
 51
0.0
  0
LINE
  5
215
330
1E9
100
AcDbEntity
  8
Visible (ANSI)
100
AcDbLine
 10
0.2449999999999974
 20
-0.25
 30
0.0
 11
0.2449999999999974
 21
0.0
 31
0.0
  0
ARC
  5
216
330
1E9
100
AcDbEntity
  8
Visible (ANSI)
100
AcDbCircle
 10
0.2949999999999875
 20
0.0
 30
0.0
 40
0.0499999999999898
100
AcDbArc
 50
89.99999999999349
 51
180.0
  0
LINE
  5
217
330
1E9
100
AcDbEntity
  8
Visible (ANSI)
100
AcDbLine
 10
0.2949999999999946
 20
0.0499999999999972
 30
0.0
 11
0.644999999999989
 21
0.0499999999999972
 31
0.0
  0
ARC
  5
218
330
1E9
100
AcDbEntity
  8
Visible (ANSI)
100
AcDbCircle
 10
0.644999999999989
 20
0.0
 30
0.0
 40
0.0499999999999982
100
AcDbArc
 50
0.0
 51
90.0
  0
LINE
  5
219
330
1E9
100
AcDbEntity
  8
Visible (ANSI)
100
AcDbLine
 10
0.6949999999999932
 20
0.0
 30
0.0
 11
0.6949999999999932
 21
-0.25
 31
0.0
  0
LINE
  5
21A
330
1E9
100
AcDbEntity
  8
Visible (ANSI)
100
AcDbLine
 10
1.224999999999994
 20
-0.25
 30
0.0
 11
1.224999999999994
 21
0.0
 31
0.0
  0
ARC
  5
21B
330
1E9
100
AcDbEntity
  8
Visible (ANSI)
100
AcDbCircle
 10
1.274999999999998
 20
0.0
 30
0.0
 40
0.0499999999999996
100
AcDbArc
 50
90.0
 51
180.0
  0
LINE
  5
21C
330
1E9
100
AcDbEntity
  8
Visible (ANSI)
100
AcDbLine
 10
1.274999999999998
 20
0.0499999999999972
 30
0.0
 11
1.625
 21
0.0499999999999972
 31
0.0
  0
ARC
  5
21D
330
1E9
100
AcDbEntity
  8
Visible (ANSI)
100
AcDbCircle
 10
1.625
 20
0.0
 30
0.0
 40
0.050000000000001
100
AcDbArc
 50
0.0
 51
90.0
  0
LINE
  5
21E
330
1E9
100
AcDbEntity
  8
Visible (ANSI)
100
AcDbLine
 10
1.67499999999999
 20
0.0
 30
0.0
 11
1.674999999999997
 21
-0.25
 31
0.0
  0
CIRCLE
  5
21F
330
1E9
100
AcDbEntity
  8
Hidden Narrow (ANSI)
 48
0.8511329889297485
100
AcDbCircle
 10
0.0
 20
0.0
 30
0.0
 40
0.056
  0
CIRCLE
  5
220
330
1E9
100
AcDbEntity
  8
Hidden Narrow (ANSI)
 48
0.8511329889297485
100
AcDbCircle
 10
1.919999999999994
 20
1.530000000000001
 30
0.0
 40
0.056
  0
CIRCLE
  5
221
330
1E9
100
AcDbEntity
  8
Hidden Narrow (ANSI)
 48
0.8511329889297485
100
AcDbCircle
 10
1.919999999999994
 20
0.0
 30
0.0
 40
0.056
  0
CIRCLE
  5
222
330
1E9
100
AcDbEntity
  8
Hidden Narrow (ANSI)
 48
0.8511329889297485
100
AcDbCircle
 10
0.0
 20
1.530000000000001
 30
0.0
 40
0.056
  0
ENDBLK
  5
223
330
1E9
100
AcDbEntity
  8
0
100
AcDbBlockEnd
  0
BLOCK
  5
7AE
330
7AD
100
AcDbEntity
  8
0
100
AcDbBlockBegin
  2
*D2
 70
     1
 10
0.0
 20
0.0
 30
0.0
  3
*D2
  1

  0
LINE
  5
F15
330
7AD
100
AcDbEntity
  8
0
 62
     0
440
 16777216
370
    -2
100
AcDbLine
 10
1.129991468391949
 20
0.9785160755605486
 30
0.0
 11
1.129991468391949
 21
0.8950230799067025
 31
0.0
  0
LINE
  5
F16
330
7AD
100
AcDbEntity
  8
0
 62
     0
440
 16777216
370
    -2
100
AcDbLine
 10
1.159974405175802
 20
0.9810227322334521
 30
0.0
 11
1.159974405175802
 21
0.8950230799067025
 31
0.0
  0
LINE
  5
F17
330
7AD
100
AcDbEntity
  8
0
 62
     0
440
 16777216
370
    -2
100
AcDbLine
 10
1.171974405175802
 20
0.9000230799067026
 30
0.0
 11
1.183974405175802
 21
0.9000230799067026
 31
0.0
  0
LINE
  5
F18
330
7AD
100
AcDbEntity
  8
0
 62
     0
440
 16777216
370
    -2
100
AcDbLine
 10
1.117991468391949
 20
0.9000230799067026
 30
0.0
 11
1.08659589968305
 21
0.9000230799067026
 31
0.0
  0
SOLID
  5
F19
330
7AD
100
AcDbEntity
  8
0
 62
     0
440
 16777216
100
AcDbTrace
 10
1.171974405175802
 20
0.9020230799067025
 30
0.0
 11
1.171974405175802
 21
0.8980230799067026
 31
0.0
 12
1.159974405175802
 22
0.9000230799067026
 32
0.0
 13
1.159974405175802
 23
0.9000230799067026
 33
0.0
  0
SOLID
  5
F1A
330
7AD
100
AcDbEntity
  8
0
 62
     0
440
 16777216
100
AcDbTrace
 10
1.117991468391949
 20
0.9020230799067025
 30
0.0
 11
1.117991468391949
 21
0.8980230799067026
 31
0.0
 12
1.129991468391949
 22
0.9000230799067026
 32
0.0
 13
1.129991468391949
 23
0.9000230799067026
 33
0.0
  0
MTEXT
  5
F1B
330
7AD
100
AcDbEntity
  8
0
 62
     0
440
 16777216
100
AcDbMText
 10
1.058869433107334
 20
0.9000230799067026
 30
0.0
 40
0.012
 41
0.0
 46
0.0
 71
     5
 72
     1
  1
\A1;0.030
 73
     1
 44
1.0
  0
POINT
  5
F1C
330
7AD
100
AcDbEntity
  8
Defpoints
 62
     0
440
 16777216
100
AcDbPoint
 10
1.129991468391949
 20
0.9860160755605487
 30
0.0
  0
POINT
  5
F1D
330
7AD
100
AcDbEntity
  8
Defpoints
 62
     0
440
 16777216
100
AcDbPoint
 10
1.159974405175802
 20
0.988522732233452
 30
0.0
  0
POINT
  5
F1E
330
7AD
100
AcDbEntity
  8
Defpoints
 62
     0
440
 16777216
100
AcDbPoint
 10
1.159974405175802
 20
0.9000230799067026
 30
0.0
  0
ENDBLK
  5
7AF
330
7AD
100
AcDbEntity
  8
0
100
AcDbBlockEnd
  0
BLOCK
  5
842
330
841
100
AcDbEntity
  8
0
100
AcDbBlockBegin
  2
*D3
 70
     1
 10
0.0
 20
0.0
 30
0.0
  3
*D3
  1

  0
LINE
  5
F00
330
841
100
AcDbEntity
  8
0
 62
     0
440
 16777216
370
    -2
100
AcDbLine
 10
1.122491468391949
 20
1.006016075560559
 30
0.0
 11
1.109991468391935
 21
1.006016075560559
 31
0.0
  0
LINE
  5
F01
330
841
100
AcDbEntity
  8
0
 62
     0
440
 16777216
370
    -2
100
AcDbLine
 10
1.122508531551993
 20
0.9660160755604819
 30
0.0
 11
1.109991468391935
 21
0.9660160755604819
 31
0.0
  0
LINE
  5
F02
330
841
100
AcDbEntity
  8
0
 62
     0
440
 16777216
370
    -2
100
AcDbLine
 10
1.114991468391935
 20
0.9940160755605591
 30
0.0
 11
1.114991468391935
 21
0.9780160755604818
 31
0.0
  0
LINE
  5
F03
330
841
100
AcDbEntity
  8
0
 62
     0
440
 16777216
370
    -2
100
AcDbLine
 10
1.114991468391935
 20
0.9660160755604819
 30
0.0
 11
1.114991468391935
 21
0.9540160755604818
 31
0.0
  0
LINE
  5
F04
330
841
100
AcDbEntity
  8
0
 62
     0
440
 16777216
370
    -2
100
AcDbLine
 10
1.114991468391935
 20
0.9540160755604818
 30
0.0
 11
1.102991468391935
 21
0.9540160755604818
 31
0.0
  0
SOLID
  5
F05
330
841
100
AcDbEntity
  8
0
 62
     0
440
 16777216
100
AcDbTrace
 10
1.112991468391935
 20
0.9940160755605591
 30
0.0
 11
1.116991468391935
 21
0.9940160755605591
 31
0.0
 12
1.114991468391935
 22
1.006016075560559
 32
0.0
 13
1.114991468391935
 23
1.006016075560559
 33
0.0
  0
SOLID
  5
F06
330
841
100
AcDbEntity
  8
0
 62
     0
440
 16777216
100
AcDbTrace
 10
1.112991468391935
 20
0.9780160755604818
 30
0.0
 11
1.116991468391935
 21
0.9780160755604818
 31
0.0
 12
1.114991468391935
 22
0.9660160755604819
 32
0.0
 13
1.114991468391935
 23
0.9660160755604819
 33
0.0
  0
MTEXT
  5
F07
330
841
100
AcDbEntity
  8
0
 62
     0
440
 16777216
100
AcDbMText
 10
1.075265001816218
 20
0.9540160755604819
 30
0.0
 40
0.012
 41
0.0
 46
0.0
 71
     5
 72
     1
  1
\A1;0.040
 73
     1
 44
1.0
  0
POINT
  5
F08
330
841
100
AcDbEntity
  8
Defpoints
 62
     0
440
 16777216
100
AcDbPoint
 10
1.129991468391949
 20
1.006016075560559
 30
0.0
  0
POINT
  5
F09
330
841
100
AcDbEntity
  8
Defpoints
 62
     0
440
 16777216
100
AcDbPoint
 10
1.130008531551993
 20
0.9660160755604819
 30
0.0
  0
POINT
  5
F0A
330
841
100
AcDbEntity
  8
Defpoints
 62
     0
440
 16777216
100
AcDbPoint
 10
1.114991468391935
 20
0.9660160755604819
 30
0.0
  0
ENDBLK
  5
843
330
841
100
AcDbEntity
  8
0
100
AcDbBlockEnd
  0
BLOCK
  5
8E8
330
8E7
100
AcDbEntity
  8
0
100
AcDbBlockBegin
  2
*D4
 70
     1
 10
0.0
 20
0.0
 30
0.0
  3
*D4
  1

  0
LINE
  5
C16
330
8E7
100
AcDbEntity
  8
0
 62
     0
440
 16777216
370
    -2
100
AcDbLine
 10
1.129991468391949
 20
1.013516075560559
 30
0.0
 11
1.129991468391949
 21
1.169334168195544
 31
0.0
  0
LINE
  5
C17
330
8E7
100
AcDbEntity
  8
0
 62
     0
440
 16777216
370
    -2
100
AcDbLine
 10
1.269991468391935
 20
1.013516075560559
 30
0.0
 11
1.269991468391935
 21
1.169334168195544
 31
0.0
  0
LINE
  5
C18
330
8E7
100
AcDbEntity
  8
0
 62
     0
440
 16777216
370
    -2
100
AcDbLine
 10
1.141991468391949
 20
1.164334168195544
 30
0.0
 11
1.172265001816226
 21
1.164334168195544
 31
0.0
  0
LINE
  5
C19
330
8E7
100
AcDbEntity
  8
0
 62
     0
440
 16777216
370
    -2
100
AcDbLine
 10
1.257991468391935
 20
1.164334168195544
 30
0.0
 11
1.227717934967659
 21
1.164334168195544
 31
0.0
  0
SOLID
  5
C1A
330
8E7
100
AcDbEntity
  8
0
 62
     0
440
 16777216
100
AcDbTrace
 10
1.141991468391949
 20
1.166334168195544
 30
0.0
 11
1.141991468391949
 21
1.162334168195544
 31
0.0
 12
1.129991468391949
 22
1.164334168195544
 32
0.0
 13
1.129991468391949
 23
1.164334168195544
 33
0.0
  0
SOLID
  5
C1B
330
8E7
100
AcDbEntity
  8
0
 62
     0
440
 16777216
100
AcDbTrace
 10
1.257991468391935
 20
1.166334168195544
 30
0.0
 11
1.257991468391935
 21
1.162334168195544
 31
0.0
 12
1.269991468391935
 22
1.164334168195544
 32
0.0
 13
1.269991468391935
 23
1.164334168195544
 33
0.0
  0
MTEXT
  5
C1C
330
8E7
100
AcDbEntity
  8
0
 62
     0
440
 16777216
100
AcDbMText
 10
1.199991468391942
 20
1.164334168195544
 30
0.0
 40
0.012
 41
0.0
 46
0.0
 71
     5
 72
     1
  1
\A1;0.140
 73
     1
 44
1.0
  0
POINT
  5
C1D
330
8E7
100
AcDbEntity
  8
Defpoints
 62
     0
440
 16777216
100
AcDbPoint
 10
1.129991468391949
 20
1.006016075560559
 30
0.0
  0
POINT
  5
C1E
330
8E7
100
AcDbEntity
  8
Defpoints
 62
     0
440
 16777216
100
AcDbPoint
 10
1.269991468391935
 20
1.006016075560559
 30
0.0
  0
POINT
  5
C1F
330
8E7
100
AcDbEntity
  8
Defpoints
 62
     0
440
 16777216
100
AcDbPoint
 10
1.269991468391935
 20
1.164334168195544
 30
0.0
  0
ENDBLK
  5
8E9
330
8E7
100
AcDbEntity
  8
0
100
AcDbBlockEnd
  0
BLOCK
  5
950
330
94F
100
AcDbEntity
  8
0
100
AcDbBlockBegin
  2
*D5
 70
     1
 10
0.0
 20
0.0
 30
0.0
  3
*D5
  1

  0
LINE
  5
C00
330
94F
100
AcDbEntity
  8
0
 62
     0
440
 16777216
370
    -2
100
AcDbLine
 10
1.277474405231835
 20
1.006016075560559
 30
0.0
 11
1.350134959858345
 21
1.006016075560559
 31
0.0
  0
LINE
  5
C01
330
94F
100
AcDbEntity
  8
0
 62
     0
440
 16777216
370
    -2
100
AcDbLine
 10
1.277474405231834
 20
0.9660160755605387
 30
0.0
 11
1.350134959858345
 21
0.9660160755605387
 31
0.0
  0
LINE
  5
C02
330
94F
100
AcDbEntity
  8
0
 62
     0
440
 16777216
370
    -2
100
AcDbLine
 10
1.345134959858345
 20
0.9780160755605386
 30
0.0
 11
1.345134959858345
 21
0.9940160755605591
 31
0.0
  0
LINE
  5
C03
330
94F
100
AcDbEntity
  8
0
 62
     0
440
 16777216
370
    -2
100
AcDbLine
 10
1.345134959858345
 20
1.006016075560559
 30
0.0
 11
1.345134959858345
 21
1.06570618954506
 31
0.0
  0
LINE
  5
C04
330
94F
100
AcDbEntity
  8
0
 62
     0
440
 16777216
370
    -2
100
AcDbLine
 10
1.345134959858345
 20
1.06570618954506
 30
0.0
 11
1.357134959858345
 21
1.06570618954506
 31
0.0
  0
SOLID
  5
C05
330
94F
100
AcDbEntity
  8
0
 62
     0
440
 16777216
100
AcDbTrace
 10
1.343134959858345
 20
0.9780160755605386
 30
0.0
 11
1.347134959858345
 21
0.9780160755605386
 31
0.0
 12
1.345134959858345
 22
0.9660160755605387
 32
0.0
 13
1.345134959858345
 23
0.9660160755605387
 33
0.0
  0
SOLID
  5
C06
330
94F
100
AcDbEntity
  8
0
 62
     0
440
 16777216
100
AcDbTrace
 10
1.343134959858345
 20
0.9940160755605591
 30
0.0
 11
1.347134959858345
 21
0.9940160755605591
 31
0.0
 12
1.345134959858345
 22
1.006016075560559
 32
0.0
 13
1.345134959858345
 23
1.006016075560559
 33
0.0
  0
MTEXT
  5
C07
330
94F
100
AcDbEntity
  8
0
 62
     0
440
 16777216
100
AcDbMText
 10
1.437724457129831
 20
1.065706189545061
 30
0.0
 40
0.012
 41
0.1461789945429741
 46
0.0
 71
     5
 72
     1
  1
\A1;2 X 50{\H1.0833x;Ω\PTransmission Line}
 73
     1
 44
1.0
  0
POINT
  5
C08
330
94F
100
AcDbEntity
  8
Defpoints
 62
     0
440
 16777216
100
AcDbPoint
 10
1.269974405231835
 20
1.006016075560559
 30
0.0
  0
POINT
  5
C09
330
94F
100
AcDbEntity
  8
Defpoints
 62
     0
440
 16777216
100
AcDbPoint
 10
1.269974405231834
 20
0.9660160755605387
 30
0.0
  0
POINT
  5
C0A
330
94F
100
AcDbEntity
  8
Defpoints
 62
     0
440
 16777216
100
AcDbPoint
 10
1.345134959858345
 20
0.9660160755605387
 30
0.0
  0
ENDBLK
  5
951
330
94F
100
AcDbEntity
  8
0
100
AcDbBlockEnd
  0
BLOCK
  5
9C8
330
9C7
100
AcDbEntity
  8
0
100
AcDbBlockBegin
  2
*D6
 70
     1
 10
0.0
 20
0.0
 30
0.0
  3
*D6
  1

  0
LINE
  5
EFA
330
9C7
100
AcDbEntity
  8
0
 62
     0
440
 16777216
370
    -2
100
AcDbLine
 10
1.058438790389619
 20
1.063266075560475
 30
0.0
 11
1.070438790389619
 21
1.063266075560475
 31
0.0
  0
LINE
  5
EFB
330
9C7
100
AcDbEntity
  8
0
 62
     0
440
 16777216
370
    -2
100
AcDbLine
 10
1.070438790389619
 20
1.063266075560475
 30
0.0
 11
1.128304364982744
 21
1.026649364652922
 31
0.0
  0
MTEXT
  5
EFC
330
9C7
100
AcDbEntity
  8
0
 62
     0
440
 16777216
100
AcDbMText
 10
0.9818201000758406
 20
1.063266075560475
 30
0.0
 40
0.012
 41
0.0
 46
0.0
 71
     5
 72
     1
  1
\A1;Orientation Marker
 73
     1
 44
1.0
  0
SOLID
  5
EFD
330
9C7
100
AcDbEntity
  8
0
 62
     0
440
 16777216
100
AcDbTrace
 10
1.129373812723024
 20
1.028339418359409
 30
0.0
 11
1.127234917242463
 21
1.024959310946436
 31
0.0
 12
1.138444687221662
 22
1.020232678211239
 32
0.0
 13
1.138444687221662
 23
1.020232678211239
 33
0.0
  0
POINT
  5
EFE
330
9C7
100
AcDbEntity
  8
Defpoints
 62
     0
440
 16777216
100
AcDbPoint
 10
1.138444687221662
 20
1.020232678211239
 30
0.0
  0
POINT
  5
EFF
330
9C7
100
AcDbEntity
  8
Defpoints
 62
     0
440
 16777216
100
AcDbPoint
 10
1.15306967648428
 20
1.010978142891737
 30
0.0
  0
ENDBLK
  5
9C9
330
9C7
100
AcDbEntity
  8
0
100
AcDbBlockEnd
  0
BLOCK
  5
C8C
330
C8B
100
AcDbEntity
  8
0
100
AcDbBlockBegin
  2
*D7
 70
     1
 10
0.0
 20
0.0
 30
0.0
  3
*D7
  1

  0
LINE
  5
CB4
330
C8B
100
AcDbEntity
  8
0
 62
     0
440
 16777216
370
    -2
100
AcDbLine
 10
1.055792858037259
 20
1.117088032885876
 30
0.0
 11
1.067792858037261
 21
1.117088032885876
 31
0.0
  0
LINE
  5
CB5
330
C8B
100
AcDbEntity
  8
0
 62
     0
440
 16777216
370
    -2
100
AcDbLine
 10
1.067792858037261
 20
1.117088032885876
 30
0.0
 11
1.104697604859808
 21
1.058885827159275
 31
0.0
  0
MTEXT
  5
CB6
330
C8B
100
AcDbEntity
  8
0
 62
     0
440
 16777216
100
AcDbMText
 10
0.998066391461543
 20
1.117088032885876
 30
0.0
 40
0.012
 41
0.0
 46
0.0
 71
     5
 72
     1
  1
\A1;Hatched Area\PIndicates\PFootprint of\PPart
 73
     1
 44
1.0
  0
SOLID
  5
CB7
330
C8B
100
AcDbEntity
  8
0
 62
     0
440
 16777216
100
AcDbTrace
 10
1.106386674108646
 20
1.059956829060594
 30
0.0
 11
1.10300853561097
 21
1.057814825257956
 31
0.0
 12
1.11112361626772
 22
1.048751411666244
 32
0.0
 13
1.11112361626772
 23
1.048751411666244
 33
0.0
  0
POINT
  5
CB8
330
C8B
100
AcDbEntity
  8
Defpoints
 62
     0
440
 16777216
100
AcDbPoint
 10
1.11112361626772
 20
1.048751411666244
 30
0.0
  0
POINT
  5
CB9
330
C8B
100
AcDbEntity
  8
Defpoints
 62
     0
440
 16777216
100
AcDbPoint
 10
1.114336621971676
 20
1.043684203919729
 30
0.0
  0
ENDBLK
  5
C8D
330
C8B
100
AcDbEntity
  8
0
100
AcDbBlockEnd
  0
BLOCK
  5
CBC
330
CBB
100
AcDbEntity
  8
0
100
AcDbBlockBegin
  2
*D8
 70
     1
 10
0.0
 20
0.0
 30
0.0
  3
*D8
  1

  0
LINE
  5
CE7
330
CBB
100
AcDbEntity
  8
0
 62
     0
440
 16777216
370
    -2
100
AcDbLine
 10
1.323207957915859
 20
1.112284166192428
 30
0.0
 11
1.311207957915859
 21
1.112284166192428
 31
0.0
  0
LINE
  5
CE8
330
CBB
100
AcDbEntity
  8
0
 62
     0
440
 16777216
370
    -2
100
AcDbLine
 10
1.311207957915859
 20
1.112284166192428
 30
0.0
 11
1.285658304652441
 21
1.072900771459188
 31
0.0
  0
MTEXT
  5
CE9
330
CBB
100
AcDbEntity
  8
0
 62
     0
440
 16777216
100
AcDbMText
 10
1.428062664600715
 20
1.112284166192428
 30
0.0
 40
0.012
 41
0.0
 46
0.0
 71
     5
 72
     1
  1
\A1;Multiple Plated Thru Holes\PTo Ground
 73
     1
 44
1.0
  0
SOLID
  5
CEA
330
CBB
100
AcDbEntity
  8
0
 62
     0
440
 16777216
100
AcDbTrace
 10
1.283980453416989
 20
1.073989263641839
 30
0.0
 11
1.287336155887893
 21
1.071812279276537
 31
0.0
 12
1.279127351556534
 22
1.062833664046477
 32
0.0
 13
1.279127351556534
 23
1.062833664046477
 33
0.0
  0
POINT
  5
CEB
330
CBB
100
AcDbEntity
  8
Defpoints
 62
     0
440
 16777216
100
AcDbPoint
 10
1.279127351556534
 20
1.062833664046477
 30
0.0
  0
POINT
  5
CEC
330
CBB
100
AcDbEntity
  8
Defpoints
 62
     0
440
 16777216
100
AcDbPoint
 10
1.275861875008581
 20
1.057800110340121
 30
0.0
  0
ENDBLK
  5
CBD
330
CBB
100
AcDbEntity
  8
0
100
AcDbBlockEnd
  0
BLOCK
  5
CFD
330
CFC
100
AcDbEntity
  8
0
100
AcDbBlockBegin
  2
*D9
 70
     1
 10
0.0
 20
0.0
 30
0.0
  3
*D9
  1

  0
LINE
  5
D19
330
CFC
100
AcDbEntity
  8
0
 62
     0
440
 16777216
370
    -2
100
AcDbLine
 10
1.078162131337476
 20
0.7398775363632807
 30
0.0
 11
1.066162131337475
 21
0.7398775363632807
 31
0.0
  0
LINE
  5
D1A
330
CFC
100
AcDbEntity
  8
0
 62
     0
440
 16777216
370
    -2
100
AcDbLine
 10
1.066162131337475
 20
0.7398775363632807
 30
0.0
 11
1.027365164551591
 21
0.7939010598232152
 31
0.0
  0
MTEXT
  5
D1B
330
CFC
100
AcDbEntity
  8
0
 62
     0
440
 16777216
100
AcDbMText
 10
1.142416565171036
 20
0.7398775363632807
 30
0.0
 40
0.012
 41
0.0
 46
0.0
 71
     5
 72
     1
  1
\A1;Copper/Ground
 73
     1
 44
1.0
  0
SOLID
  5
D1C
330
CFC
100
AcDbEntity
  8
0
 62
     0
440
 16777216
100
AcDbTrace
 10
1.028989657475005
 20
0.7950676886166953
 30
0.0
 11
1.025740671628177
 21
0.7927344310297351
 31
0.0
 12
1.020365391790711
 22
0.8036480173637007
 32
0.0
 13
1.020365391790711
 23
0.8036480173637007
 33
0.0
  0
POINT
  5
D1D
330
CFC
100
AcDbEntity
  8
Defpoints
 62
     0
440
 16777216
100
AcDbPoint
 10
1.020365391790711
 20
0.8036480173637007
 30
0.0
  0
POINT
  5
D1E
330
CFC
100
AcDbEntity
  8
Defpoints
 62
     0
440
 16777216
100
AcDbPoint
 10
1.011740373202108
 20
0.8156580772386206
 30
0.0
  0
ENDBLK
  5
CFE
330
CFC
100
AcDbEntity
  8
0
100
AcDbBlockEnd
  0
ENDSEC
  0
SECTION
  2
ENTITIES
  0
CIRCLE
  5
366
330
1F
100
AcDbEntity
  8
0
100
AcDbCircle
 10
1.004612139869891
 20
0.8904127443765117
 30
0.0
 40
0.0155
  0
CIRCLE
  5
369
330
1F
100
AcDbEntity
  8
0
100
AcDbCircle
 10
0.9439092523381304
 20
1.173971930682405
 30
0.0
 40
0.0155
  0
CIRCLE
  5
3C4
330
1F
100
AcDbEntity
  8
0
100
AcDbCircle
 10
1.395353733698073
 20
0.8904127443765117
 30
0.0
 40
0.0155
  0
CIRCLE
  5
3C8
330
1F
100
AcDbEntity
  8
0
100
AcDbCircle
 10
1.456056621229834
 20
1.173971930682405
 30
0.0
 40
0.0155
  0
CIRCLE
  5
3D7
330
1F
100
AcDbEntity
  8
0
100
AcDbCircle
 10
1.199982936783982
 20
1.219396668815953
 30
0.0
 40
0.0155
  0
CIRCLE
  5
3D9
330
1F
100
AcDbEntity
  8
0
100
AcDbCircle
 10
1.299982936783976
 20
1.219396668815953
 30
0.0
 40
0.0155
  0
CIRCLE
  5
3DA
330
1F
100
AcDbEntity
  8
0
100
AcDbCircle
 10
1.199982936783982
 20
0.9078792022346917
 30
0.0
 40
0.0155
  0
CIRCLE
  5
3DB
330
1F
100
AcDbEntity
  8
0
100
AcDbCircle
 10
1.199982936783982
 20
0.8371354823051106
 30
0.0
 40
0.0155
  0
CIRCLE
  5
3DD
330
1F
100
AcDbEntity
  8
0
100
AcDbCircle
 10
1.099982936783987
 20
1.219396668815953
 30
0.0
 40
0.0155
  0
CIRCLE
  5
3DE
330
1F
100
AcDbEntity
  8
0
100
AcDbCircle
 10
1.299982936783976
 20
0.8526354823051105
 30
0.0
 40
0.0155
  0
CIRCLE
  5
3DF
330
1F
100
AcDbEntity
  8
0
100
AcDbCircle
 10
1.099982936783987
 20
0.8526354823051105
 30
0.0
 40
0.0155
  0
CIRCLE
  5
3F2
330
1F
100
AcDbEntity
  8
0
100
AcDbCircle
 10
1.378019779006905
 20
1.196684299749179
 30
0.0
 40
0.0155
  0
CIRCLE
  5
3F3
330
1F
100
AcDbEntity
  8
0
100
AcDbCircle
 10
1.021946094561059
 20
1.196684299749179
 30
0.0
 40
0.0155
  0
LWPOLYLINE
  5
407
330
1F
100
AcDbEntity
  8
0
 48
0.125
100
AcDbPolyline
 90
        4
 70
     1
 43
0.0
 10
1.299991468391908
 20
0.9660160755604819
 10
1.299991468391908
 20
1.066016075560447
 10
1.09999146839192
 20
1.066016075560447
 10
1.09999146839192
 20
0.9660160755604819
  0
LWPOLYLINE
  5
408
102
{ACAD_REACTORS
330
7C5
330
85B
330
B3D
102
}
330
1F
100
AcDbEntity
  8
0
100
AcDbPolyline
 90
        6
 70
     1
 43
0.0
 10
1.129991468391949
 20
0.9660160755605383
 10
1.09999146839192
 20
0.9660160755605383
 10
1.09999146839192
 20
1.002016075560376
 10
1.09999146839192
 20
1.002016075560376
 10
1.09999146839192
 20
1.006016075560559
 10
1.129991468391949
 20
1.006016075560559
  0
LWPOLYLINE
  5
409
102
{ACAD_REACTORS
330
8FF
330
B3D
102
}
330
1F
100
AcDbEntity
  8
0
100
AcDbPolyline
 90
        6
 70
     1
 43
0.0
 10
1.269991468391935
 20
0.9660160755604819
 10
1.269991468391935
 20
1.006016075560559
 10
1.299991468391908
 20
1.006016075560559
 10
1.299991468391908
 20
1.002016075560554
 10
1.299991468391908
 20
1.002016075560376
 10
1.299991468391908
 20
0.9660160755604819
  0
CIRCLE
  5
433
102
{ACAD_REACTORS
330
E6C
330
ED4
102
}
330
1F
100
AcDbEntity
  8
0
100
AcDbCircle
 10
1.188491349272877
 20
1.022213516677217
 30
0.0
 40
0.003
  0
CIRCLE
  5
435
102
{ACAD_REACTORS
330
E6C
330
ED4
102
}
330
1F
100
AcDbEntity
  8
0
100
AcDbCircle
 10
1.166491349272878
 20
1.022213516677217
 30
0.0
 40
0.003
  0
CIRCLE
  5
43C
102
{ACAD_REACTORS
330
E6C
330
ED4
102
}
330
1F
100
AcDbEntity
  8
0
100
AcDbCircle
 10
1.177491349272878
 20
1.041266075560474
 30
0.0
 40
0.003
  0
CIRCLE
  5
440
102
{ACAD_REACTORS
330
E6C
330
ED4
102
}
330
1F
100
AcDbEntity
  8
0
100
AcDbCircle
 10
1.177491349272878
 20
1.003160957793959
 30
0.0
 40
0.003
  0
CIRCLE
  5
441
102
{ACAD_REACTORS
330
E6C
330
ED4
102
}
330
1F
100
AcDbEntity
  8
0
100
AcDbCircle
 10
1.188494375044484
 20
0.9841101461611344
 30
0.0
 40
0.003
  0
CIRCLE
  5
442
102
{ACAD_REACTORS
330
E6C
330
ED4
102
}
330
1F
100
AcDbEntity
  8
0
100
AcDbCircle
 10
1.166494375321943
 20
0.9841066521408405
 30
0.0
 40
0.003
  0
CIRCLE
  5
445
102
{ACAD_REACTORS
330
E6C
330
ED4
102
}
330
1F
100
AcDbEntity
  8
0
100
AcDbCircle
 10
1.188488323223812
 20
1.060320381213593
 30
0.0
 40
0.003
  0
CIRCLE
  5
446
102
{ACAD_REACTORS
330
E6C
330
ED4
102
}
330
1F
100
AcDbEntity
  8
0
100
AcDbCircle
 10
1.166488323501271
 20
1.060316887193299
 30
0.0
 40
0.003
  0
CIRCLE
  5
44D
102
{ACAD_REACTORS
330
E6C
330
ED4
102
}
330
1F
100
AcDbEntity
  8
0
100
AcDbCircle
 10
1.155491349272877
 20
1.041266075560474
 30
0.0
 40
0.003
  0
CIRCLE
  5
457
102
{ACAD_REACTORS
330
E6C
330
ED4
102
}
330
1F
100
AcDbEntity
  8
0
100
AcDbCircle
 10
1.144488323501271
 20
1.060316887193299
 30
0.0
 40
0.003
  0
CIRCLE
  5
459
102
{ACAD_REACTORS
330
E6C
330
ED4
102
}
330
1F
100
AcDbEntity
  8
0
100
AcDbCircle
 10
1.122488323501271
 20
1.060316887193299
 30
0.0
 40
0.003
  0
CIRCLE
  5
45D
102
{ACAD_REACTORS
330
E6C
330
ED4
102
}
330
1F
100
AcDbEntity
  8
0
100
AcDbCircle
 10
1.133491349272877
 20
1.041266075560474
 30
0.0
 40
0.003
  0
CIRCLE
  5
45E
102
{ACAD_REACTORS
330
E6C
330
ED4
102
}
330
1F
100
AcDbEntity
  8
0
100
AcDbCircle
 10
1.111491349272877
 20
1.041266075560474
 30
0.0
 40
0.003
  0
CIRCLE
  5
45F
102
{ACAD_REACTORS
330
E6C
330
ED4
102
}
330
1F
100
AcDbEntity
  8
0
100
AcDbCircle
 10
1.21149158751095
 20
1.022213516677217
 30
0.0
 40
0.003
  0
CIRCLE
  5
460
102
{ACAD_REACTORS
330
E6C
330
ED4
102
}
330
1F
100
AcDbEntity
  8
0
100
AcDbCircle
 10
1.23349158751095
 20
1.022213516677217
 30
0.0
 40
0.003
  0
CIRCLE
  5
461
102
{ACAD_REACTORS
330
E6C
330
ED4
102
}
330
1F
100
AcDbEntity
  8
0
100
AcDbCircle
 10
1.22249158751095
 20
1.041266075560474
 30
0.0
 40
0.003
  0
CIRCLE
  5
462
102
{ACAD_REACTORS
330
E6C
330
ED4
102
}
330
1F
100
AcDbEntity
  8
0
100
AcDbCircle
 10
1.22249158751095
 20
1.003160957793959
 30
0.0
 40
0.003
  0
CIRCLE
  5
463
102
{ACAD_REACTORS
330
E6C
330
ED4
102
}
330
1F
100
AcDbEntity
  8
0
100
AcDbCircle
 10
1.211488561739344
 20
0.9841101461611344
 30
0.0
 40
0.003
  0
CIRCLE
  5
464
102
{ACAD_REACTORS
330
E6C
330
ED4
102
}
330
1F
100
AcDbEntity
  8
0
100
AcDbCircle
 10
1.233488561461885
 20
0.9841066521408405
 30
0.0
 40
0.003
  0
CIRCLE
  5
465
102
{ACAD_REACTORS
330
E6C
330
ED4
102
}
330
1F
100
AcDbEntity
  8
0
100
AcDbCircle
 10
1.211494613560015
 20
1.060320381213593
 30
0.0
 40
0.003
  0
CIRCLE
  5
466
102
{ACAD_REACTORS
330
E6C
330
ED4
102
}
330
1F
100
AcDbEntity
  8
0
100
AcDbCircle
 10
1.233494613282557
 20
1.060316887193299
 30
0.0
 40
0.003
  0
CIRCLE
  5
467
102
{ACAD_REACTORS
330
E6C
330
ED4
102
}
330
1F
100
AcDbEntity
  8
0
100
AcDbCircle
 10
1.24449158751095
 20
1.041266075560474
 30
0.0
 40
0.003
  0
CIRCLE
  5
468
102
{ACAD_REACTORS
330
E6C
330
ED4
102
}
330
1F
100
AcDbEntity
  8
0
100
AcDbCircle
 10
1.255494613282557
 20
1.060316887193299
 30
0.0
 40
0.003
  0
CIRCLE
  5
469
102
{ACAD_REACTORS
330
CCB
330
E6C
330
ED4
102
}
330
1F
100
AcDbEntity
  8
0
100
AcDbCircle
 10
1.277494613282557
 20
1.060316887193299
 30
0.0
 40
0.003
  0
CIRCLE
  5
46A
102
{ACAD_REACTORS
330
E6C
330
ED4
102
}
330
1F
100
AcDbEntity
  8
0
100
AcDbCircle
 10
1.26649158751095
 20
1.041266075560474
 30
0.0
 40
0.003
  0
CIRCLE
  5
46B
102
{ACAD_REACTORS
330
E6C
330
ED4
102
}
330
1F
100
AcDbEntity
  8
0
100
AcDbCircle
 10
1.28849158751095
 20
1.041266075560474
 30
0.0
 40
0.003
  0
CIRCLE
  5
46D
330
1F
100
AcDbEntity
  8
0
100
AcDbCircle
 10
1.089491349272877
 20
1.041266075560474
 30
0.0
 40
0.003
  0
CIRCLE
  5
46F
330
1F
100
AcDbEntity
  8
0
100
AcDbCircle
 10
1.089491349272877
 20
1.063266075560474
 30
0.0
 40
0.003
  0
CIRCLE
  5
473
330
1F
100
AcDbEntity
  8
0
100
AcDbCircle
 10
1.133488323501271
 20
1.079369446076556
 30
0.0
 40
0.003
  0
CIRCLE
  5
475
330
1F
100
AcDbEntity
  8
0
100
AcDbCircle
 10
1.111488323501271
 20
1.079369446076556
 30
0.0
 40
0.003
  0
CIRCLE
  5
477
330
1F
100
AcDbEntity
  8
0
100
AcDbCircle
 10
1.155488323501271
 20
1.079369446076556
 30
0.0
 40
0.003
  0
CIRCLE
  5
479
330
1F
100
AcDbEntity
  8
0
100
AcDbCircle
 10
1.177488323501271
 20
1.079369446076556
 30
0.0
 40
0.003
  0
CIRCLE
  5
47B
330
1F
100
AcDbEntity
  8
0
100
AcDbCircle
 10
1.199488323223812
 20
1.079369446076556
 30
0.0
 40
0.003
  0
CIRCLE
  5
480
330
1F
100
AcDbEntity
  8
0
100
AcDbCircle
 10
1.222494613560015
 20
1.07937294009685
 30
0.0
 40
0.003
  0
CIRCLE
  5
482
330
1F
100
AcDbEntity
  8
0
100
AcDbCircle
 10
1.244494613282557
 20
1.079369446076556
 30
0.0
 40
0.003
  0
CIRCLE
  5
484
330
1F
100
AcDbEntity
  8
0
100
AcDbCircle
 10
1.266494613282557
 20
1.079369446076556
 30
0.0
 40
0.003
  0
CIRCLE
  5
486
330
1F
100
AcDbEntity
  8
0
100
AcDbCircle
 10
1.288494613282557
 20
1.07937294009685
 30
0.0
 40
0.003
  0
CIRCLE
  5
487
330
1F
100
AcDbEntity
  8
0
100
AcDbCircle
 10
1.31049158751095
 20
1.041266075560474
 30
0.0
 40
0.003
  0
CIRCLE
  5
488
330
1F
100
AcDbEntity
  8
0
100
AcDbCircle
 10
1.31049158751095
 20
1.063266075560474
 30
0.0
 40
0.003
  0
CIRCLE
  5
48B
330
1F
100
AcDbEntity
  8
0
100
AcDbCircle
 10
1.07043879038962
 20
1.052266075560474
 30
0.0
 40
0.003
  0
CIRCLE
  5
48E
330
1F
100
AcDbEntity
  8
0
100
AcDbCircle
 10
1.122488323501271
 20
1.098422004959814
 30
0.0
 40
0.003
  0
CIRCLE
  5
490
330
1F
100
AcDbEntity
  8
0
100
AcDbCircle
 10
1.144488323501271
 20
1.098422004959814
 30
0.0
 40
0.003
  0
CIRCLE
  5
492
330
1F
100
AcDbEntity
  8
0
100
AcDbCircle
 10
1.166488323501271
 20
1.098422004959814
 30
0.0
 40
0.003
  0
CIRCLE
  5
494
330
1F
100
AcDbEntity
  8
0
100
AcDbCircle
 10
1.188488323501271
 20
1.098422004959814
 30
0.0
 40
0.003
  0
CIRCLE
  5
496
330
1F
100
AcDbEntity
  8
0
100
AcDbCircle
 10
1.210488323223812
 20
1.098422004959814
 30
0.0
 40
0.003
  0
CIRCLE
  5
498
330
1F
100
AcDbEntity
  8
0
100
AcDbCircle
 10
1.233494613560015
 20
1.098425498980108
 30
0.0
 40
0.003
  0
CIRCLE
  5
49A
330
1F
100
AcDbEntity
  8
0
100
AcDbCircle
 10
1.255494613282557
 20
1.098422004959814
 30
0.0
 40
0.003
  0
CIRCLE
  5
49C
330
1F
100
AcDbEntity
  8
0
100
AcDbCircle
 10
1.277494613282557
 20
1.098422004959814
 30
0.0
 40
0.003
  0
CIRCLE
  5
49E
330
1F
100
AcDbEntity
  8
0
100
AcDbCircle
 10
1.299494613282557
 20
1.098425498980108
 30
0.0
 40
0.003
  0
CIRCLE
  5
49F
330
1F
100
AcDbEntity
  8
0
100
AcDbCircle
 10
1.329544146394208
 20
1.052266075560474
 30
0.0
 40
0.003
  0
CIRCLE
  5
4A5
330
1F
100
AcDbEntity
  8
0
100
AcDbCircle
 10
1.100488323501271
 20
1.098425498980108
 30
0.0
 40
0.003
  0
CIRCLE
  5
4A7
330
1F
100
AcDbEntity
  8
0
100
AcDbCircle
 10
1.081435764618013
 20
1.087425498980108
 30
0.0
 40
0.003
  0
CIRCLE
  5
4A8
330
1F
100
AcDbEntity
  8
0
100
AcDbCircle
 10
1.318547172165814
 20
1.087425498980108
 30
0.0
 40
0.003
  0
CIRCLE
  5
4CC
330
1F
100
AcDbEntity
  8
0
100
AcDbCircle
 10
1.166494375321943
 20
0.9580160755604818
 30
0.0
 40
0.003
  0
CIRCLE
  5
4CD
330
1F
100
AcDbEntity
  8
0
100
AcDbCircle
 10
1.188494375044484
 20
0.9580160755604817
 30
0.0
 40
0.003
  0
CIRCLE
  5
4CE
330
1F
100
AcDbEntity
  8
0
100
AcDbCircle
 10
1.233488561461885
 20
0.9580160755604818
 30
0.0
 40
0.003
  0
CIRCLE
  5
4CF
330
1F
100
AcDbEntity
  8
0
100
AcDbCircle
 10
1.211488561739344
 20
0.9580160755604817
 30
0.0
 40
0.003
  0
CIRCLE
  5
4D0
330
1F
100
AcDbEntity
  8
0
100
AcDbCircle
 10
1.199982936783982
 20
1.138096668815953
 30
0.0
 40
0.0155
  0
CIRCLE
  5
4D1
330
1F
100
AcDbEntity
  8
0
100
AcDbCircle
 10
1.299982936783976
 20
1.138096668815953
 30
0.0
 40
0.0155
  0
CIRCLE
  5
4D2
330
1F
100
AcDbEntity
  8
0
100
AcDbCircle
 10
1.099982936783987
 20
1.138096668815953
 30
0.0
 40
0.0155
  0
CIRCLE
  5
4D7
330
1F
100
AcDbEntity
  8
0
100
AcDbCircle
 10
1.166494375321943
 20
0.936016075560482
 30
0.0
 40
0.003
  0
CIRCLE
  5
4D8
330
1F
100
AcDbEntity
  8
0
100
AcDbCircle
 10
1.188494375044484
 20
0.936016075560482
 30
0.0
 40
0.003
  0
CIRCLE
  5
4D9
330
1F
100
AcDbEntity
  8
0
100
AcDbCircle
 10
1.233488561461885
 20
0.936016075560482
 30
0.0
 40
0.003
  0
CIRCLE
  5
4DA
330
1F
100
AcDbEntity
  8
0
100
AcDbCircle
 10
1.211488561739344
 20
0.936016075560482
 30
0.0
 40
0.003
  0
CIRCLE
  5
4DD
330
1F
100
AcDbEntity
  8
0
100
AcDbCircle
 10
1.155497401371008
 20
0.9169617699073633
 30
0.0
 40
0.003
  0
CIRCLE
  5
4E4
330
1F
100
AcDbEntity
  8
0
100
AcDbCircle
 10
1.133497401371008
 20
0.9169617699073633
 30
0.0
 40
0.003
  0
CIRCLE
  5
4E7
330
1F
100
AcDbEntity
  8
0
100
AcDbCircle
 10
1.111497401371008
 20
0.9169617699073633
 30
0.0
 40
0.003
  0
CIRCLE
  5
4EA
330
1F
100
AcDbEntity
  8
0
100
AcDbCircle
 10
1.089497401371008
 20
0.9169617699073633
 30
0.0
 40
0.003
  0
CIRCLE
  5
4EE
330
1F
100
AcDbEntity
  8
0
100
AcDbCircle
 10
1.144497401371008
 20
0.9360143287906209
 30
0.0
 40
0.003
  0
CIRCLE
  5
4F0
330
1F
100
AcDbEntity
  8
0
100
AcDbCircle
 10
1.122497401371008
 20
0.9360143287906209
 30
0.0
 40
0.003
  0
CIRCLE
  5
4F2
330
1F
100
AcDbEntity
  8
0
100
AcDbCircle
 10
1.100497401371008
 20
0.9360143287906209
 30
0.0
 40
0.003
  0
CIRCLE
  5
4F4
330
1F
100
AcDbEntity
  8
0
100
AcDbCircle
 10
1.078497401371008
 20
0.9360143287906209
 30
0.0
 40
0.003
  0
CIRCLE
  5
4F5
330
1F
100
AcDbEntity
  8
0
100
AcDbCircle
 10
1.24448553541282
 20
0.9169617699073633
 30
0.0
 40
0.003
  0
CIRCLE
  5
4F7
330
1F
100
AcDbEntity
  8
0
100
AcDbCircle
 10
1.26648553541282
 20
0.9169617699073633
 30
0.0
 40
0.003
  0
CIRCLE
  5
4F9
330
1F
100
AcDbEntity
  8
0
100
AcDbCircle
 10
1.28848553541282
 20
0.9169617699073633
 30
0.0
 40
0.003
  0
CIRCLE
  5
4FB
330
1F
100
AcDbEntity
  8
0
100
AcDbCircle
 10
1.31048553541282
 20
0.9169617699073633
 30
0.0
 40
0.003
  0
CIRCLE
  5
4FD
330
1F
100
AcDbEntity
  8
0
100
AcDbCircle
 10
1.25548553541282
 20
0.9360143287906209
 30
0.0
 40
0.003
  0
CIRCLE
  5
4FE
330
1F
100
AcDbEntity
  8
0
100
AcDbCircle
 10
1.27748553541282
 20
0.9360143287906209
 30
0.0
 40
0.003
  0
CIRCLE
  5
4FF
330
1F
100
AcDbEntity
  8
0
100
AcDbCircle
 10
1.29948553541282
 20
0.9360143287906209
 30
0.0
 40
0.003
  0
CIRCLE
  5
500
330
1F
100
AcDbEntity
  8
0
100
AcDbCircle
 10
1.32148553541282
 20
0.9360143287906209
 30
0.0
 40
0.003
  0
LWPOLYLINE
  5
741
102
{ACAD_REACTORS
330
969
102
}
330
1F
100
AcDbEntity
  8
0
100
AcDbPolyline
 90
        4
 70
     0
 43
0.0
 10
1.56139707973
 20
1.006016075560551
 10
1.269974405231835
 20
1.006016075560559
 10
1.269974405231835
 20
0.9660160755605387
 10
1.561397079729999
 20
0.9660160755605311
  0
DIMENSION
  5
7AC
102
{ACAD_XDICTIONARY
360
7BA
102
}
102
{ACAD_REACTORS
330
7C5
102
}
330
1F
100
AcDbEntity
  8
0
100
AcDbDimension
280
     0
  2
*D2
 10
1.159974405175802
 20
0.9000230799067026
 30
0.0
 11
1.058869433107334
 21
0.9000230799067026
 31
0.0
 70
   160
 71
     5
 42
0.0299829367838527
 73
     0
 74
     0
 75
     0
  3
Standard
100
AcDbAlignedDimension
 13
1.129991468391949
 23
0.9860160755605487
 33
0.0
 14
1.159974405175802
 24
0.988522732233452
 34
0.0
100
AcDbRotatedDimension
  0
DIMENSION
  5
840
102
{ACAD_XDICTIONARY
360
84F
102
}
102
{ACAD_REACTORS
330
85B
102
}
330
1F
100
AcDbEntity
  8
0
100
AcDbDimension
280
     0
  2
*D3
 10
1.114991468391935
 20
0.9660160755604819
 30
0.0
 11
1.075265001816218
 21
0.9540160755604819
 31
0.0
 70
    32
 71
     5
 42
0.0400000000000773
 73
     0
 74
     0
 75
     0
  3
Standard
100
AcDbAlignedDimension
 13
1.129991468391949
 23
1.006016075560559
 33
0.0
 14
1.130008531551993
 24
0.9660160755604819
 34
0.0
 50
90.0
100
AcDbRotatedDimension
  0
DIMENSION
  5
8E6
102
{ACAD_XDICTIONARY
360
8F4
102
}
102
{ACAD_REACTORS
330
8FF
102
}
330
1F
100
AcDbEntity
  8
0
100
AcDbDimension
280
     0
  2
*D4
 10
1.269991468391935
 20
1.164334168195544
 30
0.0
 11
1.199991468391942
 21
1.164334168195544
 31
0.0
 70
    32
 71
     5
 42
0.1399999999999864
 73
     0
 74
     0
 75
     0
  3
Standard
100
AcDbAlignedDimension
 13
1.129991468391949
 23
1.006016075560559
 33
0.0
 14
1.269991468391935
 24
1.006016075560559
 34
0.0
100
AcDbRotatedDimension
  0
DIMENSION
  5
94E
102
{ACAD_XDICTIONARY
360
95D
102
}
102
{ACAD_REACTORS
330
969
102
}
330
1F
100
AcDbEntity
  8
0
100
AcDbDimension
280
     0
  2
*D5
 10
1.345134959858345
 20
0.9660160755605387
 30
0.0
 11
1.437724457129831
 21
1.065706189545061
 31
0.0
 70
   160
  1
2 X 50{\H1.0833x;Ω\PTransmission Line}
 71
     5
 42
0.0400000000000204
 73
     0
 74
     0
 75
     0
  3
Standard
100
AcDbAlignedDimension
 13
1.269974405231835
 23
1.006016075560559
 33
0.0
 14
1.269974405231834
 24
0.9660160755605387
 34
0.0
 50
90.0
100
AcDbRotatedDimension
  0
CIRCLE
  5
9C5
102
{ACAD_REACTORS
330
9D7
102
}
330
1F
100
AcDbEntity
  8
0
100
AcDbCircle
 10
1.145757181852971
 20
1.015605410551488
 30
0.0
 40
0.0086535647988502
  0
DIMENSION
  5
9C6
102
{ACAD_XDICTIONARY
360
9D0
102
}
102
{ACAD_REACTORS
330
9D7
102
}
330
1F
100
AcDbEntity
  8
0
100
AcDbDimension
280
     0
  2
*D6
 10
1.15306967648428
 20
1.010978142891737
 30
0.0
 11
0.9818201000758406
 21
1.063266075560475
 31
0.0
 70
   163
  1
Orientation Marker
 71
     5
 42
0.0173071295976995
 73
     0
 74
     0
 75
     0
  3
Standard
100
AcDbDiametricDimension
 15
1.138444687221662
 25
1.020232678211239
 35
0.0
 40
0.0
1001
ACAD_DSTYLE_DIMRADIAL_EXTENSION
1070
   387
1070
     1
1070
   388
1040
0.0
1070
   390
1040
0.0
1001
ACAD
1000
DSTYLE
1002
{
1070
   288
1070
     1
1002
}
  0
HATCH
  5
B3D
330
1F
100
AcDbEntity
  8
0
100
AcDbHatch
 10
0.0
 20
0.0
 30
0.0
210
0.0
220
0.0
230
1.0
  2
ANSI31
 70
     0
 71
     1
 91
        2
 92
        7
 72
     0
 73
     1
 93
        5
 10
1.129991468391949
 20
1.006016075560559
 10
1.09999146839192
 20
1.006016075560559
 10
1.09999146839192
 20
1.002016075560376
 10
1.09999146839192
 20
0.9660160755605383
 10
1.129991468391949
 20
0.9660160755605383
 97
        1
330
408
 92
        7
 72
     0
 73
     1
 93
        5
 10
1.299991468391908
 20
1.002016075560376
 10
1.299991468391908
 20
1.006016075560559
 10
1.269991468391935
 20
1.006016075560559
 10
1.269991468391935
 20
0.9660160755604819
 10
1.299991468391908
 20
0.9660160755604819
 97
        1
330
409
 75
     1
 76
     1
 52
0.0
 41
0.05
 77
     0
 78
     1
 53
45.0
 43
0.0
 44
0.0
 45
-0.0044194173824159
 46
0.0044194173824159
 79
     0
 47
0.0003027091717373
 98
        2
 10
1.113481731115058
 20
0.9876201075935497
 10
1.287661317288439
 20
0.988225552596404
1001
GradientColor1ACI
1070
     5
1001
GradientColor2ACI
1070
     2
1001
ACAD
1010
0.0
1020
0.0
1030
0.0
  0
DIMENSION
  5
C8A
330
1F
100
AcDbEntity
  8
0
100
AcDbDimension
280
     0
  2
*D7
 10
1.114336621971676
 20
1.043684203919729
 30
0.0
 11
0.998066391461543
 21
1.117088032885876
 31
0.0
 70
   163
  1
Hatched Area\PIndicates\PFootprint of\PPart
 71
     5
 42
0.0059999999999999
 73
     0
 74
     0
 75
     0
  3
Dan's Dim Style
100
AcDbDiametricDimension
 15
1.11112361626772
 25
1.048751411666244
 35
0.0
 40
0.0
1001
ACAD_DSTYLE_DIMRADIAL_EXTENSION
1070
   387
1070
     1
1070
   388
1040
0.0
1070
   390
1040
0.0
1001
ACAD
1000
DSTYLE
1002
{
1070
   288
1070
     1
1002
}
  0
DIMENSION
  5
CBA
102
{ACAD_XDICTIONARY
360
CC4
102
}
102
{ACAD_REACTORS
330
CCB
102
}
330
1F
100
AcDbEntity
  8
0
100
AcDbDimension
280
     0
  2
*D8
 10
1.275861875008581
 20
1.057800110340121
 30
0.0
 11
1.428062664600715
 21
1.112284166192428
 31
0.0
 70
   163
  1
Multiple Plated Thru Holes\PTo Ground
 71
     5
 42
0.0060000000000002
 73
     0
 74
     0
 75
     0
  3
Dan's Dim Style
100
AcDbDiametricDimension
 15
1.279127351556534
 25
1.062833664046477
 35
0.0
 40
0.0
1001
ACAD_DSTYLE_DIMRADIAL_EXTENSION
1070
   387
1070
     1
1070
   388
1040
0.0
1070
   390
1040
0.0
1001
ACAD
1000
DSTYLE
1002
{
1070
   288
1070
     1
1002
}
  0
LWPOLYLINE
  5
CED
330
1F
100
AcDbEntity
  8
0
100
AcDbPolyline
 90
       30
 70
     1
 43
0.0
 10
0.8501334595902612
 20
0.9410293889063703
 10
1.159974405175802
 20
0.9410293889063863
 10
1.159974405175802
 20
1.036016075560517
 10
1.112491547804609
 20
1.036016075560517
 10
1.09999146839192
 20
1.036016436992611
 10
0.8593086212699844
 20
1.036016436992611
 42
-0.0720701157336895
 10
0.8790898620902112
 20
1.059260095791863
 42
0.3689958513932838
 10
0.8865921836078598
 20
1.111739586034168
 42
-0.3995339572557404
 10
0.9012213405714817
 20
1.185725296583107
 42
0.2475447725018352
 10
0.973565189307024
 20
1.223880042040605
 42
-0.3344542307832587
 10
1.029162788917574
 20
1.242622696004708
 42
0.2315957684810614
 10
1.122941807888281
 20
1.255340944490541
 42
-0.3119699306206185
 10
1.258251543785561
 20
1.253332809331112
 42
0.2731575740820551
 10
1.343322532307823
 20
1.245969587937075
 42
-0.4611545950968515
 10
1.509445400014087
 20
1.172337669710799
 42
-0.0133230373232951
 10
1.545232946475337
 20
1.085987443855877
 42
-0.0945770169723051
 10
1.56107174375954
 20
1.036016436992611
 10
1.299991468391908
 20
1.036016436992611
 10
1.287491388979219
 20
1.036016075560517
 10
1.240008531608026
 20
1.036016075560517
 10
1.240008531608026
 20
0.9410293889063863
 10
1.537944624436862
 20
0.9410293889063709
 42
-0.0506143726797992
 10
1.519818292259742
 20
0.9193842024302512
 42
0.1709090895925402
 10
1.472912610376837
 20
0.8463359646507058
 42
0.0523574924876636
 10
1.420995633613998
 20
0.7879871413925202
 42
-0.340969927273556
 10
1.340613566201895
 20
0.7538487253966864
 42
0.0607590113060963
 10
1.19190687874601
 20
0.7739301361337425
 42
0.0711614119722991
 10
1.063432636431699
 20
0.7572351838726661
 42
-0.4062574915159668
 10
0.904812090243098
 20
0.8439870485880405
 42
0.1020277000934163
 10
0.8683722769726216
 20
0.9103897038975219
 42
-0.0843581486180325
  0
LWPOLYLINE
  5
CF1
330
1F
100
AcDbEntity
  8
0
100
AcDbPolyline
 90
        5
 70
     1
 43
0.0
 10
0.8438266216958743
 20
0.9660160755605312
 10
1.130008531551993
 20
0.9660160755605387
 10
1.130008531551993
 20
1.006016075560559
 10
0.8463726779261307
 20
1.006016075560551
 42
-0.9999999999999708
 10
0.8463726779261312
 20
0.9869279592230881
 42
0.8856328215983065
  0
LWPOLYLINE
  5
CF3
330
1F
100
AcDbEntity
  8
0
100
AcDbPolyline
 90
        3
 70
     0
 43
0.0
 10
1.56139707973
 20
1.006016075560551
 42
-0.7829258458422777
 10
1.56139707973
 20
0.9845452134699215
 42
0.7829258458422157
 10
1.561397079729999
 20
0.9660160755605311
 42
0.1217516447271595
  0
DIMENSION
  5
CFB
330
1F
100
AcDbEntity
  8
0
100
AcDbDimension
280
     0
  2
*D9
 10
1.011740373202108
 20
0.8156580772386206
 30
0.0
 11
1.142416565171036
 21
0.7398775363632807
 31
0.0
 70
   163
  1
Copper/Ground
 71
     5
 42
0.0147862261531771
 73
     0
 74
     0
 75
     0
  3
Dan's Dim Style
100
AcDbDiametricDimension
 15
1.020365391790711
 25
0.8036480173637007
 35
0.0
 40
0.0
1001
ACAD
1000
DSTYLE
1002
{
1070
   288
1070
     1
1002
}
1001
ACAD_DSTYLE_DIMRADIAL_EXTENSION
1070
   387
1070
     1
1070
   388
1040
0.0
1070
   390
1040
0.0
  0
CIRCLE
  5
DC4
102
{ACAD_REACTORS
330
E6C
330
ED4
102
}
330
1F
100
AcDbEntity
  8
0
100
AcDbCircle
 10
1.19999158751095
 20
1.041266075560474
 30
0.0
 40
0.003
  0
CIRCLE
  5
DC5
102
{ACAD_REACTORS
330
E6C
330
ED4
102
}
330
1F
100
AcDbEntity
  8
0
100
AcDbCircle
 10
1.19999158751095
 20
1.003160957793959
 30
0.0
 40
0.003
  0
LWPOLYLINE
  5
E1B
102
{ACAD_REACTORS
330
E6C
102
}
330
1F
100
AcDbEntity
  8
0
100
AcDbPolyline
 90
        8
 70
     1
 43
0.0
 10
1.240008531608026
 20
0.9660160755604819
 10
1.240008531608026
 20
1.036016075560517
 10
1.299991468391908
 20
1.036016436992611
 10
1.299991468391908
 20
1.066016075560447
 10
1.09999146839192
 20
1.066016075560447
 10
1.09999146839192
 20
1.036016436992611
 10
1.159974405175802
 20
1.036016436992611
 10
1.159974405175802
 20
0.9660160755604819
  0
HATCH
  5
E6C
330
1F
100
AcDbEntity
  8
0
100
AcDbHatch
 10
0.0
 20
0.0
 30
0.0
210
0.0
220
0.0
230
1.0
  2
ANSI31
 70
     0
 71
     1
 91
       31
 92
        7
 72
     0
 73
     1
 93
        8
 10
1.299991468391908
 20
1.066016075560447
 10
1.09999146839192
 20
1.066016075560447
 10
1.09999146839192
 20
1.036016436992611
 10
1.159974405175802
 20
1.036016436992611
 10
1.159974405175802
 20
0.9660160755604819
 10
1.240008531608026
 20
0.9660160755604819
 10
1.240008531608026
 20
1.036016075560517
 10
1.299991468391908
 20
1.036016436992611
 97
        1
330
E1B
 92
       22
 72
     1
 73
     1
 93
        2
 10
1.20299158751095
 20
1.041266075560474
 42
-1.0
 10
1.19699158751095
 20
1.041266075560474
 42
-1.0
 97
        1
330
DC4
 92
       22
 72
     1
 73
     1
 93
        2
 10
1.185488323223812
 20
1.060320381213593
 42
-1.0
 10
1.191488323223812
 20
1.060320381213593
 42
-1.0
 97
        1
330
445
 92
       22
 72
     1
 73
     1
 93
        2
 10
1.208494613560016
 20
1.060320381213593
 42
-1.0
 10
1.214494613560015
 20
1.060320381213593
 42
-1.0
 97
        1
330
465
 92
       22
 72
     1
 73
     1
 93
        2
 10
1.180491349272877
 20
1.041266075560474
 42
-1.0
 10
1.174491349272878
 20
1.041266075560474
 42
-1.0
 97
        1
330
43C
 92
       22
 72
     1
 73
     1
 93
        2
 10
1.22549158751095
 20
1.041266075560474
 42
-1.0
 10
1.21949158751095
 20
1.041266075560474
 42
-1.0
 97
        1
330
461
 92
       22
 72
     1
 73
     1
 93
        2
 10
1.191491349272877
 20
1.022213516677217
 42
-1.0
 10
1.185491349272878
 20
1.022213516677217
 42
-1.0
 97
        1
330
433
 92
       22
 72
     1
 73
     1
 93
        2
 10
1.21449158751095
 20
1.022213516677217
 42
-1.0
 10
1.20849158751095
 20
1.022213516677217
 42
-1.0
 97
        1
330
45F
 92
       22
 72
     1
 73
     1
 93
        2
 10
1.163488323501271
 20
1.060316887193299
 42
-1.0
 10
1.169488323501271
 20
1.060316887193299
 42
-1.0
 97
        1
330
446
 92
       22
 72
     1
 73
     1
 93
        2
 10
1.230494613282557
 20
1.060316887193299
 42
-1.0
 10
1.236494613282557
 20
1.060316887193299
 42
-1.0
 97
        1
330
466
 92
       22
 72
     1
 73
     1
 93
        2
 10
1.169491349272878
 20
1.022213516677217
 42
-1.0
 10
1.163491349272878
 20
1.022213516677217
 42
-1.0
 97
        1
330
435
 92
       22
 72
     1
 73
     1
 93
        2
 10
1.23649158751095
 20
1.022213516677217
 42
-1.0
 10
1.23049158751095
 20
1.022213516677217
 42
-1.0
 97
        1
330
460
 92
       22
 72
     1
 73
     1
 93
        2
 10
1.158491349272877
 20
1.041266075560474
 42
-1.0
 10
1.152491349272878
 20
1.041266075560474
 42
-1.0
 97
        1
330
44D
 92
       22
 72
     1
 73
     1
 93
        2
 10
1.24749158751095
 20
1.041266075560474
 42
-1.0
 10
1.24149158751095
 20
1.041266075560474
 42
-1.0
 97
        1
330
467
 92
       22
 72
     1
 73
     1
 93
        2
 10
1.20299158751095
 20
1.003160957793959
 42
-1.0
 10
1.19699158751095
 20
1.003160957793959
 42
-1.0
 97
        1
330
DC5
 92
       22
 72
     1
 73
     1
 93
        2
 10
1.180491349272877
 20
1.003160957793959
 42
-1.0
 10
1.174491349272878
 20
1.003160957793959
 42
-1.0
 97
        1
330
440
 92
       22
 72
     1
 73
     1
 93
        2
 10
1.22549158751095
 20
1.003160957793959
 42
-1.0
 10
1.21949158751095
 20
1.003160957793959
 42
-1.0
 97
        1
330
462
 92
       22
 72
     1
 73
     1
 93
        2
 10
1.141488323501271
 20
1.060316887193299
 42
-1.0
 10
1.147488323501271
 20
1.060316887193299
 42
-1.0
 97
        1
330
457
 92
       22
 72
     1
 73
     1
 93
        2
 10
1.252494613282557
 20
1.060316887193299
 42
-1.0
 10
1.258494613282557
 20
1.060316887193299
 42
-1.0
 97
        1
330
468
 92
       22
 72
     1
 73
     1
 93
        2
 10
1.136491349272878
 20
1.041266075560474
 42
-1.0
 10
1.130491349272877
 20
1.041266075560474
 42
-1.0
 97
        1
330
45D
 92
       22
 72
     1
 73
     1
 93
        2
 10
1.191494375044484
 20
0.9841101461611344
 42
-1.0
 10
1.185494375044484
 20
0.9841101461611344
 42
-1.0
 97
        1
330
441
 92
       22
 72
     1
 73
     1
 93
        2
 10
1.214488561739344
 20
0.9841101461611344
 42
-1.0
 10
1.208488561739344
 20
0.9841101461611344
 42
-1.0
 97
        1
330
463
 92
       22
 72
     1
 73
     1
 93
        2
 10
1.26949158751095
 20
1.041266075560474
 42
-1.0
 10
1.26349158751095
 20
1.041266075560474
 42
-1.0
 97
        1
330
46A
 92
       22
 72
     1
 73
     1
 93
        2
 10
1.169494375321943
 20
0.9841066521408405
 42
-1.0
 10
1.163494375321943
 20
0.9841066521408405
 42
-1.0
 97
        1
330
442
 92
       22
 72
     1
 73
     1
 93
        2
 10
1.236488561461885
 20
0.9841066521408405
 42
-1.0
 10
1.230488561461885
 20
0.9841066521408405
 42
-1.0
 97
        1
330
464
 92
        6
 72
     1
 73
     1
 93
        2
 10
1.119488323501271
 20
1.060316887193299
 42
-1.0
 10
1.125488323501271
 20
1.060316887193299
 42
-1.0
 97
        1
330
459
 92
       22
 72
     1
 73
     1
 93
        2
 10
1.274494613282557
 20
1.060316887193299
 42
-1.0
 10
1.280494613282557
 20
1.060316887193299
 42
-1.0
 97
        1
330
469
 92
       22
 72
     1
 73
     1
 93
        2
 10
1.108491349272878
 20
1.041266075560474
 42
-1.0
 10
1.114491349272877
 20
1.041266075560474
 42
-1.0
 97
        1
330
45E
 92
       22
 72
     1
 73
     1
 93
        2
 10
1.29149158751095
 20
1.041266075560474
 42
-1.0
 10
1.28549158751095
 20
1.041266075560474
 42
-1.0
 97
        1
330
46B
 92
       22
 72
     1
 73
     1
 93
        2
 10
1.119488323501271
 20
1.060316887193299
 42
1.0
 10
1.125488323501271
 20
1.060316887193299
 42
1.0
 97
        0
 92
        6
 72
     1
 73
     1
 93
        2
 10
1.114491349272877
 20
1.041266075560474
 42
1.0
 10
1.108491349272878
 20
1.041266075560474
 42
1.0
 97
        0
 75
     1
 76
     1
 52
0.0
 41
0.05
 77
     0
 78
     1
 53
45.0
 43
0.0
 44
0.0
 45
-0.0044194173824159
 46
0.0044194173824159
 79
     0
 47
0.0002725011547763
 98
       31
 10
1.19901997712426
 20
1.050089087589556
 10
1.19901997712426
 20
1.050089087589556
 10
1.19901997712426
 20
1.050089087589556
 10
1.19901997712426
 20
1.050089087589556
 10
1.19901997712426
 20
1.050089087589556
 10
1.19901997712426
 20
1.050089087589556
 10
1.19901997712426
 20
1.050089087589556
 10
1.19901997712426
 20
1.050089087589556
 10
1.19901997712426
 20
1.050089087589556
 10
1.19901997712426
 20
1.050089087589556
 10
1.19901997712426
 20
1.050089087589556
 10
1.19901997712426
 20
1.050089087589556
 10
1.19901997712426
 20
1.050089087589556
 10
1.19901997712426
 20
1.050089087589556
 10
1.19901997712426
 20
1.050089087589556
 10
1.19901997712426
 20
1.050089087589556
 10
1.19901997712426
 20
1.050089087589556
 10
1.19901997712426
 20
1.050089087589556
 10
1.19901997712426
 20
1.050089087589556
 10
1.19901997712426
 20
1.050089087589556
 10
1.19901997712426
 20
1.050089087589556
 10
1.19901997712426
 20
1.050089087589556
 10
1.19901997712426
 20
1.050089087589556
 10
1.19901997712426
 20
1.050089087589556
 10
1.19901997712426
 20
1.050089087589556
 10
1.19901997712426
 20
1.050089087589556
 10
1.19901997712426
 20
1.050089087589556
 10
1.19901997712426
 20
1.050089087589556
 10
1.19901997712426
 20
1.050089087589556
 10
1.123375661587598
 20
1.06019383862155
 10
1.111104678791479
 20
1.040846255910711
1001
GradientColor1ACI
1070
     5
1001
GradientColor2ACI
1070
     2
1001
ACAD
1010
0.0
1020
0.0
1030
0.0
  0
HATCH
  5
ED4
330
1F
100
AcDbEntity
  8
0
100
AcDbHatch
 10
0.0
 20
0.0
 30
0.0
210
0.0
220
0.0
230
1.0
  2
ANSI31
 70
     0
 71
     1
 91
       28
 92
        7
 72
     1
 73
     1
 93
        2
 10
1.119488323501271
 20
1.060316887193299
 42
1.0
 10
1.125488323501271
 20
1.060316887193299
 42
1.0
 97
        1
330
459
 92
        7
 72
     1
 73
     1
 93
        2
 10
1.114491349272877
 20
1.041266075560474
 42
1.0
 10
1.108491349272878
 20
1.041266075560474
 42
1.0
 97
        1
330
45E
 92
        7
 72
     1
 73
     1
 93
        2
 10
1.136491349272877
 20
1.041266075560474
 42
1.0
 10
1.130491349272878
 20
1.041266075560474
 42
1.0
 97
        1
330
45D
 92
        7
 72
     1
 73
     1
 93
        2
 10
1.163488323501271
 20
1.060316887193299
 42
1.0
 10
1.169488323501271
 20
1.060316887193299
 42
1.0
 97
        1
330
446
 92
        7
 72
     1
 73
     1
 93
        2
 10
1.152491349272878
 20
1.041266075560474
 42
1.0
 10
1.158491349272877
 20
1.041266075560474
 42
1.0
 97
        1
330
44D
 92
        7
 72
     1
 73
     1
 93
        2
 10
1.141488323501271
 20
1.060316887193299
 42
1.0
 10
1.147488323501271
 20
1.060316887193299
 42
1.0
 97
        1
330
457
 92
        7
 72
     1
 73
     1
 93
        2
 10
1.185488323223812
 20
1.060320381213593
 42
1.0
 10
1.191488323223812
 20
1.060320381213593
 42
1.0
 97
        1
330
445
 92
        7
 72
     1
 73
     1
 93
        2
 10
1.174491349272877
 20
1.041266075560474
 42
1.0
 10
1.180491349272877
 20
1.041266075560474
 42
1.0
 97
        1
330
43C
 92
        7
 72
     1
 73
     1
 93
        2
 10
1.163491349272878
 20
1.022213516677217
 42
1.0
 10
1.169491349272878
 20
1.022213516677217
 42
1.0
 97
        1
330
435
 92
        7
 72
     1
 73
     1
 93
        2
 10
1.185491349272878
 20
1.022213516677217
 42
1.0
 10
1.191491349272877
 20
1.022213516677217
 42
1.0
 97
        1
330
433
 92
        7
 72
     1
 73
     1
 93
        2
 10
1.180491349272878
 20
1.003160957793959
 42
1.0
 10
1.174491349272877
 20
1.003160957793959
 42
1.0
 97
        1
330
440
 92
        7
 72
     1
 73
     1
 93
        2
 10
1.163494375321943
 20
0.9841066521408405
 42
1.0
 10
1.169494375321943
 20
0.9841066521408405
 42
1.0
 97
        1
330
442
 92
        7
 72
     1
 73
     1
 93
        2
 10
1.185494375044484
 20
0.9841101461611344
 42
1.0
 10
1.191494375044484
 20
0.9841101461611344
 42
1.0
 97
        1
330
441
 92
        7
 72
     1
 73
     1
 93
        2
 10
1.20299158751095
 20
1.003160957793959
 42
1.0
 10
1.19699158751095
 20
1.003160957793959
 42
1.0
 97
        1
330
DC5
 92
        7
 72
     1
 73
     1
 93
        2
 10
1.22549158751095
 20
1.041266075560474
 42
1.0
 10
1.21949158751095
 20
1.041266075560474
 42
1.0
 97
        1
330
461
 92
        7
 72
     1
 73
     1
 93
        2
 10
1.20849158751095
 20
1.022213516677217
 42
1.0
 10
1.21449158751095
 20
1.022213516677217
 42
1.0
 97
        1
330
45F
 92
        7
 72
     1
 73
     1
 93
        2
 10
1.20299158751095
 20
1.041266075560474
 42
1.0
 10
1.19699158751095
 20
1.041266075560474
 42
1.0
 97
        1
330
DC4
 92
        7
 72
     1
 73
     1
 93
        2
 10
1.208494613560016
 20
1.060320381213593
 42
1.0
 10
1.214494613560015
 20
1.060320381213593
 42
1.0
 97
        1
330
465
 92
        7
 72
     1
 73
     1
 93
        2
 10
1.230494613282557
 20
1.060316887193299
 42
1.0
 10
1.236494613282557
 20
1.060316887193299
 42
1.0
 97
        1
330
466
 92
        7
 72
     1
 73
     1
 93
        2
 10
1.252494613282557
 20
1.060316887193299
 42
1.0
 10
1.258494613282557
 20
1.060316887193299
 42
1.0
 97
        1
330
468
 92
        7
 72
     1
 73
     1
 93
        2
 10
1.24749158751095
 20
1.041266075560474
 42
1.0
 10
1.24149158751095
 20
1.041266075560474
 42
1.0
 97
        1
330
467
 92
        7
 72
     1
 73
     1
 93
        2
 10
1.23049158751095
 20
1.022213516677217
 42
1.0
 10
1.23649158751095
 20
1.022213516677217
 42
1.0
 97
        1
330
460
 92
        7
 72
     1
 73
     1
 93
        2
 10
1.21949158751095
 20
1.003160957793959
 42
1.0
 10
1.22549158751095
 20
1.003160957793959
 42
1.0
 97
        1
330
462
 92
        7
 72
     1
 73
     1
 93
        2
 10
1.208488561739344
 20
0.9841101461611344
 42
1.0
 10
1.214488561739344
 20
0.9841101461611344
 42
1.0
 97
        1
330
463
 92
        7
 72
     1
 73
     1
 93
        2
 10
1.230488561461885
 20
0.9841066521408405
 42
1.0
 10
1.236488561461885
 20
0.9841066521408405
 42
1.0
 97
        1
330
464
 92
        7
 72
     1
 73
     1
 93
        2
 10
1.26349158751095
 20
1.041266075560474
 42
1.0
 10
1.26949158751095
 20
1.041266075560474
 42
1.0
 97
        1
330
46A
 92
        7
 72
     1
 73
     1
 93
        2
 10
1.280494613282557
 20
1.060316887193299
 42
1.0
 10
1.274494613282557
 20
1.060316887193299
 42
1.0
 97
        1
330
469
 92
        7
 72
     1
 73
     1
 93
        2
 10
1.28549158751095
 20
1.041266075560474
 42
1.0
 10
1.29149158751095
 20
1.041266075560474
 42
1.0
 97
        1
330
46B
 75
     1
 76
     1
 52
0.0
 41
0.05
 77
     0
 78
     1
 53
45.0
 43
0.0
 44
0.0
 45
-0.0044194173824159
 46
0.0044194173824159
 79
     0
 47
0.0002725011547763
 98
       28
 10
1.122008583619377
 20
1.060192326837889
 10
1.111646428565927
 20
1.040844744127051
 10
1.134279566415495
 20
1.040844744127051
 10
1.167820243322895
 20
1.060192326837889
 10
1.156367320260681
 20
1.041389747614147
 10
1.145187105473327
 20
1.060464825842699
 10
1.187453807117925
 20
1.061009829329796
 10
1.177364327793995
 20
1.041934745623766
 10
1.166729486162578
 20
1.022859667395214
 10
1.187726493695892
 20
1.022587162912927
 10
1.176273581482126
 20
1.002694582192469
 10
1.165911415580227
 20
0.984437000978346
 10
1.188271866851827
 20
0.984437000978346
 10
1.200270163069978
 20
1.002967081197279
 10
1.223448674075481
 20
1.040299740639954
 10
1.211995761861713
 20
1.022587162912927
 10
1.200542849647945
 20
1.041117243131861
 10
1.213086519022031
 20
1.060737324847509
 10
1.23272008281706
 20
1.061009829329796
 10
1.255625907244596
 20
1.060464825842699
 10
1.244718368186763
 20
1.040572239644764
 10
1.23381082912893
 20
1.022314663908118
 10
1.223175987497512
 20
1.004057088171471
 10
1.213086519022031
 20
0.9847095054606329
 10
1.233265455972995
 20
0.9849820044654418
 10
1.266533446302426
 20
1.041934745623766
 10
1.276895601355878
 20
1.059919822355603
 10
1.287530453835742
 20
1.041389747614147
1001
GradientColor1ACI
1070
     5
1001
GradientColor2ACI
1070
     2
1001
ACAD
1010
0.0
1020
0.0
1030
0.0
  0
VIEWPORT
  5
4B8
102
{ACAD_XDICTIONARY
360
4B9
102
}
330
58
100
AcDbEntity
 67
     1
  8
0
100
AcDbViewport
 10
8.407102029534488
 20
3.895961146609293
 30
0.0
 40
17.84473555619104
 41
7.755620413426077
 68
     1
 69
     1
 12
8.407102029534488
 22
3.895961146609293
 13
0.0
 23
0.0
 14
0.5
 24
0.5
 15
0.5
 25
0.5
 16
0.0
 26
0.0
 36
1.0
 17
0.0
 27
0.0
 37
0.0
 42
50.0
 43
0.0
 44
0.0
 45
7.755620413426077
 50
0.0
 51
0.0
 72
  1000
 90
   819232
  1

281
     0
 71
     1
 74
     0
110
0.0
120
0.0
130
0.0
111
1.0
121
0.0
131
0.0
112
0.0
122
1.0
132
0.0
 79
     0
146
0.0
170
     0
 61
     5
348
9F
292
     1
282
     1
141
0.0
142
0.0
 63
   250
421
  3355443
  0
VIEWPORT
  5
4BC
102
{ACAD_XDICTIONARY
360
4BD
102
}
330
58
100
AcDbEntity
 67
     1
  8
PREPLATE
100
AcDbViewport
 10
5.249999761581421
 20
3.999999761581421
 30
0.0
 40
8.399999618530275
 41
6.399999618530274
 68
     2
 69
     2
 12
1.210248095099471
 22
1.007032113201247
 13
0.0
 23
0.0
 14
0.5
 24
0.5
 15
0.5
 25
0.5
 16
0.0
 26
0.0
 36
1.0
 17
0.0
 27
0.0
 37
0.0
 42
50.0
 43
0.0
 44
0.0
 45
0.6087671024647874
 50
0.0
 51
0.0
 72
  1000
 90
   819296
  1

281
     0
 71
     1
 74
     0
110
0.0
120
0.0
130
0.0
111
1.0
121
0.0
131
0.0
112
0.0
122
1.0
132
0.0
 79
     0
146
0.0
170
     0
 61
     5
348
9F
292
     1
282
     1
141
0.0
142
0.0
 63
   250
421
  3355443
  0
ENDSEC
  0
SECTION
  2
OBJECTS
  0
DICTIONARY
  5
C
330
0
100
AcDbDictionary
281
     1
  3
ACAD_CIP_PREVIOUS_PRODUCT_INFO
350
1A5
  3
ACAD_COLOR
350
73
  3
ACAD_DETAILVIEWSTYLE
350
1AB
  3
ACAD_GROUP
350
D
  3
ACAD_LAYOUT
350
1A
  3
ACAD_MATERIAL
350
72
  3
ACAD_MLEADERSTYLE
350
D7
  3
ACAD_MLINESTYLE
350
17
  3
ACAD_PLOTSETTINGS
350
19
  3
ACAD_PLOTSTYLENAME
350
E
  3
ACAD_SCALELIST
350
B6
  3
ACAD_SECTIONVIEWSTYLE
350
1A8
  3
ACAD_TABLESTYLE
350
86
  3
ACAD_VISUALSTYLE
350
99
  3
ACDB_RECOMPOSE_DATA
350
F66
  3
AcDbVariableDictionary
350
66
  0
DICTIONARY
  5
18E
330
2
100
AcDbDictionary
280
     1
281
     1
  3
ACAD_LAYERSTATES
360
18F
  0
DICTIONARY
  5
E6
330
10
100
AcDbDictionary
280
     1
281
     1
  0
DICTIONARY
  5
226
330
225
100
AcDbDictionary
280
     1
281
     1
  0
DICTIONARY
  5
228
330
227
100
AcDbDictionary
280
     1
281
     1
  0
DICTIONARY
  5
22A
330
229
100
AcDbDictionary
280
     1
281
     1
  0
DICTIONARY
  5
22C
330
22B
100
AcDbDictionary
280
     1
281
     1
  0
DICTIONARY
  5
22E
330
22D
100
AcDbDictionary
280
     1
281
     1
  0
DICTIONARY
  5
230
330
22F
100
AcDbDictionary
280
     1
281
     1
  0
DICTIONARY
  5
232
330
231
100
AcDbDictionary
280
     1
281
     1
  0
DICTIONARY
  5
236
330
235
100
AcDbDictionary
280
     1
281
     1
  0
DICTIONARY
  5
238
330
237
100
AcDbDictionary
280
     1
281
     1
  0
DICTIONARY
  5
15D
330
1F
100
AcDbDictionary
280
     1
281
     1
  3
ACAD_SORTENTS
360
415
  0
DICTIONARY
  5
7BA
330
7AC
100
AcDbDictionary
280
     1
281
     1
  3
ACAD_DIMASSOC
360
7C5
  0
DICTIONARY
  5
84F
330
840
100
AcDbDictionary
280
     1
281
     1
  3
ACAD_DIMASSOC
360
85B
  0
DICTIONARY
  5
8F4
330
8E6
100
AcDbDictionary
280
     1
281
     1
  3
ACAD_DIMASSOC
360
8FF
  0
DICTIONARY
  5
95D
330
94E
100
AcDbDictionary
280
     1
281
     1
  3
ACAD_DIMASSOC
360
969
  0
DICTIONARY
  5
9D0
330
9C6
100
AcDbDictionary
280
     1
281
     1
  3
ACAD_DIMASSOC
360
9D7
  0
DICTIONARY
  5
CC4
330
CBA
100
AcDbDictionary
280
     1
281
     1
  3
ACAD_DIMASSOC
360
CCB
  0
DICTIONARY
  5
4B9
330
4B8
100
AcDbDictionary
280
     1
281
     1
  3
ASDK_XREC_ANNOTATION_SCALE_INFO
360
4BA
  0
DICTIONARY
  5
4BD
330
4BC
100
AcDbDictionary
280
     1
281
     1
  3
ASDK_XREC_ANNOTATION_SCALE_INFO
360
4BE
  0
XRECORD
  5
1A5
102
{ACAD_REACTORS
330
C
102
}
330
C
100
AcDbXrecord
280
     1
300
ACD
300
2016
300
86445ACD_2016_0F
  0
DICTIONARY
  5
73
102
{ACAD_REACTORS
330
C
102
}
330
C
100
AcDbDictionary
281
     1
  0
DICTIONARY
  5
1AB
102
{ACAD_REACTORS
330
C
102
}
330
C
100
AcDbDictionary
281
     1
  3
Imperial24
350
1AC
  0
DICTIONARY
  5
D
102
{ACAD_REACTORS
330
C
102
}
330
C
100
AcDbDictionary
281
     1
  0
DICTIONARY
  5
1A
102
{ACAD_REACTORS
330
C
102
}
330
C
100
AcDbDictionary
281
     1
  3
Layout1
350
59
  3
Layout2
350
5E
  3
Model
350
22
  0
DICTIONARY
  5
72
102
{ACAD_REACTORS
330
C
102
}
330
C
100
AcDbDictionary
281
     1
  3
ByBlock
350
97
  3
ByLayer
350
96
  3
Global
350
98
  0
DICTIONARY
  5
D7
102
{ACAD_REACTORS
330
C
102
}
330
C
100
AcDbDictionary
281
     1
  3
Annotative
350
E5
  3
Standard
350
D8
  0
DICTIONARY
  5
17
102
{ACAD_REACTORS
330
C
102
}
330
C
100
AcDbDictionary
281
     1
  3
Standard
350
18
  0
DICTIONARY
  5
19
102
{ACAD_REACTORS
330
C
102
}
330
C
100
AcDbDictionary
281
     1
  0
ACDBDICTIONARYWDFLT
  5
E
102
{ACAD_REACTORS
330
C
102
}
330
C
100
AcDbDictionary
281
     1
  3
Normal
350
F
100
AcDbDictionaryWithDefault
340
F
  0
DICTIONARY
  5
B6
102
{ACAD_REACTORS
330
C
102
}
330
C
100
AcDbDictionary
281
     1
  3
A0
350
B7
  3
A1
350
124
  3
A2
350
125
  3
A3
350
126
  3
A4
350
127
  3
A5
350
128
  3
A6
350
129
  3
A7
350
12A
  3
A8
350
12B
  3
A9
350
12C
  3
B0
350
12D
  3
B1
350
12E
  3
B2
350
12F
  3
B3
350
130
  3
B4
350
131
  3
B5
350
132
  3
B6
350
133
  3
B7
350
134
  3
B8
350
135
  3
B9
350
136
  3
C0
350
137
  3
C1
350
138
  3
C2
350
139
  3
C3
350
13A
  3
C4
350
13B
  3
C5
350
13C
  3
C6
350
13D
  3
C7
350
13E
  3
C8
350
13F
  3
C9
350
140
  3
D0
350
141
  3
D1
350
142
  3
D2
350
143
  0
DICTIONARY
  5
1A8
102
{ACAD_REACTORS
330
C
102
}
330
C
100
AcDbDictionary
281
     1
  3
Imperial24
350
1AA
  0
DICTIONARY
  5
86
102
{ACAD_REACTORS
330
C
102
}
330
C
100
AcDbDictionary
281
     1
  3
Standard
350
87
  0
DICTIONARY
  5
99
102
{ACAD_REACTORS
330
C
102
}
330
C
100
AcDbDictionary
281
     1
  3
2dWireframe
350
9F
  3
3dWireframe
350
23B
  3
Basic
350
9E
  3
Brighten
350
A5
  3
ColorChange
350
A9
  3
Conceptual
350
A2
  3
Dim
350
A4
  3
EdgeColorOff
350
175
  3
Facepattern
350
A8
  3
Flat
350
9A
  3
FlatWithEdges
350
9B
  3
Gouraud
350
9C
  3
GouraudWithEdges
350
9D
  3
Hidden
350
A1
  3
JitterOff
350
173
  3
Linepattern
350
A7
  3
OverhangOff
350
174
  3
Realistic
350
A3
  3
Shaded
350
182
  3
Shaded with edges
350
181
  3
Shades of Gray
350
17E
  3
Sketchy
350
17F
  3
Thicken
350
A6
  3
Wireframe
350
A0
  3
X-Ray
350
180
  0
XRECORD
  5
F66
102
{ACAD_REACTORS
330
C
102
}
330
C
100
AcDbXrecord
280
     1
 90
        1
330
87
330
1AA
330
1AC
  0
DICTIONARY
  5
66
102
{ACAD_REACTORS
330
C
102
}
330
C
100
AcDbDictionary
281
     1
  3
CANNOSCALE
350
F0
  3
CMLEADERSTYLE
350
EF
  3
CTABLESTYLE
350
89
  3
CVIEWDETAILSTYLE
350
1B7
  3
CVIEWSECTIONSTYLE
350
1B8
  3
DIMASSOC
350
67
  3
HIDETEXT
350
6B
  3
HPCOLOR
350
B0F
  3
HPTRANSPARENCY
350
B0E
  3
LAYEREVAL
350
14D
  3
LAYERNOTIFY
350
14E
  0
DICTIONARY
  5
18F
102
{ACAD_REACTORS
330
18E
102
}
330
18E
100
AcDbDictionary
281
     1
  0
SORTENTSTABLE
  5
415
102
{ACAD_REACTORS
330
15D
102
}
330
15D
100
AcDbSortentsTable
330
1F
331
484
  5
57A
331
445
  5
55C
331
3DE
  5
462
331
480
  5
578
331
441
  5
55A
331
3DA
  5
45F
331
4CF
  5
58F
331
9C6
  5
E86
331
E1B
  5
E8F
331
7AC
  5
E81
331
B3D
  5
54C
331
435
  5
557
331
4FE
  5
5A4
331
468
  5
56C
331
4A7
  5
58A
331
4F2
  5
59D
331
CFB
  5
E8C
331
464
  5
568
331
49F
  5
588
331
460
  5
564
331
4EE
  5
59B
331
366
  5
377
331
4EA
  5
59A
331
409
  5
553
331
94E
  5
E85
331
CF3
  5
E8B
331
48B
  5
57E
331
4DA
  5
596
331
4D2
  5
592
331
487
  5
57C
331
3DD
  5
461
331
440
  5
559
331
3D9
  5
45E
331
4CE
  5
58E
331
47B
  5
577
331
43C
  5
558
331
9C5
  5
E84
331
8E6
  5
E82
331
477
  5
575
331
473
  5
573
331
46F
  5
572
331
4FD
  5
5A3
331
46B
  5
570
331
4F9
  5
5A1
331
4F5
  5
59F
331
467
  5
56B
331
463
  5
567
331
49E
  5
587
331
45F
  5
563
331
369
  5
37A
331
49A
  5
585
331
408
  5
550
331
496
  5
583
331
457
  5
55F
331
492
  5
581
331
48E
  5
57F
331
4DD
  5
597
331
4D9
  5
595
331
4D1
  5
591
331
486
  5
57B
331
482
  5
579
331
4CD
  5
58D
331
500
  5
5A6
331
DC5
  5
E8E
331
433
  5
556
331
3C8
  5
3FE
331
46A
  5
56F
331
3C4
  5
3FA
331
4F4
  5
59E
331
4A5
  5
589
331
4F0
  5
59C
331
CBA
  5
E89
331
466
  5
56A
331
462
  5
566
331
45E
  5
562
331
4E4
  5
598
331
C8A
  5
E88
331
CF1
  5
E8A
331
407
  5
544
331
3F3
  5
487
331
4D8
  5
594
331
4D0
  5
590
331
ED4
  5
555
331
CED
  5
E87
331
E6C
  5
554
331
446
  5
55D
331
3DF
  5
463
331
442
  5
55B
331
3DB
  5
460
331
3D7
  5
45D
331
4CC
  5
58C
331
479
  5
576
331
DC4
  5
E8D
331
475
  5
574
331
4FF
  5
5A5
331
46D
  5
571
331
4FB
  5
5A2
331
469
  5
56D
331
4F7
  5
5A0
331
4A8
  5
58B
331
741
  5
E80
331
465
  5
569
331
461
  5
565
331
49C
  5
586
331
45D
  5
561
331
498
  5
584
331
459
  5
560
331
4E7
  5
599
331
840
  5
E83
331
494
  5
582
331
490
  5
580
331
44D
  5
55E
331
488
  5
57D
331
3F2
  5
486
331
4D7
  5
593
  0
DIMASSOC
  5
7C5
102
{ACAD_REACTORS
330
7BA
102
}
330
7BA
100
AcDbDimAssoc
330
7AC
 90
        1
 70
     0
 71
     0
  1
AcDbOsnapPointRef
 72
     2
331
408
 73
     2
 91
        6
 40
0.5
 10
1.129991468391949
 20
0.9885160755605395
 30
0.0
 75
     0
  0
DIMASSOC
  5
85B
102
{ACAD_REACTORS
330
84F
102
}
330
84F
100
AcDbDimAssoc
330
840
 90
        1
 70
     0
 71
     0
  1
AcDbOsnapPointRef
 72
     1
331
408
 73
     2
 91
        5
 40
1.0
 10
1.129991468391949
 20
1.006016075560559
 30
0.0
 75
     0
  0
DIMASSOC
  5
8FF
102
{ACAD_REACTORS
330
8F4
102
}
330
8F4
100
AcDbDimAssoc
330
8E6
 90
        2
 70
     0
 71
     0
  1
AcDbOsnapPointRef
 72
     1
331
409
 73
     2
 91
        1
 40
1.0
 10
1.269991468391935
 20
1.006016075560559
 30
0.0
 75
     0
  0
DIMASSOC
  5
969
102
{ACAD_REACTORS
330
95D
102
}
330
95D
100
AcDbDimAssoc
330
94E
 90
        3
 70
     0
 71
     0
  1
AcDbOsnapPointRef
 72
     1
331
741
 73
     2
 91
        1
 40
1.0
 10
1.269974405231835
 20
1.006016075560559
 30
0.0
 75
     0
  1
AcDbOsnapPointRef
 72
     8
331
741
 73
     2
 91
        3
 40
0.0
 10
1.269974405231834
 20
0.9660160755605387
 30
0.0
 75
     1
  1
AcDbOsnapPointRef
 72
     1
331
741
 73
     2
 91
        1
 40
1.0
 10
1.269974405231835
 20
1.006016075560559
 30
0.0
 75
     0
  0
DIMASSOC
  5
9D7
102
{ACAD_REACTORS
330
9D0
102
}
330
9D0
100
AcDbDimAssoc
330
9C6
 90
        2
 70
     0
 71
     0
  1
AcDbOsnapPointRef
 72
     3
331
9C5
 73
     2
 91
        0
 40
0.0
 10
0.0
 20
0.0
 30
0.0
 75
     0
  0
DIMASSOC
  5
CCB
102
{ACAD_REACTORS
330
CC4
102
}
330
CC4
100
AcDbDimAssoc
330
CBA
 90
        2
 70
     0
 71
     0
  1
AcDbOsnapPointRef
 72
     3
331
469
 73
     2
 91
        0
 40
0.0
 10
0.0
 20
0.0
 30
0.0
 75
     0
  0
XRECORD
  5
4BA
102
{ACAD_REACTORS
330
4B9
102
}
330
4B9
100
AcDbXrecord
280
     1
 90
        1
340
B7
  0
XRECORD
  5
4BE
102
{ACAD_REACTORS
330
4BD
102
}
330
4BD
100
AcDbXrecord
280
     1
 90
        1
340
B7
  0
ACDBDETAILVIEWSTYLE
  5
1AC
102
{ACAD_XDICTIONARY
360
1C6
102
}
102
{ACAD_REACTORS
330
1AB
102
}
330
1AB
100
AcDbModelDocViewStyle
 70
     0
  3
Imperial24
290
     0
100
AcDbDetailViewStyle
 70
     0
 71
     0
 90
        3
 71
     1
340
11
 62
   256
 40
0.24
340
0
 62
   256
 40
0.24
300

 40
0.36
280
     3
 71
     2
340
16
 90
       25
 62
   256
 71
     3
340
11
 62
   256
 40
0.24
 90
        1
 40
0.75
 90
        1
300
%<\AcVar ViewType \f "%tc1">% %<\AcVar ViewDetailId>%\PSCALE %<\AcVar ViewScale \f "%sn">%
 71
     4
340
16
 90
       25
 62
   256
340
16
 90
       25
 62
   256
280
     0
  0
LAYOUT
  5
59
102
{ACAD_REACTORS
330
1A
102
}
330
1A
100
AcDbPlotSettings
  1

  2
None
  4
Letter_(8.50_x_11.00_Inches)
  6

 40
6.349999904632568
 41
6.349999904632568
 42
6.350006103515625
 43
6.350006103515625
 44
215.8999938964844
 45
279.3999938964844
 46
0.0
 47
0.0
 48
0.0
 49
0.0
140
0.0
141
0.0
142
1.0
143
1.0
 70
   688
 72
     0
 73
     1
 74
     5
  7

 75
    16
147
1.0
 76
     0
 77
     2
 78
   300
148
0.0
149
0.0
100
AcDbLayout
  1
Layout1
 70
     1
 71
     1
 10
-0.2500002402958907
 20
-0.2499999962453767
 11
10.74999951940822
 21
8.249999763458733
 12
0.0
 22
0.0
 32
0.0
 14
1.049999952316284
 24
0.7999999523162842
 34
0.0
 15
9.449999570846559
 25
7.199999570846558
 35
0.0
146
0.0
 13
0.0
 23
0.0
 33
0.0
 16
1.0
 26
0.0
 36
0.0
 17
0.0
 27
1.0
 37
0.0
 76
     0
330
58
331
4B8
1001
ACAD_PSEXT
1000
None
1000
None
1000
Not applicable
1000
The layout will not be plotted unless a new plotter configuration name is selected.
1070
     0
  0
LAYOUT
  5
5E
102
{ACAD_REACTORS
330
1A
102
}
330
1A
100
AcDbPlotSettings
  1

  2
None
  4

  6

 40
0.0
 41
0.0
 42
0.0
 43
0.0
 44
0.0
 45
0.0
 46
0.0
 47
0.0
 48
0.0
 49
0.0
140
0.0
141
0.0
142
1.0
143
1.0
 70
   688
 72
     0
 73
     0
 74
     5
  7

 75
    16
147
1.0
 76
     0
 77
     2
 78
   300
148
0.0
149
0.0
100
AcDbLayout
  1
Layout2
 70
     1
 71
     2
 10
0.0
 20
0.0
 11
12.0
 21
9.0
 12
0.0
 22
0.0
 32
0.0
 14
0.0
 24
0.0
 34
0.0
 15
0.0
 25
0.0
 35
0.0
146
0.0
 13
0.0
 23
0.0
 33
0.0
 16
1.0
 26
0.0
 36
0.0
 17
0.0
 27
1.0
 37
0.0
 76
     0
330
5D
  0
LAYOUT
  5
22
102
{ACAD_XDICTIONARY
360
194
102
}
102
{ACAD_REACTORS
330
1A
102
}
330
1A
100
AcDbPlotSettings
  1

  2
none_device
  4
ANSI_A_(8.50_x_11.00_Inches)
  6

 40
6.349999904632568
 41
19.04999923706055
 42
6.350006103515625
 43
19.04998779296875
 44
215.8999938964844
 45
279.3999938964844
 46
0.0
 47
0.0
 48
0.0
 49
0.0
140
0.0
141
0.0
142
1.0
143
2.584895464708373
 70
 11952
 72
     0
 73
     1
 74
     0
  7

 75
     0
147
0.3868628397755418
 76
     0
 77
     2
 78
   300
148
0.0
149
0.0
100
AcDbLayout
  1
Model
 70
     1
 71
     0
 10
0.0
 20
0.0
 11
12.0
 21
9.0
 12
0.0
 22
0.0
 32
0.0
 14
0.0
 24
0.0
 34
0.0
 15
0.0
 25
0.0
 35
0.0
146
0.0
 13
0.0
 23
0.0
 33
0.0
 16
1.0
 26
0.0
 36
0.0
 17
0.0
 27
1.0
 37
0.0
 76
     0
330
1F
331
94
  0
MATERIAL
  5
97
102
{ACAD_XDICTIONARY
360
188
102
}
102
{ACAD_REACTORS
330
72
102
}
330
72
100
AcDbMaterial
  1
ByBlock
 94
       63
  0
MATERIAL
  5
96
102
{ACAD_XDICTIONARY
360
186
102
}
102
{ACAD_REACTORS
330
72
102
}
330
72
100
AcDbMaterial
  1
ByLayer
 94
       63
  0
MATERIAL
  5
98
102
{ACAD_XDICTIONARY
360
110
102
}
102
{ACAD_REACTORS
330
72
102
}
330
72
100
AcDbMaterial
  1
Global
 43
0.0208000000566244
 43
0.0
 43
0.0
 43
0.0
 43
0.0
 43
0.0208000000566244
 43
0.0
 43
0.0
 43
0.0
 43
0.0
 43
1.0
 43
0.0
 43
0.0
 43
0.0
 43
0.0
 43
1.0
 49
0.0208000000566244
 49
0.0
 49
0.0
 49
0.0
 49
0.0
 49
0.0208000000566244
 49
0.0
 49
0.0
 49
0.0
 49
0.0
 49
1.0
 49
0.0
 49
0.0
 49
0.0
 49
0.0
 49
1.0
142
0.0208000000566244
142
0.0
142
0.0
142
0.0
142
0.0
142
0.0208000000566244
142
0.0
142
0.0
142
0.0
142
0.0
142
1.0
142
0.0
142
0.0
142
0.0
142
0.0
142
1.0
144
0.0208000000566244
144
0.0
144
0.0
144
0.0
144
0.0
144
0.0208000000566244
144
0.0
144
0.0
144
0.0
144
0.0
144
1.0
144
0.0
144
0.0
144
0.0
144
0.0
144
1.0
 94
       63
1001
ACAD
1070
    -1
1070
     3
1070
     0
1000

1071
        0
1070
     0
  0
MLEADERSTYLE
  5
E5
102
{ACAD_REACTORS
330
D7
102
}
330
D7
100
AcDbMLeaderStyle
179
     2
170
     2
171
     1
172
     0
 90
        2
 40
0.0
 41
0.0
173
     1
 91
-1056964608
340
14
 92
       -2
290
     1
 42
0.09
291
     1
 43
0.36
  3
Standard
 44
0.18
300

342
11
174
     1
178
     1
175
     1
176
     0
 93
-1056964608
 45
0.18
292
     0
297
     0
 46
0.18
 94
-1056964608
 47
1.0
 49
1.0
140
1.0
293
     1
141
0.0
294
     1
177
     0
142
1.0
295
     0
296
     1
143
0.125
271
     0
272
     9
273
     9
298
     0
  0
MLEADERSTYLE
  5
D8
102
{ACAD_REACTORS
330
D7
102
}
330
D7
100
AcDbMLeaderStyle
179
     2
170
     2
171
     1
172
     0
 90
        2
 40
0.0
 41
0.0
173
     1
 91
-1056964608
340
14
 92
       -2
290
     1
 42
0.09
291
     1
 43
0.36
  3
Standard
 44
0.18
300

342
11
174
     1
178
     1
175
     1
176
     0
 93
-1056964608
 45
0.18
292
     0
297
     0
 46
0.18
 94
-1056964608
 47
1.0
 49
1.0
140
1.0
293
     1
141
0.0
294
     1
177
     0
142
1.0
295
     0
296
     0
143
0.125
271
     0
272
     9
273
     9
298
     0
  0
MLINESTYLE
  5
18
102
{ACAD_REACTORS
330
17
102
}
330
17
100
AcDbMlineStyle
  2
STANDARD
 70
     0
  3

 62
   256
 51
90.0
 52
90.0
 71
     2
 49
0.5
 62
   256
  6
BYLAYER
 49
-0.5
 62
   256
  6
BYLAYER
  0
ACDBPLACEHOLDER
  5
F
102
{ACAD_REACTORS
330
E
102
}
330
E
  0
SCALE
  5
B7
102
{ACAD_REACTORS
330
B6
102
}
330
B6
100
AcDbScale
 70
     0
300
1:1
140
1.0
141
1.0
290
     1
  0
SCALE
  5
124
102
{ACAD_REACTORS
330
B6
102
}
330
B6
100
AcDbScale
 70
     0
300
1:2
140
1.0
141
2.0
290
     0
  0
SCALE
  5
125
102
{ACAD_REACTORS
330
B6
102
}
330
B6
100
AcDbScale
 70
     0
300
1:4
140
1.0
141
4.0
290
     0
  0
SCALE
  5
126
102
{ACAD_REACTORS
330
B6
102
}
330
B6
100
AcDbScale
 70
     0
300
1:5
140
1.0
141
5.0
290
     0
  0
SCALE
  5
127
102
{ACAD_REACTORS
330
B6
102
}
330
B6
100
AcDbScale
 70
     0
300
1:8
140
1.0
141
8.0
290
     0
  0
SCALE
  5
128
102
{ACAD_REACTORS
330
B6
102
}
330
B6
100
AcDbScale
 70
     0
300
1:10
140
1.0
141
10.0
290
     0
  0
SCALE
  5
129
102
{ACAD_REACTORS
330
B6
102
}
330
B6
100
AcDbScale
 70
     0
300
1:16
140
1.0
141
16.0
290
     0
  0
SCALE
  5
12A
102
{ACAD_REACTORS
330
B6
102
}
330
B6
100
AcDbScale
 70
     0
300
1:20
140
1.0
141
20.0
290
     0
  0
SCALE
  5
12B
102
{ACAD_REACTORS
330
B6
102
}
330
B6
100
AcDbScale
 70
     0
300
1:30
140
1.0
141
30.0
290
     0
  0
SCALE
  5
12C
102
{ACAD_REACTORS
330
B6
102
}
330
B6
100
AcDbScale
 70
     0
300
1:40
140
1.0
141
40.0
290
     0
  0
SCALE
  5
12D
102
{ACAD_REACTORS
330
B6
102
}
330
B6
100
AcDbScale
 70
     0
300
1:50
140
1.0
141
50.0
290
     0
  0
SCALE
  5
12E
102
{ACAD_REACTORS
330
B6
102
}
330
B6
100
AcDbScale
 70
     0
300
1:100
140
1.0
141
100.0
290
     0
  0
SCALE
  5
12F
102
{ACAD_REACTORS
330
B6
102
}
330
B6
100
AcDbScale
 70
     0
300
2:1
140
2.0
141
1.0
290
     0
  0
SCALE
  5
130
102
{ACAD_REACTORS
330
B6
102
}
330
B6
100
AcDbScale
 70
     0
300
4:1
140
4.0
141
1.0
290
     0
  0
SCALE
  5
131
102
{ACAD_REACTORS
330
B6
102
}
330
B6
100
AcDbScale
 70
     0
300
8:1
140
8.0
141
1.0
290
     0
  0
SCALE
  5
132
102
{ACAD_REACTORS
330
B6
102
}
330
B6
100
AcDbScale
 70
     0
300
10:1
140
10.0
141
1.0
290
     0
  0
SCALE
  5
133
102
{ACAD_REACTORS
330
B6
102
}
330
B6
100
AcDbScale
 70
     0
300
100:1
140
100.0
141
1.0
290
     0
  0
SCALE
  5
134
102
{ACAD_REACTORS
330
B6
102
}
330
B6
100
AcDbScale
 70
     0
300
1/128" = 1'-0"
140
0.0078125
141
12.0
290
     0
  0
SCALE
  5
135
102
{ACAD_REACTORS
330
B6
102
}
330
B6
100
AcDbScale
 70
     0
300
1/64" = 1'-0"
140
0.015625
141
12.0
290
     0
  0
SCALE
  5
136
102
{ACAD_REACTORS
330
B6
102
}
330
B6
100
AcDbScale
 70
     0
300
1/32" = 1'-0"
140
0.03125
141
12.0
290
     0
  0
SCALE
  5
137
102
{ACAD_REACTORS
330
B6
102
}
330
B6
100
AcDbScale
 70
     0
300
1/16" = 1'-0"
140
0.0625
141
12.0
290
     0
  0
SCALE
  5
138
102
{ACAD_REACTORS
330
B6
102
}
330
B6
100
AcDbScale
 70
     0
300
3/32" = 1'-0"
140
0.09375
141
12.0
290
     0
  0
SCALE
  5
139
102
{ACAD_REACTORS
330
B6
102
}
330
B6
100
AcDbScale
 70
     0
300
1/8" = 1'-0"
140
0.125
141
12.0
290
     0
  0
SCALE
  5
13A
102
{ACAD_REACTORS
330
B6
102
}
330
B6
100
AcDbScale
 70
     0
300
3/16" = 1'-0"
140
0.1875
141
12.0
290
     0
  0
SCALE
  5
13B
102
{ACAD_REACTORS
330
B6
102
}
330
B6
100
AcDbScale
 70
     0
300
1/4" = 1'-0"
140
0.25
141
12.0
290
     0
  0
SCALE
  5
13C
102
{ACAD_REACTORS
330
B6
102
}
330
B6
100
AcDbScale
 70
     0
300
3/8" = 1'-0"
140
0.375
141
12.0
290
     0
  0
SCALE
  5
13D
102
{ACAD_REACTORS
330
B6
102
}
330
B6
100
AcDbScale
 70
     0
300
1/2" = 1'-0"
140
0.5
141
12.0
290
     0
  0
SCALE
  5
13E
102
{ACAD_REACTORS
330
B6
102
}
330
B6
100
AcDbScale
 70
     0
300
3/4" = 1'-0"
140
0.75
141
12.0
290
     0
  0
SCALE
  5
13F
102
{ACAD_REACTORS
330
B6
102
}
330
B6
100
AcDbScale
 70
     0
300
1" = 1'-0"
140
1.0
141
12.0
290
     0
  0
SCALE
  5
140
102
{ACAD_REACTORS
330
B6
102
}
330
B6
100
AcDbScale
 70
     0
300
1-1/2" = 1'-0"
140
1.5
141
12.0
290
     0
  0
SCALE
  5
141
102
{ACAD_REACTORS
330
B6
102
}
330
B6
100
AcDbScale
 70
     0
300
3" = 1'-0"
140
3.0
141
12.0
290
     0
  0
SCALE
  5
142
102
{ACAD_REACTORS
330
B6
102
}
330
B6
100
AcDbScale
 70
     0
300
6" = 1'-0"
140
6.0
141
12.0
290
     0
  0
SCALE
  5
143
102
{ACAD_REACTORS
330
B6
102
}
330
B6
100
AcDbScale
 70
     0
300
1'-0" = 1'-0"
140
12.0
141
12.0
290
     0
  0
ACDBSECTIONVIEWSTYLE
  5
1AA
102
{ACAD_XDICTIONARY
360
1C4
102
}
102
{ACAD_REACTORS
330
1A8
102
}
330
1A8
100
AcDbModelDocViewStyle
 70
     0
  3
Imperial24
290
     0
100
AcDbSectionViewStyle
 70
     0
 71
     0
 90
       78
 71
     1
340
11
 62
   256
 40
0.24
340
0
340
0
 62
   256
 40
0.24
300
I, O, Q, S, X, Z
 40
0.48
 90
        3
 40
0.18
 90
        1
 71
     2
340
16
 90
       25
 62
   256
340
16
 90
       50
 62
   256
 40
0.24
 40
0.0
 40
0.24
 71
     3
340
11
 62
   256
 40
0.24
 90
        1
 40
0.75
 90
        1
300
%<\AcVar ViewType \f "%tc1">% %<\AcVar ViewSectionStartId>%-%<\AcVar ViewSectionEndId>%\PSCALE %<\AcVar ViewScale \f "%sn">%
 71
     4
 62
   256
 62
   257
300
ANSI31
 40
1.0
 90
        0
290
     0
290
     0
 90
        6
 40
0.0
 40
1.570796326794896
 40
0.2617993877991494
 40
1.308996938995747
 40
-0.2617993877991494
 40
1.832595714594046
  0
TABLESTYLE
  5
87
102
{ACAD_XDICTIONARY
360
104
102
}
102
{ACAD_REACTORS
330
86
102
}
330
86
100
AcDbTableStyle
280
     0
  3
Standard
 70
     0
 71
     0
 40
0.06
 41
0.06
280
     0
281
     0
  7
Standard
140
0.18
170
     2
 62
     0
 63
     7
283
     0
 90
      512
 91
        0
  1

274
    -2
284
     1
 64
     0
275
    -2
285
     1
 65
     0
276
    -2
286
     1
 66
     0
277
    -2
287
     1
 67
     0
278
    -2
288
     1
 68
     0
279
    -2
289
     1
 69
     0
  7
Standard
140
0.25
170
     5
 62
     0
 63
     7
283
     0
 90
      512
 91
        0
  1

274
    -2
284
     1
 64
     0
275
    -2
285
     1
 65
     0
276
    -2
286
     1
 66
     0
277
    -2
287
     1
 67
     0
278
    -2
288
     1
 68
     0
279
    -2
289
     1
 69
     0
  7
Standard
140
0.18
170
     5
 62
     0
 63
     7
283
     0
 90
      512
 91
        0
  1

274
    -2
284
     1
 64
     0
275
    -2
285
     1
 65
     0
276
    -2
286
     1
 66
     0
277
    -2
287
     1
 67
     0
278
    -2
288
     1
 68
     0
279
    -2
289
     1
 69
     0
  0
VISUALSTYLE
  5
9F
102
{ACAD_REACTORS
330
99
102
}
330
99
100
AcDbVisualStyle
  2
2dWireframe
 70
     4
177
     3
291
     0
 70
    58
 90
        0
176
     1
 90
        2
176
     1
 90
        1
176
     1
 90
        0
176
     1
 40
0.6
176
     1
 40
30.0
176
     1
 62
     7
420
 16777215
176
     1
 90
        1
176
     1
 90
        4
176
     1
 62
     7
176
     1
 62
   257
176
     1
 90
        1
176
     1
 90
        1
176
     1
 40
1.0
176
     1
 90
        0
176
     1
 62
   257
176
     1
 40
1.0
176
     1
 90
        1
176
     1
 90
        6
176
     1
 90
        2
176
     1
 62
     7
176
     1
 90
        5
176
     1
 90
        0
176
     1
 90
        0
176
     1
290
     0
176
     1
 90
        1
176
     1
 40
0.0
176
     1
 90
        0
176
     1
290
     1
176
     1
290
     1
176
     1
290
     0
176
     1
290
     0
176
     1
290
     0
176
     1
290
     0
176
     1
290
     0
176
     1
290
     0
176
     1
290
     0
176
     1
 90
       50
176
     1
 40
0.0
176
     1
 40
1.0
176
     1
 90
        0
176
     1
 62
    18
420
        0
176
     1
 90
       50
176
     1
 90
        3
176
     1
 62
     5
420
      255
176
     1
290
     0
176
     1
 90
       50
176
     1
 90
       50
176
     1
 90
       50
176
     1
290
     0
176
     1
 90
       50
176
     1
 62
   256
176
     0
 40
1.0
176
     0
 90
        2
176
     1
  1
strokes_ogs.tif
176
     1
290
     0
176
     1
 40
1.0
176
     1
 40
1.0
176
     1
  0
VISUALSTYLE
  5
23B
102
{ACAD_REACTORS
330
99
102
}
330
99
100
AcDbVisualStyle
  2
3dWireframe
 70
     5
177
     3
291
     0
 70
    58
 90
        0
176
     1
 90
        2
176
     1
 90
        0
176
     1
 90
        0
176
     1
 40
0.6
176
     1
 40
30.0
176
     1
 62
     7
176
     1
 90
        1
176
     1
 90
        4
176
     1
 62
     7
176
     1
 62
   257
176
     1
 90
        1
176
     1
 90
        1
176
     1
 40
1.0
176
     1
 90
        0
176
     1
 62
   257
176
     1
 40
1.0
176
     1
 90
        1
176
     1
 90
        6
176
     1
 90
        2
176
     1
 62
     7
176
     1
 90
        5
176
     1
 90
        0
176
     1
 90
        0
176
     1
290
     0
176
     1
 90
        1
176
     1
 40
0.0
176
     1
 90
        0
176
     1
290
     0
176
     1
290
     1
176
     1
290
     1
176
     1
290
     0
176
     1
290
     0
176
     1
290
     0
176
     1
290
     0
176
     1
290
     0
176
     1
290
     0
176
     1
 90
       50
176
     1
 40
0.0
176
     1
 40
1.0
176
     1
 90
        0
176
     1
 62
    18
420
        0
176
     1
 90
       50
176
     1
 90
        3
176
     1
 62
     5
420
      255
176
     1
290
     0
176
     1
 90
       50
176
     1
 90
       50
176
     1
 90
       50
176
     1
290
     0
176
     1
 90
       50
176
     1
 62
   256
176
     0
 40
1.0
176
     0
 90
        2
176
     1
  1
strokes_ogs.tif
176
     1
290
     0
176
     1
 40
1.0
176
     1
 40
1.0
176
     1
  0
VISUALSTYLE
  5
9E
102
{ACAD_REACTORS
330
99
102
}
330
99
100
AcDbVisualStyle
  2
Basic
 70
     7
177
     3
291
     1
 70
    58
 90
        1
176
     1
 90
        0
176
     1
 90
        1
176
     1
 90
        0
176
     1
 40
0.6
176
     1
 40
30.0
176
     1
 62
     7
420
 16777215
176
     1
 90
        0
176
     1
 90
        4
176
     1
 62
     7
176
     1
 62
   257
176
     1
 90
        1
176
     1
 90
        1
176
     1
 40
1.0
176
     1
 90
        8
176
     1
 62
     7
176
     1
 40
1.0
176
     1
 90
        1
176
     1
 90
        6
176
     1
 90
        2
176
     1
 62
     7
176
     1
 90
        5
176
     1
 90
        0
176
     1
 90
        0
176
     1
290
     0
176
     1
 90
        1
176
     1
 40
0.0
176
     1
 90
        0
176
     1
290
     0
176
     1
290
     1
176
     1
290
     1
176
     1
290
     0
176
     1
290
     0
176
     1
290
     0
176
     1
290
     0
176
     1
290
     0
176
     1
290
     0
176
     1
 90
       50
176
     1
 40
0.0
176
     1
 40
1.0
176
     1
 90
        0
176
     1
 62
    18
420
        0
176
     1
 90
       50
176
     1
 90
        3
176
     1
 62
     5
420
      255
176
     1
290
     0
176
     1
 90
       50
176
     1
 90
       50
176
     1
 90
       50
176
     1
290
     0
176
     1
 90
       50
176
     1
 62
   256
176
     0
 40
1.0
176
     0
 90
        2
176
     1
  1
strokes_ogs.tif
176
     1
290
     0
176
     1
 40
1.0
176
     1
 40
1.0
176
     1
  0
VISUALSTYLE
  5
A5
102
{ACAD_REACTORS
330
99
102
}
330
99
100
AcDbVisualStyle
  2
Brighten
 70
    12
177
     3
291
     1
 70
    58
 90
        2
176
     1
 90
        2
176
     1
 90
        1
176
     1
 90
        0
176
     1
 40
0.6
176
     1
 40
30.0
176
     1
 62
     7
420
 16777215
176
     1
 90
        1
176
     1
 90
        4
176
     1
 62
     7
176
     1
 62
   257
176
     1
 90
        1
176
     1
 90
        1
176
     1
 40
1.0
176
     1
 90
        8
176
     1
 62
     7
176
     1
 40
1.0
176
     1
 90
        1
176
     1
 90
        6
176
     1
 90
        2
176
     1
 62
     7
176
     1
 90
        5
176
     1
 90
        0
176
     1
 90
        0
176
     1
290
     0
176
     1
 90
        1
176
     1
 40
50.0
176
     1
 90
        0
176
     1
290
     0
176
     1
290
     1
176
     1
290
     1
176
     1
290
     0
176
     1
290
     0
176
     1
290
     0
176
     1
290
     0
176
     1
290
     0
176
     1
290
     0
176
     1
 90
       50
176
     1
 40
0.0
176
     1
 40
1.0
176
     1
 90
        0
176
     1
 62
    18
420
        0
176
     1
 90
       50
176
     1
 90
        3
176
     1
 62
     5
420
      255
176
     1
290
     0
176
     1
 90
       50
176
     1
 90
       50
176
     1
 90
       50
176
     1
290
     0
176
     1
 90
       50
176
     1
 62
   256
176
     0
 40
1.0
176
     0
 90
        2
176
     1
  1
strokes_ogs.tif
176
     1
290
     0
176
     1
 40
1.0
176
     1
 40
1.0
176
     1
  0
VISUALSTYLE
  5
A9
102
{ACAD_REACTORS
330
99
102
}
330
99
100
AcDbVisualStyle
  2
ColorChange
 70
    16
177
     3
291
     1
 70
    58
 90
        2
176
     1
 90
        2
176
     1
 90
        3
176
     1
 90
        0
176
     1
 40
0.6
176
     1
 40
30.0
176
     1
 62
     8
420
  8421504
176
     1
 90
        1
176
     1
 90
        4
176
     1
 62
     7
176
     1
 62
   257
176
     1
 90
        1
176
     1
 90
        1
176
     1
 40
1.0
176
     1
 90
        8
176
     1
 62
     8
420
  8421504
176
     1
 40
1.0
176
     1
 90
        1
176
     1
 90
        6
176
     1
 90
        2
176
     1
 62
     7
176
     1
 90
        5
176
     1
 90
        0
176
     1
 90
        0
176
     1
290
     0
176
     1
 90
        1
176
     1
 40
0.0
176
     1
 90
        0
176
     1
290
     0
176
     1
290
     1
176
     1
290
     1
176
     1
290
     0
176
     1
290
     0
176
     1
290
     0
176
     1
290
     0
176
     1
290
     0
176
     1
290
     0
176
     1
 90
       50
176
     1
 40
0.0
176
     1
 40
1.0
176
     1
 90
        0
176
     1
 62
    18
420
        0
176
     1
 90
       50
176
     1
 90
        3
176
     1
 62
     5
420
      255
176
     1
290
     0
176
     1
 90
       50
176
     1
 90
       50
176
     1
 90
       50
176
     1
290
     0
176
     1
 90
       50
176
     1
 62
   256
176
     0
 40
1.0
176
     0
 90
        2
176
     1
  1
strokes_ogs.tif
176
     1
290
     0
176
     1
 40
1.0
176
     1
 40
1.0
176
     1
  0
VISUALSTYLE
  5
A2
102
{ACAD_REACTORS
330
99
102
}
330
99
100
AcDbVisualStyle
  2
Conceptual
 70
     9
177
     3
291
     0
 70
    58
 90
        3
176
     1
 90
        2
176
     1
 90
        1
176
     1
 90
        0
176
     1
 40
0.6
176
     1
 40
30.0
176
     1
 62
     7
420
 16777215
176
     1
 90
        2
176
     1
 90
        2
176
     1
 62
     7
176
     1
 62
   257
176
     1
 90
        1
176
     1
 90
        1
176
     1
 40
40.0
176
     1
 90
        8
176
     1
 62
     7
176
     1
 40
1.0
176
     1
 90
        1
176
     1
 90
        6
176
     1
 90
        2
176
     1
 62
     7
176
     1
 90
        3
176
     1
 90
        0
176
     1
 90
        0
176
     1
290
     0
176
     1
 90
        1
176
     1
 40
0.0
176
     1
 90
        0
176
     1
290
     0
176
     1
290
     1
176
     1
290
     1
176
     1
290
     0
176
     1
290
     0
176
     1
290
     0
176
     1
290
     0
176
     1
290
     0
176
     1
290
     0
176
     1
 90
       50
176
     1
 40
0.0
176
     1
 40
1.0
176
     1
 90
        0
176
     1
 62
    18
420
        0
176
     1
 90
       50
176
     1
 90
        3
176
     1
 62
     5
420
      255
176
     1
290
     0
176
     1
 90
       50
176
     1
 90
       50
176
     1
 90
       50
176
     1
290
     0
176
     1
 90
       50
176
     1
 62
   256
176
     0
 40
1.0
176
     0
 90
        2
176
     1
  1
strokes_ogs.tif
176
     1
290
     0
176
     1
 40
1.0
176
     1
 40
1.0
176
     1
  0
VISUALSTYLE
  5
A4
102
{ACAD_REACTORS
330
99
102
}
330
99
100
AcDbVisualStyle
  2
Dim
 70
    11
177
     3
291
     1
 70
    58
 90
        2
176
     1
 90
        2
176
     1
 90
        1
176
     1
 90
        0
176
     1
 40
0.6
176
     1
 40
30.0
176
     1
 62
     7
420
 16777215
176
     1
 90
        1
176
     1
 90
        4
176
     1
 62
     7
176
     1
 62
   257
176
     1
 90
        1
176
     1
 90
        1
176
     1
 40
1.0
176
     1
 90
        8
176
     1
 62
     7
176
     1
 40
1.0
176
     1
 90
        1
176
     1
 90
        6
176
     1
 90
        2
176
     1
 62
     7
176
     1
 90
        5
176
     1
 90
        0
176
     1
 90
        0
176
     1
290
     0
176
     1
 90
        1
176
     1
 40
-50.0
176
     1
 90
        0
176
     1
290
     0
176
     1
290
     1
176
     1
290
     1
176
     1
290
     0
176
     1
290
     0
176
     1
290
     0
176
     1
290
     0
176
     1
290
     0
176
     1
290
     0
176
     1
 90
       50
176
     1
 40
0.0
176
     1
 40
1.0
176
     1
 90
        0
176
     1
 62
    18
420
        0
176
     1
 90
       50
176
     1
 90
        3
176
     1
 62
     5
420
      255
176
     1
290
     0
176
     1
 90
       50
176
     1
 90
       50
176
     1
 90
       50
176
     1
290
     0
176
     1
 90
       50
176
     1
 62
   256
176
     0
 40
1.0
176
     0
 90
        2
176
     1
  1
strokes_ogs.tif
176
     1
290
     0
176
     1
 40
1.0
176
     1
 40
1.0
176
     1
  0
VISUALSTYLE
  5
175
102
{ACAD_REACTORS
330
99
102
}
330
99
100
AcDbVisualStyle
  2
EdgeColorOff
 70
    22
177
     3
291
     1
 70
    58
 90
        2
176
     0
 90
        2
176
     0
 90
        0
176
     0
 90
        0
176
     0
 40
0.6
176
     0
 40
30.0
176
     0
 62
     7
420
 16777215
176
     0
 90
        1
176
     0
 90
        4
176
     0
 62
     7
176
     0
 62
   257
176
     0
 90
        1
176
     0
 90
        1
176
     0
 40
1.0
176
     0
 90
        8
176
     2
 62
     7
176
     0
 40
1.0
176
     0
 90
        1
176
     0
 90
        6
176
     0
 90
        2
176
     0
 62
     7
176
     0
 90
        5
176
     0
 90
        0
176
     0
 90
        0
176
     0
290
     0
176
     0
 90
        1
176
     0
 40
0.0
176
     0
 90
        0
176
     0
290
     0
176
     1
290
     1
176
     1
290
     1
176
     1
290
     0
176
     1
290
     0
176
     1
290
     0
176
     1
290
     0
176
     1
290
     0
176
     1
290
     0
176
     1
 90
       50
176
     1
 40
0.0
176
     1
 40
1.0
176
     1
 90
        0
176
     1
 62
    18
420
        0
176
     1
 90
       50
176
     1
 90
        3
176
     1
 62
     5
420
      255
176
     1
290
     0
176
     1
 90
       50
176
     1
 90
       50
176
     1
 90
       50
176
     1
290
     0
176
     1
 90
       50
176
     1
 62
   256
176
     0
 40
1.0
176
     0
 90
        2
176
     1
  1
strokes_ogs.tif
176
     1
290
     0
176
     1
 40
1.0
176
     1
 40
1.0
176
     1
  0
VISUALSTYLE
  5
A8
102
{ACAD_REACTORS
330
99
102
}
330
99
100
AcDbVisualStyle
  2
Facepattern
 70
    15
177
     3
291
     1
 70
    58
 90
        2
176
     1
 90
        2
176
     1
 90
        1
176
     1
 90
        0
176
     1
 40
0.6
176
     1
 40
30.0
176
     1
 62
     7
420
 16777215
176
     1
 90
        1
176
     1
 90
        4
176
     1
 62
     7
176
     1
 62
   257
176
     1
 90
        1
176
     1
 90
        1
176
     1
 40
1.0
176
     1
 90
        8
176
     1
 62
     7
176
     1
 40
1.0
176
     1
 90
        1
176
     1
 90
        6
176
     1
 90
        2
176
     1
 62
     7
176
     1
 90
        5
176
     1
 90
        0
176
     1
 90
        0
176
     1
290
     0
176
     1
 90
        1
176
     1
 40
0.0
176
     1
 90
        0
176
     1
290
     0
176
     1
290
     1
176
     1
290
     1
176
     1
290
     0
176
     1
290
     0
176
     1
290
     0
176
     1
290
     0
176
     1
290
     0
176
     1
290
     0
176
     1
 90
       50
176
     1
 40
0.0
176
     1
 40
1.0
176
     1
 90
        0
176
     1
 62
    18
420
        0
176
     1
 90
       50
176
     1
 90
        3
176
     1
 62
     5
420
      255
176
     1
290
     0
176
     1
 90
       50
176
     1
 90
       50
176
     1
 90
       50
176
     1
290
     0
176
     1
 90
       50
176
     1
 62
   256
176
     0
 40
1.0
176
     0
 90
        2
176
     1
  1
strokes_ogs.tif
176
     1
290
     0
176
     1
 40
1.0
176
     1
 40
1.0
176
     1
  0
VISUALSTYLE
  5
9A
102
{ACAD_REACTORS
330
99
102
}
330
99
100
AcDbVisualStyle
  2
Flat
 70
     0
177
     3
291
     1
 70
    58
 90
        2
176
     1
 90
        1
176
     1
 90
        1
176
     1
 90
        2
176
     1
 40
0.6
176
     1
 40
30.0
176
     1
 62
     7
420
 16777215
176
     1
 90
        0
176
     1
 90
        0
176
     1
 62
     7
176
     1
 62
   257
176
     1
 90
        1
176
     1
 90
        1
176
     1
 40
1.0
176
     1
 90
        8
176
     1
 62
     7
176
     1
 40
1.0
176
     1
 90
        1
176
     1
 90
        6
176
     1
 90
        2
176
     1
 62
     7
176
     1
 90
        5
176
     1
 90
        0
176
     1
 90
        0
176
     1
290
     0
176
     1
 90
       13
176
     1
 40
0.0
176
     1
 90
        0
176
     1
290
     0
176
     1
290
     1
176
     1
290
     1
176
     1
290
     0
176
     1
290
     0
176
     1
290
     0
176
     1
290
     0
176
     1
290
     0
176
     1
290
     0
176
     1
 90
       50
176
     1
 40
0.0
176
     1
 40
1.0
176
     1
 90
        0
176
     1
 62
    18
420
        0
176
     1
 90
       50
176
     1
 90
        3
176
     1
 62
     5
420
      255
176
     1
290
     0
176
     1
 90
       50
176
     1
 90
       50
176
     1
 90
       50
176
     1
290
     0
176
     1
 90
       50
176
     1
 62
   256
176
     0
 40
1.0
176
     0
 90
        2
176
     1
  1
strokes_ogs.tif
176
     1
290
     0
176
     1
 40
1.0
176
     1
 40
1.0
176
     1
  0
VISUALSTYLE
  5
9B
102
{ACAD_REACTORS
330
99
102
}
330
99
100
AcDbVisualStyle
  2
FlatWithEdges
 70
     1
177
     3
291
     1
 70
    58
 90
        2
176
     1
 90
        1
176
     1
 90
        1
176
     1
 90
        2
176
     1
 40
0.6
176
     1
 40
30.0
176
     1
 62
     7
420
 16777215
176
     1
 90
        1
176
     1
 90
        0
176
     1
 62
     7
176
     1
 62
   257
176
     1
 90
        1
176
     1
 90
        1
176
     1
 40
1.0
176
     1
 90
        0
176
     1
 62
   257
176
     1
 40
1.0
176
     1
 90
        1
176
     1
 90
        6
176
     1
 90
        2
176
     1
 62
     7
176
     1
 90
        5
176
     1
 90
        0
176
     1
 90
        0
176
     1
290
     0
176
     1
 90
       13
176
     1
 40
0.0
176
     1
 90
        0
176
     1
290
     0
176
     1
290
     1
176
     1
290
     1
176
     1
290
     0
176
     1
290
     0
176
     1
290
     0
176
     1
290
     0
176
     1
290
     0
176
     1
290
     0
176
     1
 90
       50
176
     1
 40
0.0
176
     1
 40
1.0
176
     1
 90
        0
176
     1
 62
    18
420
        0
176
     1
 90
       50
176
     1
 90
        3
176
     1
 62
     5
420
      255
176
     1
290
     0
176
     1
 90
       50
176
     1
 90
       50
176
     1
 90
       50
176
     1
290
     0
176
     1
 90
       50
176
     1
 62
   256
176
     0
 40
1.0
176
     0
 90
        2
176
     1
  1
strokes_ogs.tif
176
     1
290
     0
176
     1
 40
1.0
176
     1
 40
1.0
176
     1
  0
VISUALSTYLE
  5
9C
102
{ACAD_REACTORS
330
99
102
}
330
99
100
AcDbVisualStyle
  2
Gouraud
 70
     2
177
     3
291
     1
 70
    58
 90
        2
176
     1
 90
        2
176
     1
 90
        1
176
     1
 90
        2
176
     1
 40
0.6
176
     1
 40
30.0
176
     1
 62
     7
420
 16777215
176
     1
 90
        0
176
     1
 90
        0
176
     1
 62
     7
176
     1
 62
   257
176
     1
 90
        1
176
     1
 90
        1
176
     1
 40
1.0
176
     1
 90
        0
176
     1
 62
     7
176
     1
 40
1.0
176
     1
 90
        1
176
     1
 90
        6
176
     1
 90
        2
176
     1
 62
     7
176
     1
 90
        5
176
     1
 90
        0
176
     1
 90
        0
176
     1
290
     0
176
     1
 90
       13
176
     1
 40
0.0
176
     1
 90
        0
176
     1
290
     0
176
     1
290
     1
176
     1
290
     1
176
     1
290
     0
176
     1
290
     0
176
     1
290
     0
176
     1
290
     0
176
     1
290
     0
176
     1
290
     0
176
     1
 90
       50
176
     1
 40
0.0
176
     1
 40
1.0
176
     1
 90
        0
176
     1
 62
    18
420
        0
176
     1
 90
       50
176
     1
 90
        3
176
     1
 62
     5
420
      255
176
     1
290
     0
176
     1
 90
       50
176
     1
 90
       50
176
     1
 90
       50
176
     1
290
     0
176
     1
 90
       50
176
     1
 62
   256
176
     0
 40
1.0
176
     0
 90
        2
176
     1
  1
strokes_ogs.tif
176
     1
290
     0
176
     1
 40
1.0
176
     1
 40
1.0
176
     1
  0
VISUALSTYLE
  5
9D
102
{ACAD_REACTORS
330
99
102
}
330
99
100
AcDbVisualStyle
  2
GouraudWithEdges
 70
     3
177
     3
291
     1
 70
    58
 90
        2
176
     1
 90
        2
176
     1
 90
        1
176
     1
 90
        2
176
     1
 40
0.6
176
     1
 40
30.0
176
     1
 62
     7
420
 16777215
176
     1
 90
        1
176
     1
 90
        0
176
     1
 62
     7
176
     1
 62
   257
176
     1
 90
        1
176
     1
 90
        1
176
     1
 40
1.0
176
     1
 90
        0
176
     1
 62
   257
176
     1
 40
1.0
176
     1
 90
        1
176
     1
 90
        6
176
     1
 90
        2
176
     1
 62
     7
176
     1
 90
        5
176
     1
 90
        0
176
     1
 90
        0
176
     1
290
     0
176
     1
 90
       13
176
     1
 40
0.0
176
     1
 90
        0
176
     1
290
     0
176
     1
290
     1
176
     1
290
     1
176
     1
290
     0
176
     1
290
     0
176
     1
290
     0
176
     1
290
     0
176
     1
290
     0
176
     1
290
     0
176
     1
 90
       50
176
     1
 40
0.0
176
     1
 40
1.0
176
     1
 90
        0
176
     1
 62
    18
420
        0
176
     1
 90
       50
176
     1
 90
        3
176
     1
 62
     5
420
      255
176
     1
290
     0
176
     1
 90
       50
176
     1
 90
       50
176
     1
 90
       50
176
     1
290
     0
176
     1
 90
       50
176
     1
 62
   256
176
     0
 40
1.0
176
     0
 90
        2
176
     1
  1
strokes_ogs.tif
176
     1
290
     0
176
     1
 40
1.0
176
     1
 40
1.0
176
     1
  0
VISUALSTYLE
  5
A1
102
{ACAD_REACTORS
330
99
102
}
330
99
100
AcDbVisualStyle
  2
Hidden
 70
     6
177
     3
291
     0
 70
    58
 90
        1
176
     1
 90
        2
176
     1
 90
        2
176
     1
 90
        0
176
     1
 40
0.6
176
     1
 40
30.0
176
     1
 62
     7
420
 16777215
176
     1
 90
        2
176
     1
 90
        2
176
     1
 62
     7
176
     1
 62
   257
176
     1
 90
        2
176
     1
 90
        1
176
     1
 40
40.0
176
     1
 90
        0
176
     1
 62
   257
176
     1
 40
1.0
176
     1
 90
        1
176
     1
 90
        6
176
     1
 90
        2
176
     1
 62
     7
176
     1
 90
        3
176
     1
 90
        0
176
     1
 90
        0
176
     1
290
     0
176
     1
 90
        1
176
     1
 40
0.0
176
     1
 90
        0
176
     1
290
     0
176
     1
290
     1
176
     1
290
     1
176
     1
290
     0
176
     1
290
     0
176
     1
290
     0
176
     1
290
     0
176
     1
290
     0
176
     1
290
     0
176
     1
 90
       50
176
     1
 40
0.0
176
     1
 40
1.0
176
     1
 90
        0
176
     1
 62
    18
420
        0
176
     1
 90
       50
176
     1
 90
        3
176
     1
 62
     5
420
      255
176
     1
290
     0
176
     1
 90
       50
176
     1
 90
       50
176
     1
 90
       50
176
     1
290
     0
176
     1
 90
       50
176
     1
 62
   256
176
     0
 40
1.0
176
     0
 90
        2
176
     1
  1
strokes_ogs.tif
176
     1
290
     0
176
     1
 40
1.0
176
     1
 40
1.0
176
     1
  0
VISUALSTYLE
  5
173
102
{ACAD_REACTORS
330
99
102
}
330
99
100
AcDbVisualStyle
  2
JitterOff
 70
    20
177
     3
291
     1
 70
    58
 90
        2
176
     0
 90
        2
176
     0
 90
        0
176
     0
 90
        0
176
     0
 40
0.6
176
     0
 40
30.0
176
     0
 62
     7
420
 16777215
176
     0
 90
        1
176
     0
 90
        4
176
     0
 62
     7
176
     0
 62
   257
176
     0
 90
        1
176
     0
 90
        1
176
     0
 40
1.0
176
     0
 90
       10
176
     2
 62
     7
176
     0
 40
1.0
176
     0
 90
        1
176
     0
 90
        6
176
     0
 90
        2
176
     0
 62
     7
176
     0
 90
        5
176
     0
 90
        0
176
     0
 90
        0
176
     0
290
     0
176
     0
 90
        1
176
     0
 40
0.0
176
     0
 90
        0
176
     0
290
     0
176
     1
290
     1
176
     1
290
     1
176
     1
290
     0
176
     1
290
     0
176
     1
290
     0
176
     1
290
     0
176
     1
290
     0
176
     1
290
     0
176
     1
 90
       50
176
     1
 40
0.0
176
     1
 40
1.0
176
     1
 90
        0
176
     1
 62
    18
420
        0
176
     1
 90
       50
176
     1
 90
        3
176
     1
 62
     5
420
      255
176
     1
290
     0
176
     1
 90
       50
176
     1
 90
       50
176
     1
 90
       50
176
     1
290
     0
176
     1
 90
       50
176
     1
 62
   256
176
     0
 40
1.0
176
     0
 90
        2
176
     1
  1
strokes_ogs.tif
176
     1
290
     0
176
     1
 40
1.0
176
     1
 40
1.0
176
     1
  0
VISUALSTYLE
  5
A7
102
{ACAD_REACTORS
330
99
102
}
330
99
100
AcDbVisualStyle
  2
Linepattern
 70
    14
177
     3
291
     1
 70
    58
 90
        2
176
     1
 90
        2
176
     1
 90
        1
176
     1
 90
        0
176
     1
 40
0.6
176
     1
 40
30.0
176
     1
 62
     7
420
 16777215
176
     1
 90
        1
176
     1
 90
        4
176
     1
 62
     7
176
     1
 62
   257
176
     1
 90
        7
176
     1
 90
        7
176
     1
 40
1.0
176
     1
 90
        8
176
     1
 62
     7
176
     1
 40
1.0
176
     1
 90
        1
176
     1
 90
        6
176
     1
 90
        2
176
     1
 62
     7
176
     1
 90
        5
176
     1
 90
        0
176
     1
 90
        0
176
     1
290
     0
176
     1
 90
        1
176
     1
 40
0.0
176
     1
 90
        0
176
     1
290
     0
176
     1
290
     1
176
     1
290
     1
176
     1
290
     0
176
     1
290
     0
176
     1
290
     0
176
     1
290
     0
176
     1
290
     0
176
     1
290
     0
176
     1
 90
       50
176
     1
 40
0.0
176
     1
 40
1.0
176
     1
 90
        0
176
     1
 62
    18
420
        0
176
     1
 90
       50
176
     1
 90
        3
176
     1
 62
     5
420
      255
176
     1
290
     0
176
     1
 90
       50
176
     1
 90
       50
176
     1
 90
       50
176
     1
290
     0
176
     1
 90
       50
176
     1
 62
   256
176
     0
 40
1.0
176
     0
 90
        2
176
     1
  1
strokes_ogs.tif
176
     1
290
     0
176
     1
 40
1.0
176
     1
 40
1.0
176
     1
  0
VISUALSTYLE
  5
174
102
{ACAD_REACTORS
330
99
102
}
330
99
100
AcDbVisualStyle
  2
OverhangOff
 70
    21
177
     3
291
     1
 70
    58
 90
        2
176
     0
 90
        2
176
     0
 90
        0
176
     0
 90
        0
176
     0
 40
0.6
176
     0
 40
30.0
176
     0
 62
     7
420
 16777215
176
     0
 90
        1
176
     0
 90
        4
176
     0
 62
     7
176
     0
 62
   257
176
     0
 90
        1
176
     0
 90
        1
176
     0
 40
1.0
176
     0
 90
        9
176
     2
 62
     7
176
     0
 40
1.0
176
     0
 90
        1
176
     0
 90
        6
176
     0
 90
        2
176
     0
 62
     7
176
     0
 90
        5
176
     0
 90
        0
176
     0
 90
        0
176
     0
290
     0
176
     0
 90
        1
176
     0
 40
0.0
176
     0
 90
        0
176
     0
290
     0
176
     1
290
     1
176
     1
290
     1
176
     1
290
     0
176
     1
290
     0
176
     1
290
     0
176
     1
290
     0
176
     1
290
     0
176
     1
290
     0
176
     1
 90
       50
176
     1
 40
0.0
176
     1
 40
1.0
176
     1
 90
        0
176
     1
 62
    18
420
        0
176
     1
 90
       50
176
     1
 90
        3
176
     1
 62
     5
420
      255
176
     1
290
     0
176
     1
 90
       50
176
     1
 90
       50
176
     1
 90
       50
176
     1
290
     0
176
     1
 90
       50
176
     1
 62
   256
176
     0
 40
1.0
176
     0
 90
        2
176
     1
  1
strokes_ogs.tif
176
     1
290
     0
176
     1
 40
1.0
176
     1
 40
1.0
176
     1
  0
VISUALSTYLE
  5
A3
102
{ACAD_REACTORS
330
99
102
}
330
99
100
AcDbVisualStyle
  2
Realistic
 70
     8
177
     3
291
     0
 70
    58
 90
        2
176
     1
 90
        3
176
     1
 90
        0
176
     1
 90
        2
176
     1
 40
0.6
176
     1
 40
30.0
176
     1
 62
     7
420
 16777215
176
     1
 90
        0
176
     1
 90
        0
176
     1
 62
     7
176
     1
 62
   257
176
     1
 90
        1
176
     1
 90
        1
176
     1
 40
1.0
176
     1
 90
        8
176
     1
 62
   257
176
     1
 40
1.0
176
     1
 90
        1
176
     1
 90
        6
176
     1
 90
        2
176
     1
 62
     7
176
     1
 90
        3
176
     1
 90
        0
176
     1
 90
        0
176
     1
290
     0
176
     1
 90
       13
176
     1
 40
0.0
176
     1
 90
        0
176
     1
290
     0
176
     1
290
     1
176
     1
290
     1
176
     1
290
     0
176
     1
290
     0
176
     1
290
     0
176
     1
290
     0
176
     1
290
     0
176
     1
290
     0
176
     1
 90
       50
176
     1
 40
0.0
176
     1
 40
1.0
176
     1
 90
        0
176
     1
 62
    18
420
        0
176
     1
 90
       50
176
     1
 90
        3
176
     1
 62
     5
420
      255
176
     1
290
     0
176
     1
 90
       50
176
     1
 90
       50
176
     1
 90
       50
176
     1
290
     0
176
     1
 90
       50
176
     1
 62
   256
176
     0
 40
1.0
176
     0
 90
        2
176
     1
  1
strokes_ogs.tif
176
     1
290
     0
176
     1
 40
1.0
176
     1
 40
1.0
176
     1
  0
VISUALSTYLE
  5
182
102
{ACAD_REACTORS
330
99
102
}
330
99
100
AcDbVisualStyle
  2
Shaded
 70
    27
177
     3
291
     0
 70
    58
 90
        2
176
     1
 90
        2
176
     1
 90
        1
176
     1
 90
        2
176
     1
 40
0.6
176
     1
 40
30.0
176
     1
 62
     7
420
 16777215
176
     1
 90
        0
176
     1
 90
        4
176
     1
 62
     7
176
     1
 62
   257
176
     1
 90
        1
176
     1
 90
        1
176
     1
 40
1.0
176
     1
 90
        8
176
     1
 62
   257
176
     1
 40
1.0
176
     1
 90
        1
176
     1
 90
        6
176
     1
 90
        2
176
     1
 62
     8
420
  7895160
176
     1
 90
        3
176
     1
 90
        0
176
     1
 90
        0
176
     1
290
     0
176
     1
 90
        5
176
     1
 40
0.0
176
     1
 90
        0
176
     1
290
     0
176
     1
290
     1
176
     1
290
     1
176
     1
290
     0
176
     1
290
     0
176
     1
290
     0
176
     1
290
     0
176
     1
290
     0
176
     1
290
     0
176
     1
 90
       50
176
     1
 40
0.0
176
     1
 40
1.0
176
     1
 90
        0
176
     1
 62
    18
420
        0
176
     1
 90
       50
176
     1
 90
        3
176
     1
 62
     5
420
      255
176
     1
290
     0
176
     1
 90
       50
176
     1
 90
       50
176
     1
 90
       50
176
     1
290
     0
176
     1
 90
       50
176
     1
 62
   256
176
     0
 40
1.0
176
     0
 90
        2
176
     1
  1
strokes_ogs.tif
176
     1
290
     0
176
     1
 40
1.0
176
     1
 40
1.0
176
     1
  0
VISUALSTYLE
  5
181
102
{ACAD_REACTORS
330
99
102
}
330
99
100
AcDbVisualStyle
  2
Shaded with edges
 70
    26
177
     3
291
     0
 70
    58
 90
        2
176
     1
 90
        2
176
     1
 90
        1
176
     1
 90
        2
176
     1
 40
0.6
176
     1
 40
30.0
176
     1
 62
     7
420
 16777215
176
     1
 90
        1
176
     1
 90
       10
176
     1
 62
     7
176
     1
 62
   257
176
     1
 90
        2
176
     1
 90
        1
176
     1
 40
1.0
176
     1
 90
        8
176
     1
 62
   257
176
     1
 40
1.0
176
     1
 90
        1
176
     1
 90
        6
176
     1
 90
        2
176
     1
 62
     7
176
     1
 90
        3
176
     1
 90
        0
176
     1
 90
        0
176
     1
290
     0
176
     1
 90
        5
176
     1
 40
0.0
176
     1
 90
        0
176
     1
290
     0
176
     1
290
     1
176
     1
290
     1
176
     1
290
     0
176
     1
290
     0
176
     1
290
     0
176
     1
290
     0
176
     1
290
     0
176
     1
290
     0
176
     1
 90
       50
176
     1
 40
0.0
176
     1
 40
1.0
176
     1
 90
        0
176
     1
 62
    18
420
        0
176
     1
 90
       50
176
     1
 90
        3
176
     1
 62
     5
420
      255
176
     1
290
     0
176
     1
 90
       50
176
     1
 90
       50
176
     1
 90
       50
176
     1
290
     0
176
     1
 90
       50
176
     1
 62
   256
176
     0
 40
1.0
176
     0
 90
        2
176
     1
  1
strokes_ogs.tif
176
     1
290
     0
176
     1
 40
1.0
176
     1
 40
1.0
176
     1
  0
VISUALSTYLE
  5
17E
102
{ACAD_REACTORS
330
99
102
}
330
99
100
AcDbVisualStyle
  2
Shades of Gray
 70
    23
177
     3
291
     0
 70
    58
 90
        2
176
     1
 90
        2
176
     1
 90
        3
176
     1
 90
        0
176
     1
 40
0.6
176
     1
 40
30.0
176
     1
 62
     7
420
 16777215
176
     1
 90
        2
176
     1
 90
        2
176
     1
 62
     7
176
     1
 62
     7
176
     1
 90
        1
176
     1
 90
        1
176
     1
 40
40.0
176
     1
 90
        8
176
     1
 62
     7
176
     1
 40
1.0
176
     1
 90
        1
176
     1
 90
        6
176
     1
 90
        2
176
     1
 62
     7
176
     1
 90
        3
176
     1
 90
        0
176
     1
 90
        0
176
     1
290
     0
176
     1
 90
        1
176
     1
 40
0.0
176
     1
 90
        0
176
     1
290
     0
176
     1
290
     1
176
     1
290
     1
176
     1
290
     0
176
     1
290
     0
176
     1
290
     0
176
     1
290
     0
176
     1
290
     0
176
     1
290
     0
176
     1
 90
       50
176
     1
 40
0.0
176
     1
 40
1.0
176
     1
 90
        0
176
     1
 62
    18
420
        0
176
     1
 90
       50
176
     1
 90
        3
176
     1
 62
     5
420
      255
176
     1
290
     0
176
     1
 90
       50
176
     1
 90
       50
176
     1
 90
       50
176
     1
290
     0
176
     1
 90
       50
176
     1
 62
   256
176
     0
 40
1.0
176
     0
 90
        2
176
     1
  1
strokes_ogs.tif
176
     1
290
     0
176
     1
 40
1.0
176
     1
 40
1.0
176
     1
  0
VISUALSTYLE
  5
17F
102
{ACAD_REACTORS
330
99
102
}
330
99
100
AcDbVisualStyle
  2
Sketchy
 70
    24
177
     3
291
     0
 70
    58
 90
        1
176
     1
 90
        2
176
     1
 90
        2
176
     1
 90
        0
176
     1
 40
0.6
176
     1
 40
30.0
176
     1
 62
     7
420
 16777215
176
     1
 90
        2
176
     1
 90
        2
176
     1
 62
     7
176
     1
 62
     7
176
     1
 90
        1
176
     1
 90
        1
176
     1
 40
40.0
176
     1
 90
       11
176
     1
 62
     7
176
     1
 40
1.0
176
     1
 90
        1
176
     1
 90
        6
176
     1
 90
        2
176
     1
 62
     7
176
     1
 90
        6
176
     1
 90
        0
176
     1
 90
        0
176
     1
290
     0
176
     1
 90
        1
176
     1
 40
0.0
176
     1
 90
        0
176
     1
290
     0
176
     1
290
     1
176
     1
290
     1
176
     1
290
     0
176
     1
290
     0
176
     1
290
     0
176
     1
290
     0
176
     1
290
     0
176
     1
290
     0
176
     1
 90
       50
176
     1
 40
0.0
176
     1
 40
1.0
176
     1
 90
        0
176
     1
 62
    18
420
        0
176
     1
 90
       50
176
     1
 90
        3
176
     1
 62
     5
420
      255
176
     1
290
     0
176
     1
 90
       50
176
     1
 90
       50
176
     1
 90
       50
176
     1
290
     0
176
     1
 90
       50
176
     1
 62
   256
176
     0
 40
1.0
176
     0
 90
        2
176
     1
  1
strokes_ogs.tif
176
     1
290
     0
176
     1
 40
1.0
176
     1
 40
1.0
176
     1
  0
VISUALSTYLE
  5
A6
102
{ACAD_REACTORS
330
99
102
}
330
99
100
AcDbVisualStyle
  2
Thicken
 70
    13
177
     3
291
     1
 70
    58
 90
        2
176
     1
 90
        2
176
     1
 90
        1
176
     1
 90
        0
176
     1
 40
0.6
176
     1
 40
30.0
176
     1
 62
     7
420
 16777215
176
     1
 90
        1
176
     1
 90
        4
176
     1
 62
     7
176
     1
 62
   257
176
     1
 90
        1
176
     1
 90
        1
176
     1
 40
1.0
176
     1
 90
       12
176
     1
 62
     7
176
     1
 40
1.0
176
     1
 90
        1
176
     1
 90
        6
176
     1
 90
        2
176
     1
 62
     7
176
     1
 90
        5
176
     1
 90
        0
176
     1
 90
        0
176
     1
290
     0
176
     1
 90
        1
176
     1
 40
0.0
176
     1
 90
        0
176
     1
290
     0
176
     1
290
     1
176
     1
290
     1
176
     1
290
     0
176
     1
290
     0
176
     1
290
     0
176
     1
290
     0
176
     1
290
     0
176
     1
290
     0
176
     1
 90
       50
176
     1
 40
0.0
176
     1
 40
1.0
176
     1
 90
        0
176
     1
 62
    18
420
        0
176
     1
 90
       50
176
     1
 90
        3
176
     1
 62
     5
420
      255
176
     1
290
     0
176
     1
 90
       50
176
     1
 90
       50
176
     1
 90
       50
176
     1
290
     0
176
     1
 90
       50
176
     1
 62
   256
176
     0
 40
1.0
176
     0
 90
        2
176
     1
  1
strokes_ogs.tif
176
     1
290
     0
176
     1
 40
1.0
176
     1
 40
1.0
176
     1
  0
VISUALSTYLE
  5
A0
102
{ACAD_REACTORS
330
99
102
}
330
99
100
AcDbVisualStyle
  2
Wireframe
 70
     5
177
     3
291
     0
 70
    58
 90
        0
176
     1
 90
        2
176
     1
 90
        0
176
     1
 90
        0
176
     1
 40
0.6
176
     1
 40
30.0
176
     1
 62
     7
420
 16777215
176
     1
 90
        1
176
     1
 90
        4
176
     1
 62
     7
176
     1
 62
   257
176
     1
 90
        1
176
     1
 90
        1
176
     1
 40
1.0
176
     1
 90
        0
176
     1
 62
   257
176
     1
 40
1.0
176
     1
 90
        1
176
     1
 90
        6
176
     1
 90
        2
176
     1
 62
     7
176
     1
 90
        3
176
     1
 90
        0
176
     1
 90
        0
176
     1
290
     0
176
     1
 90
        1
176
     1
 40
0.0
176
     1
 90
        0
176
     1
290
     0
176
     1
290
     1
176
     1
290
     1
176
     1
290
     0
176
     1
290
     0
176
     1
290
     0
176
     1
290
     0
176
     1
290
     0
176
     1
290
     0
176
     1
 90
       50
176
     1
 40
0.0
176
     1
 40
1.0
176
     1
 90
        0
176
     1
 62
    18
420
        0
176
     1
 90
       50
176
     1
 90
        3
176
     1
 62
     5
420
      255
176
     1
290
     0
176
     1
 90
       50
176
     1
 90
       50
176
     1
 90
       50
176
     1
290
     0
176
     1
 90
       50
176
     1
 62
   256
176
     0
 40
1.0
176
     0
 90
        2
176
     1
  1
strokes_ogs.tif
176
     1
290
     0
176
     1
 40
1.0
176
     1
 40
1.0
176
     1
  0
VISUALSTYLE
  5
180
102
{ACAD_REACTORS
330
99
102
}
330
99
100
AcDbVisualStyle
  2
X-Ray
 70
    25
177
     3
291
     0
 70
    58
 90
        2
176
     1
 90
        2
176
     1
 90
        1
176
     1
 90
        1
176
     1
 40
0.5
176
     1
 40
30.0
176
     1
 62
     7
420
 16777215
176
     1
 90
        1
176
     1
 90
        0
176
     1
 62
     7
176
     1
 62
   257
176
     1
 90
        1
176
     1
 90
        1
176
     1
 40
1.0
176
     1
 90
        8
176
     1
 62
     7
176
     1
 40
1.0
176
     1
 90
        1
176
     1
 90
        6
176
     1
 90
        2
176
     1
 62
     7
176
     1
 90
        3
176
     1
 90
        0
176
     1
 90
        0
176
     1
290
     0
176
     1
 90
       13
176
     1
 40
0.0
176
     1
 90
        0
176
     1
290
     0
176
     1
290
     1
176
     1
290
     1
176
     1
290
     0
176
     1
290
     0
176
     1
290
     0
176
     1
290
     0
176
     1
290
     0
176
     1
290
     0
176
     1
 90
       50
176
     1
 40
0.0
176
     1
 40
1.0
176
     1
 90
        0
176
     1
 62
    18
420
        0
176
     1
 90
       50
176
     1
 90
        3
176
     1
 62
     5
420
      255
176
     1
290
     0
176
     1
 90
       50
176
     1
 90
       50
176
     1
 90
       50
176
     1
290
     0
176
     1
 90
       50
176
     1
 62
   256
176
     0
 40
1.0
176
     0
 90
        2
176
     1
  1
strokes_ogs.tif
176
     1
290
     0
176
     1
 40
1.0
176
     1
 40
1.0
176
     1
  0
DICTIONARYVAR
  5
F0
102
{ACAD_REACTORS
330
66
102
}
330
66
100
DictionaryVariables
280
     0
  1
1:1
  0
DICTIONARYVAR
  5
EF
102
{ACAD_REACTORS
330
66
102
}
330
66
100
DictionaryVariables
280
     0
  1
STANDARD
  0
DICTIONARYVAR
  5
89
102
{ACAD_REACTORS
330
66
102
}
330
66
100
DictionaryVariables
280
     0
  1
STANDARD
  0
DICTIONARYVAR
  5
1B7
102
{ACAD_REACTORS
330
66
102
}
330
66
100
DictionaryVariables
280
     0
  1
Imperial24
  0
DICTIONARYVAR
  5
1B8
102
{ACAD_REACTORS
330
66
102
}
330
66
100
DictionaryVariables
280
     0
  1
Imperial24
  0
DICTIONARYVAR
  5
67
102
{ACAD_REACTORS
330
66
102
}
330
66
100
DictionaryVariables
280
     0
  1
2
  0
DICTIONARYVAR
  5
6B
102
{ACAD_REACTORS
330
66
102
}
330
66
100
DictionaryVariables
280
     0
  1
1
  0
DICTIONARYVAR
  5
B0F
102
{ACAD_REACTORS
330
66
102
}
330
66
100
DictionaryVariables
280
     0
  1
BYLAYER
  0
DICTIONARYVAR
  5
B0E
102
{ACAD_REACTORS
330
66
102
}
330
66
100
DictionaryVariables
280
     0
  1
ByLayer
  0
DICTIONARYVAR
  5
14D
102
{ACAD_REACTORS
330
66
102
}
330
66
100
DictionaryVariables
280
     0
  1
0
  0
DICTIONARYVAR
  5
14E
102
{ACAD_REACTORS
330
66
102
}
330
66
100
DictionaryVariables
280
     0
  1
0
  0
DICTIONARY
  5
1C6
330
1AC
100
AcDbDictionary
280
     1
281
     1
  3
ACAD_XREC_ROUNDTRIP
360
F65
  0
DICTIONARY
  5
194
330
22
100
AcDbDictionary
280
     1
281
     1
  0
DICTIONARY
  5
188
330
97
100
AcDbDictionary
280
     1
281
     1
  3
FBXASSET
360
189
  0
DICTIONARY
  5
186
330
96
100
AcDbDictionary
280
     1
281
     1
  3
FBXASSET
360
187
  0
DICTIONARY
  5
110
330
98
100
AcDbDictionary
280
     1
281
     1
  3
BUMPTILE
360
112
  3
DIFFUSETILE
360
111
  3
FBXASSET
360
18A
  3
OPACITYTILE
360
113
  3
REFLECTIONTILE
360
114
  0
DICTIONARY
  5
1C4
330
1AA
100
AcDbDictionary
280
     1
281
     1
  3
ACAD_XREC_ROUNDTRIP
360
F64
  0
DICTIONARY
  5
104
330
87
100
AcDbDictionary
280
     1
281
     1
  3
ACAD_ROUNDTRIP_2008_TABLESTYLE_CELLSTYLEMAP
360
F63
  0
XRECORD
  5
F65
102
{ACAD_REACTORS
330
1C6
102
}
330
1C6
100
AcDbXrecord
280
     1
102
DISPLAYNAME
  1
Imperial24
102
FLAGS
 90
        0
  0
XRECORD
  5
189
102
{ACAD_REACTORS
330
188
102
}
330
188
100
AcDbXrecord
280
     1
 70
     1
 90
429727718
  1
508B35C9-AEE7-456F-BE74-D52651303AC6
310
504B03040A0000080000B670623B3DEE336E79000000790000001B0000006175746F6465736B2D64657369676E2D7061636B6167652E786D6C3C3F786D6C2076657273696F6E3D22312E302220656E636F64696E673D227574662D3822203F3E3C666F726D6174733E3C666F726D61743E687474703A2F2F736368656D612E
310
6175746F6465736B2E636F6D2F64657369676E2D7061636B6167652F323030393C2F666F726D61743E3C2F666F726D6174733E504B0304140006080800B670623BD486FD9CA0000000F4000000130000005B436F6E74656E745F54797065735D2E786D6C7D8EC10E82300C865F65E91D8A1E8C310C0EEA1BF002731658846E
310
D98AC1B77784ABF1D8FE5FBFBF75BBCE937A534CCEB38643598122B6FEE978D0B0485F9C41B54DDD7D022595594E1A469170414C76A4D9A4D207E29CF43ECE46F218070CC6BECC4078ACAA135ACF422C856C0E68EA1BF5669944DDD7BCDE7B1F8E415D77AECB980613C2E4AC91FC167A2B244592486606FC29C8FD7F045B9A
310
EF7053A7E60B504B0304140006080800B670623B28ED286BEB0000007C01000008000000636F72652E786D6C8D90416EC3201045AF82665B6183218D6D61A254764FD00B204C5C94182C03558F5F9C3852BBEB6A467FFE9B197D71FA9E6FE8CBACC17AD7012D0820E3B41FAD9B3A48F1826B40272956EFE32F1B20A766D3C1
310
268314D3EAD3B24BDABB685CCCAAF3A3D94515828980F42D371D04FD696655A814B3235C8B45E9AB9A4C419F5D8653B2237A1CB163DE672FD6AC209BF3C08E0D1B30EB19C3FC9D72FCC6EB231EFA33EDE96BDD341517E5064B11EDFCBCAF57A3A2194156843498524CAA0FCA5B7268F9E185D42D21A2DCEC7FA0B48CFF8492
310
759155FBBB0F2C80A4F991FB408A72CB22977B50B96EB9C91F504B0304140006080800B670623B55019EA25F0000007C00000007000000636E782E786D6C4DCB3B0E80201045D1AD90E915ED2CF8AC45050C11660C8261F98AB1B07AC9C97D42D718D865D3E909258CFD00CCE24AC6E326A164D74DC0B4128928FF32603847
310
2BA13128B1252AC747C6BAB984FC68F0B87FE8960A5C09FE86CFB69FBA01504B0304140006080800B670623B7BC41AC871010000D40300000C0000006662782F636F72652E786D6CC553ED6E8320147D15C2DF4501B56B6D90A64BBB27D80B50A5CE54C120983EFEAE1F4DD7A56BBA5FF3879273EEE59E7310BE393735EA95
310
ED2AA333CC428A91D2B9292A5D66D8BB63B0C26823B835C67D2BC348CB46657880B1E0A535BE9DA1DC68A7B403549B42CDA0EC3AE530CA6B5864B8CB3F552343E91D5474A7B095F949962A6421D0502778E72C0840D390E18DC5F170E664C205F7BE2A66B62A605A75AC94C522DDEEE3651AEF837817C741F2CE92E02D592D
310
83FD6ECB76EC7595A651C2C9D02CB8AB9A8BBADC2AE954814544691A3016D0E883256BBA58278B17BA5A53CAC9507ED3E4DBE2C9265F691747B3DCA9ADC382819091F8E1162272A8933DE82182932144F88C09DF060D8140C84E1EEA8B8F1340BDCA9DB1093085F157AA97B557309586747CD0EF0B4EA64E983A6E0EAEEFCE
310
889E9EF17847386AA94B30211D2C0FDE0D3AF9A4610EAD5536E8DD1969631B593F67E381C33F5157F17725E5A636F6BF1491F980C8FC7B90E13E8A2F504B0304140006080800B670623B70102A487D0000009D0000000B0000006662782F636E782E786D6C4DCCD10A83201886E15B91FFDC95A5C30335ACCDFB886521330D
310
A76397BF1A1DECE883878F57749FD5A3B74D2F17830472A901D9F088930B8B849267CC01754AA418F3DF0D5018572BE160506249B16C274D761E8BCFBB7A179E27F65CB39A0F14D396184C9921B81F34C3ACA1B4B99ABB6E6F062A25AA5F69DF23ACBE504B0304140006080800B670623B3610CA3329010000120200003100
310
00006662782F42384135303843342D343331462D343546312D424341352D3532343432364645413344462F636F72652E786D6C8D515B6EC32010BC0AE22B55850D0E446E848992B43E412FE000495162B07854397EA176A4F62F3F2C9A9D991D58BEBB8F37F0AD7D30CE76905418026DA553C65E3A98E219B510EC04F7CEC5
310
3F3408EC30EA0E16180A7EF12E4D0B249D8DDAC68C5AA7F4020E21E80881BCE54B0783FCD2E3500D296646B856D320AFC34557A4CAEDCC133C449F0380794839A138B47B86DB2345744D7A44594FD0E1B867883594369BFE63BF7EEF793D0B054FC9A8456E548E63CE46FB674D8A58F068C6477CE9F510B582A2C1F80D1182
310
70F349E816B32D65AFB8DD62CCEB42FF274A937A52948C8DEB66893BCB021484D7734370E5D2E9F608A3EF93F3119479ABA0E50B14B8C298119A43CCC4FCFCECB8A18B6388CEE7EF5D5D4F994BD86CBBA182D76543B9FCAE2FD7B24DF103504B0304140006080800B670623B1B8617914E0100003303000030000000666278
310
2F42384135303843342D343331462D343546312D424341352D3532343432364645413344462F636E782E786D6CD593C16EC32010447F0571AD6CE3D489D20813A9877E410FBD62D82434182CC055F3F75D1292E692438FBD206B7698593D61BEFD1E2DF982108D773D6D6B460938E5B571FB9ECE6957AD29D90A1EBC4F7736
310
4A9C1CA1A759A682EF839FA72269D8C9D92654AD71C72206887E0E0A22CAF926B15E498B01E0AA19451807D01A34B919F16B070157417138917400F2F6FA41FCF0092A45DEE414C19BDC21783E4BD39D891265658C3D8DEA00A3ACE59CBC8678ACB54CB26EEB6BD7839D7E9348BE70AD9C8321B9BCA7F9A4A26C542347DEE0
310
50F09802D22BA6749A800A394DD62899107273365E3C82CFC6A55557BC06C10774B7ABE7AEC3B0F34CF06446280E154026D0542C187BA9DAB6628BF7B6DBB0E5A65B3EB1F58631DE64BBE083F7B65CC218087E22CABB042E51D1F2268F1FE12B3EA24D40D63E9CFE00120194D60B9D5BC67FE6D39CDF37E20AF817881F504B
310
0304140006080800B670623BBFEF2E3B690500003C100000340000006662782F42384135303843342D343331462D343546312D424341352D3532343432364645413344462F6F626A656374732E786D6CAD575D739B3814FD2B0CFB0C98D84E931D4227B6938EA793B6534F3BFB90198F0099B001899144EAECAFDF231018B0
310
D37A3FFC609090EEE7B94757C1FB7D915B2F54C88CB31BDB7727B64559CC938CA53776A576CE956DBD0F03C1B9EA2DB32D460A7A63EB693B0C52C1ABD24C257447AA5C8D66EF177F5832A68CDA569C13296F6C193FD182B8A4523CA1F2D94D88226EBADBBBBEDB2C1C8A4D05299F46424B222853B014F30C52ACC6287F389C
310
D85E1878FA7B18E87FB36AFAF62AAFF667A83F635211161F291B8999FAB3D5DDC5FCDA99CF6653677679E13B8BFBC5CAF1DF4D27CBCBE5F2FAF6EE1A8AA51290642C117467871F101B91C581D77CEA2C36869F3229E68CD1B8F61F1ED6361B89092D294B90C78C4A68EB793D190E7D1D9BDEE7A91E1B95FDE9F3BCEAEFE809
310
6A6D6F9F7D4B79F4275C90E7A04248AA51D5C4C738DAE06F72885AC4796EBE65D22A88A22223B995679120E2D50EB1542F098381188D4EA111AE3DB043FF20AF6F2B4AE3D7D83D65E5AECA730D4D3BAC91BD05FEA992B565D95F549CD6069B90AB2A63EACA38A45E4B6A87D781574F86817E4C2FCCC72690D62E2729520E37
310
9BAF234797BAF6D62B3BFC781FED37BA1E4F2B2F052FA9501A3E80569BB8F6A9A364D4FA67654E6F803383981F82F21591FF84F23D9882BC896C3FDBCF8C162508933B2E0AE4C69DD43F6BD2BE38DDDBF10BF86CB4FA784D37F3AF16075E67EC9030DECA1FC0A55373F5DFF3378C591FA9BDF485C10B0A8C8BA909E5262639
310
A8E72163488806A595734C81CB77D1DE0ED7604A303B76913CEC0272F412782FF88EFF4636D8AA56DF7B322474C4B767303F625997056C7B032C473C592B36CEBD15F3F9FF5233B7ABCDC74D257624A60F8658567497B14CE1EC3C80B76FD02011038F9EE9EB0F2E12387A9C844D3F09855125116D1D731DF8B43D2CF4E0A0
310
79A020C6BE946BCE0B7EA1E1219331CD73C228AF5A2DDD31A4B1DA918CE91350854D40A71723140BFA92E94E62B0626016CEFA5864A50E5977E8753CEDBEE1CBB7F52780D20E17AF0BA0F5F9B02A3AD07DCC732EB6D1EBB661421BE0C39E21BABF0FE16D22EA6929407C8DE596724C88B749B6DB5512BC7B228ADFD7CB7EA6
310
3A22397E690BA8D5D8D4E40CEC8CDA23C2C0B7D5898640101CEC9C6D331CE328CB93CAFBBAC70A642DF70DF95155945B52F08AA973C23469FD69ADEF84F7BB18F983A8F8C90E37F5D35980B2139A1C523540813E824EF83448CF7C72B598CE97D7CEEDDDDD3B6736BFBC771677EF66CE6A7E7139F7A793E9EDF2B2B3A8B624
310
0CDA13AA5F8388264EC4A0129909F3B7F5A16CEDF08128E97D680ACA4B9BE7B7B58BB638F0B00700EF36AE8B32A705658A68F83EE897FC2B41573190D1CCAF0B92D233A47CFEB019D9809933F67DD1A5467F8CF69AD9A5AE859342D45355448C64F968A371DC2D596ADC6E43D93D1B466F877A64E2893E54F23C4B40388995
310
525E5005DA3983ED45412510D3EFCA13737B3863F74BD30F2A12E5B4B5E489A025CE25500DB855B11ACE5BBFA185D35DD48D8DC3CE7DC69F2944DB42AA6F6CF09BCA622ADD08C7A36E7C6AE18000BAB08E040135C2D21C9D75B3A91B77BB746C403F38018DFE6EC939DD92F16B40BC05294B9CDA035AAD6D330AE27FE4786B
310
8E45145EA34A75BE1C263A676A35A8ACC6297337400BF16C54EF515F3F77CB77EB3583889C754FFA29081AA98E2222ADEF05DA3E63D2EDEA8B8756C05A7FB6CABC4A91CBF325398202CC952E70A008A830324BA200D5E5EF8F5F04C75DB4B0EE3340E071C98B823333B83577596BF3849B69F2085AA0FAFA212F26BEFF5877
310
FDE622B28D88A42E49E43326DA82D31E8CB006401E1DA726059ECEC168F97A6599036306A135688F9AD2E61A6EA178F4CD51974A9F2CCB9F36FE5EBD14601068D9C3BF01504B0304140006080000B670623B000000000000000000000000350000006662782F42384135303843342D343331462D343546312D424341352D35
310
32343432364645413344462F76657274696365732E62696E504B0304140006080800B670623BF270F1330600000004000000360000006662782F42384135303843342D343331462D343546312D424341352D3532343432364645413344462F747269616E676C65732E62696E636660600000504B0304140006080000B67062
310
3B000000000000000000000000370000006662782F42384135303843342D343331462D343546312D424341352D3532343432364645413344462F617474726962757465732E62696E504B0304140006080800B670623B08DA0BD19000000041010000360000006662782F42384135303843342D343331462D343546312D4243
310
41352D3532343432364645413344462F6469726563746F72792E786D6C858F410AC3201045AF22B36F53E9A60B35CBEEBAE80D244E44489C6234F4F835464A48035D0DF398FF9F8AF63D0E6CC63039F212F8F9020C7D47C6792B21C5FE7403D62A1188E2E60C98D7234A5830286103A55745067B9D86B8A3CF9C7F90C11DE6
310
07FB144396D7B6A82D282E9A152AD114D5EF2CB866EEE831B8EEA07A7BB5A8D7D61A2BAAEB7FD5F70921FF497D00504B0304140006080800B670623B3B4606F3FE000000A00100003B0000006662782F42384135303843342D343331462D343546312D424341352D3532343432364645413344462F7265736F75726365732F
310
636F72652E786D6C8D504B6E833010BD0A9A6D65B08134808CA354A427E8052C332156828DFCA97AFC9A40A576D7CDCCE87D344F8F9FBEE647F689CE6B6B7A6039850C8DB2A336530F315C4903D94970676DF82583CCC8197B5861107C72362E3BA4AC096842428D1D7107A5F71820538F74F4E0D50D6799CB1892C2DFF345
310
AABB9C306779A2934E701F5C0A906D4FD609C2A1B7D129F4BCD858C163D4E3AED163FAA9AF1A1D88F67CA98E6D35906AA82A52BFB39ABCD5CD915C86331BD86BD3B665CD8BD52C78D0F34F46E550061C419494B6843142CB0F5677F4D0D58717DA7494F26295FF31C565FCA7296A13AA728FBBD93C0896823C09C18BB5AFB4
310
9E65A6BD762BBE01504B010214000A0000080000B670623B3DEE336E79000000790000001B00000000000000000000000000000000006175746F6465736B2D64657369676E2D7061636B6167652E786D6C504B01021400140006080800B670623BD486FD9CA0000000F40000001300000000000000000000000000B2000000
310
5B436F6E74656E745F54797065735D2E786D6C504B01021400140006080800B670623B28ED286BEB0000007C010000080000000000000000000000000083010000636F72652E786D6C504B01021400140006080800B670623B55019EA25F0000007C000000070000000000000000000000000094020000636E782E786D6C50
310
4B01021400140006080800B670623B7BC41AC871010000D40300000C00000000000000000000000000180300006662782F636F72652E786D6C504B01021400140006080800B670623B70102A487D0000009D0000000B00000000000000000000000000B30400006662782F636E782E786D6C504B01021400140006080800B6
310
70623B3610CA3329010000120200003100000000000000000000000000590500006662782F42384135303843342D343331462D343546312D424341352D3532343432364645413344462F636F72652E786D6C504B01021400140006080800B670623B1B8617914E010000330300003000000000000000000000000000D10600
310
006662782F42384135303843342D343331462D343546312D424341352D3532343432364645413344462F636E782E786D6C504B01021400140006080800B670623BBFEF2E3B690500003C10000034000000000000000000000000006D0800006662782F42384135303843342D343331462D343546312D424341352D35323434
310
32364645413344462F6F626A656374732E786D6C504B01021400140006080000B670623B0000000000000000000000003500000000000000000000000000280E00006662782F42384135303843342D343331462D343546312D424341352D3532343432364645413344462F76657274696365732E62696E504B010214001400
310
06080800B670623BF270F133060000000400000036000000000000000000000000007B0E00006662782F42384135303843342D343331462D343546312D424341352D3532343432364645413344462F747269616E676C65732E62696E504B01021400140006080000B670623B00000000000000000000000037000000000000
310
00000000000000D50E00006662782F42384135303843342D343331462D343546312D424341352D3532343432364645413344462F617474726962757465732E62696E504B01021400140006080800B670623B08DA0BD1900000004101000036000000000000000000000000002A0F00006662782F42384135303843342D3433
310
31462D343546312D424341352D3532343432364645413344462F6469726563746F72792E786D6C504B01021400140006080800B670623B3B4606F3FE000000A00100003B000000000000000000000000000E1000006662782F42384135303843342D343331462D343546312D424341352D3532343432364645413344462F72
310
65736F75726365732F636F72652E786D6C504B0506000000000E000E0080040000651100000000
  0
XRECORD
  5
187
102
{ACAD_REACTORS
330
186
102
}
330
186
100
AcDbXrecord
280
     1
 70
     1
 90
429727718
  1
887D55A9-D0DD-414E-B741-A7DCD4DA2B4C
310
504B03040A0000080000B670623B3DEE336E79000000790000001B0000006175746F6465736B2D64657369676E2D7061636B6167652E786D6C3C3F786D6C2076657273696F6E3D22312E302220656E636F64696E673D227574662D3822203F3E3C666F726D6174733E3C666F726D61743E687474703A2F2F736368656D612E
310
6175746F6465736B2E636F6D2F64657369676E2D7061636B6167652F323030393C2F666F726D61743E3C2F666F726D6174733E504B0304140006080800B670623BD486FD9CA0000000F4000000130000005B436F6E74656E745F54797065735D2E786D6C7D8EC10E82300C865F65E91D8A1E8C310C0EEA1BF002731658846E
310
D98AC1B77784ABF1D8FE5FBFBF75BBCE937A534CCEB38643598122B6FEE978D0B0485F9C41B54DDD7D022595594E1A469170414C76A4D9A4D207E29CF43ECE46F218070CC6BECC4078ACAA135ACF422C856C0E68EA1BF5669944DDD7BCDE7B1F8E415D77AECB980613C2E4AC91FC167A2B244592486606FC29C8FD7F045B9A
310
EF7053A7E60B504B0304140006080800B670623BBC1638F5EC0000007C01000008000000636F72652E786D6C8D90416EC3201045AF82665B61836BE2D8C24471DB9CA01740401C94182C03558F5F9C3852BBEB6A467FFE9B197D7EF89E6EE8CB2CC17AD7032D0820E394D7D68D3DA478C67B4007C117EFE32F1B202727D3C3
310
2A83E0E3E2D3BC49CABB685CCCAAF3DA6CA20CC14440EA969B1E82BA98491632C5EC08D76296EA2A4753D06797E194AC468F2356E77DF66CCD02825543D50CACC62D39ED70FDC68EB8FD68F6F8787A6784342D1DDA1D2F5758F068A7E77DB518198D065111D2624A31A93E69DD11D6D5EC85EC3B4278B9DAFF4069D6FF8492
310
75F1B5DADE7D600104CD8FDC0782976B16B9DC83CA75CD4DFC00504B0304140006080800B670623B55019EA25F0000007C00000007000000636E782E786D6C4DCB3B0E80201045D1AD90E915ED2CF8AC45050C11660C8261F98AB1B07AC9C97D42D718D865D3E909258CFD00CCE24AC6E326A164D74DC0B4128928FF326038
310
472BA13128B1252AC747C6BAB984FC68F0B87FE8960A5C09FE86CFB69FBA01504B0304140006080800B670623B3586FFB671010000D40300000C0000006662782F636F72652E786D6CC553ED6E8320147D15C2DF4541A76D6D90A6DDD627D80B50A4CE54C120983EFEAE1F4DD7A55BBA5FF3879273EEE59E7310B6393735EA
310
95ED2AA3731C851423A5A5292A5DE6D8BB63B0C268C39935C67D29C3488B46E578803167A535BE9D2169B453DA01AA4DA16650749D7218C91A1639EEE4876A4428BC838AEE14B6429E44A9C228041AEA38EB9C0501681A32BC313F1ECE8C4C3867DE57C5CC56054CAB8E95B298A7F12E5EEED224C8E87E11242FE936C8DE96
310
AB60BB7F4D295D66D12E5B30323473E6AAE6A24E5A259C2A308F29CD82280A68FC1E256B9AAE93F489AED694323294DF34F9B678B0C957DA3DC7B3DCA9ADC33C022123F1CD2D44E450277AD04338234388F01913BE0D1A0281909D38D4171F27807A259DB1093085F157AA17B557309586747CD0CF0B46A64E983A6E0EAEEF
310
CE881F9EF1FB8E70D44297604238581EBC1B74B249C31C5AAB6CD0BB33D2C636A27ECCC62F0EFF445DC5DF95244D6DEC7F2922F30191F9F720C37DE49F504B0304140006080800B670623B4220A0FF7D0000009D0000000B0000006662782F636E782E786D6C4DCCD10A83201886E15B91FFDCE542CB0335D0EC3E6259C84A
310
C3E9D8E5AF46073BFAE0E1E315DD675BD1DBA5978F41C2FD4600B9F088930F8B849267CC01754AA418F3DF0D50183727E164506249B1EC174D6E1ECB9A0F5D7D785E68DB8151CD286E5A5363CA6B8A39E90D36D40E96B086F55A43A544F52B1D7B86D517504B0304140006080800B670623B2FA3FEDE290100001202000031
310
0000006662782F45374635344235342D363743322D343832342D383044432D4334454645303536354442422F636F72652E786D6C8D515B6EC32010BC0AE22B55850D2E386E848994D7097A0117488A1283C5A3CAF10BB523B57FF961D1ECCCECC0F2ED7DBC816FED8371B687A4C210682B9D32F6D2C314CFA883602BB8772E
310
FEA141608751F7B0C050F08B77695A20E96CD43666D43AA5177008414708E42D5F7A18E4971E876A483133C2B59A06791D2EBA22556E679EE021FA1C00CC43CA09C5717D6274C7286AD7FB06D1AEA1A8C3873DDAD3E3E98859CB0EBB1DAF67A1E02919B5C88DCA71CCD968FFAC49110B1ECDF8882FBD1EA256503418BF2342
310
106E3E08DD60B6A1EC15771B8C795DE8FF4469524F8A92B1F1AD59E2CEB20005E1F5DC105CB9F4797B84D1F7C9F908CABC55D0F2050A5C61CC1AD2F27A26E6E767C7962E8E213A9FBF7775FDCC5CC266DB960A5E970DE5F2BBBE5CCB36C50F504B0304140006080800B670623B1B8617914E01000033030000300000006662
310
782F45374635344235342D363743322D343832342D383044432D4334454645303536354442422F636E782E786D6CD593C16EC32010447F0571AD6CE3D489D20813A9877E410FBD62D82434182CC055F3F75D1292E692438FBD206B7698593D61BEFD1E2DF982108D773D6D6B460938E5B571FB9ECE6957AD29D90A1EBC4F77
310
364A9C1CA1A759A682EF839FA72269D8C9D92654AD71C72206887E0E0A22CAF926B15E498B01E0AA19451807D01A34B919F16B070157417138917400F2F6FA41FCF0092A45DEE414C19BDC21783E4BD39D891265658C3D8DEA00A3ACE59CBC8678ACB54CB26EEB6BD7839D7E9348BE70AD9C8321B9BCA7F9A4A26C542347DE
310
E050F09802D22BA6749A800A394DD62899107273365E3C82CFC6A55557BC06C10774B7ABE7AEC3B0F34CF06446280E154026D0542C187BA9DAB6628BF7B6DBB0E5A65B3EB1F58631DE64BBE083F7B65CC218087E22CABB042E51D1F2268F1FE12B3EA24D40D63E9CFE00120194D60B9D5BC67FE6D39CDF37E20AF817881F50
310
4B0304140006080800B670623B29652116630500003C100000340000006662782F45374635344235342D363743322D343832342D383044432D4334454645303536354442422F6F626A656374732E786D6CAD575D739B3814FD2B0CFB0C989834C90EA1639B24E3E9A6EDD4D3CE3E64C623834CD8006224913AFDF57B040203
310
B65BEF871F0C12D2FD3CF7E8CA7FBFCB33E3957291B2E2D674ED8969D02262715A24B76625B7D6B569BC0F7CCE98EC2D338D82E4F4D654D366E0279C55A59E8AE99654991CCDDECFFF3444440B6A1A514684B83545F44C7362934AB2988A173B2692D8C97667BB76B3702836E1A47C1E092D09A78584A5982F20C5688C7287
310
C389E904BEA3BE07BEFAD7ABA6A75739B53F43FD69212429A20365233153D70BEF2E2E6FAC4BCF9B5ADEBB0BD79ADFCF43CBBD9A4E16EF168B9BD9DD0D140BC921495BC2E9D60C1E101B9E46BED37CEA2CD6861F3329624541A3DA7F7858DBAC25C6B4A4458C3CA654405BCFEBC970E8AAD8F43E4FD558ABEC4F9FE7557F47
310
4F506B7BFBEC5BCA367FC105710E2AB8A00A554D7CB4A30DFE26FBA86D18CBF4B75418399194A72433B274C3097F33032C554B027F2046A1932B842B0FCCC0DDCBEBDB8AD2F835768F59B9ADB24C41D30C6A64AF817F2A456D59FA83F2E3DA60137255A585BCD60EC9B7929AC18DEFD49381AF1ED30BFDB109A4B1CD488294
310
C3CDE6EBC8D185AABD6568061FEE37BB95AAC7E3CA4BCE4ACAA5820FA0D526AE7DAA2869B5EE5999531BE0CC20E6FBA07C41E43FA27CF7A6206F3CDD793B4F6B919C1462CB788EDCD893FA674CDA17AB7B3B7C019F8D561FAEE966FED562DFE98C1D12C6A9FC015C2A35D7FF3D7FC398F591DA4B5FE0BFA2C0189FEA50AE22
310
92817A1ED3020951A03432862970F976B33383259812CC8E5D240BBA801CBCF8CE2BBEE3BF910DB6AAD5F79E05123AE2DB33981FB1ACCB02B69D00CB014FD68AB573A7627EF9BFD4CC2C5C7D58557C4B22FAA88925A4DBB44825CECE3D78FB060D1231F0E885BE7D673C86A3874958F593906B5502D1563157814FDAC3420D
310
F69A070A22EC4B98E23CFF171A1E5311D12C23056555ABA53B8614563B92D17D02AAB009E8F46284624E5F53D5490C560CCCC2591FF1B45421EB0EBD8EA7ED13BE7C5D7E0428CD60FEF60779EB13E6664FF711CB185F6FDED60D139A001FF60CD1FD6D086F1D51474901E26B2CB794A343BC8ED3EDB612E0DD2351FCB65CF4
310
33D511C9E14B5B40ADC6A6263DB0336A8F700DDF56271A024E70B0B3629DE21847591E55DED73D56206AB927E46FAABC5C939C55853C274C93D69FD6FA4E78BF8B11DF898C9ECD60553FAD39283BA6F18984AA23E8884F83F45C5F5F859797B31B2B9C84A1E5B9DE9D35BFF25C6B76152E422F9C5DCC3D847F5801ED09D5AF
310
41441327A25FF15487F9EB725FB666F048A4701E9A827292E6F97569A32DF61DEC01C0BB8DCBBCCC684E0B49147C1FD54BF685A0AB18C868E6973949E819523E3DAC463660E68C7D9F55A9D1EFA3BD7A76A16AE1A810F95CE59B82A4D968A376DC2E8B44BBDD86B27B368CDE0ED548C7137DA860591A83706223A12CA712B4
310
7306DBF39C0A20A6DF95C7FAF670C6EED7A61F946493D1D6926782963813403548A78AE470DEF80D2D9CEAA26E4D1C76F60BFE74219A06527D6B82DF641A51616F703CAAC6A7160E08A00BEB4810A0274592A1B36E3675E36E978A0DE80727A0D6DF2D39A75BD27E0D8837276589537B40ABB56D5A41F48F1C6FCD3188C4EB
310
A6929D2FFB89CE995A4D00AE813BDD032DC48B56BD437DFDDC2DD7AED70C2272D63DE9A72068A45A92F0A4BE17A8A06B9366E16707AD80B1FC649459952097E74BB23805982B55E0401150A165964402AA8BDF9F3E7386BB686EDCA780C0D382E5392BF460A6EFB2C6EA1937D3F809B440D5F5435C4C5CF7A9EEFAF54564BD
310
2182DA24162F98680B4E7930C21A0079709CEAEB99A372305ABE0C0D7D6078105A83F6A0296DAEE1068A47DD1C55A9F4C9B2FC69E3EFD44B81028E963DF81B504B0304140006080000B670623B000000000000000000000000350000006662782F45374635344235342D363743322D343832342D383044432D433445464530
310
3536354442422F76657274696365732E62696E504B0304140006080800B670623BF270F1330600000004000000360000006662782F45374635344235342D363743322D343832342D383044432D4334454645303536354442422F747269616E676C65732E62696E636660600000504B0304140006080000B670623B00000000
310
0000000000000000370000006662782F45374635344235342D363743322D343832342D383044432D4334454645303536354442422F617474726962757465732E62696E504B0304140006080800B670623B08DA0BD19000000041010000360000006662782F45374635344235342D363743322D343832342D383044432D4334
310
454645303536354442422F6469726563746F72792E786D6C858F410AC3201045AF22B36F53E9A60B35CBEEBAE80D244E44489C6234F4F835464A48035D0DF398FF9F8AF63D0E6CC63039F212F8F9020C7D47C6792B21C5FE7403D62A1188E2E60C98D7234A5830286103A55745067B9D86B8A3CF9C7F90C11DE607FB144396
310
D7B6A82D282E9A152AD114D5EF2CB866EEE831B8EEA07A7BB5A8D7D61A2BAAEB7FD5F70921FF497D00504B0304140006080800B670623B6378F24DFF000000A00100003B0000006662782F45374635344235342D363743322D343832342D383044432D4334454645303536354442422F7265736F75726365732F636F72652E
310
786D6C8D504B6E833010BD0A9A6D65B0094E42641C85B639412F6099496225D8C89FAAC7AF09546A77DDCC8CDE47F3F4C4F16B7C149FE88371B603565228D06A37187BED20C50BD9437194C23B177FC9A0B06AC40E6618A4B87A97A615D2CE46B431A3D60DB8822A048C50E8473E3A08FA86A32A558A5911EEE5A4F45D5DB1
310
6465A6B34E8A107D0E502C4FE609D26370C96B0CA25A58295232C3AA3143FE692E063D485EF7F5AEE71BD2D2F39634AFFC44DAF7DD9E9CCE6F9CD25DCBFA762BAAD92C4534E34F46ED51451C40D694B6843142EB0FD61C283F34FC85EE0F948A6A96FF31A569F8A729191B37F51A77B105902C0779125254735F793DCBCC7B
310
EE567E03504B010214000A0000080000B670623B3DEE336E79000000790000001B00000000000000000000000000000000006175746F6465736B2D64657369676E2D7061636B6167652E786D6C504B01021400140006080800B670623BD486FD9CA0000000F40000001300000000000000000000000000B20000005B436F6E
310
74656E745F54797065735D2E786D6C504B01021400140006080800B670623BBC1638F5EC0000007C010000080000000000000000000000000083010000636F72652E786D6C504B01021400140006080800B670623B55019EA25F0000007C000000070000000000000000000000000095020000636E782E786D6C504B010214
310
00140006080800B670623B3586FFB671010000D40300000C00000000000000000000000000190300006662782F636F72652E786D6C504B01021400140006080800B670623B4220A0FF7D0000009D0000000B00000000000000000000000000B40400006662782F636E782E786D6C504B01021400140006080800B670623B2F
310
A3FEDE290100001202000031000000000000000000000000005A0500006662782F45374635344235342D363743322D343832342D383044432D4334454645303536354442422F636F72652E786D6C504B01021400140006080800B670623B1B8617914E010000330300003000000000000000000000000000D2060000666278
310
2F45374635344235342D363743322D343832342D383044432D4334454645303536354442422F636E782E786D6C504B01021400140006080800B670623B29652116630500003C10000034000000000000000000000000006E0800006662782F45374635344235342D363743322D343832342D383044432D4334454645303536
310
354442422F6F626A656374732E786D6C504B01021400140006080000B670623B0000000000000000000000003500000000000000000000000000230E00006662782F45374635344235342D363743322D343832342D383044432D4334454645303536354442422F76657274696365732E62696E504B01021400140006080800
310
B670623BF270F13306000000040000003600000000000000000000000000760E00006662782F45374635344235342D363743322D343832342D383044432D4334454645303536354442422F747269616E676C65732E62696E504B01021400140006080000B670623B0000000000000000000000003700000000000000000000
310
000000D00E00006662782F45374635344235342D363743322D343832342D383044432D4334454645303536354442422F617474726962757465732E62696E504B01021400140006080800B670623B08DA0BD190000000410100003600000000000000000000000000250F00006662782F45374635344235342D363743322D34
310
3832342D383044432D4334454645303536354442422F6469726563746F72792E786D6C504B01021400140006080800B670623B6378F24DFF000000A00100003B00000000000000000000000000091000006662782F45374635344235342D363743322D343832342D383044432D4334454645303536354442422F7265736F75
310
726365732F636F72652E786D6C504B0506000000000E000E0080040000611100000000
  0
XRECORD
  5
112
102
{ACAD_REACTORS
330
110
102
}
330
110
100
AcDbXrecord
280
     1
270
     1
271
     1
  0
XRECORD
  5
111
102
{ACAD_REACTORS
330
110
102
}
330
110
100
AcDbXrecord
280
     1
270
     1
271
     1
  0
XRECORD
  5
18A
102
{ACAD_REACTORS
330
110
102
}
330
110
100
AcDbXrecord
280
     1
 70
     0
 90
1778669749
  1
9BF507EE-FAF7-4A99-A33D-4EE51894BC40
310
504B03040A0000080000B670623B3DEE336E79000000790000001B0000006175746F6465736B2D64657369676E2D7061636B6167652E786D6C3C3F786D6C2076657273696F6E3D22312E302220656E636F64696E673D227574662D3822203F3E3C666F726D6174733E3C666F726D61743E687474703A2F2F736368656D612E
310
6175746F6465736B2E636F6D2F64657369676E2D7061636B6167652F323030393C2F666F726D61743E3C2F666F726D6174733E504B0304140006080800B670623BD486FD9CA0000000F4000000130000005B436F6E74656E745F54797065735D2E786D6C7D8EC10E82300C865F65E91D8A1E8C310C0EEA1BF002731658846E
310
D98AC1B77784ABF1D8FE5FBFBF75BBCE937A534CCEB38643598122B6FEE978D0B0485F9C41B54DDD7D022595594E1A469170414C76A4D9A4D207E29CF43ECE46F218070CC6BECC4078ACAA135ACF422C856C0E68EA1BF5669944DDD7BCDE7B1F8E415D77AECB980613C2E4AC91FC167A2B244592486606FC29C8FD7F045B9A
310
EF7053A7E60B504B0304140006080800B670623BCA089DFFEC0000007C01000008000000636F72652E786D6C8D90416E83301045AF62CDB632D8402020E32882F604BD80653BC44AB011B6AB1EBF262152BBEB6A467FFE9B197D76FA9EEFE84BAFDE38DB03CD08206DA553C64E3DC470C1474027CE56E7C22F1B202B66DDC3
310
260367D3EAE2B24BD2D9A06D48AA754AEFA2F05E0740F29E9A1EBCBCEA59642286E4F0B76C11F226269DD15797E0188D42CF2346A57DE662F40ABCAEC77628C6120F654571D50C04B7F5B9C1E3997CD4F550BE3745C3F20DE62C98F9755FAE5A04AD801784B498524C8A4F5A75E4D055873772EC0861F966FF03C545FD138A
310
C686B2D8DF7D621E384D8F3C069CE55B16A93C824A75CB8DFF00504B0304140006080800B670623B55019EA25F0000007C00000007000000636E782E786D6C4DCB3B0E80201045D1AD90E915ED2CF8AC45050C11660C8261F98AB1B07AC9C97D42D718D865D3E909258CFD00CCE24AC6E326A164D74DC0B4128928FF326038
310
472BA13128B1252AC747C6BAB984FC68F0B87FE8960A5C09FE86CFB69FBA01504B0304140006080800B670623B68FC0B7272010000D40300000C0000006662782F636F72652E786D6CC5535B6E833010BC8AE5DF0A6C1E8124328E22D29EA01770C0A128602363A31CBFCB234A53A555FA553EC09AD9F5CE8C31DB5DDA060D
310
D2F4B556190E7C8A9154852E6B5565D8D993B7C668C799D1DA7E29C3488956667884316795D1AE5BA0422B2B950554E9522EA0E87B69312A1A5864B82F3E642B7CE12C54F467BF13C55954D20F7CA0A18EB3DE1A1080E621E31BF3D3F1C2C88C73E65C5D2E6C5DC2B4FA544B8379921C36797888BC3C8A032F4E73EA6D927D
310
EA1DF6F42D49F2E8350D5346C666CE6CDD5ED515460A2B4BCC434A375E1078347C0FE22D5D6DE3D50B5D6F2965642CBF6B725DF96493AB958DC245EEDCD6631E809089F8E61622B2A81703E8219C913144F84C09DF070D8140C8561C9BAB8F3340832CAC363130A576376A108D933095FA747AD0CF0B46E64E983A6D0EAE1F
310
CE089F9EF1FB8E70D44255604258581E9D1D75B259C3125A278D37D80B52DAB4A279CEC62F0EFF44DDC43F9454E8469BFF5244960322CBEF41C6FBC83F01504B0304140006080800B670623B0F71DDB67E0000009D0000000B0000006662782F636E782E786D6C4DCCD10A83201886E15B91FFDCA54DB73F502386BB8F5816
310
32D3703976F9ABD1C18E3E78F87855FB990379BBFCF2296AE02706C4C5471A7C9C349475A408A4352AA7B4FEDD80C47E761A7606A3A69CCA72D0E0C6BE8475D3E0E3F3409428EA6B27A84079A782899AA2EC1A7AE3ECCC2FD858CB2D544655BFD2B67BD87C01504B0304140006080800B670623BE134B4FB28010000120200
310
00310000006662782F38353834323741342D343835462D343034322D383541392D4331303331363839454531452F636F72652E786D6C8D515B6EC32010BC0AE22B55850D0EA424C24451959EA0172086A42831583CAA1CBF503B52FB971F16CDCECC0EACD8DFC71BF836215AEF7A481A0C817183D7D65D7A98D3197108F652
310
04EFD31F1A044E8DA6871586525C82CFD3020DDE25E352419DD76601558C264130DCCAA58771F832A36A544E8511AFCDA486ABBA988634A55D7852C4144A00300FA927949C71DABD1D28A29C7D208A6987383B6CD13BC16BB2E1DBE3911C453B0BA5C8D9EA456E758963CFD684674DAA588A64C747FC2118958C86B2C3788B
310
0841B8FB247487D98EB257CC77188BB6D2FF89F2A49F1465EBD2BA5BE2CEB2082511EDDC9042FB7CBA3DC298FBE4430275DE2A9AE1054ADC60CC08E3A29D89E5F9C5714317C7987C28DFBBBA9E0A97B0D97643A568EB864AF95D5FA9759BF207504B0304140006080800B670623B1B8617914E010000330300003000000066
310
62782F38353834323741342D343835462D343034322D383541392D4331303331363839454531452F636E782E786D6CD593C16EC32010447F0571AD6CE3D489D20813A9877E410FBD62D82434182CC055F3F75D1292E692438FBD206B7698593D61BEFD1E2DF982108D773D6D6B460938E5B571FB9ECE6957AD29D90A1EBC4F
310
77364A9C1CA1A759A682EF839FA72269D8C9D92654AD71C72206887E0E0A22CAF926B15E498B01E0AA19451807D01A34B919F16B070157417138917400F2F6FA41FCF0092A45DEE414C19BDC21783E4BD39D891265658C3D8DEA00A3ACE59CBC8678ACB54CB26EEB6BD7839D7E9348BE70AD9C8321B9BCA7F9A4A26C542347
310
DEE050F09802D22BA6749A800A394DD62899107273365E3C82CFC6A55557BC06C10774B7ABE7AEC3B0F34CF06446280E154026D0542C187BA9DAB6628BF7B6DBB0E5A65B3EB1F58631DE64BBE083F7B65CC218087E22CABB042E51D1F2268F1FE12B3EA24D40D63E9CFE00120194D60B9D5BC67FE6D39CDF37E20AF817881F
310
504B0304140006080800B670623B5933D422630500003B100000340000006662782F38353834323741342D343835462D343034322D383541392D4331303331363839454531452F6F626A656374732E786D6CAD575B6FA33814FE2B887D0642934E9B156594264D158D3A534DD4D13E548A0C38942D60649B4EBABF7E3F8321
310
40924EF6928780CDF1B97EE762EFF32E4B8D37CA45C2F21BD3B547A641F39045491EDF98A5DC5AD7A6F1D9F73863B243661A39C9E88DA9B64DDF8B392B0BBD15D12D295339D85DDEFE618890E6D434C2940871638AF08566C426A5641115AF764424B1E3EDCE76ED9AB0CF36E6A47819302D08A7B984A6D8CFC1C5A89572FB
310
CB91E9F89EA3BEFB9EFAD754E3D3544E654F5F7E920B49F2F040D880CDD89D2CEE2E2EA7D6E56432B6269F2E5CEB7679BBB0DCABF168FE693E9FCEEEA6102C240727AD09A75BD3BF876F78127A4EFDA9D5582B7E4CA590E5390D2BFB6161A5B3E618D182E611E2985001691DAB47FDA5AB7CD3F93C566B2DB2BB7D9E55DD13
310
1D468DEECDB3AB290BFE8409E21C54704115AA6AFF68436BFC8DF65E0B184BF5B74418199194272435D224E084BF9B3E481589EFF5D828747285706581E9BB7B7E5D5D911ABFC6EE312DB7659A2A689A7E85EC0DF04FA5A8344BFEA2FCB834E8845895492EAFB541F2BDA0A63FF59C6AD3F7D4637CA13FD68E34B629891172
310
98597F1D183A57B9B75A98FE9765B05BAB7C3C2EBCE0ACA05C2AF8005A4DE09AA7F29216EB9E15397500C6F47CBE77CA7778FE2BD277AF0AE2C693DD6437D1522427B9D8329E2136F6A8FA19A3E6C56ADF0E5F50CF06D48734EDCEBF22F69C56D97EC138153F804B85E6FABFC7AFEFB32E523BE1F3BD372418E363EDCA7548
310
52949E8724474014288D94610BB57C1BEC4C7F854A89CA8E5324F55B871CBC78CE1BBEE3BFE68D6A5589EF3C730474506FCFA8FCF0659516D0ED04580EEA6425581B77CAE797FF4BCECC16EB2FEB926F49481F746159D06D922712BD730FDEAE42BD40F42C7AA5EF3F198F60E86110D6DD20645A9480B795CF95E3E3A659A8
310
C55E724F408873315335CFFB8584874484344D494E59D94869DB90C26A5B64F49C802CAC1D3ABE18A098D3B7444D123D8A9E5AE8F5214F0AE5B2B6E9B575DA3E61CBD3EA2B4009FA940524DD1305FB6A1FB294F14DF0BEA90BA109ECE1481FDC3FFAE8D60E75141700BE82725371B4873751B2DD960265F788137FACE6DD40
310
B575E4F0A5C99F46629D92131467A41EE11ABD8D4CCC039CA0AFB37C93A08B232B8F0AEFCA1E0A1015DF13FC83322B362463652ECF71D3A8B1A7D1BE65DE1D62C44F22C317D35F574FEB16153BA2D13E543D10A80E74C4A65E78A6B7CBCBD1D5DD9DB59C2DAFACC96C3AB566E3F1C29ADCDD5DBAD7D3C9ED7C822ED74F80A6
310
41755310DE4443F44A9E68373FADF6596BFA0F440AE7BECE2727AE9F4F2B1B53B1E7E00CF0DD1E5C65454A339A4BA2D0FBA05ED2EF0443458F47BDBFCA484CCFE0F2ED7E3DD0013B679C7B5499467F0ECEEADDB9CA85A34CE44B99053949D2C1416DB85DE4B136BB7165FBAC0B7AB3542BED4F8CA182A549847A1319316519
310
95A83A67147B9E5101C47487F2485F1ECE38FD568F839204296D3479219888530154036E6528FBFBC66F98E0D4107563A2D7D9AFF8D389681A08F58D89F22693900A3B407754734FC51C10C010D6D640809EE4718AC1BA3ED4AEDB53CA37283F68805A7E4B72CEB0A4EDEAD5DD8C14059A76AFAA56BA6901E13F32BC51C720
310
12AF41295B5BF61BAD3195181FB506E6B40F4C10AF5AF40EF9F5B159AE5DD1F43C72D635E94310D45C2D49785C5D0B94D3B54AB3C5A38349C0587D338AB48C11CBF339599C02CCA54A70A008A8D03C0B2201D5F9EFCF8F9CE12A9A19CB0410789EB32C63B95ECCF455D658BFE0621A3DA32C5075FB101723D77DAE867E7D0F
310
D90444509B44E2151B4DC2290B065803200FBAA9BE9D392A0603F2D5C2D00D6302A615680F66D2FA166E2079D4C551A54AB758161FCEFD4E450A14704CECFEDF504B0304140006080000B670623B000000000000000000000000350000006662782F38353834323741342D343835462D343034322D383541392D4331303331
310
363839454531452F76657274696365732E62696E504B0304140006080800B670623BF270F1330600000004000000360000006662782F38353834323741342D343835462D343034322D383541392D4331303331363839454531452F747269616E676C65732E62696E636660600000504B0304140006080000B670623B000000
310
000000000000000000370000006662782F38353834323741342D343835462D343034322D383541392D4331303331363839454531452F617474726962757465732E62696E504B0304140006080800B670623B08DA0BD19000000041010000360000006662782F38353834323741342D343835462D343034322D383541392D43
310
31303331363839454531452F6469726563746F72792E786D6C858F410AC3201045AF22B36F53E9A60B35CBEEBAE80D244E44489C6234F4F835464A48035D0DF398FF9F8AF63D0E6CC63039F212F8F9020C7D47C6792B21C5FE7403D62A1188E2E60C98D7234A5830286103A55745067B9D86B8A3CF9C7F90C11DE607FB1443
310
96D7B6A82D282E9A152AD114D5EF2CB866EEE831B8EEA07A7BB5A8D7D61A2BAAEB7FD5F70921FF497D00504B0304140006080800B670623BD9A3B367FE000000A00100003B0000006662782F38353834323741342D343835462D343034322D383541392D4331303331363839454531452F7265736F75726365732F636F7265
310
2E786D6C8D504B6E833010BD0A9A6D65B01D0201194711694FD00B586642AD043BF2A7EAF16B122AB5BB6E6646EFA3797AE2F8B5DC8A4FF4C1383B002B291468B59B8C9D0748F1420E501CA5F0CEC55F3228AC5A708015062966EFD27D83B4B3116DCCA875136EA00A012314FA968F0182FEC045952AC5AC08D7F2AEF455CD
310
58B232D3592745883E07289E4FD609D26370C96B0CA27AB252A464A64D63A6FCD35C0C7A904D73EE467EE664DCD58CD4ED4849D79C5A723ED1B7A61977AF2D6F45B59AA58866F9C9A83DAA8813484E6947182394BFB3BAA7FBBEDEBFD0434FA9A856F91F53BA4FFF342563E38E6F719FB60092E5200F428A6AED2BAF479979
310
AFDDCA6F504B010214000A0000080000B670623B3DEE336E79000000790000001B00000000000000000000000000000000006175746F6465736B2D64657369676E2D7061636B6167652E786D6C504B01021400140006080800B670623BD486FD9CA0000000F40000001300000000000000000000000000B20000005B436F6E
310
74656E745F54797065735D2E786D6C504B01021400140006080800B670623BCA089DFFEC0000007C010000080000000000000000000000000083010000636F72652E786D6C504B01021400140006080800B670623B55019EA25F0000007C000000070000000000000000000000000095020000636E782E786D6C504B010214
310
00140006080800B670623B68FC0B7272010000D40300000C00000000000000000000000000190300006662782F636F72652E786D6C504B01021400140006080800B670623B0F71DDB67E0000009D0000000B00000000000000000000000000B50400006662782F636E782E786D6C504B01021400140006080800B670623BE1
310
34B4FB280100001202000031000000000000000000000000005C0500006662782F38353834323741342D343835462D343034322D383541392D4331303331363839454531452F636F72652E786D6C504B01021400140006080800B670623B1B8617914E010000330300003000000000000000000000000000D3060000666278
310
2F38353834323741342D343835462D343034322D383541392D4331303331363839454531452F636E782E786D6C504B01021400140006080800B670623B5933D422630500003B10000034000000000000000000000000006F0800006662782F38353834323741342D343835462D343034322D383541392D4331303331363839
310
454531452F6F626A656374732E786D6C504B01021400140006080000B670623B0000000000000000000000003500000000000000000000000000240E00006662782F38353834323741342D343835462D343034322D383541392D4331303331363839454531452F76657274696365732E62696E504B01021400140006080800
310
B670623BF270F13306000000040000003600000000000000000000000000770E00006662782F38353834323741342D343835462D343034322D383541392D4331303331363839454531452F747269616E676C65732E62696E504B01021400140006080000B670623B0000000000000000000000003700000000000000000000
310
000000D10E00006662782F38353834323741342D343835462D343034322D383541392D4331303331363839454531452F617474726962757465732E62696E504B01021400140006080800B670623B08DA0BD190000000410100003600000000000000000000000000260F00006662782F38353834323741342D343835462D34
310
3034322D383541392D4331303331363839454531452F6469726563746F72792E786D6C504B01021400140006080800B670623BD9A3B367FE000000A00100003B000000000000000000000000000A1000006662782F38353834323741342D343835462D343034322D383541392D4331303331363839454531452F7265736F75
310
726365732F636F72652E786D6C504B0506000000000E000E0080040000611100000000
  0
XRECORD
  5
113
102
{ACAD_REACTORS
330
110
102
}
330
110
100
AcDbXrecord
280
     1
270
     1
271
     1
  0
XRECORD
  5
114
102
{ACAD_REACTORS
330
110
102
}
330
110
100
AcDbXrecord
280
     1
270
     1
271
     1
  0
XRECORD
  5
F64
102
{ACAD_REACTORS
330
1C4
102
}
330
1C4
100
AcDbXrecord
280
     1
102
DISPLAYNAME
  1
Imperial24
102
FLAGS
 90
        0
  0
CELLSTYLEMAP
  5
F63
102
{ACAD_REACTORS
330
104
102
}
330
104
100
AcDbCellStyleMap
 90
        3
300
CELLSTYLE
  1
TABLEFORMAT_BEGIN
 90
        5
170
     1
 91
        0
 92
    32768
 62
   257
 93
        1
300
CONTENTFORMAT
  1
CONTENTFORMAT_BEGIN
 90
        0
 91
        0
 92
      512
 93
        0
300

 40
0.0
140
1.0
 94
        5
 62
     0
340
11
144
0.25
309
CONTENTFORMAT_END
171
     1
301
MARGIN
  1
CELLMARGIN_BEGIN
 40
0.06
 40
0.06
 40
0.06
 40
0.06
 40
0.18
 40
0.18
309
CELLMARGIN_END
 94
        6
 95
        1
302
GRIDFORMAT
  1
GRIDFORMAT_BEGIN
 90
        0
 91
        1
 62
     0
 92
       -2
340
0
 93
        0
 40
0.045
309
GRIDFORMAT_END
 95
        2
302
GRIDFORMAT
  1
GRIDFORMAT_BEGIN
 90
        0
 91
        1
 62
     0
 92
       -2
340
0
 93
        0
 40
0.045
309
GRIDFORMAT_END
 95
        4
302
GRIDFORMAT
  1
GRIDFORMAT_BEGIN
 90
        0
 91
        1
 62
     0
 92
       -2
340
0
 93
        0
 40
0.045
309
GRIDFORMAT_END
 95
        8
302
GRIDFORMAT
  1
GRIDFORMAT_BEGIN
 90
        0
 91
        1
 62
     0
 92
       -2
340
0
 93
        0
 40
0.045
309
GRIDFORMAT_END
 95
       16
302
GRIDFORMAT
  1
GRIDFORMAT_BEGIN
 90
        0
 91
        1
 62
     0
 92
       -2
340
0
 93
        0
 40
0.045
309
GRIDFORMAT_END
 95
       32
302
GRIDFORMAT
  1
GRIDFORMAT_BEGIN
 90
        0
 91
        1
 62
     0
 92
       -2
340
0
 93
        0
 40
0.045
309
GRIDFORMAT_END
309
TABLEFORMAT_END
  1
CELLSTYLE_BEGIN
 90
        1
 91
        1
300
_TITLE
309
CELLSTYLE_END
300
CELLSTYLE
  1
TABLEFORMAT_BEGIN
 90
        5
170
     1
 91
        0
 92
        0
 62
   257
 93
        1
300
CONTENTFORMAT
  1
CONTENTFORMAT_BEGIN
 90
        0
 91
        0
 92
      512
 93
        0
300

 40
0.0
140
1.0
 94
        5
 62
     0
340
11
144
0.18
309
CONTENTFORMAT_END
171
     1
301
MARGIN
  1
CELLMARGIN_BEGIN
 40
0.06
 40
0.06
 40
0.06
 40
0.06
 40
0.18
 40
0.18
309
CELLMARGIN_END
 94
        6
 95
        1
302
GRIDFORMAT
  1
GRIDFORMAT_BEGIN
 90
        0
 91
        1
 62
     0
 92
       -2
340
0
 93
        0
 40
0.045
309
GRIDFORMAT_END
 95
        2
302
GRIDFORMAT
  1
GRIDFORMAT_BEGIN
 90
        0
 91
        1
 62
     0
 92
       -2
340
0
 93
        0
 40
0.045
309
GRIDFORMAT_END
 95
        4
302
GRIDFORMAT
  1
GRIDFORMAT_BEGIN
 90
        0
 91
        1
 62
     0
 92
       -2
340
0
 93
        0
 40
0.045
309
GRIDFORMAT_END
 95
        8
302
GRIDFORMAT
  1
GRIDFORMAT_BEGIN
 90
        0
 91
        1
 62
     0
 92
       -2
340
0
 93
        0
 40
0.045
309
GRIDFORMAT_END
 95
       16
302
GRIDFORMAT
  1
GRIDFORMAT_BEGIN
 90
        0
 91
        1
 62
     0
 92
       -2
340
0
 93
        0
 40
0.045
309
GRIDFORMAT_END
 95
       32
302
GRIDFORMAT
  1
GRIDFORMAT_BEGIN
 90
        0
 91
        1
 62
     0
 92
       -2
340
0
 93
        0
 40
0.045
309
GRIDFORMAT_END
309
TABLEFORMAT_END
  1
CELLSTYLE_BEGIN
 90
        2
 91
        1
300
_HEADER
309
CELLSTYLE_END
300
CELLSTYLE
  1
TABLEFORMAT_BEGIN
 90
        5
170
     1
 91
        0
 92
        0
 62
   257
 93
        1
300
CONTENTFORMAT
  1
CONTENTFORMAT_BEGIN
 90
        0
 91
        0
 92
      512
 93
        0
300

 40
0.0
140
1.0
 94
        2
 62
     0
340
11
144
0.18
309
CONTENTFORMAT_END
171
     1
301
MARGIN
  1
CELLMARGIN_BEGIN
 40
0.06
 40
0.06
 40
0.06
 40
0.06
 40
0.18
 40
0.18
309
CELLMARGIN_END
 94
        6
 95
        1
302
GRIDFORMAT
  1
GRIDFORMAT_BEGIN
 90
        0
 91
        1
 62
     0
 92
       -2
340
0
 93
        0
 40
0.045
309
GRIDFORMAT_END
 95
        2
302
GRIDFORMAT
  1
GRIDFORMAT_BEGIN
 90
        0
 91
        1
 62
     0
 92
       -2
340
0
 93
        0
 40
0.045
309
GRIDFORMAT_END
 95
        4
302
GRIDFORMAT
  1
GRIDFORMAT_BEGIN
 90
        0
 91
        1
 62
     0
 92
       -2
340
0
 93
        0
 40
0.045
309
GRIDFORMAT_END
 95
        8
302
GRIDFORMAT
  1
GRIDFORMAT_BEGIN
 90
        0
 91
        1
 62
     0
 92
       -2
340
0
 93
        0
 40
0.045
309
GRIDFORMAT_END
 95
       16
302
GRIDFORMAT
  1
GRIDFORMAT_BEGIN
 90
        0
 91
        1
 62
     0
 92
       -2
340
0
 93
        0
 40
0.045
309
GRIDFORMAT_END
 95
       32
302
GRIDFORMAT
  1
GRIDFORMAT_BEGIN
 90
        0
 91
        1
 62
     0
 92
       -2
340
0
 93
        0
 40
0.045
309
GRIDFORMAT_END
309
TABLEFORMAT_END
  1
CELLSTYLE_BEGIN
 90
        3
 91
        2
300
_DATA
309
CELLSTYLE_END
  0
ENDSEC
  0
SECTION
  2
ACDSDATA
 70
     2
 71
     8
  0
ACDSSCHEMA
 90
        0
  1
AcDb_Thumbnail_Schema
  2
AcDbDs::ID
280
    10
 91
        8
  2
Thumbnail_Data
280
    15
 91
        0
101
ACDSRECORD
 95
        0
 90
        1
  2
AcDbDs::TreatedAsObjectData
280
     1
291
     1
101
ACDSRECORD
 95
        0
 90
        2
  2
AcDbDs::Legacy
280
     1
291
     1
101
ACDSRECORD
  1
AcDbDs::ID
 90
        3
  2
AcDs:Indexable
280
     1
291
     1
101
ACDSRECORD
  1
AcDbDs::ID
 90
        4
  2
AcDbDs::HandleAttribute
280
     7
282
     1
  0
ACDSSCHEMA
 90
        1
  1
AcDbDs::TreatedAsObjectDataSchema
  2
AcDbDs::TreatedAsObjectData
280
     1
 91
        0
  0
ACDSSCHEMA
 90
        2
  1
AcDbDs::LegacySchema
  2
AcDbDs::Legacy
280
     1
 91
        0
  0
ACDSSCHEMA
 90
        3
  1
AcDbDs::IndexedPropertySchema
  2
AcDs:Indexable
280
     1
 91
        0
  0
ACDSSCHEMA
 90
        4
  1
AcDbDs::HandleAttributeSchema
  2
AcDbDs::HandleAttribute
280
     7
 91
        1
284
     1
  0
ACDSRECORD
 90
        0
  2
AcDbDs::ID
280
    10
320
59
  2
Thumbnail_Data
280
    15
 94
     2568
310
89504E470D0A1A0A0000000D4948445200000100000000C508030000008CFEDCE700000300504C5445FFFFFF000000C8C8C80000000000000000000000000000000000000000000000000000330000660000990000CC0000FF0033000033330033660033990033CC0033FF0066000066330066660066990066CC0066FF0099
310
000099330099660099990099CC0099FF00CC0000CC3300CC6600CC9900CCCC00CCFF00FF0000FF3300FF6600FF9900FFCC00FFFF3300003300333300663300993300CC3300FF3333003333333333663333993333CC3333FF3366003366333366663366993366CC3366FF3399003399333399663399993399CC3399FF33CC00
310
33CC3333CC6633CC9933CCCC33CCFF33FF0033FF3333FF6633FF9933FFCC33FFFF6600006600336600666600996600CC6600FF6633006633336633666633996633CC6633FF6666006666336666666666996666CC6666FF6699006699336699666699996699CC6699FF66CC0066CC3366CC6666CC9966CCCC66CCFF66FF0066
310
FF3366FF6666FF9966FFCC66FFFF9900009900339900669900999900CC9900FF9933009933339933669933999933CC9933FF9966009966339966669966999966CC9966FF9999009999339999669999999999CC9999FF99CC0099CC3399CC6699CC9999CCCC99CCFF99FF0099FF3399FF6699FF9999FFCC99FFFFCC0000CC00
310
33CC0066CC0099CC00CCCC00FFCC3300CC3333CC3366CC3399CC33CCCC33FFCC6600CC6633CC6666CC6699CC66CCCC66FFCC9900CC9933CC9966CC9999CC99CCCC99FFCCCC00CCCC33CCCC66CCCC99CCCCCCCCCCFFCCFF00CCFF33CCFF66CCFF99CCFFCCCCFFFFFF0000FF0033FF0066FF0099FF00CCFF00FFFF3300FF3333
310
FF3366FF3399FF33CCFF33FFFF6600FF6633FF6666FF6699FF66CCFF66FFFF9900FF9933FF9966FF9999FF99CCFF99FFFFCC00FFCC33FFCC66FFCC99FFCCCCFFCCFFFFFF00FFFF33FFFF66FFFF99FFFFCCFFFFFF0000000D0D0D1A1A1A2828283535354343435050505D5D5D6B6B6B787878868686939393A1A1A1AEAEAEBB
310
BBBBC9C9C9D6D6D6E4E4E4F1F1F1FFFFFF000000000000000000000000000000000000000000000000000000000000B0E2D235000006AC4944415478DAED9D6BB29B300C85B5FF6D7527E77717D1E9DC24D8D806C97AD8B9884ED33404823EA463C918437F1FBED08397049000124002F80100FCFFFBACD71AC0E33DE071B6
310
E3E91A900032045204134086408A6002C81048114C00190229820920436008E0CFF72F3A11FCF3F5673A01E84430013C050012408A600248110C0480F7F24000B5DDEE147613C1AEB59E08F60230B4D40FC14E227869A55728EC03E0D63E5C7D655A33371141EEB19FBFF6F3FF636B39862D00480EF9B0F0F5A663B0647F4B
310
44B03A4F338E5B5250220D05506737BEA90E77C7912208A9C08F56F0B8F110C40118B7F1A3FD8F568098BDB4B00B01AD08E2E260401786F656800C09C400B8B57F68676705D867971306212288FBB53E1EC0F85E0400DCAFF6D100CEAF078820EE24DCA015B86A17B0180034A74F70968D0198892034012C72F33902BE005A
310
C79448B830CC5D01C8436094E62EF080CB9F730150E7FB8B34A0ACB7824510DC03B32C7D2E412314009CFD7D222AA00E019A02E0A27853BA88400098573CB45D07B56B63D203F400F8210085E2A1BB0C60C874116B0090F4A04FBD9B95D180289AEA9F1603201B0033816B1302DCE3720780C1B23B80591104C9011C5DBC77
310
AD3B14A904B605805183D94A2814C9246244701240B7C144B755994DAFB60530340AFD66753ABD42880882D3BE8F4EB4AB070401E877E2DD0298D30008979054580E60BE15F82D00F8CD3C78FA32B21F211D22E00218A8C1AF0370E98C980570AE92CC01D0DE003881D61B39B11D80BA6143DBD2D76F517CD31980498F1003
310
C0AB4DC3AB16C66166EF2D8A0F67007436DC0280D803E201601E407D789DCFE51A006ED2CD38B8D500407200173A20CF877DBBC5391E5006017AB541F316BCAA63150090084019DC87C40DC4F035CD13BF5BF5FEF07CBBC5851DB82C0FB81D51BC18001481C9D2803500C4E5B0A03413A7B46556DBE95EBCD101C4F408716C
310
788DF57DE5F547A683EAF5784B1FE30F02ECB2580A80FC01BCA3FE2070FC53BE125012A8ECDF0E004804009F54F89306A3F480DA190A0F289A0F2980932DC62208A1F8E1E78A5761FB2BE9A7E2EDF1C15134BC37DF0C0066E4FF65389A934EB5369C3E8CF5005E084C26A7F82018C77EBDFE24829A74D81200AC9646FDED76
310
DD348E9622387DE912751F389A3FE7F30DFD6F3A1643933E59B875633DE201C4DE34F509216ADBBEB7223E00C04BE53B6248CB012008C0911515CEB0430820D6035E59D0DB1B5600A01500A88EFF2200869790B60160D9409799FF3B21B0CD343C4450373AEC93FD977940711900957F683DC005806A04D7A7D02D3DA0B4FF
310
4083FA2E7268099889A0DA0370F280EAFC17684E1E80180FB8D7009508D676A1B51F65FD4CD085804B2DA003D0F180A224AAD04469801080AE356A3400651D50D702656D14580EDF88A0B2353E1ABD533548670FF8788742035C7A842C3C809A6A9070F680FABF9322E8D22182AF5A76AB05E8D421D25E12F3BBED665D2DD0
310
F6909791DE5E1FFDD5003E1789F6F100FF0E91F19831CEC08E04100C80510B38755B1BEFDDB347489195D6A3C4301C25E670C780A108CE65A5A27182BAA601E40B409197C77880FB7079B552C155F140DE00268FBC1926570D32E8790AED7AD7D8ECD5E14ED8DF248776B9A16D2D00530F4013161A0F88B8690AA61A603CFB
310
803004C8D703FA9949EFFA0F7CED0F1E22534D87D9CE0E709A69517A8BECD4FD58A183A48A3B043BC3D7CA8E2FDC5A74D9A320A8258C3B44C0963B46084C8BA9A49672BF777890F5D9CF9E7E35883EB0430493E7C88A0084F6C74EA1014FFBAFE7250CEC10593141F8E5DEA3A7D3DBEEA95C2600F4F70C6D6AFF1600C48121
310
DA60C19CA2909F22F86DF01D006429AF6403A36975659B431EA3F0DA607F001727543F2BE7AA99A56D425A3FB132A3E3C8E9EAB08CC0D5D46250B4029AD9E52910809538EC04C08E007CED77BB386A05C0DB7EBFABC3260434B593F21923FA99A5F72E01FC01C83BA7F602404E0076B3DF738C10BEC17ED72132EB82C0FE51
310
5B5300961190FC82EF40C945047607E04CC0E6717B640260850B087327EF91A2E104A4BBF67FCA0C420988771C305214F8050094CF1A83F84027AF9DCAC106DD2FC09ADCB167B88883E55367C91640670EB4FEBC8B0A87982B9D431FB989D3F371E5BEDE4E0973F3F4D51D44706402E63B3C802ECCAF0060D914585C6D5F79
310
D3D479BC146F3270E365E95D63B7D3432F0440110076F680C703087EFAFCBA2501AC14C104B031004A0019022C11FCFE4507E0F72E4C114C00BF7B490019022982092043204530016408A40826806C05520413C0C343E0FD7C93E7BC3EBD15A0049000124002F801F0F7E1CBE301FC03C3DEE06B03D674F30000000049454E
310
44AE426082454E44AE426082BB3C19C80000000049454E44AE426082
  0
ACDSRECORD
 90
        0
  2
AcDbDs::ID
280
    10
320
22
  2
Thumbnail_Data
280
    15
 94
     2361
310
89504E470D0A1A0A0000000D49484452000001000000006F08030000003479EE6F00000300504C5445000000000000C8C8C80000000000000000000000000000000000000000000000000000330000660000990000CC0000FF0033000033330033660033990033CC0033FF0066000066330066660066990066CC0066FF0099
310
000099330099660099990099CC0099FF00CC0000CC3300CC6600CC9900CCCC00CCFF00FF0000FF3300FF6600FF9900FFCC00FFFF3300003300333300663300993300CC3300FF3333003333333333663333993333CC3333FF3366003366333366663366993366CC3366FF3399003399333399663399993399CC3399FF33CC00
310
33CC3333CC6633CC9933CCCC33CCFF33FF0033FF3333FF6633FF9933FFCC33FFFF6600006600336600666600996600CC6600FF6633006633336633666633996633CC6633FF6666006666336666666666996666CC6666FF6699006699336699666699996699CC6699FF66CC0066CC3366CC6666CC9966CCCC66CCFF66FF0066
310
FF3366FF6666FF9966FFCC66FFFF9900009900339900669900999900CC9900FF9933009933339933669933999933CC9933FF9966009966339966669966999966CC9966FF9999009999339999669999999999CC9999FF99CC0099CC3399CC6699CC9999CCCC99CCFF99FF0099FF3399FF6699FF9999FFCC99FFFFCC0000CC00
310
33CC0066CC0099CC00CCCC00FFCC3300CC3333CC3366CC3399CC33CCCC33FFCC6600CC6633CC6666CC6699CC66CCCC66FFCC9900CC9933CC9966CC9999CC99CCCC99FFCCCC00CCCC33CCCC66CCCC99CCCCCCCCCCFFCCFF00CCFF33CCFF66CCFF99CCFFCCCCFFFFFF0000FF0033FF0066FF0099FF00CCFF00FFFF3300FF3333
310
FF3366FF3399FF33CCFF33FFFF6600FF6633FF6666FF6699FF66CCFF66FFFF9900FF9933FF9966FF9999FF99CCFF99FFFFCC00FFCC33FFCC66FFCC99FFCCCCFFCCFFFFFF00FFFF33FFFF66FFFF99FFFFCCFFFFFF0000000D0D0D1A1A1A2828283535354343435050505D5D5D6B6B6B787878868686939393A1A1A1AEAEAEBB
310
BBBBC9C9C9D6D6D6E4E4E4F1F1F1FFFFFF00000000000000000000000000000000000000000000000000000000000008F1915C000004364944415478DAED9DE992A5200C85F3FEEF7BFE4F4DDBCA163001D4049AAE9AB2BC2EE4231B8B0CD15FF9A6E0A76C2CFEA6180E617391B761C08B7F31A860C02A6AD210FFFC3D91F3
310
60729DF148216E3A69E58F1B8EFBCA7BDC2088D556ADC1CDAB7D20C0F3A6E4507E4E0FA4E75EE4FB9CFCCC2FD2739E08A0563B3035979E734400ED1FD075CE0F81C478335BEED600DE27C07CF3E7B6DCEB036A3E01D6D55FD4928273559F006BDADF65CB42AAC601B0568A4995AC3F0766C4AFAA2E26191658DCB065FAF58A
310
CED52FA4AFB4E3FAF0529530D3C3CC96FF852A21D73A33A14FAA01D91047A4DF3293816500109AF42177712006003B81006AA787028532B0254A632BF9E54A51F15B00AAE8013F0020C8F3A1CE1F9C01F8FF4F2BCF873A9CFA0170852F34F27CE8C3290C01282170E16BAE06D852815B001A1F0069F102A08C02B5BE7F981B
310
710080700B803305C1C35C02A8550E4A0050948FBD00E8010037AE951D7BB20D20B8769C810085D7C739A98005019CD2FD2C0238FFCA83E34725005304A2EAF27D389106DC82F50700B21E6C6A293E9221B106801A4D4FC1F86BB97023EE7D190A413200C10B8033FEE8A0264D2BF61B0350BF54A001D5D66C263FF8567E49
310
A2064D6EC7CD34F805F02B12CE655FC989F4CC7943BB536C0800841A702EFA4AA850F52044C53BB5F99A00480420F8B7DF8626E20F4ED508F7D806A019B8BA1A37696D2A0E2E1FE041035421809B07C84E456E20A48F760160A894C63F584CB77F640857E0883A46D98477D7B4878705A44803476CF3E300C80F00E4F643D8
310
09C0AF15A4517F2F00D7D047E206F601907AC0687C88B9CEB23083F10A99FC187D2ABE6A4D5DCF211235953F00A078C988DD38D8052089F869FB072CE804F032815E0D48444D1C62E420BB5E625FFE52545603080E3241F43BCE7B0D70E103D00B40A7012B3AC1457CC08CFEEBE4623F65224A1601E5B302CB96BCD387C8BC
310
9175921707405C8767D17ECF0600A638ADC804FCF93F5D8C962D90E8728B9FCD0AE947C3028AC209B207B601285FCC7BFD688385E21AEBF2F71A012205473E5046CC009159F9BB8D206840F601548706985B1F24BD69D2B75FD6964AA71D3F2E09089D218DBBABC53A5B5FCC64E751E6C1C5CE2A4275AF5E66EA9B29DEE06B
310
1F46A1DDB495C7D94B1F7163E65392B5EAC2391319B1AAC9465E0293F22B768C197C895105D0EC1934D8F3322ABF26671142517F81EA8480F8DB62C575EE0010A65D67690791A15836769D2715605BB6B6F2DBD74E52E8F601BD9BA9591B45161210B6B6200A581B42C5D07D78ED7D4609C0BFFC430056907F80803E65B639
310
85F26267DDEA568ACBBD68BC62D84AFE9708D8DE4EF6F9EADA9E437E9C00FC6DA88C7D9ABFD244D84A7E0E019A391056939F4150DD0D4297097A5A42C3EF90D7FAFAFF76EEC4DF22B27C0E10C219507E176DA74BC814B39FBC42985F03FAACFF5AE83F206A2D84A32D4AE3EB60DAA6FC01300AE01FF3A80410FEB1C9CF0000
310
000049454E44AE4260829A46B381CAFDFE4205C832307E2A76F2E301FBCCDB409DCD00B87FAA71877DD26141530B8C6DC24F406DC65BD704D4F6D650F3D536E12620359CF9672D191D33C40C7ADBF70BD43210DD413C9ED972BF61029297014767D631800DF14B12B0257E39067ACB279E172B1CD70D30F40867724FD2091C
310
8E9FE1FD4E9C1DC0F12A8863F047D3F8E3E3308EC1BFEC2605D1D4EC1206A8A6A6E7EE64C5875FA55E25982983F00DFCF1778E458117BE557717FC410A90025E74A0C2E23828886F125EF806E182F3B81FABB001342F90086C8A65598CE21703000297E97A83F727AAD51D717B0C6CB3D9D125609C43389780E335603F02FE
310
0163CC3D006114DA240000000049454E44AE426082DBECC7294FB08EB017803D53B48EE0F81C84A8E96B9FF6F25200673ECE0820FB5B19D62DF8D4C7613B009730823842F1994C64A6AEB11143B591B2A0C094A9EBCA79EC0981191541684705B71B28B7A382F224007756805800611D15E588FF01A7A0BC59BF85AB030000
310
000049454E44AE426082DB03FE80D453A9CD0BC070009C9CB2C400104AADA73FB0560800A907EB0AC46191A7FF49E50BD1C1AAEB40FD07BEC80436F54CBB270000000049454E44AE426082
  0
ENDSEC
  0
EOF
