  0
SECTION
  2
HEADER
  9
$ACADVER
  1
AC1032
  9
$ACADMAINTVER
 90
      179
  9
$DWGCODEPAGE
  3
ANSI_1252
  9
$LASTSAVEDBY
  1
mgortner
  9
$REQUIREDVERSIONS
160
                 0
  9
$INSBASE
 10
0.0
 20
0.0
 30
0.0
  9
$EXTMIN
 10
-0.6997490575159518
 20
-1.042680993216649
 30
-0.0015258207003583
  9
$EXTMAX
 10
0.8427148852646482
 20
0.5141812619822091
 30
0.0000000349246037
  9
$LIMMIN
 10
0.0
 20
0.0
  9
$LIMMAX
 10
12.0
 20
9.0
  9
$ORTHOMODE
 70
     0
  9
$REGENMODE
 70
     1
  9
$FILLMODE
 70
     1
  9
$QTEXTMODE
 70
     0
  9
$MIRRTEXT
 70
     0
  9
$LTSCALE
 40
1.0
  9
$ATTMODE
 70
     1
  9
$TEXTSIZE
 40
0.2
  9
$TRACEWID
 40
0.05
  9
$TEXTSTYLE
  7
Standard
  9
$CLAYER
  8
0
  9
$CELTYPE
  6
ByLayer
  9
$CECOLOR
 62
   256
  9
$CELTSCALE
 40
1.0
  9
$DISPSILH
 70
     0
  9
$DIMSCALE
 40
1.0
  9
$DIMASZ
 40
0.18
  9
$DIMEXO
 40
0.0625
  9
$DIMDLI
 40
0.38
  9
$DIMRND
 40
0.0
  9
$DIMDLE
 40
0.0
  9
$DIMEXE
 40
0.18
  9
$DIMTP
 40
0.0
  9
$DIMTM
 40
0.0
  9
$DIMTXT
 40
0.18
  9
$DIMCEN
 40
0.09
  9
$DIMTSZ
 40
0.0
  9
$DIMTOL
 70
     0
  9
$DIMLIM
 70
     0
  9
$DIMTIH
 70
     1
  9
$DIMTOH
 70
     1
  9
$DIMSE1
 70
     0
  9
$DIMSE2
 70
     0
  9
$DIMTAD
 70
     0
  9
$DIMZIN
 70
     0
  9
$DIMBLK
  1

  9
$DIMASO
 70
     1
  9
$DIMSHO
 70
     1
  9
$DIMPOST
  1

  9
$DIMAPOST
  1

  9
$DIMALT
 70
     0
  9
$DIMALTD
 70
     2
  9
$DIMALTF
 40
25.4
  9
$DIMLFAC
 40
1.0
  9
$DIMTOFL
 70
     0
  9
$DIMTVP
 40
0.0
  9
$DIMTIX
 70
     0
  9
$DIMSOXD
 70
     0
  9
$DIMSAH
 70
     0
  9
$DIMBLK1
  1

  9
$DIMBLK2
  1

  9
$DIMSTYLE
  2
Standard
  9
$DIMCLRD
 70
     0
  9
$DIMCLRE
 70
     0
  9
$DIMCLRT
 70
     0
  9
$DIMTFAC
 40
1.0
  9
$DIMGAP
 40
0.09
  9
$DIMJUST
 70
     0
  9
$DIMSD1
 70
     0
  9
$DIMSD2
 70
     0
  9
$DIMTOLJ
 70
     1
  9
$DIMTZIN
 70
     0
  9
$DIMALTZ
 70
     0
  9
$DIMALTTZ
 70
     0
  9
$DIMUPT
 70
     0
  9
$DIMDEC
 70
     4
  9
$DIMTDEC
 70
     4
  9
$DIMALTU
 70
     2
  9
$DIMALTTD
 70
     2
  9
$DIMTXSTY
  7
Standard
  9
$DIMAUNIT
 70
     0
  9
$DIMADEC
 70
     0
  9
$DIMALTRND
 40
0.0
  9
$DIMAZIN
 70
     0
  9
$DIMDSEP
 70
    46
  9
$DIMATFIT
 70
     3
  9
$DIMFRAC
 70
     0
  9
$DIMLDRBLK
  1

  9
$DIMLUNIT
 70
     2
  9
$DIMLWD
 70
    -2
  9
$DIMLWE
 70
    -2
  9
$DIMTMOVE
 70
     0
  9
$DIMFXL
 40
1.0
  9
$DIMFXLON
 70
     0
  9
$DIMJOGANG
 40
0.7853981633974483
  9
$DIMTFILL
 70
     0
  9
$DIMTFILLCLR
 70
     0
  9
$DIMARCSYM
 70
     0
  9
$DIMLTYPE
  6

  9
$DIMLTEX1
  6

  9
$DIMLTEX2
  6

  9
$DIMTXTDIRECTION
 70
     0
  9
$LUNITS
 70
     2
  9
$LUPREC
 70
     8
  9
$SKETCHINC
 40
0.1
  9
$FILLETRAD
 40
0.0
  9
$AUNITS
 70
     0
  9
$AUPREC
 70
     0
  9
$MENU
  1
.
  9
$ELEVATION
 40
0.0
  9
$PELEVATION
 40
0.0
  9
$THICKNESS
 40
0.0
  9
$LIMCHECK
 70
     0
  9
$CHAMFERA
 40
0.0
  9
$CHAMFERB
 40
0.0
  9
$CHAMFERC
 40
0.0
  9
$CHAMFERD
 40
0.0
  9
$SKPOLY
 70
     0
  9
$TDCREATE
 40
2460613.348287037
  9
$TDUCREATE
 40
2460613.514953704
  9
$TDUPDATE
 40
2460613.518518519
  9
$TDUUPDATE
 40
2460613.685185185
  9
$TDINDWG
 40
0.0212615741
  9
$TDUSRTIMER
 40
0.0212615741
  9
$USRTIMER
 70
     1
  9
$ANGBASE
 50
0.0
  9
$ANGDIR
 70
     0
  9
$PDMODE
 70
     0
  9
$PDSIZE
 40
0.0
  9
$PLINEWID
 40
0.0
  9
$SPLFRAME
 70
     0
  9
$SPLINETYPE
 70
     6
  9
$SPLINESEGS
 70
     8
  9
$HANDSEED
  5
D2C
  9
$SURFTAB1
 70
     6
  9
$SURFTAB2
 70
     6
  9
$SURFTYPE
 70
     6
  9
$SURFU
 70
     6
  9
$SURFV
 70
     6
  9
$UCSBASE
  2

  9
$UCSNAME
  2

  9
$UCSORG
 10
0.0
 20
0.0
 30
0.0
  9
$UCSXDIR
 10
1.0
 20
0.0
 30
0.0
  9
$UCSYDIR
 10
0.0
 20
1.0
 30
0.0
  9
$UCSORTHOREF
  2

  9
$UCSORTHOVIEW
 70
     0
  9
$UCSORGTOP
 10
0.0
 20
0.0
 30
0.0
  9
$UCSORGBOTTOM
 10
0.0
 20
0.0
 30
0.0
  9
$UCSORGLEFT
 10
0.0
 20
0.0
 30
0.0
  9
$UCSORGRIGHT
 10
0.0
 20
0.0
 30
0.0
  9
$UCSORGFRONT
 10
0.0
 20
0.0
 30
0.0
  9
$UCSORGBACK
 10
0.0
 20
0.0
 30
0.0
  9
$PUCSBASE
  2

  9
$PUCSNAME
  2

  9
$PUCSORG
 10
0.0
 20
0.0
 30
0.0
  9
$PUCSXDIR
 10
1.0
 20
0.0
 30
0.0
  9
$PUCSYDIR
 10
0.0
 20
1.0
 30
0.0
  9
$PUCSORTHOREF
  2

  9
$PUCSORTHOVIEW
 70
     0
  9
$PUCSORGTOP
 10
0.0
 20
0.0
 30
0.0
  9
$PUCSORGBOTTOM
 10
0.0
 20
0.0
 30
0.0
  9
$PUCSORGLEFT
 10
0.0
 20
0.0
 30
0.0
  9
$PUCSORGRIGHT
 10
0.0
 20
0.0
 30
0.0
  9
$PUCSORGFRONT
 10
0.0
 20
0.0
 30
0.0
  9
$PUCSORGBACK
 10
0.0
 20
0.0
 30
0.0
  9
$USERI1
 70
     0
  9
$USERI2
 70
     0
  9
$USERI3
 70
     0
  9
$USERI4
 70
     0
  9
$USERI5
 70
     0
  9
$USERR1
 40
0.0
  9
$USERR2
 40
0.0
  9
$USERR3
 40
0.0
  9
$USERR4
 40
0.0
  9
$USERR5
 40
0.0
  9
$WORLDVIEW
 70
     1
  9
$SHADEDGE
 70
     3
  9
$SHADEDIF
 70
    70
  9
$TILEMODE
 70
     1
  9
$MAXACTVP
 70
    64
  9
$PINSBASE
 10
0.0
 20
0.0
 30
0.0
  9
$PLIMCHECK
 70
     0
  9
$PEXTMIN
 10
0.0
 20
0.0
 30
0.0
  9
$PEXTMAX
 10
0.0
 20
0.0
 30
0.0
  9
$PLIMMIN
 10
0.0
 20
0.0
  9
$PLIMMAX
 10
12.0
 20
9.0
  9
$UNITMODE
 70
     0
  9
$VISRETAIN
 70
     1
  9
$PLINEGEN
 70
     0
  9
$PSLTSCALE
 70
     1
  9
$TREEDEPTH
 70
  3020
  9
$CMLSTYLE
  2
Standard
  9
$CMLJUST
 70
     0
  9
$CMLSCALE
 40
1.0
  9
$PROXYGRAPHICS
 70
     1
  9
$MEASUREMENT
 70
     0
  9
$CELWEIGHT
370
    -1
  9
$ENDCAPS
280
     0
  9
$JOINSTYLE
280
     0
  9
$LWDISPLAY
290
     0
  9
$INSUNITS
 70
     1
  9
$HYPERLINKBASE
  1

  9
$STYLESHEET
  1

  9
$XEDIT
290
     1
  9
$CEPSNTYPE
380
     0
  9
$PSTYLEMODE
290
     1
  9
$FINGERPRINTGUID
  2
{56768212-030D-9746-AB3C-2CBB6ABD7DE5}
  9
$VERSIONGUID
  2
{A8C6049D-4FE9-1540-8A77-50D86D321C0D}
  9
$EXTNAMES
290
     1
  9
$PSVPSCALE
 40
0.0
  9
$OLESTARTUP
290
     0
  9
$SORTENTS
280
   127
  9
$INDEXCTL
280
     0
  9
$HIDETEXT
280
     1
  9
$XCLIPFRAME
280
     2
  9
$HALOGAP
280
     0
  9
$OBSCOLOR
 70
   257
  9
$OBSLTYPE
280
     0
  9
$INTERSECTIONDISPLAY
280
     0
  9
$INTERSECTIONCOLOR
 70
   257
  9
$DIMASSOC
280
     2
  9
$PROJECTNAME
  1

  9
$CAMERADISPLAY
290
     0
  9
$LENSLENGTH
 40
50.0
  9
$CAMERAHEIGHT
 40
0.0
  9
$STEPSPERSEC
 40
2.0
  9
$STEPSIZE
 40
6.0
  9
$3DDWFPREC
 40
2.0
  9
$PSOLWIDTH
 40
0.25
  9
$PSOLHEIGHT
 40
4.0
  9
$LOFTANG1
 40
1.570796326794896
  9
$LOFTANG2
 40
1.570796326794896
  9
$LOFTMAG1
 40
0.0
  9
$LOFTMAG2
 40
0.0
  9
$LOFTPARAM
 70
     7
  9
$LOFTNORMALS
280
     1
  9
$LATITUDE
 40
37.795
  9
$LONGITUDE
 40
-122.394
  9
$NORTHDIRECTION
 40
0.0
  9
$TIMEZONE
 70
 -8000
  9
$LIGHTGLYPHDISPLAY
280
     1
  9
$TILEMODELIGHTSYNCH
280
     1
  9
$CMATERIAL
347
96
  9
$SOLIDHIST
280
     0
  9
$SHOWHIST
280
     1
  9
$DWFFRAME
280
     2
  9
$DGNFRAME
280
     0
  9
$REALWORLDSCALE
290
     1
  9
$INTERFERECOLOR
 62
     1
  9
$INTERFEREOBJVS
345
A3
  9
$INTERFEREVPVS
346
A0
  9
$CSHADOW
280
     0
  9
$SHADOWPLANELOCATION
 40
0.0
  0
ENDSEC
  0
SECTION
  2
CLASSES
  0
CLASS
  1
ACDBDICTIONARYWDFLT
  2
AcDbDictionaryWithDefault
  3
ObjectDBX Classes
 90
        0
 91
        1
280
     0
281
     0
  0
CLASS
  1
DICTIONARYVAR
  2
AcDbDictionaryVar
  3
ObjectDBX Classes
 90
        0
 91
        9
280
     0
281
     0
  0
CLASS
  1
TABLESTYLE
  2
AcDbTableStyle
  3
ObjectDBX Classes
 90
     4095
 91
        1
280
     0
281
     0
  0
CLASS
  1
MATERIAL
  2
AcDbMaterial
  3
ObjectDBX Classes
 90
     1153
 91
        3
280
     0
281
     0
  0
CLASS
  1
VISUALSTYLE
  2
AcDbVisualStyle
  3
ObjectDBX Classes
 90
     4095
 91
       24
280
     0
281
     0
  0
CLASS
  1
SCALE
  2
AcDbScale
  3
ObjectDBX Classes
 90
     1153
 91
       33
280
     0
281
     0
  0
CLASS
  1
MLEADERSTYLE
  2
AcDbMLeaderStyle
  3
ACDB_MLEADERSTYLE_CLASS
 90
     4095
 91
        3
280
     0
281
     0
  0
CLASS
  1
CELLSTYLEMAP
  2
AcDbCellStyleMap
  3
ObjectDBX Classes
 90
     1152
 91
        2
280
     0
281
     0
  0
CLASS
  1
EXACXREFPANELOBJECT
  2
ExAcXREFPanelObject
  3
EXAC_ESW
 90
     1025
 91
        0
280
     0
281
     0
  0
CLASS
  1
NPOCOLLECTION
  2
AcDbImpNonPersistentObjectsCollection
  3
ObjectDBX Classes
 90
     1153
 91
        0
280
     0
281
     0
  0
CLASS
  1
LAYER_INDEX
  2
AcDbLayerIndex
  3
ObjectDBX Classes
 90
        0
 91
        0
280
     0
281
     0
  0
CLASS
  1
SPATIAL_INDEX
  2
AcDbSpatialIndex
  3
ObjectDBX Classes
 90
        0
 91
        0
280
     0
281
     0
  0
CLASS
  1
IDBUFFER
  2
AcDbIdBuffer
  3
ObjectDBX Classes
 90
        0
 91
        0
280
     0
281
     0
  0
CLASS
  1
ACDBSECTIONVIEWSTYLE
  2
AcDbSectionViewStyle
  3
ObjectDBX Classes
 90
     1025
 91
        1
280
     0
281
     0
  0
CLASS
  1
ACDBDETAILVIEWSTYLE
  2
AcDbDetailViewStyle
  3
ObjectDBX Classes
 90
     1025
 91
        1
280
     0
281
     0
  0
CLASS
  1
MULTILEADER
  2
AcDbMLeader
  3
ACDB_MLEADER_CLASS
 90
     1025
 91
        1
280
     0
281
     1
  0
CLASS
  1
SORTENTSTABLE
  2
AcDbSortentsTable
  3
ObjectDBX Classes
 90
        0
 91
        0
280
     0
281
     0
  0
ENDSEC
  0
SECTION
  2
TABLES
  0
TABLE
  2
VPORT
  5
8
330
0
100
AcDbSymbolTable
 70
     1
  0
VPORT
  5
94
330
8
100
AcDbSymbolTableRecord
100
AcDbViewportTableRecord
  2
*Active
 70
     0
 10
0.0
 20
0.0
 11
1.0
 21
1.0
 12
0.0714829138743484
 22
-0.2642498656172201
 13
0.0
 23
0.0
 14
0.5
 24
0.5
 15
0.5
 25
0.5
 16
0.0
 26
0.0
 36
1.0
 17
0.0
 27
0.0
 37
0.0
 40
1.562462479138422
 41
1.710857828434313
 42
50.0
 43
0.0
 44
0.0
 50
0.0
 51
0.0
 71
     0
 72
  1000
 73
     1
 74
     3
 75
     0
 76
     1
 77
     0
 78
     0
281
     0
 65
     1
110
0.0
120
0.0
130
0.0
111
1.0
121
0.0
131
0.0
112
0.0
122
1.0
132
0.0
 79
     0
146
0.0
348
9F
 60
     3
 61
     5
292
     1
282
     1
141
0.0
142
0.0
 63
   250
421
  3355443
1001
ACAD_NAV_VCDISPLAY
1070
     3
  0
ENDTAB
  0
TABLE
  2
LTYPE
  5
5
330
0
100
AcDbSymbolTable
 70
     2
  0
LTYPE
  5
14
330
5
100
AcDbSymbolTableRecord
100
AcDbLinetypeTableRecord
  2
ByBlock
 70
     0
  3

 72
    65
 73
     0
 40
0.0
  0
LTYPE
  5
15
330
5
100
AcDbSymbolTableRecord
100
AcDbLinetypeTableRecord
  2
ByLayer
 70
     0
  3

 72
    65
 73
     0
 40
0.0
  0
LTYPE
  5
16
330
5
100
AcDbSymbolTableRecord
100
AcDbLinetypeTableRecord
  2
Continuous
 70
     0
  3
Solid line
 72
    65
 73
     0
 40
0.0
  0
ENDTAB
  0
TABLE
  2
LAYER
  5
2
102
{ACAD_XDICTIONARY
360
18E
102
}
330
0
100
AcDbSymbolTable
 70
    12
  0
LAYER
  5
10
102
{ACAD_XDICTIONARY
360
E6
102
}
330
2
100
AcDbSymbolTableRecord
100
AcDbLayerTableRecord
  2
0
 70
     0
 62
     7
  6
Continuous
370
    -3
390
F
347
98
348
0
  0
LAYER
  5
24A
330
2
100
AcDbSymbolTableRecord
100
AcDbLayerTableRecord
  2
Defpoints
 70
     0
 62
     7
  6
Continuous
290
     0
370
    -3
390
F
347
98
348
0
  0
LAYER
  5
24B
102
{ACAD_XDICTIONARY
360
24C
102
}
330
2
100
AcDbSymbolTableRecord
100
AcDbLayerTableRecord
  2
PCB_Top
 70
     0
 62
   130
  6
Continuous
370
    -3
390
F
347
98
348
0
  0
LAYER
  5
24D
330
2
100
AcDbSymbolTableRecord
100
AcDbLayerTableRecord
  2
Notes
 70
     0
 62
     7
  6
Continuous
370
    -3
390
F
347
98
348
0
  0
LAYER
  5
24E
330
2
100
AcDbSymbolTableRecord
100
AcDbLayerTableRecord
  2
Component_Outline
 70
     0
 62
    10
  6
Continuous
370
    35
390
F
347
98
348
0
1001
AcAecLayerStandard
1000

1000

  0
LAYER
  5
24F
330
2
100
AcDbSymbolTableRecord
100
AcDbLayerTableRecord
  2
PCB_Solder_Mask
 70
     0
 62
     3
  6
Continuous
370
    -3
390
F
347
98
348
0
1001
AcAecLayerStandard
1000

1000

1001
AcCmTransparency
1071
        0
  0
LAYER
  5
250
102
{ACAD_XDICTIONARY
360
251
102
}
330
2
100
AcDbSymbolTableRecord
100
AcDbLayerTableRecord
  2
PCB_Plated_Holes
 70
     0
 62
     6
  6
Continuous
370
    -3
390
F
347
98
348
0
  0
LAYER
  5
252
330
2
100
AcDbSymbolTableRecord
100
AcDbLayerTableRecord
  2
PCB_Land_Pattern
 70
     0
 62
   190
  6
Continuous
370
    -3
390
F
347
98
348
0
1001
AcAecLayerStandard
1000

1000

1001
AcCmTransparency
1071
        0
  0
LAYER
  5
253
330
2
100
AcDbSymbolTableRecord
100
AcDbLayerTableRecord
  2
PCB_Solder_Stencil
 70
     0
 62
     8
  6
Continuous
370
    -3
390
F
347
98
348
0
1001
AcAecLayerStandard
1000

1000

1001
AcCmTransparency
1071
        0
  0
LAYER
  5
254
330
2
100
AcDbSymbolTableRecord
100
AcDbLayerTableRecord
  2
H_PCB_Solder_Mask
 70
     0
 62
     3
  6
Continuous
370
    -3
390
F
347
98
348
0
1001
AcAecLayerStandard
1000

1000

1001
AcCmTransparency
1071
        0
  0
LAYER
  5
255
330
2
100
AcDbSymbolTableRecord
100
AcDbLayerTableRecord
  2
Component_Pads
 70
     0
 62
    40
  6
Continuous
370
    -3
390
F
347
98
348
0
1001
AcAecLayerStandard
1000

1000

1001
AcCmTransparency
1071
        0
  0
LAYER
  5
5C6
330
2
100
AcDbSymbolTableRecord
100
AcDbLayerTableRecord
  2
H_PCB_Solder_Stencil
 70
     0
 62
     8
  6
Continuous
370
    -3
390
F
347
98
348
0
1001
AcAecLayerStandard
1000

1000

1001
AcCmTransparency
1071
        0
  0
ENDTAB
  0
TABLE
  2
STYLE
  5
3
330
0
100
AcDbSymbolTable
 70
     4
  0
STYLE
  5
11
330
3
100
AcDbSymbolTableRecord
100
AcDbTextStyleTableRecord
  2
Standard
 70
     0
 40
0.0
 41
1.0
 50
0.0
 71
     0
 42
0.2
  3
arial.ttf
  4

1001
ACAD
1000
Arial
1071
       34
  0
STYLE
  5
DC
330
3
100
AcDbSymbolTableRecord
100
AcDbTextStyleTableRecord
  2
Annotative
 70
     0
 40
0.0
 41
1.0
 50
0.0
 71
     0
 42
0.2
  3
arial.ttf
  4

1001
AcadAnnotative
1000
AnnotativeData
1002
{
1070
     1
1070
     1
1002
}
1001
ACAD
1000
Arial
1071
       34
  0
STYLE
  5
256
330
3
100
AcDbSymbolTableRecord
100
AcDbTextStyleTableRecord
  2
Arial
 70
     0
 40
0.0
 41
1.0
 50
0.0
 71
     0
 42
0.2
  3
arial.ttf
  4

1001
ACAD
1000
Arial
1071
       34
  0
STYLE
  5
30F
330
3
100
AcDbSymbolTableRecord
100
AcDbTextStyleTableRecord
  2
RomanS
 70
     0
 40
0.0
 41
0.9
 50
0.0
 71
     0
 42
0.2
  3
romans.shx
  4

  0
ENDTAB
  0
TABLE
  2
VIEW
  5
6
330
0
100
AcDbSymbolTable
 70
     0
  0
ENDTAB
  0
TABLE
  2
UCS
  5
7
330
0
100
AcDbSymbolTable
 70
     0
  0
ENDTAB
  0
TABLE
  2
APPID
  5
9
330
0
100
AcDbSymbolTable
 70
    12
  0
APPID
  5
12
330
9
100
AcDbSymbolTableRecord
100
AcDbRegAppTableRecord
  2
ACAD
 70
     0
  0
APPID
  5
DD
330
9
100
AcDbSymbolTableRecord
100
AcDbRegAppTableRecord
  2
AcadAnnoPO
 70
     0
  0
APPID
  5
DE
330
9
100
AcDbSymbolTableRecord
100
AcDbRegAppTableRecord
  2
AcadAnnotative
 70
     0
  0
APPID
  5
DF
330
9
100
AcDbSymbolTableRecord
100
AcDbRegAppTableRecord
  2
ACAD_DSTYLE_DIMJAG
 70
     0
  0
APPID
  5
E0
330
9
100
AcDbSymbolTableRecord
100
AcDbRegAppTableRecord
  2
ACAD_DSTYLE_DIMTALN
 70
     0
  0
APPID
  5
107
330
9
100
AcDbSymbolTableRecord
100
AcDbRegAppTableRecord
  2
ACAD_MLEADERVER
 70
     0
  0
APPID
  5
1A6
330
9
100
AcDbSymbolTableRecord
100
AcDbRegAppTableRecord
  2
ACAD_NAV_VCDISPLAY
 70
     0
  0
APPID
  5
258
330
9
100
AcDbSymbolTableRecord
100
AcDbRegAppTableRecord
  2
AcAecLayerStandard
 70
     0
  0
APPID
  5
259
330
9
100
AcDbSymbolTableRecord
100
AcDbRegAppTableRecord
  2
ACAD_DSTYLE_DIMBREAK
 70
     0
  0
APPID
  5
25A
330
9
100
AcDbSymbolTableRecord
100
AcDbRegAppTableRecord
  2
AcCmTransparency
 70
     0
  0
APPID
  5
25B
330
9
100
AcDbSymbolTableRecord
100
AcDbRegAppTableRecord
  2
ACAD_PSEXT
 70
     0
  0
APPID
  5
320
330
9
100
AcDbSymbolTableRecord
100
AcDbRegAppTableRecord
  2
ACAD_EXEMPT_FROM_CAD_STANDARDS
 70
     0
  0
ENDTAB
  0
TABLE
  2
DIMSTYLE
  5
A
330
0
100
AcDbSymbolTable
 70
     3
100
AcDbDimStyleTable
 71
     2
340
27
340
E1
  0
DIMSTYLE
105
27
330
A
100
AcDbSymbolTableRecord
100
AcDbDimStyleTableRecord
  2
Standard
 70
     0
340
11
  0
DIMSTYLE
105
E1
330
A
100
AcDbSymbolTableRecord
100
AcDbDimStyleTableRecord
  2
Annotative
 70
     0
 40
0.0
340
11
1001
AcadAnnotative
1000
AnnotativeData
1002
{
1070
     1
1070
     1
1002
}
1001
ACAD_DSTYLE_DIMJAG
1070
   388
1040
1.5
1001
ACAD_DSTYLE_DIMTALN
1070
   392
1070
     0
  0
DIMSTYLE
105
257
102
{ACAD_REACTORS
330
CD0
330
CD1
102
}
330
A
100
AcDbSymbolTableRecord
100
AcDbDimStyleTableRecord
  2
Mounting
 70
     0
  3
\X
 40
0.15
 44
0.06
 49
0.18
 78
     4
140
0.12
146
0.71
147
0.03
170
     1
271
     3
272
     3
284
     4
340
256
1001
ACAD_DSTYLE_DIMBREAK
1070
   391
1040
0.125
1001
ACAD_DSTYLE_DIMJAG
1070
   388
1040
1.5
1001
ACAD_DSTYLE_DIMTALN
1070
   392
1070
     0
  0
ENDTAB
  0
TABLE
  2
BLOCK_RECORD
  5
1
330
0
100
AcDbSymbolTable
 70
    45
  0
BLOCK_RECORD
  5
1F
102
{ACAD_XDICTIONARY
360
15D
102
}
330
1
100
AcDbSymbolTableRecord
100
AcDbBlockTableRecord
  2
*Model_Space
340
22
 70
     0
280
     1
281
     0
  0
BLOCK_RECORD
  5
58
330
1
100
AcDbSymbolTableRecord
100
AcDbBlockTableRecord
  2
*Paper_Space
340
59
 70
     0
280
     1
281
     0
  0
BLOCK_RECORD
  5
5D
330
1
100
AcDbSymbolTableRecord
100
AcDbBlockTableRecord
  2
*Paper_Space0
340
5E
 70
     0
280
     1
281
     0
  0
BLOCK_RECORD
  5
230
330
1
100
AcDbSymbolTableRecord
100
AcDbBlockTableRecord
  2
*D1
340
0
 70
     0
280
     1
281
     0
  0
BLOCK_RECORD
  5
23D
330
1
100
AcDbSymbolTableRecord
100
AcDbBlockTableRecord
  2
*D2
340
0
 70
     0
280
     1
281
     0
  0
BLOCK_RECORD
  5
2CD
330
1
100
AcDbSymbolTableRecord
100
AcDbBlockTableRecord
  2
*D3
340
0
 70
     0
280
     1
281
     0
  0
BLOCK_RECORD
  5
2DA
330
1
100
AcDbSymbolTableRecord
100
AcDbBlockTableRecord
  2
*D4
340
0
 70
     0
280
     1
281
     0
  0
BLOCK_RECORD
  5
324
330
1
100
AcDbSymbolTableRecord
100
AcDbBlockTableRecord
  2
*D5
340
0
 70
     0
280
     1
281
     0
  0
BLOCK_RECORD
  5
331
330
1
100
AcDbSymbolTableRecord
100
AcDbBlockTableRecord
  2
*D6
340
0
 70
     0
280
     1
281
     0
  0
BLOCK_RECORD
  5
394
330
1
100
AcDbSymbolTableRecord
100
AcDbBlockTableRecord
  2
*D7
340
0
 70
     0
280
     1
281
     0
  0
BLOCK_RECORD
  5
3A1
330
1
100
AcDbSymbolTableRecord
100
AcDbBlockTableRecord
  2
*D8
340
0
 70
     0
280
     1
281
     0
  0
BLOCK_RECORD
  5
3DA
330
1
100
AcDbSymbolTableRecord
100
AcDbBlockTableRecord
  2
*D9
340
0
 70
     0
280
     1
281
     0
  0
BLOCK_RECORD
  5
3E7
330
1
100
AcDbSymbolTableRecord
100
AcDbBlockTableRecord
  2
*D10
340
0
 70
     0
280
     1
281
     0
  0
BLOCK_RECORD
  5
47E
330
1
100
AcDbSymbolTableRecord
100
AcDbBlockTableRecord
  2
*D11
340
0
 70
     0
280
     1
281
     0
  0
BLOCK_RECORD
  5
48B
330
1
100
AcDbSymbolTableRecord
100
AcDbBlockTableRecord
  2
*D12
340
0
 70
     0
280
     1
281
     0
  0
BLOCK_RECORD
  5
4C2
330
1
100
AcDbSymbolTableRecord
100
AcDbBlockTableRecord
  2
*D13
340
0
 70
     0
280
     1
281
     0
  0
BLOCK_RECORD
  5
4CF
330
1
100
AcDbSymbolTableRecord
100
AcDbBlockTableRecord
  2
*D14
340
0
 70
     0
280
     1
281
     0
  0
BLOCK_RECORD
  5
566
330
1
100
AcDbSymbolTableRecord
100
AcDbBlockTableRecord
  2
*D15
340
0
 70
     0
280
     1
281
     0
  0
BLOCK_RECORD
  5
573
330
1
100
AcDbSymbolTableRecord
100
AcDbBlockTableRecord
  2
*D16
340
0
 70
     0
280
     1
281
     0
  0
BLOCK_RECORD
  5
5AC
330
1
100
AcDbSymbolTableRecord
100
AcDbBlockTableRecord
  2
*D17
340
0
 70
     0
280
     1
281
     0
  0
BLOCK_RECORD
  5
5B9
330
1
100
AcDbSymbolTableRecord
100
AcDbBlockTableRecord
  2
*D18
340
0
 70
     0
280
     1
281
     0
  0
BLOCK_RECORD
  5
65B
330
1
100
AcDbSymbolTableRecord
100
AcDbBlockTableRecord
  2
*D19
340
0
 70
     0
280
     1
281
     0
  0
BLOCK_RECORD
  5
668
330
1
100
AcDbSymbolTableRecord
100
AcDbBlockTableRecord
  2
*D20
340
0
 70
     0
280
     1
281
     0
  0
BLOCK_RECORD
  5
69F
330
1
100
AcDbSymbolTableRecord
100
AcDbBlockTableRecord
  2
*D21
340
0
 70
     0
280
     1
281
     0
  0
BLOCK_RECORD
  5
6AC
330
1
100
AcDbSymbolTableRecord
100
AcDbBlockTableRecord
  2
*D22
340
0
 70
     0
280
     1
281
     0
  0
BLOCK_RECORD
  5
743
330
1
100
AcDbSymbolTableRecord
100
AcDbBlockTableRecord
  2
*D23
340
0
 70
     0
280
     1
281
     0
  0
BLOCK_RECORD
  5
750
330
1
100
AcDbSymbolTableRecord
100
AcDbBlockTableRecord
  2
*D24
340
0
 70
     0
280
     1
281
     0
  0
BLOCK_RECORD
  5
789
330
1
100
AcDbSymbolTableRecord
100
AcDbBlockTableRecord
  2
*D25
340
0
 70
     0
280
     1
281
     0
  0
BLOCK_RECORD
  5
796
330
1
100
AcDbSymbolTableRecord
100
AcDbBlockTableRecord
  2
*D26
340
0
 70
     0
280
     1
281
     0
  0
BLOCK_RECORD
  5
837
330
1
100
AcDbSymbolTableRecord
100
AcDbBlockTableRecord
  2
*D27
340
0
 70
     0
280
     1
281
     0
  0
BLOCK_RECORD
  5
844
330
1
100
AcDbSymbolTableRecord
100
AcDbBlockTableRecord
  2
*D28
340
0
 70
     0
280
     1
281
     0
  0
BLOCK_RECORD
  5
896
330
1
100
AcDbSymbolTableRecord
100
AcDbBlockTableRecord
  2
*D29
340
0
 70
     0
280
     1
281
     0
  0
BLOCK_RECORD
  5
8A3
330
1
100
AcDbSymbolTableRecord
100
AcDbBlockTableRecord
  2
*D30
340
0
 70
     0
280
     1
281
     0
  0
BLOCK_RECORD
  5
912
330
1
100
AcDbSymbolTableRecord
100
AcDbBlockTableRecord
  2
*D31
340
0
 70
     0
280
     1
281
     0
  0
BLOCK_RECORD
  5
91F
330
1
100
AcDbSymbolTableRecord
100
AcDbBlockTableRecord
  2
*D32
340
0
 70
     0
280
     1
281
     0
  0
BLOCK_RECORD
  5
956
330
1
100
AcDbSymbolTableRecord
100
AcDbBlockTableRecord
  2
*D33
340
0
 70
     0
280
     1
281
     0
  0
BLOCK_RECORD
  5
963
330
1
100
AcDbSymbolTableRecord
100
AcDbBlockTableRecord
  2
*D34
340
0
 70
     0
280
     1
281
     0
  0
BLOCK_RECORD
  5
A5E
330
1
100
AcDbSymbolTableRecord
100
AcDbBlockTableRecord
  2
*D35
340
0
 70
     0
280
     1
281
     0
  0
BLOCK_RECORD
  5
A6B
330
1
100
AcDbSymbolTableRecord
100
AcDbBlockTableRecord
  2
*D36
340
0
 70
     0
280
     1
281
     0
  0
BLOCK_RECORD
  5
AA6
330
1
100
AcDbSymbolTableRecord
100
AcDbBlockTableRecord
  2
*D37
340
0
 70
     0
280
     1
281
     0
  0
BLOCK_RECORD
  5
AB3
330
1
100
AcDbSymbolTableRecord
100
AcDbBlockTableRecord
  2
*D38
340
0
 70
     0
280
     1
281
     0
  0
BLOCK_RECORD
  5
BAE
330
1
100
AcDbSymbolTableRecord
100
AcDbBlockTableRecord
  2
*D39
340
0
 70
     0
280
     1
281
     0
  0
BLOCK_RECORD
  5
BBB
330
1
100
AcDbSymbolTableRecord
100
AcDbBlockTableRecord
  2
*D40
340
0
 70
     0
280
     1
281
     0
  0
BLOCK_RECORD
  5
BF6
330
1
100
AcDbSymbolTableRecord
100
AcDbBlockTableRecord
  2
*D41
340
0
 70
     0
280
     1
281
     0
  0
BLOCK_RECORD
  5
C03
330
1
100
AcDbSymbolTableRecord
100
AcDbBlockTableRecord
  2
*D42
340
0
 70
     0
280
     1
281
     0
  0
BLOCK_RECORD
  5
CD2
330
1
100
AcDbSymbolTableRecord
100
AcDbBlockTableRecord
  2
*D43
340
0
 70
     0
280
     1
281
     0
  0
BLOCK_RECORD
  5
CDF
330
1
100
AcDbSymbolTableRecord
100
AcDbBlockTableRecord
  2
*D44
340
0
 70
     0
280
     1
281
     0
  0
ENDTAB
  0
ENDSEC
  0
SECTION
  2
BLOCKS
  0
BLOCK
  5
20
330
1F
100
AcDbEntity
  8
0
100
AcDbBlockBegin
  2
*Model_Space
 70
     0
 10
0.0
 20
0.0
 30
0.0
  3
*Model_Space
  1

  0
ENDBLK
  5
21
330
1F
100
AcDbEntity
  8
0
100
AcDbBlockEnd
  0
BLOCK
  5
5A
330
58
100
AcDbEntity
 67
     1
  8
0
100
AcDbBlockBegin
  2
*Paper_Space
 70
     0
 10
0.0
 20
0.0
 30
0.0
  3
*Paper_Space
  1

  0
ENDBLK
  5
5B
330
58
100
AcDbEntity
 67
     1
  8
0
100
AcDbBlockEnd
  0
BLOCK
  5
5F
330
5D
100
AcDbEntity
 67
     1
  8
0
100
AcDbBlockBegin
  2
*Paper_Space0
 70
     0
 10
0.0
 20
0.0
 30
0.0
  3
*Paper_Space0
  1

  0
ENDBLK
  5
60
330
5D
100
AcDbEntity
 67
     1
  8
0
100
AcDbBlockEnd
  0
BLOCK
  5
231
330
230
100
AcDbEntity
  8
0
100
AcDbBlockBegin
  2
*D1
 70
     1
 10
0.0
 20
0.0
 30
0.0
  3
*D1
  1

  0
LINE
  5
232
330
230
100
AcDbEntity
  8
Notes
 62
     0
440
 16777216
370
    -2
100
AcDbLine
 10
2.381555729663169
 20
-1.396286594989459
 30
0.0
 11
2.381555729663169
 21
-1.224026937004089
 31
0.0
  0
LINE
  5
233
330
230
100
AcDbEntity
  8
Notes
 62
     0
440
 16777216
370
    -2
100
AcDbLine
 10
2.404555729663244
 20
-1.396286594989459
 30
0.0
 11
2.404555729663244
 21
-1.224026937004089
 31
0.0
  0
LINE
  5
234
330
230
100
AcDbEntity
  8
Notes
 62
     0
440
 16777216
370
    -2
100
AcDbLine
 10
2.366555729663168
 20
-1.233026937004089
 30
0.0
 11
2.35155572966317
 21
-1.233026937004089
 31
0.0
  0
LINE
  5
235
330
230
100
AcDbEntity
  8
Notes
 62
     0
440
 16777216
370
    -2
100
AcDbLine
 10
2.419555729663244
 20
-1.233026937004089
 30
0.0
 11
2.434555729663244
 21
-1.233026937004089
 31
0.0
  0
SOLID
  5
236
330
230
100
AcDbEntity
  8
Notes
 62
     0
440
 16777216
100
AcDbTrace
 10
2.366555729663168
 20
-1.230526937004087
 30
0.0
 11
2.366555729663168
 21
-1.235526937004089
 31
0.0
 12
2.381555729663169
 22
-1.233026937004089
 32
0.0
 13
2.381555729663169
 23
-1.233026937004089
 33
0.0
  0
SOLID
  5
237
330
230
100
AcDbEntity
  8
Notes
 62
     0
440
 16777216
100
AcDbTrace
 10
2.419555729663244
 20
-1.230526937004087
 30
0.0
 11
2.419555729663244
 21
-1.235526937004089
 31
0.0
 12
2.404555729663244
 22
-1.233026937004089
 32
0.0
 13
2.404555729663244
 23
-1.233026937004089
 33
0.0
  0
MTEXT
  5
238
330
230
100
AcDbEntity
  8
Notes
 62
     0
440
 16777216
100
AcDbMText
 10
2.656410654518333
 20
-1.233026937004089
 30
0.0
 40
0.018
 41
0.239801937022591
 46
0.0
 71
     6
 72
     1
  1
\A1;{\C256;1}x 50 Ohm Transmission Line
  7
Arial
 73
     1
 44
1.0
  0
POINT
  5
239
330
230
100
AcDbEntity
  8
Defpoints
 62
     0
440
 16777216
100
AcDbPoint
 10
2.381555729663169
 20
-1.405661594989461
 30
0.0
  0
POINT
  5
23A
330
230
100
AcDbEntity
  8
Defpoints
 62
     0
440
 16777216
100
AcDbPoint
 10
2.404555729663244
 20
-1.405661594989461
 30
0.0
  0
POINT
  5
23B
330
230
100
AcDbEntity
  8
Defpoints
 62
     0
440
 16777216
100
AcDbPoint
 10
2.404555729663244
 20
-1.233026937004089
 30
0.0
  0
ENDBLK
  5
23C
330
230
100
AcDbEntity
  8
0
100
AcDbBlockEnd
  0
BLOCK
  5
23E
330
23D
100
AcDbEntity
  8
0
100
AcDbBlockBegin
  2
*D2
 70
     1
 10
0.0
 20
0.0
 30
0.0
  3
*D2
  1

  0
LINE
  5
23F
330
23D
100
AcDbEntity
  8
Notes
 62
     0
440
 16777216
370
    -2
100
AcDbLine
 10
2.404555729663244
 20
-1.396286594989459
 30
0.0
 11
2.404555729663244
 21
-1.289491842181536
 31
0.0
  0
LINE
  5
240
330
23D
100
AcDbEntity
  8
Notes
 62
     0
440
 16777216
370
    -2
100
AcDbLine
 10
2.439055729396045
 20
-1.396286594989454
 30
0.0
 11
2.439055729396045
 21
-1.289491842181536
 31
0.0
  0
LINE
  5
241
330
23D
100
AcDbEntity
  8
Notes
 62
     0
440
 16777216
370
    -2
100
AcDbLine
 10
2.419555729663244
 20
-1.298491842181535
 30
0.0
 11
2.424055729396044
 21
-1.298491842181535
 31
0.0
  0
LINE
  5
242
330
23D
100
AcDbEntity
  8
Notes
 62
     0
440
 16777216
370
    -2
100
AcDbLine
 10
2.439055729396045
 20
-1.298491842181535
 30
0.0
 11
2.513826664328037
 21
-1.298491842181535
 31
0.0
  0
SOLID
  5
243
330
23D
100
AcDbEntity
  8
Notes
 62
     0
440
 16777216
100
AcDbTrace
 10
2.419555729663244
 20
-1.295991842181534
 30
0.0
 11
2.419555729663244
 21
-1.300991842181534
 31
0.0
 12
2.404555729663244
 22
-1.298491842181535
 32
0.0
 13
2.404555729663244
 23
-1.298491842181535
 33
0.0
  0
SOLID
  5
244
330
23D
100
AcDbEntity
  8
Notes
 62
     0
440
 16777216
100
AcDbTrace
 10
2.424055729396044
 20
-1.295991842181534
 30
0.0
 11
2.424055729396044
 21
-1.300991842181534
 31
0.0
 12
2.439055729396045
 22
-1.298491842181535
 32
0.0
 13
2.439055729396045
 23
-1.298491842181535
 33
0.0
  0
MTEXT
  5
245
330
23D
100
AcDbEntity
  8
Notes
 62
     0
440
 16777216
100
AcDbMText
 10
2.779195787422573
 20
-1.298491842181535
 30
0.0
 40
0.018
 41
0.2722778096269991
 46
0.0
 71
     6
 72
     1
  1
\A1;{\C256;2}x 50 Ohm Transmission Line Gap
  7
Arial
 73
     1
 44
1.0
  0
POINT
  5
246
330
23D
100
AcDbEntity
  8
Defpoints
 62
     0
440
 16777216
100
AcDbPoint
 10
2.404555729663244
 20
-1.405661594989461
 30
0.0
  0
POINT
  5
247
330
23D
100
AcDbEntity
  8
Defpoints
 62
     0
440
 16777216
100
AcDbPoint
 10
2.439055729396045
 20
-1.405661594989456
 30
0.0
  0
POINT
  5
248
330
23D
100
AcDbEntity
  8
Defpoints
 62
     0
440
 16777216
100
AcDbPoint
 10
2.439055729396045
 20
-1.298491842181535
 30
0.0
  0
ENDBLK
  5
249
330
23D
100
AcDbEntity
  8
0
100
AcDbBlockEnd
  0
BLOCK
  5
2CE
330
2CD
100
AcDbEntity
  8
0
100
AcDbBlockBegin
  2
*D3
 70
     1
 10
0.0
 20
0.0
 30
0.0
  3
*D3
  1

  0
LINE
  5
2FB
330
2CD
100
AcDbEntity
  8
Notes
 62
     0
440
 16777216
370
    -2
100
AcDbLine
 10
-0.0115000000001135
 20
0.1261483912618907
 30
0.0
 11
-0.0115000000001135
 21
0.2984080492472639
 31
0.0
  0
LINE
  5
2FC
330
2CD
100
AcDbEntity
  8
Notes
 62
     0
440
 16777216
370
    -2
100
AcDbLine
 10
0.0114999999999608
 20
0.1261483912618907
 30
0.0
 11
0.0114999999999608
 21
0.2984080492472639
 31
0.0
  0
LINE
  5
2FD
330
2CD
100
AcDbEntity
  8
Notes
 62
     0
440
 16777216
370
    -2
100
AcDbLine
 10
-0.0265000000001135
 20
0.2894080492472639
 30
0.0
 11
-0.0415000000001135
 21
0.2894080492472639
 31
0.0
  0
LINE
  5
2FE
330
2CD
100
AcDbEntity
  8
Notes
 62
     0
440
 16777216
370
    -2
100
AcDbLine
 10
0.0264999999999608
 20
0.2894080492472639
 30
0.0
 11
0.041499999999961
 21
0.2894080492472639
 31
0.0
  0
SOLID
  5
2FF
330
2CD
100
AcDbEntity
  8
Notes
 62
     0
440
 16777216
100
AcDbTrace
 10
-0.0265000000001135
 20
0.2919080492472639
 30
0.0
 11
-0.0265000000001135
 21
0.2869080492472639
 31
0.0
 12
-0.0115000000001135
 22
0.2894080492472639
 32
0.0
 13
-0.0115000000001135
 23
0.2894080492472639
 33
0.0
  0
SOLID
  5
300
330
2CD
100
AcDbEntity
  8
Notes
 62
     0
440
 16777216
100
AcDbTrace
 10
0.0264999999999608
 20
0.2919080492472639
 30
0.0
 11
0.0264999999999608
 21
0.2869080492472639
 31
0.0
 12
0.0114999999999608
 22
0.2894080492472639
 32
0.0
 13
0.0114999999999608
 23
0.2894080492472639
 33
0.0
  0
MTEXT
  5
301
330
2CD
100
AcDbEntity
  8
Notes
 62
     0
440
 16777216
100
AcDbMText
 10
0.2633549248550491
 20
0.2894080492472639
 30
0.0
 40
0.018
 41
0.239801937022591
 46
0.0
 71
     6
 72
     1
  1
\A1;{\C256;1}x 50 Ohm Transmission Line
  7
Arial
 73
     1
 44
1.0
  0
POINT
  5
302
330
2CD
100
AcDbEntity
  8
Defpoints
 62
     0
440
 16777216
100
AcDbPoint
 10
-0.0115000000001135
 20
0.1167733912618907
 30
0.0
  0
POINT
  5
303
330
2CD
100
AcDbEntity
  8
Defpoints
 62
     0
440
 16777216
100
AcDbPoint
 10
0.0114999999999608
 20
0.1167733912618907
 30
0.0
  0
POINT
  5
304
330
2CD
100
AcDbEntity
  8
Defpoints
 62
     0
440
 16777216
100
AcDbPoint
 10
0.0114999999999608
 20
0.2894080492472639
 30
0.0
  0
ENDBLK
  5
2CF
330
2CD
100
AcDbEntity
  8
0
100
AcDbBlockEnd
  0
BLOCK
  5
2DB
330
2DA
100
AcDbEntity
  8
0
100
AcDbBlockBegin
  2
*D4
 70
     1
 10
0.0
 20
0.0
 30
0.0
  3
*D4
  1

  0
LINE
  5
305
330
2DA
100
AcDbEntity
  8
Notes
 62
     0
440
 16777216
370
    -2
100
AcDbLine
 10
0.0114999999999608
 20
0.1261483912618907
 30
0.0
 11
0.0114999999999608
 21
0.2329431440698176
 31
0.0
  0
LINE
  5
306
330
2DA
100
AcDbEntity
  8
Notes
 62
     0
440
 16777216
370
    -2
100
AcDbLine
 10
0.0459999997327625
 20
0.126148391261896
 30
0.0
 11
0.0459999997327625
 21
0.2329431440698176
 31
0.0
  0
LINE
  5
307
330
2DA
100
AcDbEntity
  8
Notes
 62
     0
440
 16777216
370
    -2
100
AcDbLine
 10
0.0264999999999608
 20
0.2239431440698176
 30
0.0
 11
0.0309999997327625
 21
0.2239431440698176
 31
0.0
  0
LINE
  5
308
330
2DA
100
AcDbEntity
  8
Notes
 62
     0
440
 16777216
370
    -2
100
AcDbLine
 10
0.0459999997327625
 20
0.2239431440698176
 30
0.0
 11
0.1207709346647536
 21
0.2239431440698176
 31
0.0
  0
SOLID
  5
309
330
2DA
100
AcDbEntity
  8
Notes
 62
     0
440
 16777216
100
AcDbTrace
 10
0.0264999999999608
 20
0.2264431440698176
 30
0.0
 11
0.0264999999999608
 21
0.2214431440698176
 31
0.0
 12
0.0114999999999608
 22
0.2239431440698176
 32
0.0
 13
0.0114999999999608
 23
0.2239431440698176
 33
0.0
  0
SOLID
  5
30A
330
2DA
100
AcDbEntity
  8
Notes
 62
     0
440
 16777216
100
AcDbTrace
 10
0.0309999997327625
 20
0.2264431440698176
 30
0.0
 11
0.0309999997327625
 21
0.2214431440698176
 31
0.0
 12
0.0459999997327625
 22
0.2239431440698176
 32
0.0
 13
0.0459999997327625
 23
0.2239431440698176
 33
0.0
  0
MTEXT
  5
30B
330
2DA
100
AcDbEntity
  8
Notes
 62
     0
440
 16777216
100
AcDbMText
 10
0.3861400577592899
 20
0.2239431440698176
 30
0.0
 40
0.018
 41
0.2722778096269991
 46
0.0
 71
     6
 72
     1
  1
\A1;{\C256;2}x 50 Ohm Transmission Line Gap
  7
Arial
 73
     1
 44
1.0
  0
POINT
  5
30C
330
2DA
100
AcDbEntity
  8
Defpoints
 62
     0
440
 16777216
100
AcDbPoint
 10
0.0114999999999608
 20
0.1167733912618907
 30
0.0
  0
POINT
  5
30D
330
2DA
100
AcDbEntity
  8
Defpoints
 62
     0
440
 16777216
100
AcDbPoint
 10
0.0459999997327625
 20
0.116773391261896
 30
0.0
  0
POINT
  5
30E
330
2DA
100
AcDbEntity
  8
Defpoints
 62
     0
440
 16777216
100
AcDbPoint
 10
0.0459999997327625
 20
0.2239431440698176
 30
0.0
  0
ENDBLK
  5
2DC
330
2DA
100
AcDbEntity
  8
0
100
AcDbBlockEnd
  0
BLOCK
  5
325
330
324
100
AcDbEntity
  8
0
100
AcDbBlockBegin
  2
*D5
 70
     1
 10
0.0
 20
0.0
 30
0.0
  3
*D5
  1

  0
LINE
  5
326
330
324
100
AcDbEntity
  8
Notes
 62
     0
440
 16777216
370
    -2
100
AcDbLine
 10
9.257629126952984
 20
-1.280506372504115
 30
0.0
 11
9.257629126952984
 21
-1.110855506850418
 31
0.0
  0
LINE
  5
327
330
324
100
AcDbEntity
  8
Notes
 62
     0
440
 16777216
370
    -2
100
AcDbLine
 10
9.280629126962557
 20
-1.280506372504113
 30
0.0
 11
9.280629126962557
 21
-1.110855506850418
 31
0.0
  0
LINE
  5
328
330
324
100
AcDbEntity
  8
Notes
 62
     0
440
 16777216
370
    -2
100
AcDbLine
 10
9.242629126952984
 20
-1.119855506850417
 30
0.0
 11
9.227629126952983
 21
-1.119855506850417
 31
0.0
  0
LINE
  5
329
330
324
100
AcDbEntity
  8
Notes
 62
     0
440
 16777216
370
    -2
100
AcDbLine
 10
9.295629126962557
 20
-1.119855506850417
 30
0.0
 11
9.310629126962554
 21
-1.119855506850417
 31
0.0
  0
SOLID
  5
32A
330
324
100
AcDbEntity
  8
Notes
 62
     0
440
 16777216
100
AcDbTrace
 10
9.242629126952984
 20
-1.117355506850417
 30
0.0
 11
9.242629126952984
 21
-1.122355506850418
 31
0.0
 12
9.257629126952984
 22
-1.119855506850417
 32
0.0
 13
9.257629126952984
 23
-1.119855506850417
 33
0.0
  0
SOLID
  5
32B
330
324
100
AcDbEntity
  8
Notes
 62
     0
440
 16777216
100
AcDbTrace
 10
9.295629126962557
 20
-1.117355506850417
 30
0.0
 11
9.295629126962557
 21
-1.122355506850418
 31
0.0
 12
9.280629126962557
 22
-1.119855506850417
 32
0.0
 13
9.280629126962557
 23
-1.119855506850417
 33
0.0
  0
MTEXT
  5
32C
330
324
100
AcDbEntity
  8
Notes
 62
     0
440
 16777216
100
AcDbMText
 10
9.532484051817645
 20
-1.119855506850417
 30
0.0
 40
0.018
 41
0.239801937022591
 46
0.0
 71
     6
 72
     1
  1
\A1;{\C256;1}x 50 Ohm Transmission Line
  7
Arial
 73
     1
 44
1.0
  0
POINT
  5
32D
330
324
100
AcDbEntity
  8
Defpoints
 62
     0
440
 16777216
100
AcDbPoint
 10
9.257629126952984
 20
-1.289881372504114
 30
0.0
  0
POINT
  5
32E
330
324
100
AcDbEntity
  8
Defpoints
 62
     0
440
 16777216
100
AcDbPoint
 10
9.280629126962557
 20
-1.289881372504112
 30
0.0
  0
POINT
  5
32F
330
324
100
AcDbEntity
  8
Defpoints
 62
     0
440
 16777216
100
AcDbPoint
 10
9.280629126962557
 20
-1.119855506850417
 30
0.0
  0
ENDBLK
  5
330
330
324
100
AcDbEntity
  8
0
100
AcDbBlockEnd
  0
BLOCK
  5
332
330
331
100
AcDbEntity
  8
0
100
AcDbBlockBegin
  2
*D6
 70
     1
 10
0.0
 20
0.0
 30
0.0
  3
*D6
  1

  0
LINE
  5
333
330
331
100
AcDbEntity
  8
Notes
 62
     0
440
 16777216
370
    -2
100
AcDbLine
 10
9.280629126962557
 20
-1.280506372504115
 30
0.0
 11
9.280629126962557
 21
-1.176320412027864
 31
0.0
  0
LINE
  5
334
330
331
100
AcDbEntity
  8
Notes
 62
     0
440
 16777216
370
    -2
100
AcDbLine
 10
9.315129126777113
 20
-1.280506372504115
 30
0.0
 11
9.315129126777113
 21
-1.176320412027864
 31
0.0
  0
LINE
  5
335
330
331
100
AcDbEntity
  8
Notes
 62
     0
440
 16777216
370
    -2
100
AcDbLine
 10
9.295629126962557
 20
-1.185320412027862
 30
0.0
 11
9.300129126777113
 21
-1.185320412027862
 31
0.0
  0
LINE
  5
336
330
331
100
AcDbEntity
  8
Notes
 62
     0
440
 16777216
370
    -2
100
AcDbLine
 10
9.315129126777113
 20
-1.185320412027862
 30
0.0
 11
9.404013052814155
 21
-1.185320412027862
 31
0.0
  0
SOLID
  5
337
330
331
100
AcDbEntity
  8
Notes
 62
     0
440
 16777216
100
AcDbTrace
 10
9.295629126962557
 20
-1.182820412027864
 30
0.0
 11
9.295629126962557
 21
-1.187820412027863
 31
0.0
 12
9.280629126962557
 22
-1.185320412027862
 32
0.0
 13
9.280629126962557
 23
-1.185320412027862
 33
0.0
  0
SOLID
  5
338
330
331
100
AcDbEntity
  8
Notes
 62
     0
440
 16777216
100
AcDbTrace
 10
9.300129126777113
 20
-1.182820412027864
 30
0.0
 11
9.300129126777113
 21
-1.187820412027863
 31
0.0
 12
9.315129126777113
 22
-1.185320412027862
 32
0.0
 13
9.315129126777113
 23
-1.185320412027862
 33
0.0
  0
MTEXT
  5
339
330
331
100
AcDbEntity
  8
Notes
 62
     0
440
 16777216
100
AcDbMText
 10
9.669382175908692
 20
-1.185320412027862
 30
0.0
 40
0.018
 41
0.2722778096269991
 46
0.0
 71
     6
 72
     1
  1
\A1;{\C256;2}x 50 Ohm Transmission Line Gap
  7
Arial
 73
     1
 44
1.0
  0
POINT
  5
33A
330
331
100
AcDbEntity
  8
Defpoints
 62
     0
440
 16777216
100
AcDbPoint
 10
9.280629126962557
 20
-1.289881372504114
 30
0.0
  0
POINT
  5
33B
330
331
100
AcDbEntity
  8
Defpoints
 62
     0
440
 16777216
100
AcDbPoint
 10
9.315129126777113
 20
-1.289881372504114
 30
0.0
  0
POINT
  5
33C
330
331
100
AcDbEntity
  8
Defpoints
 62
     0
440
 16777216
100
AcDbPoint
 10
9.315129126777113
 20
-1.185320412027862
 30
0.0
  0
ENDBLK
  5
33D
330
331
100
AcDbEntity
  8
0
100
AcDbBlockEnd
  0
BLOCK
  5
395
330
394
100
AcDbEntity
  8
0
100
AcDbBlockBegin
  2
*D7
 70
     1
 10
0.0
 20
0.0
 30
0.0
  3
*D7
  1

  0
LINE
  5
3C2
330
394
100
AcDbEntity
  8
Notes
 62
     0
440
 16777216
370
    -2
100
AcDbLine
 10
-0.0115000000118251
 20
0.111914813947133
 30
0.0
 11
-0.0115000000118251
 21
0.2815656796008303
 31
0.0
  0
LINE
  5
3C3
330
394
100
AcDbEntity
  8
Notes
 62
     0
440
 16777216
370
    -2
100
AcDbLine
 10
0.0114999999977457
 20
0.1119148139471352
 30
0.0
 11
0.0114999999977457
 21
0.2815656796008303
 31
0.0
  0
LINE
  5
3C4
330
394
100
AcDbEntity
  8
Notes
 62
     0
440
 16777216
370
    -2
100
AcDbLine
 10
-0.0265000000118251
 20
0.2725656796008302
 30
0.0
 11
-0.041500000011825
 21
0.2725656796008302
 31
0.0
  0
LINE
  5
3C5
330
394
100
AcDbEntity
  8
Notes
 62
     0
440
 16777216
370
    -2
100
AcDbLine
 10
0.0264999999977457
 20
0.2725656796008302
 30
0.0
 11
0.0414999999977458
 21
0.2725656796008302
 31
0.0
  0
SOLID
  5
3C6
330
394
100
AcDbEntity
  8
Notes
 62
     0
440
 16777216
100
AcDbTrace
 10
-0.0265000000118251
 20
0.2750656796008302
 30
0.0
 11
-0.0265000000118251
 21
0.2700656796008302
 31
0.0
 12
-0.0115000000118251
 22
0.2725656796008302
 32
0.0
 13
-0.0115000000118251
 23
0.2725656796008302
 33
0.0
  0
SOLID
  5
3C7
330
394
100
AcDbEntity
  8
Notes
 62
     0
440
 16777216
100
AcDbTrace
 10
0.0264999999977457
 20
0.2750656796008302
 30
0.0
 11
0.0264999999977457
 21
0.2700656796008302
 31
0.0
 12
0.0114999999977457
 22
0.2725656796008302
 32
0.0
 13
0.0114999999977457
 23
0.2725656796008302
 33
0.0
  0
MTEXT
  5
3C8
330
394
100
AcDbEntity
  8
Notes
 62
     0
440
 16777216
100
AcDbMText
 10
0.263354924852834
 20
0.2725656796008302
 30
0.0
 40
0.018
 41
0.239801937022591
 46
0.0
 71
     6
 72
     1
  1
\A1;{\C256;1}x 50 Ohm Transmission Line
  7
Arial
 73
     1
 44
1.0
  0
POINT
  5
3C9
330
394
100
AcDbEntity
  8
Defpoints
 62
     0
440
 16777216
100
AcDbPoint
 10
-0.0115000000118251
 20
0.102539813947133
 30
0.0
  0
POINT
  5
3CA
330
394
100
AcDbEntity
  8
Defpoints
 62
     0
440
 16777216
100
AcDbPoint
 10
0.0114999999977457
 20
0.1025398139471352
 30
0.0
  0
POINT
  5
3CB
330
394
100
AcDbEntity
  8
Defpoints
 62
     0
440
 16777216
100
AcDbPoint
 10
0.0114999999977457
 20
0.2725656796008302
 30
0.0
  0
ENDBLK
  5
396
330
394
100
AcDbEntity
  8
0
100
AcDbBlockEnd
  0
BLOCK
  5
3A2
330
3A1
100
AcDbEntity
  8
0
100
AcDbBlockBegin
  2
*D8
 70
     1
 10
0.0
 20
0.0
 30
0.0
  3
*D8
  1

  0
LINE
  5
3CC
330
3A1
100
AcDbEntity
  8
Notes
 62
     0
440
 16777216
370
    -2
100
AcDbLine
 10
0.0114999999977457
 20
0.1119148139471338
 30
0.0
 11
0.0114999999977457
 21
0.216100774423384
 31
0.0
  0
LINE
  5
3CD
330
3A1
100
AcDbEntity
  8
Notes
 62
     0
440
 16777216
370
    -2
100
AcDbLine
 10
0.0459999998123024
 20
0.1119148139471338
 30
0.0
 11
0.0459999998123024
 21
0.216100774423384
 31
0.0
  0
LINE
  5
3CE
330
3A1
100
AcDbEntity
  8
Notes
 62
     0
440
 16777216
370
    -2
100
AcDbLine
 10
0.0264999999977457
 20
0.2071007744233839
 30
0.0
 11
0.0309999998123024
 21
0.2071007744233839
 31
0.0
  0
LINE
  5
3CF
330
3A1
100
AcDbEntity
  8
Notes
 62
     0
440
 16777216
370
    -2
100
AcDbLine
 10
0.0459999998123024
 20
0.2071007744233839
 30
0.0
 11
0.1348839258493483
 21
0.2071007744233839
 31
0.0
  0
SOLID
  5
3D0
330
3A1
100
AcDbEntity
  8
Notes
 62
     0
440
 16777216
100
AcDbTrace
 10
0.0264999999977457
 20
0.2096007744233839
 30
0.0
 11
0.0264999999977457
 21
0.2046007744233839
 31
0.0
 12
0.0114999999977457
 22
0.2071007744233839
 32
0.0
 13
0.0114999999977457
 23
0.2071007744233839
 33
0.0
  0
SOLID
  5
3D1
330
3A1
100
AcDbEntity
  8
Notes
 62
     0
440
 16777216
100
AcDbTrace
 10
0.0309999998123024
 20
0.2096007744233839
 30
0.0
 11
0.0309999998123024
 21
0.2046007744233839
 31
0.0
 12
0.0459999998123024
 22
0.2071007744233839
 32
0.0
 13
0.0459999998123024
 23
0.2071007744233839
 33
0.0
  0
MTEXT
  5
3D2
330
3A1
100
AcDbEntity
  8
Notes
 62
     0
440
 16777216
100
AcDbMText
 10
0.4002530489438847
 20
0.2071007744233839
 30
0.0
 40
0.018
 41
0.2722778096269991
 46
0.0
 71
     6
 72
     1
  1
\A1;{\C256;2}x 50 Ohm Transmission Line Gap
  7
Arial
 73
     1
 44
1.0
  0
POINT
  5
3D3
330
3A1
100
AcDbEntity
  8
Defpoints
 62
     0
440
 16777216
100
AcDbPoint
 10
0.0114999999977457
 20
0.1025398139471338
 30
0.0
  0
POINT
  5
3D4
330
3A1
100
AcDbEntity
  8
Defpoints
 62
     0
440
 16777216
100
AcDbPoint
 10
0.0459999998123024
 20
0.1025398139471338
 30
0.0
  0
POINT
  5
3D5
330
3A1
100
AcDbEntity
  8
Defpoints
 62
     0
440
 16777216
100
AcDbPoint
 10
0.0459999998123024
 20
0.2071007744233839
 30
0.0
  0
ENDBLK
  5
3A3
330
3A1
100
AcDbEntity
  8
0
100
AcDbBlockEnd
  0
BLOCK
  5
3DB
330
3DA
100
AcDbEntity
  8
0
100
AcDbBlockBegin
  2
*D9
 70
     1
 10
0.0
 20
0.0
 30
0.0
  3
*D9
  1

  0
LINE
  5
3DC
330
3DA
100
AcDbEntity
  8
Notes
 62
     0
440
 16777216
370
    -2
100
AcDbLine
 10
2.250122361334994
 20
-3.428628163345067
 30
0.0
 11
2.250122361334994
 21
-3.209330380359435
 31
0.0
  0
LINE
  5
3DD
330
3DA
100
AcDbEntity
  8
Notes
 62
     0
440
 16777216
370
    -2
100
AcDbLine
 10
2.278122361335007
 20
-3.428628163345067
 30
0.0
 11
2.278122361335008
 21
-3.209330380359435
 31
0.0
  0
LINE
  5
3DE
330
3DA
100
AcDbEntity
  8
Notes
 62
     0
440
 16777216
370
    -2
100
AcDbLine
 10
2.235122361334993
 20
-3.218330380359434
 30
0.0
 11
2.220122361334995
 21
-3.218330380359434
 31
0.0
  0
LINE
  5
3DF
330
3DA
100
AcDbEntity
  8
Notes
 62
     0
440
 16777216
370
    -2
100
AcDbLine
 10
2.293122361335008
 20
-3.218330380359434
 30
0.0
 11
2.308122361335008
 21
-3.218330380359434
 31
0.0
  0
SOLID
  5
3E0
330
3DA
100
AcDbEntity
  8
Notes
 62
     0
440
 16777216
100
AcDbTrace
 10
2.235122361334993
 20
-3.215830380359435
 30
0.0
 11
2.235122361334993
 21
-3.220830380359434
 31
0.0
 12
2.250122361334994
 22
-3.218330380359434
 32
0.0
 13
2.250122361334994
 23
-3.218330380359434
 33
0.0
  0
SOLID
  5
3E1
330
3DA
100
AcDbEntity
  8
Notes
 62
     0
440
 16777216
100
AcDbTrace
 10
2.293122361335008
 20
-3.215830380359435
 30
0.0
 11
2.293122361335008
 21
-3.220830380359434
 31
0.0
 12
2.278122361335008
 22
-3.218330380359434
 32
0.0
 13
2.278122361335008
 23
-3.218330380359434
 33
0.0
  0
MTEXT
  5
3E2
330
3DA
100
AcDbEntity
  8
Notes
 62
     0
440
 16777216
100
AcDbMText
 10
2.529977286190095
 20
-3.218330380359434
 30
0.0
 40
0.018
 41
0.239801937022591
 46
0.0
 71
     6
 72
     1
  1
\A1;{\C256;1}x 50 Ohm Transmission Line
  7
Arial
 73
     1
 44
1.0
  0
POINT
  5
3E3
330
3DA
100
AcDbEntity
  8
Defpoints
 62
     0
440
 16777216
100
AcDbPoint
 10
2.250122361334994
 20
-3.438003163345068
 30
0.0
  0
POINT
  5
3E4
330
3DA
100
AcDbEntity
  8
Defpoints
 62
     0
440
 16777216
100
AcDbPoint
 10
2.278122361335007
 20
-3.438003163345068
 30
0.0
  0
POINT
  5
3E5
330
3DA
100
AcDbEntity
  8
Defpoints
 62
     0
440
 16777216
100
AcDbPoint
 10
2.278122361335008
 20
-3.218330380359434
 30
0.0
  0
ENDBLK
  5
3E6
330
3DA
100
AcDbEntity
  8
0
100
AcDbBlockEnd
  0
BLOCK
  5
3E8
330
3E7
100
AcDbEntity
  8
0
100
AcDbBlockBegin
  2
*D10
 70
     1
 10
0.0
 20
0.0
 30
0.0
  3
*D10
  1

  0
LINE
  5
3E9
330
3E7
100
AcDbEntity
  8
Notes
 62
     0
440
 16777216
370
    -2
100
AcDbLine
 10
2.278122361335007
 20
-3.428628163345067
 30
0.0
 11
2.278122361335007
 21
-3.27479528553688
 31
0.0
  0
LINE
  5
3EA
330
3E7
100
AcDbEntity
  8
Notes
 62
     0
440
 16777216
370
    -2
100
AcDbLine
 10
2.319122361335089
 20
-3.428628163345067
 30
0.0
 11
2.319122361335089
 21
-3.27479528553688
 31
0.0
  0
LINE
  5
3EB
330
3E7
100
AcDbEntity
  8
Notes
 62
     0
440
 16777216
370
    -2
100
AcDbLine
 10
2.293122361335008
 20
-3.283795285536881
 30
0.0
 11
2.304122361335088
 21
-3.283795285536881
 31
0.0
  0
LINE
  5
3EC
330
3E7
100
AcDbEntity
  8
Notes
 62
     0
440
 16777216
370
    -2
100
AcDbLine
 10
2.319122361335089
 20
-3.283795285536881
 30
0.0
 11
2.355667129501418
 21
-3.283795285536881
 31
0.0
  0
SOLID
  5
3ED
330
3E7
100
AcDbEntity
  8
Notes
 62
     0
440
 16777216
100
AcDbTrace
 10
2.293122361335008
 20
-3.28129528553688
 30
0.0
 11
2.293122361335008
 21
-3.286295285536881
 31
0.0
 12
2.278122361335007
 22
-3.283795285536881
 32
0.0
 13
2.278122361335007
 23
-3.283795285536881
 33
0.0
  0
SOLID
  5
3EE
330
3E7
100
AcDbEntity
  8
Notes
 62
     0
440
 16777216
100
AcDbTrace
 10
2.304122361335088
 20
-3.28129528553688
 30
0.0
 11
2.304122361335088
 21
-3.286295285536881
 31
0.0
 12
2.319122361335089
 22
-3.283795285536881
 32
0.0
 13
2.319122361335089
 23
-3.283795285536881
 33
0.0
  0
MTEXT
  5
3EF
330
3E7
100
AcDbEntity
  8
Notes
 62
     0
440
 16777216
100
AcDbMText
 10
2.621036252595954
 20
-3.283795285536881
 30
0.0
 40
0.018
 41
0.2722778096269991
 46
0.0
 71
     6
 72
     1
  1
\A1;{\C256;2}x 50 Ohm Transmission Line Gap
  7
Arial
 73
     1
 44
1.0
  0
POINT
  5
3F0
330
3E7
100
AcDbEntity
  8
Defpoints
 62
     0
440
 16777216
100
AcDbPoint
 10
2.278122361335007
 20
-3.438003163345068
 30
0.0
  0
POINT
  5
3F1
330
3E7
100
AcDbEntity
  8
Defpoints
 62
     0
440
 16777216
100
AcDbPoint
 10
2.319122361335089
 20
-3.438003163345068
 30
0.0
  0
POINT
  5
3F2
330
3E7
100
AcDbEntity
  8
Defpoints
 62
     0
440
 16777216
100
AcDbPoint
 10
2.319122361335089
 20
-3.283795285536881
 30
0.0
  0
ENDBLK
  5
3F3
330
3E7
100
AcDbEntity
  8
0
100
AcDbBlockEnd
  0
BLOCK
  5
47F
330
47E
100
AcDbEntity
  8
0
100
AcDbBlockBegin
  2
*D11
 70
     1
 10
0.0
 20
0.0
 30
0.0
  3
*D11
  1

  0
LINE
  5
4AC
330
47E
100
AcDbEntity
  8
Notes
 62
     0
440
 16777216
370
    -2
100
AcDbLine
 10
-0.0139999999991787
 20
0.1891685918290454
 30
0.0
 11
-0.0139999999991785
 21
0.4084663748146792
 31
0.0
  0
LINE
  5
4AD
330
47E
100
AcDbEntity
  8
Notes
 62
     0
440
 16777216
370
    -2
100
AcDbLine
 10
0.0140000000008343
 20
0.1891685918290454
 30
0.0
 11
0.0140000000008345
 21
0.4084663748146792
 31
0.0
  0
LINE
  5
4AE
330
47E
100
AcDbEntity
  8
Notes
 62
     0
440
 16777216
370
    -2
100
AcDbLine
 10
-0.0289999999991785
 20
0.3994663748146792
 30
0.0
 11
-0.0439999999991785
 21
0.3994663748146792
 31
0.0
  0
LINE
  5
4AF
330
47E
100
AcDbEntity
  8
Notes
 62
     0
440
 16777216
370
    -2
100
AcDbLine
 10
0.0290000000008345
 20
0.3994663748146792
 30
0.0
 11
0.0440000000008349
 21
0.3994663748146791
 31
0.0
  0
SOLID
  5
4B0
330
47E
100
AcDbEntity
  8
Notes
 62
     0
440
 16777216
100
AcDbTrace
 10
-0.0289999999991785
 20
0.4019663748146792
 30
0.0
 11
-0.0289999999991785
 21
0.3969663748146792
 31
0.0
 12
-0.0139999999991785
 22
0.3994663748146792
 32
0.0
 13
-0.0139999999991785
 23
0.3994663748146792
 33
0.0
  0
SOLID
  5
4B1
330
47E
100
AcDbEntity
  8
Notes
 62
     0
440
 16777216
100
AcDbTrace
 10
0.0290000000008345
 20
0.4019663748146792
 30
0.0
 11
0.0290000000008345
 21
0.3969663748146792
 31
0.0
 12
0.0140000000008345
 22
0.3994663748146792
 32
0.0
 13
0.0140000000008345
 23
0.3994663748146792
 33
0.0
  0
MTEXT
  5
4B2
330
47E
100
AcDbEntity
  8
Notes
 62
     0
440
 16777216
100
AcDbMText
 10
0.265854924855923
 20
0.3994663748146792
 30
0.0
 40
0.018
 41
0.239801937022591
 46
0.0
 71
     6
 72
     1
  1
\A1;{\C256;1}x 50 Ohm Transmission Line
  7
Arial
 73
     1
 44
1.0
  0
POINT
  5
4B3
330
47E
100
AcDbEntity
  8
Defpoints
 62
     0
440
 16777216
100
AcDbPoint
 10
-0.0139999999991787
 20
0.1797935918290454
 30
0.0
  0
POINT
  5
4B4
330
47E
100
AcDbEntity
  8
Defpoints
 62
     0
440
 16777216
100
AcDbPoint
 10
0.0140000000008342
 20
0.1797935918290454
 30
0.0
  0
POINT
  5
4B5
330
47E
100
AcDbEntity
  8
Defpoints
 62
     0
440
 16777216
100
AcDbPoint
 10
0.0140000000008345
 20
0.3994663748146792
 30
0.0
  0
ENDBLK
  5
480
330
47E
100
AcDbEntity
  8
0
100
AcDbBlockEnd
  0
BLOCK
  5
48C
330
48B
100
AcDbEntity
  8
0
100
AcDbBlockBegin
  2
*D12
 70
     1
 10
0.0
 20
0.0
 30
0.0
  3
*D12
  1

  0
LINE
  5
4B6
330
48B
100
AcDbEntity
  8
Notes
 62
     0
440
 16777216
370
    -2
100
AcDbLine
 10
0.0140000000008342
 20
0.1891685918290454
 30
0.0
 11
0.0140000000008343
 21
0.3430014696372329
 31
0.0
  0
LINE
  5
4B7
330
48B
100
AcDbEntity
  8
Notes
 62
     0
440
 16777216
370
    -2
100
AcDbLine
 10
0.0550000000009163
 20
0.1891685918290454
 30
0.0
 11
0.0550000000009163
 21
0.3430014696372329
 31
0.0
  0
LINE
  5
4B8
330
48B
100
AcDbEntity
  8
Notes
 62
     0
440
 16777216
370
    -2
100
AcDbLine
 10
0.0290000000008343
 20
0.3340014696372329
 30
0.0
 11
0.0400000000009163
 21
0.3340014696372329
 31
0.0
  0
LINE
  5
4B9
330
48B
100
AcDbEntity
  8
Notes
 62
     0
440
 16777216
370
    -2
100
AcDbLine
 10
0.0550000000009163
 20
0.3340014696372329
 30
0.0
 11
0.0915447681672467
 21
0.3340014696372329
 31
0.0
  0
SOLID
  5
4BA
330
48B
100
AcDbEntity
  8
Notes
 62
     0
440
 16777216
100
AcDbTrace
 10
0.0290000000008343
 20
0.3365014696372329
 30
0.0
 11
0.0290000000008343
 21
0.3315014696372329
 31
0.0
 12
0.0140000000008343
 22
0.3340014696372329
 32
0.0
 13
0.0140000000008343
 23
0.3340014696372329
 33
0.0
  0
SOLID
  5
4BB
330
48B
100
AcDbEntity
  8
Notes
 62
     0
440
 16777216
100
AcDbTrace
 10
0.0400000000009163
 20
0.3365014696372329
 30
0.0
 11
0.0400000000009163
 21
0.3315014696372329
 31
0.0
 12
0.0550000000009163
 22
0.3340014696372329
 32
0.0
 13
0.0550000000009163
 23
0.3340014696372329
 33
0.0
  0
MTEXT
  5
4BC
330
48B
100
AcDbEntity
  8
Notes
 62
     0
440
 16777216
100
AcDbMText
 10
0.3569138912617831
 20
0.3340014696372329
 30
0.0
 40
0.018
 41
0.2722778096269991
 46
0.0
 71
     6
 72
     1
  1
\A1;{\C256;2}x 50 Ohm Transmission Line Gap
  7
Arial
 73
     1
 44
1.0
  0
POINT
  5
4BD
330
48B
100
AcDbEntity
  8
Defpoints
 62
     0
440
 16777216
100
AcDbPoint
 10
0.0140000000008342
 20
0.1797935918290454
 30
0.0
  0
POINT
  5
4BE
330
48B
100
AcDbEntity
  8
Defpoints
 62
     0
440
 16777216
100
AcDbPoint
 10
0.0550000000009163
 20
0.1797935918290454
 30
0.0
  0
POINT
  5
4BF
330
48B
100
AcDbEntity
  8
Defpoints
 62
     0
440
 16777216
100
AcDbPoint
 10
0.0550000000009163
 20
0.3340014696372329
 30
0.0
  0
ENDBLK
  5
48D
330
48B
100
AcDbEntity
  8
0
100
AcDbBlockEnd
  0
BLOCK
  5
4C3
330
4C2
100
AcDbEntity
  8
0
100
AcDbBlockBegin
  2
*D13
 70
     1
 10
0.0
 20
0.0
 30
0.0
  3
*D13
  1

  0
LINE
  5
4C4
330
4C2
100
AcDbEntity
  8
Notes
 62
     0
440
 16777216
370
    -2
100
AcDbLine
 10
5.537968925556832
 20
-3.428628163345067
 30
0.0
 11
5.537968925556832
 21
-3.209330380359435
 31
0.0
  0
LINE
  5
4C5
330
4C2
100
AcDbEntity
  8
Notes
 62
     0
440
 16777216
370
    -2
100
AcDbLine
 10
5.565968925556843
 20
-3.428628163345067
 30
0.0
 11
5.565968925556843
 21
-3.209330380359435
 31
0.0
  0
LINE
  5
4C6
330
4C2
100
AcDbEntity
  8
Notes
 62
     0
440
 16777216
370
    -2
100
AcDbLine
 10
5.522968925556832
 20
-3.218330380359434
 30
0.0
 11
5.507968925556832
 21
-3.218330380359434
 31
0.0
  0
LINE
  5
4C7
330
4C2
100
AcDbEntity
  8
Notes
 62
     0
440
 16777216
370
    -2
100
AcDbLine
 10
5.580968925556843
 20
-3.218330380359434
 30
0.0
 11
5.595968925556843
 21
-3.218330380359434
 31
0.0
  0
SOLID
  5
4C8
330
4C2
100
AcDbEntity
  8
Notes
 62
     0
440
 16777216
100
AcDbTrace
 10
5.522968925556832
 20
-3.215830380359435
 30
0.0
 11
5.522968925556832
 21
-3.220830380359434
 31
0.0
 12
5.537968925556832
 22
-3.218330380359434
 32
0.0
 13
5.537968925556832
 23
-3.218330380359434
 33
0.0
  0
SOLID
  5
4C9
330
4C2
100
AcDbEntity
  8
Notes
 62
     0
440
 16777216
100
AcDbTrace
 10
5.580968925556843
 20
-3.215830380359435
 30
0.0
 11
5.580968925556843
 21
-3.220830380359434
 31
0.0
 12
5.565968925556843
 22
-3.218330380359434
 32
0.0
 13
5.565968925556843
 23
-3.218330380359434
 33
0.0
  0
MTEXT
  5
4CA
330
4C2
100
AcDbEntity
  8
Notes
 62
     0
440
 16777216
100
AcDbMText
 10
5.817823850411932
 20
-3.218330380359434
 30
0.0
 40
0.018
 41
0.239801937022591
 46
0.0
 71
     6
 72
     1
  1
\A1;{\C256;1}x 50 Ohm Transmission Line
  7
Arial
 73
     1
 44
1.0
  0
POINT
  5
4CB
330
4C2
100
AcDbEntity
  8
Defpoints
 62
     0
440
 16777216
100
AcDbPoint
 10
5.537968925556832
 20
-3.438003163345068
 30
0.0
  0
POINT
  5
4CC
330
4C2
100
AcDbEntity
  8
Defpoints
 62
     0
440
 16777216
100
AcDbPoint
 10
5.565968925556843
 20
-3.438003163345068
 30
0.0
  0
POINT
  5
4CD
330
4C2
100
AcDbEntity
  8
Defpoints
 62
     0
440
 16777216
100
AcDbPoint
 10
5.565968925556843
 20
-3.218330380359434
 30
0.0
  0
ENDBLK
  5
4CE
330
4C2
100
AcDbEntity
  8
0
100
AcDbBlockEnd
  0
BLOCK
  5
4D0
330
4CF
100
AcDbEntity
  8
0
100
AcDbBlockBegin
  2
*D14
 70
     1
 10
0.0
 20
0.0
 30
0.0
  3
*D14
  1

  0
LINE
  5
4D1
330
4CF
100
AcDbEntity
  8
Notes
 62
     0
440
 16777216
370
    -2
100
AcDbLine
 10
5.565968925556843
 20
-3.428628163345067
 30
0.0
 11
5.565968925556843
 21
-3.27479528553688
 31
0.0
  0
LINE
  5
4D2
330
4CF
100
AcDbEntity
  8
Notes
 62
     0
440
 16777216
370
    -2
100
AcDbLine
 10
5.606968925556925
 20
-3.428628163345067
 30
0.0
 11
5.606968925556925
 21
-3.27479528553688
 31
0.0
  0
LINE
  5
4D3
330
4CF
100
AcDbEntity
  8
Notes
 62
     0
440
 16777216
370
    -2
100
AcDbLine
 10
5.580968925556843
 20
-3.283795285536881
 30
0.0
 11
5.591968925556925
 21
-3.283795285536881
 31
0.0
  0
LINE
  5
4D4
330
4CF
100
AcDbEntity
  8
Notes
 62
     0
440
 16777216
370
    -2
100
AcDbLine
 10
5.606968925556925
 20
-3.283795285536881
 30
0.0
 11
5.643513693723257
 21
-3.283795285536881
 31
0.0
  0
SOLID
  5
4D5
330
4CF
100
AcDbEntity
  8
Notes
 62
     0
440
 16777216
100
AcDbTrace
 10
5.580968925556843
 20
-3.28129528553688
 30
0.0
 11
5.580968925556843
 21
-3.286295285536881
 31
0.0
 12
5.565968925556843
 22
-3.283795285536881
 32
0.0
 13
5.565968925556843
 23
-3.283795285536881
 33
0.0
  0
SOLID
  5
4D6
330
4CF
100
AcDbEntity
  8
Notes
 62
     0
440
 16777216
100
AcDbTrace
 10
5.591968925556925
 20
-3.28129528553688
 30
0.0
 11
5.591968925556925
 21
-3.286295285536881
 31
0.0
 12
5.606968925556925
 22
-3.283795285536881
 32
0.0
 13
5.606968925556925
 23
-3.283795285536881
 33
0.0
  0
MTEXT
  5
4D7
330
4CF
100
AcDbEntity
  8
Notes
 62
     0
440
 16777216
100
AcDbMText
 10
5.908882816817794
 20
-3.283795285536881
 30
0.0
 40
0.018
 41
0.2722778096269991
 46
0.0
 71
     6
 72
     1
  1
\A1;{\C256;2}x 50 Ohm Transmission Line Gap
  7
Arial
 73
     1
 44
1.0
  0
POINT
  5
4D8
330
4CF
100
AcDbEntity
  8
Defpoints
 62
     0
440
 16777216
100
AcDbPoint
 10
5.565968925556843
 20
-3.438003163345068
 30
0.0
  0
POINT
  5
4D9
330
4CF
100
AcDbEntity
  8
Defpoints
 62
     0
440
 16777216
100
AcDbPoint
 10
5.606968925556925
 20
-3.438003163345068
 30
0.0
  0
POINT
  5
4DA
330
4CF
100
AcDbEntity
  8
Defpoints
 62
     0
440
 16777216
100
AcDbPoint
 10
5.606968925556925
 20
-3.283795285536881
 30
0.0
  0
ENDBLK
  5
4DB
330
4CF
100
AcDbEntity
  8
0
100
AcDbBlockEnd
  0
BLOCK
  5
567
330
566
100
AcDbEntity
  8
0
100
AcDbBlockBegin
  2
*D15
 70
     1
 10
0.0
 20
0.0
 30
0.0
  3
*D15
  1

  0
LINE
  5
594
330
566
100
AcDbEntity
  8
Notes
 62
     0
440
 16777216
370
    -2
100
AcDbLine
 10
-0.0139999999991845
 20
0.189168591829158
 30
0.0
 11
-0.0139999999991843
 21
0.4084663748147918
 31
0.0
  0
LINE
  5
595
330
566
100
AcDbEntity
  8
Notes
 62
     0
440
 16777216
370
    -2
100
AcDbLine
 10
0.0140000000008284
 20
0.189168591829158
 30
0.0
 11
0.0140000000008286
 21
0.4084663748147918
 31
0.0
  0
LINE
  5
596
330
566
100
AcDbEntity
  8
Notes
 62
     0
440
 16777216
370
    -2
100
AcDbLine
 10
-0.0289999999991843
 20
0.3994663748147917
 30
0.0
 11
-0.0439999999991843
 21
0.3994663748147918
 31
0.0
  0
LINE
  5
597
330
566
100
AcDbEntity
  8
Notes
 62
     0
440
 16777216
370
    -2
100
AcDbLine
 10
0.0290000000008286
 20
0.3994663748147917
 30
0.0
 11
0.0440000000008286
 21
0.3994663748147917
 31
0.0
  0
SOLID
  5
598
330
566
100
AcDbEntity
  8
Notes
 62
     0
440
 16777216
100
AcDbTrace
 10
-0.0289999999991843
 20
0.401966374814792
 30
0.0
 11
-0.0289999999991843
 21
0.3969663748147917
 31
0.0
 12
-0.0139999999991843
 22
0.3994663748147917
 32
0.0
 13
-0.0139999999991843
 23
0.3994663748147917
 33
0.0
  0
SOLID
  5
599
330
566
100
AcDbEntity
  8
Notes
 62
     0
440
 16777216
100
AcDbTrace
 10
0.0290000000008286
 20
0.401966374814792
 30
0.0
 11
0.0290000000008286
 21
0.3969663748147917
 31
0.0
 12
0.0140000000008286
 22
0.3994663748147917
 32
0.0
 13
0.0140000000008286
 23
0.3994663748147917
 33
0.0
  0
MTEXT
  5
59A
330
566
100
AcDbEntity
  8
Notes
 62
     0
440
 16777216
100
AcDbMText
 10
0.2658549248559168
 20
0.3994663748147917
 30
0.0
 40
0.018
 41
0.239801937022591
 46
0.0
 71
     6
 72
     1
  1
\A1;{\C256;1}x 50 Ohm Transmission Line
  7
Arial
 73
     1
 44
1.0
  0
POINT
  5
59B
330
566
100
AcDbEntity
  8
Defpoints
 62
     0
440
 16777216
100
AcDbPoint
 10
-0.0139999999991845
 20
0.179793591829158
 30
0.0
  0
POINT
  5
59C
330
566
100
AcDbEntity
  8
Defpoints
 62
     0
440
 16777216
100
AcDbPoint
 10
0.0140000000008284
 20
0.179793591829158
 30
0.0
  0
POINT
  5
59D
330
566
100
AcDbEntity
  8
Defpoints
 62
     0
440
 16777216
100
AcDbPoint
 10
0.0140000000008286
 20
0.3994663748147917
 30
0.0
  0
ENDBLK
  5
568
330
566
100
AcDbEntity
  8
0
100
AcDbBlockEnd
  0
BLOCK
  5
574
330
573
100
AcDbEntity
  8
0
100
AcDbBlockBegin
  2
*D16
 70
     1
 10
0.0
 20
0.0
 30
0.0
  3
*D16
  1

  0
LINE
  5
59E
330
573
100
AcDbEntity
  8
Notes
 62
     0
440
 16777216
370
    -2
100
AcDbLine
 10
0.0140000000008284
 20
0.189168591829158
 30
0.0
 11
0.0140000000008284
 21
0.3430014696373455
 31
0.0
  0
LINE
  5
59F
330
573
100
AcDbEntity
  8
Notes
 62
     0
440
 16777216
370
    -2
100
AcDbLine
 10
0.0550000000009105
 20
0.189168591829158
 30
0.0
 11
0.0550000000009105
 21
0.3430014696373455
 31
0.0
  0
LINE
  5
5A0
330
573
100
AcDbEntity
  8
Notes
 62
     0
440
 16777216
370
    -2
100
AcDbLine
 10
0.0290000000008284
 20
0.3340014696373454
 30
0.0
 11
0.0400000000009105
 21
0.3340014696373454
 31
0.0
  0
LINE
  5
5A1
330
573
100
AcDbEntity
  8
Notes
 62
     0
440
 16777216
370
    -2
100
AcDbLine
 10
0.0550000000009105
 20
0.3340014696373454
 30
0.0
 11
0.0915447681672409
 21
0.3340014696373454
 31
0.0
  0
SOLID
  5
5A2
330
573
100
AcDbEntity
  8
Notes
 62
     0
440
 16777216
100
AcDbTrace
 10
0.0290000000008284
 20
0.3365014696373454
 30
0.0
 11
0.0290000000008284
 21
0.3315014696373455
 31
0.0
 12
0.0140000000008284
 22
0.3340014696373454
 32
0.0
 13
0.0140000000008284
 23
0.3340014696373454
 33
0.0
  0
SOLID
  5
5A3
330
573
100
AcDbEntity
  8
Notes
 62
     0
440
 16777216
100
AcDbTrace
 10
0.0400000000009105
 20
0.3365014696373454
 30
0.0
 11
0.0400000000009105
 21
0.3315014696373455
 31
0.0
 12
0.0550000000009105
 22
0.3340014696373454
 32
0.0
 13
0.0550000000009105
 23
0.3340014696373454
 33
0.0
  0
MTEXT
  5
5A4
330
573
100
AcDbEntity
  8
Notes
 62
     0
440
 16777216
100
AcDbMText
 10
0.3569138912617773
 20
0.3340014696373454
 30
0.0
 40
0.018
 41
0.2722778096269991
 46
0.0
 71
     6
 72
     1
  1
\A1;{\C256;2}x 50 Ohm Transmission Line Gap
  7
Arial
 73
     1
 44
1.0
  0
POINT
  5
5A5
330
573
100
AcDbEntity
  8
Defpoints
 62
     0
440
 16777216
100
AcDbPoint
 10
0.0140000000008284
 20
0.179793591829158
 30
0.0
  0
POINT
  5
5A6
330
573
100
AcDbEntity
  8
Defpoints
 62
     0
440
 16777216
100
AcDbPoint
 10
0.0550000000009105
 20
0.179793591829158
 30
0.0
  0
POINT
  5
5A7
330
573
100
AcDbEntity
  8
Defpoints
 62
     0
440
 16777216
100
AcDbPoint
 10
0.0550000000009105
 20
0.3340014696373454
 30
0.0
  0
ENDBLK
  5
575
330
573
100
AcDbEntity
  8
0
100
AcDbBlockEnd
  0
BLOCK
  5
5AD
330
5AC
100
AcDbEntity
  8
0
100
AcDbBlockBegin
  2
*D17
 70
     1
 10
0.0
 20
0.0
 30
0.0
  3
*D17
  1

  0
LINE
  5
5AE
330
5AC
100
AcDbEntity
  8
Notes
 62
     0
440
 16777216
370
    -2
100
AcDbLine
 10
9.206052421023622
 20
-3.68221402518758
 30
0.0
 11
9.206052421023622
 21
-3.420590121541857
 31
0.0
  0
LINE
  5
5AF
330
5AC
100
AcDbEntity
  8
Notes
 62
     0
440
 16777216
370
    -2
100
AcDbLine
 10
9.226053328284047
 20
-3.68221402518758
 30
0.0
 11
9.226053328284047
 21
-3.420590121541857
 31
0.0
  0
LINE
  5
5B0
330
5AC
100
AcDbEntity
  8
Notes
 62
     0
440
 16777216
370
    -2
100
AcDbLine
 10
9.191052421023622
 20
-3.429590121541857
 30
0.0
 11
9.176052421023623
 21
-3.429590121541857
 31
0.0
  0
LINE
  5
5B1
330
5AC
100
AcDbEntity
  8
Notes
 62
     0
440
 16777216
370
    -2
100
AcDbLine
 10
9.241053328284046
 20
-3.429590121541857
 30
0.0
 11
9.25605332828405
 21
-3.429590121541857
 31
0.0
  0
SOLID
  5
5B2
330
5AC
100
AcDbEntity
  8
Notes
 62
     0
440
 16777216
100
AcDbTrace
 10
9.191052421023622
 20
-3.427090121541857
 30
0.0
 11
9.191052421023622
 21
-3.432090121541857
 31
0.0
 12
9.206052421023622
 22
-3.429590121541857
 32
0.0
 13
9.206052421023622
 23
-3.429590121541857
 33
0.0
  0
SOLID
  5
5B3
330
5AC
100
AcDbEntity
  8
Notes
 62
     0
440
 16777216
100
AcDbTrace
 10
9.241053328284046
 20
-3.427090121541857
 30
0.0
 11
9.241053328284046
 21
-3.432090121541857
 31
0.0
 12
9.226053328284047
 22
-3.429590121541857
 32
0.0
 13
9.226053328284047
 23
-3.429590121541857
 33
0.0
  0
MTEXT
  5
5B4
330
5AC
100
AcDbEntity
  8
Notes
 62
     0
440
 16777216
100
AcDbMText
 10
9.47790825313914
 20
-3.429590121541857
 30
0.0
 40
0.018
 41
0.239801937022591
 46
0.0
 71
     6
 72
     1
  1
\A1;{\C256;1}x 50 Ohm Transmission Line
  7
Arial
 73
     1
 44
1.0
  0
POINT
  5
5B5
330
5AC
100
AcDbEntity
  8
Defpoints
 62
     0
440
 16777216
100
AcDbPoint
 10
9.206052421023622
 20
-3.69158902518758
 30
0.0
  0
POINT
  5
5B6
330
5AC
100
AcDbEntity
  8
Defpoints
 62
     0
440
 16777216
100
AcDbPoint
 10
9.226053328284047
 20
-3.69158902518758
 30
0.0
  0
POINT
  5
5B7
330
5AC
100
AcDbEntity
  8
Defpoints
 62
     0
440
 16777216
100
AcDbPoint
 10
9.226053328284047
 20
-3.429590121541857
 30
0.0
  0
ENDBLK
  5
5B8
330
5AC
100
AcDbEntity
  8
0
100
AcDbBlockEnd
  0
BLOCK
  5
5BA
330
5B9
100
AcDbEntity
  8
0
100
AcDbBlockBegin
  2
*D18
 70
     1
 10
0.0
 20
0.0
 30
0.0
  3
*D18
  1

  0
LINE
  5
5BB
330
5B9
100
AcDbEntity
  8
Notes
 62
     0
440
 16777216
370
    -2
100
AcDbLine
 10
9.226053328284047
 20
-3.68221402518758
 30
0.0
 11
9.226053328284047
 21
-3.527447731120191
 31
0.0
  0
LINE
  5
5BC
330
5B9
100
AcDbEntity
  8
Notes
 62
     0
440
 16777216
370
    -2
100
AcDbLine
 10
9.276552788272436
 20
-3.68221402518758
 30
0.0
 11
9.276552788272436
 21
-3.527447731120191
 31
0.0
  0
LINE
  5
5BD
330
5B9
100
AcDbEntity
  8
Notes
 62
     0
440
 16777216
370
    -2
100
AcDbLine
 10
9.241053328284046
 20
-3.536447731120191
 30
0.0
 11
9.261552788272435
 21
-3.536447731120191
 31
0.0
  0
LINE
  5
5BE
330
5B9
100
AcDbEntity
  8
Notes
 62
     0
440
 16777216
370
    -2
100
AcDbLine
 10
9.276552788272436
 20
-3.536447731120191
 30
0.0
 11
9.291552788272435
 21
-3.536447731120191
 31
0.0
  0
SOLID
  5
5BF
330
5B9
100
AcDbEntity
  8
Notes
 62
     0
440
 16777216
100
AcDbTrace
 10
9.241053328284046
 20
-3.533947731120191
 30
0.0
 11
9.241053328284046
 21
-3.538947731120191
 31
0.0
 12
9.226053328284047
 22
-3.536447731120191
 32
0.0
 13
9.226053328284047
 23
-3.536447731120191
 33
0.0
  0
SOLID
  5
5C0
330
5B9
100
AcDbEntity
  8
Notes
 62
     0
440
 16777216
100
AcDbTrace
 10
9.261552788272435
 20
-3.533947731120191
 30
0.0
 11
9.261552788272435
 21
-3.538947731120191
 31
0.0
 12
9.276552788272436
 22
-3.536447731120191
 32
0.0
 13
9.276552788272436
 23
-3.536447731120191
 33
0.0
  0
MTEXT
  5
5C1
330
5B9
100
AcDbEntity
  8
Notes
 62
     0
440
 16777216
100
AcDbMText
 10
9.556921911366972
 20
-3.536447731120191
 30
0.0
 40
0.018
 41
0.2722778096269991
 46
0.0
 71
     6
 72
     1
  1
\A1;{\C256;2}x 50 Ohm Transmission Line Gap
  7
Arial
 73
     1
 44
1.0
  0
POINT
  5
5C2
330
5B9
100
AcDbEntity
  8
Defpoints
 62
     0
440
 16777216
100
AcDbPoint
 10
9.226053328284047
 20
-3.69158902518758
 30
0.0
  0
POINT
  5
5C3
330
5B9
100
AcDbEntity
  8
Defpoints
 62
     0
440
 16777216
100
AcDbPoint
 10
9.276552788272436
 20
-3.69158902518758
 30
0.0
  0
POINT
  5
5C4
330
5B9
100
AcDbEntity
  8
Defpoints
 62
     0
440
 16777216
100
AcDbPoint
 10
9.276552788272436
 20
-3.536447731120191
 30
0.0
  0
ENDBLK
  5
5C5
330
5B9
100
AcDbEntity
  8
0
100
AcDbBlockEnd
  0
BLOCK
  5
65C
330
65B
100
AcDbEntity
  8
0
100
AcDbBlockBegin
  2
*D19
 70
     1
 10
0.0
 20
0.0
 30
0.0
  3
*D19
  1

  0
LINE
  5
689
330
65B
100
AcDbEntity
  8
Notes
 62
     0
440
 16777216
370
    -2
100
AcDbLine
 10
-0.0100004536302123
 20
0.1684728794122311
 30
0.0
 11
-0.010000453630212
 21
0.4300967830579533
 31
0.0
  0
LINE
  5
68A
330
65B
100
AcDbEntity
  8
Notes
 62
     0
440
 16777216
370
    -2
100
AcDbLine
 10
0.0100004536302123
 20
0.1684728794122311
 30
0.0
 11
0.0100004536302126
 21
0.4300967830579533
 31
0.0
  0
LINE
  5
68B
330
65B
100
AcDbEntity
  8
Notes
 62
     0
440
 16777216
370
    -2
100
AcDbLine
 10
-0.0250004536302121
 20
0.4210967830579532
 30
0.0
 11
-0.0400004536302121
 21
0.4210967830579532
 31
0.0
  0
LINE
  5
68C
330
65B
100
AcDbEntity
  8
Notes
 62
     0
440
 16777216
370
    -2
100
AcDbLine
 10
0.0250004536302126
 20
0.4210967830579532
 30
0.0
 11
0.0400004536302143
 21
0.421096783057953
 31
0.0
  0
SOLID
  5
68D
330
65B
100
AcDbEntity
  8
Notes
 62
     0
440
 16777216
100
AcDbTrace
 10
-0.0250004536302121
 20
0.4235967830579531
 30
0.0
 11
-0.0250004536302121
 21
0.4185967830579532
 31
0.0
 12
-0.0100004536302121
 22
0.4210967830579532
 32
0.0
 13
-0.0100004536302121
 23
0.4210967830579532
 33
0.0
  0
SOLID
  5
68E
330
65B
100
AcDbEntity
  8
Notes
 62
     0
440
 16777216
100
AcDbTrace
 10
0.0250004536302126
 20
0.4235967830579531
 30
0.0
 11
0.0250004536302126
 21
0.4185967830579532
 31
0.0
 12
0.0100004536302126
 22
0.4210967830579532
 32
0.0
 13
0.0100004536302126
 23
0.4210967830579532
 33
0.0
  0
MTEXT
  5
68F
330
65B
100
AcDbEntity
  8
Notes
 62
     0
440
 16777216
100
AcDbMText
 10
0.2618553784853024
 20
0.4210967830579532
 30
0.0
 40
0.018
 41
0.239801937022591
 46
0.0
 71
     6
 72
     1
  1
\A1;{\C256;1}x 50 Ohm Transmission Line
  7
Arial
 73
     1
 44
1.0
  0
POINT
  5
690
330
65B
100
AcDbEntity
  8
Defpoints
 62
     0
440
 16777216
100
AcDbPoint
 10
-0.0100004536302123
 20
0.1590978794122311
 30
0.0
  0
POINT
  5
691
330
65B
100
AcDbEntity
  8
Defpoints
 62
     0
440
 16777216
100
AcDbPoint
 10
0.0100004536302123
 20
0.1590978794122311
 30
0.0
  0
POINT
  5
692
330
65B
100
AcDbEntity
  8
Defpoints
 62
     0
440
 16777216
100
AcDbPoint
 10
0.0100004536302126
 20
0.4210967830579532
 30
0.0
  0
ENDBLK
  5
65D
330
65B
100
AcDbEntity
  8
0
100
AcDbBlockEnd
  0
BLOCK
  5
669
330
668
100
AcDbEntity
  8
0
100
AcDbBlockBegin
  2
*D20
 70
     1
 10
0.0
 20
0.0
 30
0.0
  3
*D20
  1

  0
LINE
  5
693
330
668
100
AcDbEntity
  8
Notes
 62
     0
440
 16777216
370
    -2
100
AcDbLine
 10
0.0100004536302123
 20
0.1684728794122311
 30
0.0
 11
0.0100004536302123
 21
0.3232391734796188
 31
0.0
  0
LINE
  5
694
330
668
100
AcDbEntity
  8
Notes
 62
     0
440
 16777216
370
    -2
100
AcDbLine
 10
0.0604999136185995
 20
0.1684728794122311
 30
0.0
 11
0.0604999136185995
 21
0.3232391734796188
 31
0.0
  0
LINE
  5
695
330
668
100
AcDbEntity
  8
Notes
 62
     0
440
 16777216
370
    -2
100
AcDbLine
 10
0.0250004536302123
 20
0.3142391734796188
 30
0.0
 11
0.0454999136185995
 21
0.3142391734796188
 31
0.0
  0
LINE
  5
696
330
668
100
AcDbEntity
  8
Notes
 62
     0
440
 16777216
370
    -2
100
AcDbLine
 10
0.0604999136185995
 20
0.3142391734796188
 30
0.0
 11
0.0754999136186007
 21
0.3142391734796188
 31
0.0
  0
SOLID
  5
697
330
668
100
AcDbEntity
  8
Notes
 62
     0
440
 16777216
100
AcDbTrace
 10
0.0250004536302123
 20
0.3167391734796188
 30
0.0
 11
0.0250004536302123
 21
0.3117391734796188
 31
0.0
 12
0.0100004536302123
 22
0.3142391734796188
 32
0.0
 13
0.0100004536302123
 23
0.3142391734796188
 33
0.0
  0
SOLID
  5
698
330
668
100
AcDbEntity
  8
Notes
 62
     0
440
 16777216
100
AcDbTrace
 10
0.0454999136185995
 20
0.3167391734796188
 30
0.0
 11
0.0454999136185995
 21
0.3117391734796188
 31
0.0
 12
0.0604999136185995
 22
0.3142391734796188
 32
0.0
 13
0.0604999136185995
 23
0.3142391734796188
 33
0.0
  0
MTEXT
  5
699
330
668
100
AcDbEntity
  8
Notes
 62
     0
440
 16777216
100
AcDbMText
 10
0.3408690367131371
 20
0.3142391734796188
 30
0.0
 40
0.018
 41
0.2722778096269991
 46
0.0
 71
     6
 72
     1
  1
\A1;{\C256;2}x 50 Ohm Transmission Line Gap
  7
Arial
 73
     1
 44
1.0
  0
POINT
  5
69A
330
668
100
AcDbEntity
  8
Defpoints
 62
     0
440
 16777216
100
AcDbPoint
 10
0.0100004536302123
 20
0.1590978794122311
 30
0.0
  0
POINT
  5
69B
330
668
100
AcDbEntity
  8
Defpoints
 62
     0
440
 16777216
100
AcDbPoint
 10
0.0604999136185995
 20
0.1590978794122311
 30
0.0
  0
POINT
  5
69C
330
668
100
AcDbEntity
  8
Defpoints
 62
     0
440
 16777216
100
AcDbPoint
 10
0.0604999136185995
 20
0.3142391734796188
 30
0.0
  0
ENDBLK
  5
66A
330
668
100
AcDbEntity
  8
0
100
AcDbBlockEnd
  0
BLOCK
  5
6A0
330
69F
100
AcDbEntity
  8
0
100
AcDbBlockBegin
  2
*D21
 70
     1
 10
0.0
 20
0.0
 30
0.0
  3
*D21
  1

  0
LINE
  5
6A1
330
69F
100
AcDbEntity
  8
Notes
 62
     0
440
 16777216
370
    -2
100
AcDbLine
 10
12.06588690348355
 20
-3.414801870252325
 30
0.0
 11
12.06588690348355
 21
-3.195504087266693
 31
0.0
  0
LINE
  5
6A2
330
69F
100
AcDbEntity
  8
Notes
 62
     0
440
 16777216
370
    -2
100
AcDbLine
 10
12.09388690348356
 20
-3.414801870252325
 30
0.0
 11
12.09388690348356
 21
-3.195504087266693
 31
0.0
  0
LINE
  5
6A3
330
69F
100
AcDbEntity
  8
Notes
 62
     0
440
 16777216
370
    -2
100
AcDbLine
 10
12.05088690348355
 20
-3.204504087266693
 30
0.0
 11
12.03588690348355
 21
-3.204504087266693
 31
0.0
  0
LINE
  5
6A4
330
69F
100
AcDbEntity
  8
Notes
 62
     0
440
 16777216
370
    -2
100
AcDbLine
 10
12.10888690348356
 20
-3.204504087266693
 30
0.0
 11
12.12388690348356
 21
-3.204504087266693
 31
0.0
  0
SOLID
  5
6A5
330
69F
100
AcDbEntity
  8
Notes
 62
     0
440
 16777216
100
AcDbTrace
 10
12.05088690348355
 20
-3.202004087266693
 30
0.0
 11
12.05088690348355
 21
-3.207004087266692
 31
0.0
 12
12.06588690348355
 22
-3.204504087266693
 32
0.0
 13
12.06588690348355
 23
-3.204504087266693
 33
0.0
  0
SOLID
  5
6A6
330
69F
100
AcDbEntity
  8
Notes
 62
     0
440
 16777216
100
AcDbTrace
 10
12.10888690348356
 20
-3.202004087266693
 30
0.0
 11
12.10888690348356
 21
-3.207004087266692
 31
0.0
 12
12.09388690348356
 22
-3.204504087266693
 32
0.0
 13
12.09388690348356
 23
-3.204504087266693
 33
0.0
  0
MTEXT
  5
6A7
330
69F
100
AcDbEntity
  8
Notes
 62
     0
440
 16777216
100
AcDbMText
 10
12.34574182833864
 20
-3.204504087266693
 30
0.0
 40
0.018
 41
0.239801937022591
 46
0.0
 71
     6
 72
     1
  1
\A1;{\C256;1}x 50 Ohm Transmission Line
  7
Arial
 73
     1
 44
1.0
  0
POINT
  5
6A8
330
69F
100
AcDbEntity
  8
Defpoints
 62
     0
440
 16777216
100
AcDbPoint
 10
12.06588690348355
 20
-3.424176870252326
 30
0.0
  0
POINT
  5
6A9
330
69F
100
AcDbEntity
  8
Defpoints
 62
     0
440
 16777216
100
AcDbPoint
 10
12.09388690348356
 20
-3.424176870252326
 30
0.0
  0
POINT
  5
6AA
330
69F
100
AcDbEntity
  8
Defpoints
 62
     0
440
 16777216
100
AcDbPoint
 10
12.09388690348356
 20
-3.204504087266693
 30
0.0
  0
ENDBLK
  5
6AB
330
69F
100
AcDbEntity
  8
0
100
AcDbBlockEnd
  0
BLOCK
  5
6AD
330
6AC
100
AcDbEntity
  8
0
100
AcDbBlockBegin
  2
*D22
 70
     1
 10
0.0
 20
0.0
 30
0.0
  3
*D22
  1

  0
LINE
  5
6AE
330
6AC
100
AcDbEntity
  8
Notes
 62
     0
440
 16777216
370
    -2
100
AcDbLine
 10
12.09388690348356
 20
-3.414801870252325
 30
0.0
 11
12.09388690348356
 21
-3.26096899244414
 31
0.0
  0
LINE
  5
6AF
330
6AC
100
AcDbEntity
  8
Notes
 62
     0
440
 16777216
370
    -2
100
AcDbLine
 10
12.13488690348365
 20
-3.414801870252325
 30
0.0
 11
12.13488690348365
 21
-3.26096899244414
 31
0.0
  0
LINE
  5
6B0
330
6AC
100
AcDbEntity
  8
Notes
 62
     0
440
 16777216
370
    -2
100
AcDbLine
 10
12.10888690348356
 20
-3.26996899244414
 30
0.0
 11
12.11988690348364
 21
-3.26996899244414
 31
0.0
  0
LINE
  5
6B1
330
6AC
100
AcDbEntity
  8
Notes
 62
     0
440
 16777216
370
    -2
100
AcDbLine
 10
12.13488690348365
 20
-3.26996899244414
 30
0.0
 11
12.17143167164997
 21
-3.26996899244414
 31
0.0
  0
SOLID
  5
6B2
330
6AC
100
AcDbEntity
  8
Notes
 62
     0
440
 16777216
100
AcDbTrace
 10
12.10888690348356
 20
-3.26746899244414
 30
0.0
 11
12.10888690348356
 21
-3.27246899244414
 31
0.0
 12
12.09388690348356
 22
-3.26996899244414
 32
0.0
 13
12.09388690348356
 23
-3.26996899244414
 33
0.0
  0
SOLID
  5
6B3
330
6AC
100
AcDbEntity
  8
Notes
 62
     0
440
 16777216
100
AcDbTrace
 10
12.11988690348364
 20
-3.26746899244414
 30
0.0
 11
12.11988690348364
 21
-3.27246899244414
 31
0.0
 12
12.13488690348365
 22
-3.26996899244414
 32
0.0
 13
12.13488690348365
 23
-3.26996899244414
 33
0.0
  0
MTEXT
  5
6B4
330
6AC
100
AcDbEntity
  8
Notes
 62
     0
440
 16777216
100
AcDbMText
 10
12.43680079474451
 20
-3.26996899244414
 30
0.0
 40
0.018
 41
0.2722778096269991
 46
0.0
 71
     6
 72
     1
  1
\A1;{\C256;2}x 50 Ohm Transmission Line Gap
  7
Arial
 73
     1
 44
1.0
  0
POINT
  5
6B5
330
6AC
100
AcDbEntity
  8
Defpoints
 62
     0
440
 16777216
100
AcDbPoint
 10
12.09388690348356
 20
-3.424176870252326
 30
0.0
  0
POINT
  5
6B6
330
6AC
100
AcDbEntity
  8
Defpoints
 62
     0
440
 16777216
100
AcDbPoint
 10
12.13488690348365
 20
-3.424176870252326
 30
0.0
  0
POINT
  5
6B7
330
6AC
100
AcDbEntity
  8
Defpoints
 62
     0
440
 16777216
100
AcDbPoint
 10
12.13488690348365
 20
-3.26996899244414
 30
0.0
  0
ENDBLK
  5
6B8
330
6AC
100
AcDbEntity
  8
0
100
AcDbBlockEnd
  0
BLOCK
  5
744
330
743
100
AcDbEntity
  8
0
100
AcDbBlockBegin
  2
*D23
 70
     1
 10
0.0
 20
0.0
 30
0.0
  3
*D23
  1

  0
LINE
  5
771
330
743
100
AcDbEntity
  8
Notes
 62
     0
440
 16777216
370
    -2
100
AcDbLine
 10
-0.0139999999999994
 20
0.1891685918291875
 30
0.0
 11
-0.0139999999999991
 21
0.4084663748148213
 31
0.0
  0
LINE
  5
772
330
743
100
AcDbEntity
  8
Notes
 62
     0
440
 16777216
370
    -2
100
AcDbLine
 10
0.01400000000001
 20
0.1891685918291875
 30
0.0
 11
0.0140000000000102
 21
0.4084663748148213
 31
0.0
  0
LINE
  5
773
330
743
100
AcDbEntity
  8
Notes
 62
     0
440
 16777216
370
    -2
100
AcDbLine
 10
-0.0289999999999992
 20
0.3994663748148213
 30
0.0
 11
-0.0439999999999992
 21
0.3994663748148213
 31
0.0
  0
LINE
  5
774
330
743
100
AcDbEntity
  8
Notes
 62
     0
440
 16777216
370
    -2
100
AcDbLine
 10
0.0290000000000102
 20
0.3994663748148213
 30
0.0
 11
0.0440000000000102
 21
0.3994663748148212
 31
0.0
  0
SOLID
  5
775
330
743
100
AcDbEntity
  8
Notes
 62
     0
440
 16777216
100
AcDbTrace
 10
-0.0289999999999991
 20
0.4019663748148214
 30
0.0
 11
-0.0289999999999992
 21
0.3969663748148213
 31
0.0
 12
-0.0139999999999991
 22
0.3994663748148213
 32
0.0
 13
-0.0139999999999991
 23
0.3994663748148213
 33
0.0
  0
SOLID
  5
776
330
743
100
AcDbEntity
  8
Notes
 62
     0
440
 16777216
100
AcDbTrace
 10
0.0290000000000102
 20
0.4019663748148214
 30
0.0
 11
0.0290000000000102
 21
0.3969663748148213
 31
0.0
 12
0.0140000000000102
 22
0.3994663748148213
 32
0.0
 13
0.0140000000000102
 23
0.3994663748148213
 33
0.0
  0
MTEXT
  5
777
330
743
100
AcDbEntity
  8
Notes
 62
     0
440
 16777216
100
AcDbMText
 10
0.2658549248550984
 20
0.3994663748148213
 30
0.0
 40
0.018
 41
0.239801937022591
 46
0.0
 71
     6
 72
     1
  1
\A1;{\C256;1}x 50 Ohm Transmission Line
  7
Arial
 73
     1
 44
1.0
  0
POINT
  5
778
330
743
100
AcDbEntity
  8
Defpoints
 62
     0
440
 16777216
100
AcDbPoint
 10
-0.0139999999999994
 20
0.1797935918291875
 30
0.0
  0
POINT
  5
779
330
743
100
AcDbEntity
  8
Defpoints
 62
     0
440
 16777216
100
AcDbPoint
 10
0.01400000000001
 20
0.1797935918291875
 30
0.0
  0
POINT
  5
77A
330
743
100
AcDbEntity
  8
Defpoints
 62
     0
440
 16777216
100
AcDbPoint
 10
0.0140000000000102
 20
0.3994663748148213
 30
0.0
  0
ENDBLK
  5
745
330
743
100
AcDbEntity
  8
0
100
AcDbBlockEnd
  0
BLOCK
  5
751
330
750
100
AcDbEntity
  8
0
100
AcDbBlockBegin
  2
*D24
 70
     1
 10
0.0
 20
0.0
 30
0.0
  3
*D24
  1

  0
LINE
  5
77B
330
750
100
AcDbEntity
  8
Notes
 62
     0
440
 16777216
370
    -2
100
AcDbLine
 10
0.01400000000001
 20
0.1891685918291875
 30
0.0
 11
0.01400000000001
 21
0.3430014696373751
 31
0.0
  0
LINE
  5
77C
330
750
100
AcDbEntity
  8
Notes
 62
     0
440
 16777216
370
    -2
100
AcDbLine
 10
0.0550000000000992
 20
0.1891685918291875
 30
0.0
 11
0.0550000000000992
 21
0.3430014696373751
 31
0.0
  0
LINE
  5
77D
330
750
100
AcDbEntity
  8
Notes
 62
     0
440
 16777216
370
    -2
100
AcDbLine
 10
0.02900000000001
 20
0.334001469637375
 30
0.0
 11
0.0400000000000992
 21
0.334001469637375
 31
0.0
  0
LINE
  5
77E
330
750
100
AcDbEntity
  8
Notes
 62
     0
440
 16777216
370
    -2
100
AcDbLine
 10
0.0550000000000992
 20
0.334001469637375
 30
0.0
 11
0.0915447681664296
 21
0.334001469637375
 31
0.0
  0
SOLID
  5
77F
330
750
100
AcDbEntity
  8
Notes
 62
     0
440
 16777216
100
AcDbTrace
 10
0.02900000000001
 20
0.336501469637375
 30
0.0
 11
0.02900000000001
 21
0.331501469637375
 31
0.0
 12
0.01400000000001
 22
0.334001469637375
 32
0.0
 13
0.01400000000001
 23
0.334001469637375
 33
0.0
  0
SOLID
  5
780
330
750
100
AcDbEntity
  8
Notes
 62
     0
440
 16777216
100
AcDbTrace
 10
0.0400000000000992
 20
0.336501469637375
 30
0.0
 11
0.0400000000000992
 21
0.331501469637375
 31
0.0
 12
0.0550000000000992
 22
0.334001469637375
 32
0.0
 13
0.0550000000000992
 23
0.334001469637375
 33
0.0
  0
MTEXT
  5
781
330
750
100
AcDbEntity
  8
Notes
 62
     0
440
 16777216
100
AcDbMText
 10
0.3569138912609659
 20
0.334001469637375
 30
0.0
 40
0.018
 41
0.2722778096269991
 46
0.0
 71
     6
 72
     1
  1
\A1;{\C256;2}x 50 Ohm Transmission Line Gap
  7
Arial
 73
     1
 44
1.0
  0
POINT
  5
782
330
750
100
AcDbEntity
  8
Defpoints
 62
     0
440
 16777216
100
AcDbPoint
 10
0.01400000000001
 20
0.1797935918291875
 30
0.0
  0
POINT
  5
783
330
750
100
AcDbEntity
  8
Defpoints
 62
     0
440
 16777216
100
AcDbPoint
 10
0.0550000000000992
 20
0.1797935918291875
 30
0.0
  0
POINT
  5
784
330
750
100
AcDbEntity
  8
Defpoints
 62
     0
440
 16777216
100
AcDbPoint
 10
0.0550000000000992
 20
0.334001469637375
 30
0.0
  0
ENDBLK
  5
752
330
750
100
AcDbEntity
  8
0
100
AcDbBlockEnd
  0
BLOCK
  5
78A
330
789
100
AcDbEntity
  8
0
100
AcDbBlockBegin
  2
*D25
 70
     1
 10
0.0
 20
0.0
 30
0.0
  3
*D25
  1

  0
LINE
  5
78B
330
789
100
AcDbEntity
  8
Notes
 62
     0
440
 16777216
370
    -2
100
AcDbLine
 10
15.2461632820348
 20
-3.43892674584096
 30
0.0
 11
15.2461632820348
 21
-3.216191175744863
 31
0.0
  0
LINE
  5
78C
330
789
100
AcDbEntity
  8
Notes
 62
     0
440
 16777216
370
    -2
100
AcDbLine
 10
15.25916328203478
 20
-3.43892674584096
 30
0.0
 11
15.25916328203478
 21
-3.216191175744863
 31
0.0
  0
LINE
  5
78D
330
789
100
AcDbEntity
  8
Notes
 62
     0
440
 16777216
370
    -2
100
AcDbLine
 10
15.2311632820348
 20
-3.225191175744863
 30
0.0
 11
15.2161632820348
 21
-3.225191175744863
 31
0.0
  0
LINE
  5
78E
330
789
100
AcDbEntity
  8
Notes
 62
     0
440
 16777216
370
    -2
100
AcDbLine
 10
15.27416328203478
 20
-3.225191175744863
 30
0.0
 11
15.28916328203478
 21
-3.225191175744863
 31
0.0
  0
SOLID
  5
78F
330
789
100
AcDbEntity
  8
Notes
 62
     0
440
 16777216
100
AcDbTrace
 10
15.2311632820348
 20
-3.222691175744863
 30
0.0
 11
15.2311632820348
 21
-3.227691175744863
 31
0.0
 12
15.2461632820348
 22
-3.225191175744863
 32
0.0
 13
15.2461632820348
 23
-3.225191175744863
 33
0.0
  0
SOLID
  5
790
330
789
100
AcDbEntity
  8
Notes
 62
     0
440
 16777216
100
AcDbTrace
 10
15.27416328203478
 20
-3.222691175744863
 30
0.0
 11
15.27416328203478
 21
-3.227691175744863
 31
0.0
 12
15.25916328203478
 22
-3.225191175744863
 32
0.0
 13
15.25916328203478
 23
-3.225191175744863
 33
0.0
  0
MTEXT
  5
791
330
789
100
AcDbEntity
  8
Notes
 62
     0
440
 16777216
100
AcDbMText
 10
15.51101820688987
 20
-3.225191175744863
 30
0.0
 40
0.018
 41
0.239801937022591
 46
0.0
 71
     6
 72
     1
  1
\A1;{\C256;1}x 50 Ohm Transmission Line
  7
Arial
 73
     1
 44
1.0
  0
POINT
  5
792
330
789
100
AcDbEntity
  8
Defpoints
 62
     0
440
 16777216
100
AcDbPoint
 10
15.2461632820348
 20
-3.448301745840959
 30
0.0
  0
POINT
  5
793
330
789
100
AcDbEntity
  8
Defpoints
 62
     0
440
 16777216
100
AcDbPoint
 10
15.25916328203478
 20
-3.448301745840959
 30
0.0
  0
POINT
  5
794
330
789
100
AcDbEntity
  8
Defpoints
 62
     0
440
 16777216
100
AcDbPoint
 10
15.25916328203478
 20
-3.225191175744863
 30
0.0
  0
ENDBLK
  5
795
330
789
100
AcDbEntity
  8
0
100
AcDbBlockEnd
  0
BLOCK
  5
797
330
796
100
AcDbEntity
  8
0
100
AcDbBlockBegin
  2
*D26
 70
     1
 10
0.0
 20
0.0
 30
0.0
  3
*D26
  1

  0
LINE
  5
798
330
796
100
AcDbEntity
  8
Notes
 62
     0
440
 16777216
370
    -2
100
AcDbLine
 10
15.25916328203478
 20
-3.43892674584096
 30
0.0
 11
15.25916328203478
 21
-3.28165608092231
 31
0.0
  0
LINE
  5
799
330
796
100
AcDbEntity
  8
Notes
 62
     0
440
 16777216
370
    -2
100
AcDbLine
 10
15.28266328203474
 20
-3.438926745840963
 30
0.0
 11
15.28266328203474
 21
-3.28165608092231
 31
0.0
  0
LINE
  5
79A
330
796
100
AcDbEntity
  8
Notes
 62
     0
440
 16777216
370
    -2
100
AcDbLine
 10
15.24416328203477
 20
-3.29065608092231
 30
0.0
 11
15.22916328203478
 21
-3.29065608092231
 31
0.0
  0
LINE
  5
79B
330
796
100
AcDbEntity
  8
Notes
 62
     0
440
 16777216
370
    -2
100
AcDbLine
 10
15.29766328203474
 20
-3.29065608092231
 30
0.0
 11
15.33241656161175
 21
-3.29065608092231
 31
0.0
  0
SOLID
  5
79C
330
796
100
AcDbEntity
  8
Notes
 62
     0
440
 16777216
100
AcDbTrace
 10
15.24416328203477
 20
-3.28815608092231
 30
0.0
 11
15.24416328203477
 21
-3.29315608092231
 31
0.0
 12
15.25916328203478
 22
-3.29065608092231
 32
0.0
 13
15.25916328203478
 23
-3.29065608092231
 33
0.0
  0
SOLID
  5
79D
330
796
100
AcDbEntity
  8
Notes
 62
     0
440
 16777216
100
AcDbTrace
 10
15.29766328203474
 20
-3.28815608092231
 30
0.0
 11
15.29766328203474
 21
-3.29315608092231
 31
0.0
 12
15.28266328203474
 22
-3.29065608092231
 32
0.0
 13
15.28266328203474
 23
-3.29065608092231
 33
0.0
  0
MTEXT
  5
79E
330
796
100
AcDbEntity
  8
Notes
 62
     0
440
 16777216
100
AcDbMText
 10
15.59778568470629
 20
-3.29065608092231
 30
0.0
 40
0.018
 41
0.2722778096269991
 46
0.0
 71
     6
 72
     1
  1
\A1;{\C256;2}x 50 Ohm Transmission Line Gap
  7
Arial
 73
     1
 44
1.0
  0
POINT
  5
79F
330
796
100
AcDbEntity
  8
Defpoints
 62
     0
440
 16777216
100
AcDbPoint
 10
15.25916328203478
 20
-3.448301745840959
 30
0.0
  0
POINT
  5
7A0
330
796
100
AcDbEntity
  8
Defpoints
 62
     0
440
 16777216
100
AcDbPoint
 10
15.28266328203474
 20
-3.448301745840963
 30
0.0
  0
POINT
  5
7A1
330
796
100
AcDbEntity
  8
Defpoints
 62
     0
440
 16777216
100
AcDbPoint
 10
15.28266328203474
 20
-3.29065608092231
 30
0.0
  0
ENDBLK
  5
7A2
330
796
100
AcDbEntity
  8
0
100
AcDbBlockEnd
  0
BLOCK
  5
838
330
837
100
AcDbEntity
  8
0
100
AcDbBlockBegin
  2
*D27
 70
     1
 10
0.0
 20
0.0
 30
0.0
  3
*D27
  1

  0
LINE
  5
865
330
837
100
AcDbEntity
  8
Notes
 62
     0
440
 16777216
370
    -2
100
AcDbLine
 10
-0.0064999997463254
 20
0.1719459145091118
 30
0.0
 11
-0.0064999997463252
 21
0.3946814846052085
 31
0.0
  0
LINE
  5
866
330
837
100
AcDbEntity
  8
Notes
 62
     0
440
 16777216
370
    -2
100
AcDbLine
 10
0.0065000002536515
 20
0.1719459145091118
 30
0.0
 11
0.0065000002536517
 21
0.3946814846052085
 31
0.0
  0
LINE
  5
867
330
837
100
AcDbEntity
  8
Notes
 62
     0
440
 16777216
370
    -2
100
AcDbLine
 10
-0.0214999997463252
 20
0.3856814846052084
 30
0.0
 11
-0.0364999997463252
 21
0.3856814846052085
 31
0.0
  0
LINE
  5
868
330
837
100
AcDbEntity
  8
Notes
 62
     0
440
 16777216
370
    -2
100
AcDbLine
 10
0.0215000002536517
 20
0.3856814846052084
 30
0.0
 11
0.0365000002536587
 21
0.3856814846052084
 31
0.0
  0
SOLID
  5
869
330
837
100
AcDbEntity
  8
Notes
 62
     0
440
 16777216
100
AcDbTrace
 10
-0.0214999997463252
 20
0.3881814846052085
 30
0.0
 11
-0.0214999997463252
 21
0.3831814846052084
 31
0.0
 12
-0.0064999997463252
 22
0.3856814846052084
 32
0.0
 13
-0.0064999997463252
 23
0.3856814846052084
 33
0.0
  0
SOLID
  5
86A
330
837
100
AcDbEntity
  8
Notes
 62
     0
440
 16777216
100
AcDbTrace
 10
0.0215000002536517
 20
0.3881814846052085
 30
0.0
 11
0.0215000002536517
 21
0.3831814846052084
 31
0.0
 12
0.0065000002536517
 22
0.3856814846052084
 32
0.0
 13
0.0065000002536517
 23
0.3856814846052084
 33
0.0
  0
MTEXT
  5
86B
330
837
100
AcDbEntity
  8
Notes
 62
     0
440
 16777216
100
AcDbMText
 10
0.2583549251087469
 20
0.3856814846052084
 30
0.0
 40
0.018
 41
0.239801937022591
 46
0.0
 71
     6
 72
     1
  1
\A1;{\C256;1}x 50 Ohm Transmission Line
  7
Arial
 73
     1
 44
1.0
  0
POINT
  5
86C
330
837
100
AcDbEntity
  8
Defpoints
 62
     0
440
 16777216
100
AcDbPoint
 10
-0.0064999997463254
 20
0.1625709145091118
 30
0.0
  0
POINT
  5
86D
330
837
100
AcDbEntity
  8
Defpoints
 62
     0
440
 16777216
100
AcDbPoint
 10
0.0065000002536514
 20
0.1625709145091118
 30
0.0
  0
POINT
  5
86E
330
837
100
AcDbEntity
  8
Defpoints
 62
     0
440
 16777216
100
AcDbPoint
 10
0.0065000002536517
 20
0.3856814846052084
 30
0.0
  0
ENDBLK
  5
839
330
837
100
AcDbEntity
  8
0
100
AcDbBlockEnd
  0
BLOCK
  5
845
330
844
100
AcDbEntity
  8
0
100
AcDbBlockBegin
  2
*D28
 70
     1
 10
0.0
 20
0.0
 30
0.0
  3
*D28
  1

  0
LINE
  5
86F
330
844
100
AcDbEntity
  8
Notes
 62
     0
440
 16777216
370
    -2
100
AcDbLine
 10
0.0065000002536514
 20
0.1719459145091118
 30
0.0
 11
0.0065000002536515
 21
0.3292165794277622
 31
0.0
  0
LINE
  5
870
330
844
100
AcDbEntity
  8
Notes
 62
     0
440
 16777216
370
    -2
100
AcDbLine
 10
0.0300000002536144
 20
0.1719459145091087
 30
0.0
 11
0.0300000002536145
 21
0.3292165794277622
 31
0.0
  0
LINE
  5
871
330
844
100
AcDbEntity
  8
Notes
 62
     0
440
 16777216
370
    -2
100
AcDbLine
 10
-0.0084999997463486
 20
0.3202165794277621
 30
0.0
 11
-0.0234999997463486
 21
0.3202165794277621
 31
0.0
  0
LINE
  5
872
330
844
100
AcDbEntity
  8
Notes
 62
     0
440
 16777216
370
    -2
100
AcDbLine
 10
0.0450000002536145
 20
0.3202165794277621
 30
0.0
 11
0.0797532798306263
 21
0.3202165794277621
 31
0.0
  0
SOLID
  5
873
330
844
100
AcDbEntity
  8
Notes
 62
     0
440
 16777216
100
AcDbTrace
 10
-0.0084999997463486
 20
0.3227165794277622
 30
0.0
 11
-0.0084999997463486
 21
0.3177165794277621
 31
0.0
 12
0.0065000002536515
 22
0.3202165794277621
 32
0.0
 13
0.0065000002536515
 23
0.3202165794277621
 33
0.0
  0
SOLID
  5
874
330
844
100
AcDbEntity
  8
Notes
 62
     0
440
 16777216
100
AcDbTrace
 10
0.0450000002536145
 20
0.3227165794277622
 30
0.0
 11
0.0450000002536145
 21
0.3177165794277621
 31
0.0
 12
0.0300000002536145
 22
0.3202165794277621
 32
0.0
 13
0.0300000002536145
 23
0.3202165794277621
 33
0.0
  0
MTEXT
  5
875
330
844
100
AcDbEntity
  8
Notes
 62
     0
440
 16777216
100
AcDbMText
 10
0.3451224029251627
 20
0.3202165794277621
 30
0.0
 40
0.018
 41
0.2722778096269991
 46
0.0
 71
     6
 72
     1
  1
\A1;{\C256;2}x 50 Ohm Transmission Line Gap
  7
Arial
 73
     1
 44
1.0
  0
POINT
  5
876
330
844
100
AcDbEntity
  8
Defpoints
 62
     0
440
 16777216
100
AcDbPoint
 10
0.0065000002536514
 20
0.1625709145091118
 30
0.0
  0
POINT
  5
877
330
844
100
AcDbEntity
  8
Defpoints
 62
     0
440
 16777216
100
AcDbPoint
 10
0.0300000002536144
 20
0.1625709145091087
 30
0.0
  0
POINT
  5
878
330
844
100
AcDbEntity
  8
Defpoints
 62
     0
440
 16777216
100
AcDbPoint
 10
0.0300000002536145
 20
0.3202165794277621
 30
0.0
  0
ENDBLK
  5
846
330
844
100
AcDbEntity
  8
0
100
AcDbBlockEnd
  0
BLOCK
  5
897
330
896
100
AcDbEntity
  8
0
100
AcDbBlockBegin
  2
*D29
 70
     1
 10
0.0
 20
0.0
 30
0.0
  3
*D29
  1

  0
LINE
  5
898
330
896
100
AcDbEntity
  8
Notes
 62
     0
440
 16777216
370
    -2
100
AcDbLine
 10
2.61864757616596
 20
-5.558136471285106
 30
0.0
 11
2.61864757616596
 21
-5.368579474649262
 31
0.0
  0
LINE
  5
899
330
896
100
AcDbEntity
  8
Notes
 62
     0
440
 16777216
370
    -2
100
AcDbLine
 10
2.633647576165961
 20
-5.558136471285103
 30
0.0
 11
2.633647576165961
 21
-5.368579474649262
 31
0.0
  0
LINE
  5
89A
330
896
100
AcDbEntity
  8
Notes
 62
     0
440
 16777216
370
    -2
100
AcDbLine
 10
2.603647576165962
 20
-5.377579474649262
 30
0.0
 11
2.588647576165961
 21
-5.377579474649262
 31
0.0
  0
LINE
  5
89B
330
896
100
AcDbEntity
  8
Notes
 62
     0
440
 16777216
370
    -2
100
AcDbLine
 10
2.648647576165962
 20
-5.377579474649262
 30
0.0
 11
2.663647576165961
 21
-5.377579474649262
 31
0.0
  0
SOLID
  5
89C
330
896
100
AcDbEntity
  8
Notes
 62
     0
440
 16777216
100
AcDbTrace
 10
2.603647576165962
 20
-5.375079474649262
 30
0.0
 11
2.603647576165962
 21
-5.380079474649265
 31
0.0
 12
2.61864757616596
 22
-5.377579474649262
 32
0.0
 13
2.61864757616596
 23
-5.377579474649262
 33
0.0
  0
SOLID
  5
89D
330
896
100
AcDbEntity
  8
Notes
 62
     0
440
 16777216
100
AcDbTrace
 10
2.648647576165962
 20
-5.375079474649262
 30
0.0
 11
2.648647576165962
 21
-5.380079474649265
 31
0.0
 12
2.633647576165961
 22
-5.377579474649262
 32
0.0
 13
2.633647576165961
 23
-5.377579474649262
 33
0.0
  0
MTEXT
  5
89E
330
896
100
AcDbEntity
  8
Notes
 62
     0
440
 16777216
100
AcDbMText
 10
2.885502501021051
 20
-5.377579474649262
 30
0.0
 40
0.018
 41
0.239801937022591
 46
0.0
 71
     6
 72
     1
  1
\A1;{\C256;1}x 50 Ohm Transmission Line
  7
Arial
 73
     1
 44
1.0
  0
POINT
  5
89F
330
896
100
AcDbEntity
  8
Defpoints
 62
     0
440
 16777216
100
AcDbPoint
 10
2.61864757616596
 20
-5.567511471285105
 30
0.0
  0
POINT
  5
8A0
330
896
100
AcDbEntity
  8
Defpoints
 62
     0
440
 16777216
100
AcDbPoint
 10
2.633647576165961
 20
-5.567511471285103
 30
0.0
  0
POINT
  5
8A1
330
896
100
AcDbEntity
  8
Defpoints
 62
     0
440
 16777216
100
AcDbPoint
 10
2.633647576165961
 20
-5.377579474649262
 30
0.0
  0
ENDBLK
  5
8A2
330
896
100
AcDbEntity
  8
0
100
AcDbBlockEnd
  0
BLOCK
  5
8A4
330
8A3
100
AcDbEntity
  8
0
100
AcDbBlockBegin
  2
*D30
 70
     1
 10
0.0
 20
0.0
 30
0.0
  3
*D30
  1

  0
LINE
  5
8A5
330
8A3
100
AcDbEntity
  8
Notes
 62
     0
440
 16777216
370
    -2
100
AcDbLine
 10
2.633647576165961
 20
-5.558136471285103
 30
0.0
 11
2.633647576165961
 21
-5.43404437982671
 31
0.0
  0
LINE
  5
8A6
330
8A3
100
AcDbEntity
  8
Notes
 62
     0
440
 16777216
370
    -2
100
AcDbLine
 10
2.676147576165973
 20
-5.558731616405658
 30
0.0
 11
2.676147576165973
 21
-5.43404437982671
 31
0.0
  0
LINE
  5
8A7
330
8A3
100
AcDbEntity
  8
Notes
 62
     0
440
 16777216
370
    -2
100
AcDbLine
 10
2.648647576165962
 20
-5.44304437982671
 30
0.0
 11
2.661147576165973
 21
-5.44304437982671
 31
0.0
  0
LINE
  5
8A8
330
8A3
100
AcDbEntity
  8
Notes
 62
     0
440
 16777216
370
    -2
100
AcDbLine
 10
2.676147576165973
 20
-5.44304437982671
 30
0.0
 11
2.736796152836251
 21
-5.44304437982671
 31
0.0
  0
SOLID
  5
8A9
330
8A3
100
AcDbEntity
  8
Notes
 62
     0
440
 16777216
100
AcDbTrace
 10
2.648647576165962
 20
-5.44054437982671
 30
0.0
 11
2.648647576165962
 21
-5.445544379826711
 31
0.0
 12
2.633647576165961
 22
-5.44304437982671
 32
0.0
 13
2.633647576165961
 23
-5.44304437982671
 33
0.0
  0
SOLID
  5
8AA
330
8A3
100
AcDbEntity
  8
Notes
 62
     0
440
 16777216
100
AcDbTrace
 10
2.661147576165973
 20
-5.44054437982671
 30
0.0
 11
2.661147576165973
 21
-5.445544379826711
 31
0.0
 12
2.676147576165973
 22
-5.44304437982671
 32
0.0
 13
2.676147576165973
 23
-5.44304437982671
 33
0.0
  0
MTEXT
  5
8AB
330
8A3
100
AcDbEntity
  8
Notes
 62
     0
440
 16777216
100
AcDbMText
 10
3.002165275930787
 20
-5.44304437982671
 30
0.0
 40
0.018
 41
0.2722778096269991
 46
0.0
 71
     6
 72
     1
  1
\A1;{\C256;2}x 50 Ohm Transmission Line Gap
  7
Arial
 73
     1
 44
1.0
  0
POINT
  5
8AC
330
8A3
100
AcDbEntity
  8
Defpoints
 62
     0
440
 16777216
100
AcDbPoint
 10
2.633647576165961
 20
-5.567511471285103
 30
0.0
  0
POINT
  5
8AD
330
8A3
100
AcDbEntity
  8
Defpoints
 62
     0
440
 16777216
100
AcDbPoint
 10
2.676147576165973
 20
-5.56810661640566
 30
0.0
  0
POINT
  5
8AE
330
8A3
100
AcDbEntity
  8
Defpoints
 62
     0
440
 16777216
100
AcDbPoint
 10
2.676147576165973
 20
-5.44304437982671
 30
0.0
  0
ENDBLK
  5
8AF
330
8A3
100
AcDbEntity
  8
0
100
AcDbBlockEnd
  0
BLOCK
  5
913
330
912
100
AcDbEntity
  8
0
100
AcDbBlockBegin
  2
*D31
 70
     1
 10
0.0
 20
0.0
 30
0.0
  3
*D31
  1

  0
LINE
  5
940
330
912
100
AcDbEntity
  8
Notes
 62
     0
440
 16777216
370
    -2
100
AcDbLine
 10
-0.0075000000000003
 20
0.1853011351516494
 30
0.0
 11
-0.0075000000000002
 21
0.3748581317874905
 31
0.0
  0
LINE
  5
941
330
912
100
AcDbEntity
  8
Notes
 62
     0
440
 16777216
370
    -2
100
AcDbLine
 10
0.0075000000000002
 20
0.1853011351516503
 30
0.0
 11
0.0075000000000004
 21
0.3748581317874905
 31
0.0
  0
LINE
  5
942
330
912
100
AcDbEntity
  8
Notes
 62
     0
440
 16777216
370
    -2
100
AcDbLine
 10
-0.0225000000000002
 20
0.3658581317874905
 30
0.0
 11
-0.0375000000000002
 21
0.3658581317874905
 31
0.0
  0
LINE
  5
943
330
912
100
AcDbEntity
  8
Notes
 62
     0
440
 16777216
370
    -2
100
AcDbLine
 10
0.0225000000000004
 20
0.3658581317874905
 30
0.0
 11
0.0375000000000009
 21
0.3658581317874904
 31
0.0
  0
SOLID
  5
944
330
912
100
AcDbEntity
  8
Notes
 62
     0
440
 16777216
100
AcDbTrace
 10
-0.0225000000000002
 20
0.3683581317874905
 30
0.0
 11
-0.0225000000000002
 21
0.3633581317874905
 31
0.0
 12
-0.0075000000000002
 22
0.3658581317874905
 32
0.0
 13
-0.0075000000000002
 23
0.3658581317874905
 33
0.0
  0
SOLID
  5
945
330
912
100
AcDbEntity
  8
Notes
 62
     0
440
 16777216
100
AcDbTrace
 10
0.0225000000000004
 20
0.3683581317874905
 30
0.0
 11
0.0225000000000004
 21
0.3633581317874905
 31
0.0
 12
0.0075000000000004
 22
0.3658581317874905
 32
0.0
 13
0.0075000000000004
 23
0.3658581317874905
 33
0.0
  0
MTEXT
  5
946
330
912
100
AcDbEntity
  8
Notes
 62
     0
440
 16777216
100
AcDbMText
 10
0.259354924855089
 20
0.3658581317874905
 30
0.0
 40
0.018
 41
0.239801937022591
 46
0.0
 71
     6
 72
     1
  1
\A1;{\C256;1}x 50 Ohm Transmission Line
  7
Arial
 73
     1
 44
1.0
  0
POINT
  5
947
330
912
100
AcDbEntity
  8
Defpoints
 62
     0
440
 16777216
100
AcDbPoint
 10
-0.0075000000000003
 20
0.1759261351516494
 30
0.0
  0
POINT
  5
948
330
912
100
AcDbEntity
  8
Defpoints
 62
     0
440
 16777216
100
AcDbPoint
 10
0.0075000000000002
 20
0.1759261351516503
 30
0.0
  0
POINT
  5
949
330
912
100
AcDbEntity
  8
Defpoints
 62
     0
440
 16777216
100
AcDbPoint
 10
0.0075000000000004
 20
0.3658581317874905
 30
0.0
  0
ENDBLK
  5
914
330
912
100
AcDbEntity
  8
0
100
AcDbBlockEnd
  0
BLOCK
  5
920
330
91F
100
AcDbEntity
  8
0
100
AcDbBlockBegin
  2
*D32
 70
     1
 10
0.0
 20
0.0
 30
0.0
  3
*D32
  1

  0
LINE
  5
94A
330
91F
100
AcDbEntity
  8
Notes
 62
     0
440
 16777216
370
    -2
100
AcDbLine
 10
0.0075000000000002
 20
0.1853011351516503
 30
0.0
 11
0.0075000000000002
 21
0.3093932266100442
 31
0.0
  0
LINE
  5
94B
330
91F
100
AcDbEntity
  8
Notes
 62
     0
440
 16777216
370
    -2
100
AcDbLine
 10
0.0500000000000113
 20
0.1847059900310942
 30
0.0
 11
0.0500000000000113
 21
0.3093932266100442
 31
0.0
  0
LINE
  5
94C
330
91F
100
AcDbEntity
  8
Notes
 62
     0
440
 16777216
370
    -2
100
AcDbLine
 10
0.0225000000000002
 20
0.3003932266100442
 30
0.0
 11
0.0350000000000113
 21
0.3003932266100442
 31
0.0
  0
LINE
  5
94D
330
91F
100
AcDbEntity
  8
Notes
 62
     0
440
 16777216
370
    -2
100
AcDbLine
 10
0.0500000000000113
 20
0.3003932266100442
 30
0.0
 11
0.1106485766702901
 21
0.3003932266100442
 31
0.0
  0
SOLID
  5
94E
330
91F
100
AcDbEntity
  8
Notes
 62
     0
440
 16777216
100
AcDbTrace
 10
0.0225000000000002
 20
0.3028932266100442
 30
0.0
 11
0.0225000000000002
 21
0.2978932266100442
 31
0.0
 12
0.0075000000000002
 22
0.3003932266100442
 32
0.0
 13
0.0075000000000002
 23
0.3003932266100442
 33
0.0
  0
SOLID
  5
94F
330
91F
100
AcDbEntity
  8
Notes
 62
     0
440
 16777216
100
AcDbTrace
 10
0.0350000000000113
 20
0.3028932266100442
 30
0.0
 11
0.0350000000000113
 21
0.2978932266100442
 31
0.0
 12
0.0500000000000113
 22
0.3003932266100442
 32
0.0
 13
0.0500000000000113
 23
0.3003932266100442
 33
0.0
  0
MTEXT
  5
950
330
91F
100
AcDbEntity
  8
Notes
 62
     0
440
 16777216
100
AcDbMText
 10
0.3760176997648265
 20
0.3003932266100442
 30
0.0
 40
0.018
 41
0.2722778096269991
 46
0.0
 71
     6
 72
     1
  1
\A1;{\C256;2}x 50 Ohm Transmission Line Gap
  7
Arial
 73
     1
 44
1.0
  0
POINT
  5
951
330
91F
100
AcDbEntity
  8
Defpoints
 62
     0
440
 16777216
100
AcDbPoint
 10
0.0075000000000002
 20
0.1759261351516503
 30
0.0
  0
POINT
  5
952
330
91F
100
AcDbEntity
  8
Defpoints
 62
     0
440
 16777216
100
AcDbPoint
 10
0.0500000000000113
 20
0.1753309900310942
 30
0.0
  0
POINT
  5
953
330
91F
100
AcDbEntity
  8
Defpoints
 62
     0
440
 16777216
100
AcDbPoint
 10
0.0500000000000113
 20
0.3003932266100442
 30
0.0
  0
ENDBLK
  5
921
330
91F
100
AcDbEntity
  8
0
100
AcDbBlockEnd
  0
BLOCK
  5
957
330
956
100
AcDbEntity
  8
0
100
AcDbBlockBegin
  2
*D33
 70
     1
 10
0.0
 20
0.0
 30
0.0
  3
*D33
  1

  0
LINE
  5
958
330
956
100
AcDbEntity
  8
Notes
 62
     0
440
 16777216
370
    -2
100
AcDbLine
 10
2.281799592098355
 20
-8.790448828854596
 30
0.0
 11
2.281799592098356
 21
-8.603263439537942
 31
0.0
  0
LINE
  5
959
330
956
100
AcDbEntity
  8
Notes
 62
     0
440
 16777216
370
    -2
100
AcDbLine
 10
2.306799592098345
 20
-8.790448828854596
 30
0.0
 11
2.306799592098345
 21
-8.603263439537942
 31
0.0
  0
LINE
  5
95A
330
956
100
AcDbEntity
  8
Notes
 62
     0
440
 16777216
370
    -2
100
AcDbLine
 10
2.266799592098355
 20
-8.612263439537944
 30
0.0
 11
2.251799592098354
 21
-8.612263439537944
 31
0.0
  0
LINE
  5
95B
330
956
100
AcDbEntity
  8
Notes
 62
     0
440
 16777216
370
    -2
100
AcDbLine
 10
2.321799592098345
 20
-8.612263439537944
 30
0.0
 11
2.336799592098345
 21
-8.612263439537944
 31
0.0
  0
SOLID
  5
95C
330
956
100
AcDbEntity
  8
Notes
 62
     0
440
 16777216
100
AcDbTrace
 10
2.266799592098355
 20
-8.609763439537942
 30
0.0
 11
2.266799592098355
 21
-8.614763439537941
 31
0.0
 12
2.281799592098356
 22
-8.612263439537944
 32
0.0
 13
2.281799592098356
 23
-8.612263439537944
 33
0.0
  0
SOLID
  5
95D
330
956
100
AcDbEntity
  8
Notes
 62
     0
440
 16777216
100
AcDbTrace
 10
2.321799592098345
 20
-8.609763439537942
 30
0.0
 11
2.321799592098345
 21
-8.614763439537941
 31
0.0
 12
2.306799592098345
 22
-8.612263439537944
 32
0.0
 13
2.306799592098345
 23
-8.612263439537944
 33
0.0
  0
MTEXT
  5
95E
330
956
100
AcDbEntity
  8
Notes
 62
     0
440
 16777216
100
AcDbMText
 10
2.558654516953434
 20
-8.612263439537944
 30
0.0
 40
0.018
 41
0.239801937022591
 46
0.0
 71
     6
 72
     1
  1
\A1;{\C256;1}x 50 Ohm Transmission Line
  7
Arial
 73
     1
 44
1.0
  0
POINT
  5
95F
330
956
100
AcDbEntity
  8
Defpoints
 62
     0
440
 16777216
100
AcDbPoint
 10
2.281799592098355
 20
-8.7998238288546
 30
0.0
  0
POINT
  5
960
330
956
100
AcDbEntity
  8
Defpoints
 62
     0
440
 16777216
100
AcDbPoint
 10
2.306799592098345
 20
-8.7998238288546
 30
0.0
  0
POINT
  5
961
330
956
100
AcDbEntity
  8
Defpoints
 62
     0
440
 16777216
100
AcDbPoint
 10
2.306799592098345
 20
-8.612263439537944
 30
0.0
  0
ENDBLK
  5
962
330
956
100
AcDbEntity
  8
0
100
AcDbBlockEnd
  0
BLOCK
  5
964
330
963
100
AcDbEntity
  8
0
100
AcDbBlockBegin
  2
*D34
 70
     1
 10
0.0
 20
0.0
 30
0.0
  3
*D34
  1

  0
LINE
  5
965
330
963
100
AcDbEntity
  8
Notes
 62
     0
440
 16777216
370
    -2
100
AcDbLine
 10
2.306799592098345
 20
-8.790448828854596
 30
0.0
 11
2.306799592098345
 21
-8.66872834471539
 31
0.0
  0
LINE
  5
966
330
963
100
AcDbEntity
  8
Notes
 62
     0
440
 16777216
370
    -2
100
AcDbLine
 10
2.354298447329153
 20
-8.790448828854596
 30
0.0
 11
2.354298447329153
 21
-8.66872834471539
 31
0.0
  0
LINE
  5
967
330
963
100
AcDbEntity
  8
Notes
 62
     0
440
 16777216
370
    -2
100
AcDbLine
 10
2.321799592098345
 20
-8.67772834471539
 30
0.0
 11
2.339298447329153
 21
-8.67772834471539
 31
0.0
  0
LINE
  5
968
330
963
100
AcDbEntity
  8
Notes
 62
     0
440
 16777216
370
    -2
100
AcDbLine
 10
2.354298447329153
 20
-8.67772834471539
 30
0.0
 11
2.369298447329154
 21
-8.67772834471539
 31
0.0
  0
SOLID
  5
969
330
963
100
AcDbEntity
  8
Notes
 62
     0
440
 16777216
100
AcDbTrace
 10
2.321799592098345
 20
-8.675228344715391
 30
0.0
 11
2.321799592098345
 21
-8.68022834471539
 31
0.0
 12
2.306799592098345
 22
-8.67772834471539
 32
0.0
 13
2.306799592098345
 23
-8.67772834471539
 33
0.0
  0
SOLID
  5
96A
330
963
100
AcDbEntity
  8
Notes
 62
     0
440
 16777216
100
AcDbTrace
 10
2.339298447329153
 20
-8.675228344715391
 30
0.0
 11
2.339298447329153
 21
-8.68022834471539
 31
0.0
 12
2.354298447329153
 22
-8.67772834471539
 32
0.0
 13
2.354298447329153
 23
-8.67772834471539
 33
0.0
  0
MTEXT
  5
96B
330
963
100
AcDbEntity
  8
Notes
 62
     0
440
 16777216
100
AcDbMText
 10
2.634667570423689
 20
-8.67772834471539
 30
0.0
 40
0.018
 41
0.2722778096269991
 46
0.0
 71
     6
 72
     1
  1
\A1;{\C256;2}x 50 Ohm Transmission Line Gap
  7
Arial
 73
     1
 44
1.0
  0
POINT
  5
96C
330
963
100
AcDbEntity
  8
Defpoints
 62
     0
440
 16777216
100
AcDbPoint
 10
2.306799592098345
 20
-8.7998238288546
 30
0.0
  0
POINT
  5
96D
330
963
100
AcDbEntity
  8
Defpoints
 62
     0
440
 16777216
100
AcDbPoint
 10
2.354298447329153
 20
-8.7998238288546
 30
0.0
  0
POINT
  5
96E
330
963
100
AcDbEntity
  8
Defpoints
 62
     0
440
 16777216
100
AcDbPoint
 10
2.354298447329153
 20
-8.67772834471539
 30
0.0
  0
ENDBLK
  5
96F
330
963
100
AcDbEntity
  8
0
100
AcDbBlockEnd
  0
BLOCK
  5
A5F
330
A5E
100
AcDbEntity
  8
0
100
AcDbBlockBegin
  2
*D35
 70
     1
 10
0.0
 20
0.0
 30
0.0
  3
*D35
  1

  0
LINE
  5
A8C
330
A5E
100
AcDbEntity
  8
Notes
 62
     0
440
 16777216
370
    -2
100
AcDbLine
 10
-0.0124999822963261
 20
0.2912524424271382
 30
0.0
 11
-0.0124999822963258
 21
0.4784378317437933
 31
0.0
  0
LINE
  5
A8D
330
A5E
100
AcDbEntity
  8
Notes
 62
     0
440
 16777216
370
    -2
100
AcDbLine
 10
0.0125000177036654
 20
0.2912524424271382
 30
0.0
 11
0.0125000177036657
 21
0.4784378317437933
 31
0.0
  0
LINE
  5
A8E
330
A5E
100
AcDbEntity
  8
Notes
 62
     0
440
 16777216
370
    -2
100
AcDbLine
 10
-0.0274999822963258
 20
0.4694378317437933
 30
0.0
 11
-0.0424999822963258
 21
0.4694378317437933
 31
0.0
  0
LINE
  5
A8F
330
A5E
100
AcDbEntity
  8
Notes
 62
     0
440
 16777216
370
    -2
100
AcDbLine
 10
0.0275000177036657
 20
0.4694378317437933
 30
0.0
 11
0.042500017703666
 21
0.4694378317437933
 31
0.0
  0
SOLID
  5
A90
330
A5E
100
AcDbEntity
  8
Notes
 62
     0
440
 16777216
100
AcDbTrace
 10
-0.0274999822963258
 20
0.4719378317437933
 30
0.0
 11
-0.0274999822963258
 21
0.4669378317437932
 31
0.0
 12
-0.0124999822963258
 22
0.4694378317437933
 32
0.0
 13
-0.0124999822963258
 23
0.4694378317437933
 33
0.0
  0
SOLID
  5
A91
330
A5E
100
AcDbEntity
  8
Notes
 62
     0
440
 16777216
100
AcDbTrace
 10
0.0275000177036657
 20
0.4719378317437931
 30
0.0
 11
0.0275000177036657
 21
0.4669378317437931
 31
0.0
 12
0.0125000177036657
 22
0.4694378317437933
 32
0.0
 13
0.0125000177036657
 23
0.4694378317437933
 33
0.0
  0
MTEXT
  5
A92
330
A5E
100
AcDbEntity
  8
Notes
 62
     0
440
 16777216
100
AcDbMText
 10
0.2643549425587541
 20
0.4694378317437933
 30
0.0
 40
0.018
 41
0.239801937022591
 46
0.0
 71
     6
 72
     1
  1
\A1;{\C256;1}x 50 Ohm Transmission Line
  7
Arial
 73
     1
 44
1.0
  0
POINT
  5
A93
330
A5E
100
AcDbEntity
  8
Defpoints
 62
     0
440
 16777216
100
AcDbPoint
 10
-0.0124999822963262
 20
0.2818774424271382
 30
0.0
  0
POINT
  5
A94
330
A5E
100
AcDbEntity
  8
Defpoints
 62
     0
440
 16777216
100
AcDbPoint
 10
0.0125000177036653
 20
0.2818774424271382
 30
0.0
  0
POINT
  5
A95
330
A5E
100
AcDbEntity
  8
Defpoints
 62
     0
440
 16777216
100
AcDbPoint
 10
0.0125000177036657
 20
0.4694378317437933
 30
0.0
  0
ENDBLK
  5
A60
330
A5E
100
AcDbEntity
  8
0
100
AcDbBlockEnd
  0
BLOCK
  5
A6C
330
A6B
100
AcDbEntity
  8
0
100
AcDbBlockBegin
  2
*D36
 70
     1
 10
0.0
 20
0.0
 30
0.0
  3
*D36
  1

  0
LINE
  5
A96
330
A6B
100
AcDbEntity
  8
Notes
 62
     0
440
 16777216
370
    -2
100
AcDbLine
 10
0.0125000177036653
 20
0.2912524424271382
 30
0.0
 11
0.0125000177036653
 21
0.412972926566347
 31
0.0
  0
LINE
  5
A97
330
A6B
100
AcDbEntity
  8
Notes
 62
     0
440
 16777216
370
    -2
100
AcDbLine
 10
0.0599988729344716
 20
0.2912524424271382
 30
0.0
 11
0.0599988729344716
 21
0.412972926566347
 31
0.0
  0
LINE
  5
A98
330
A6B
100
AcDbEntity
  8
Notes
 62
     0
440
 16777216
370
    -2
100
AcDbLine
 10
0.0275000177036653
 20
0.403972926566347
 30
0.0
 11
0.0449988729344716
 21
0.403972926566347
 31
0.0
  0
LINE
  5
A99
330
A6B
100
AcDbEntity
  8
Notes
 62
     0
440
 16777216
370
    -2
100
AcDbLine
 10
0.0599988729344716
 20
0.403972926566347
 30
0.0
 11
0.0749988729344727
 21
0.403972926566347
 31
0.0
  0
SOLID
  5
A9A
330
A6B
100
AcDbEntity
  8
Notes
 62
     0
440
 16777216
100
AcDbTrace
 10
0.0275000177036653
 20
0.4064729265663468
 30
0.0
 11
0.0275000177036653
 21
0.4014729265663468
 31
0.0
 12
0.0125000177036653
 22
0.403972926566347
 32
0.0
 13
0.0125000177036653
 23
0.403972926566347
 33
0.0
  0
SOLID
  5
A9B
330
A6B
100
AcDbEntity
  8
Notes
 62
     0
440
 16777216
100
AcDbTrace
 10
0.0449988729344716
 20
0.4064729265663468
 30
0.0
 11
0.0449988729344716
 21
0.4014729265663468
 31
0.0
 12
0.0599988729344716
 22
0.403972926566347
 32
0.0
 13
0.0599988729344716
 23
0.403972926566347
 33
0.0
  0
MTEXT
  5
A9C
330
A6B
100
AcDbEntity
  8
Notes
 62
     0
440
 16777216
100
AcDbMText
 10
0.3403679960290091
 20
0.403972926566347
 30
0.0
 40
0.018
 41
0.2722778096269991
 46
0.0
 71
     6
 72
     1
  1
\A1;{\C256;2}x 50 Ohm Transmission Line Gap
  7
Arial
 73
     1
 44
1.0
  0
POINT
  5
A9D
330
A6B
100
AcDbEntity
  8
Defpoints
 62
     0
440
 16777216
100
AcDbPoint
 10
0.0125000177036653
 20
0.2818774424271382
 30
0.0
  0
POINT
  5
A9E
330
A6B
100
AcDbEntity
  8
Defpoints
 62
     0
440
 16777216
100
AcDbPoint
 10
0.0599988729344716
 20
0.2818774424271382
 30
0.0
  0
POINT
  5
A9F
330
A6B
100
AcDbEntity
  8
Defpoints
 62
     0
440
 16777216
100
AcDbPoint
 10
0.0599988729344716
 20
0.403972926566347
 30
0.0
  0
ENDBLK
  5
A6D
330
A6B
100
AcDbEntity
  8
0
100
AcDbBlockEnd
  0
BLOCK
  5
AA7
330
AA6
100
AcDbEntity
  8
0
100
AcDbBlockBegin
  2
*D37
 70
     1
 10
0.0
 20
0.0
 30
0.0
  3
*D37
  1

  0
LINE
  5
AA8
330
AA6
100
AcDbEntity
  8
Notes
 62
     0
440
 16777216
370
    -2
100
AcDbLine
 10
5.936560168901737
 20
-8.794110295860905
 30
0.0
 11
5.936560168901737
 21
-8.60692490654425
 31
0.0
  0
LINE
  5
AA9
330
AA6
100
AcDbEntity
  8
Notes
 62
     0
440
 16777216
370
    -2
100
AcDbLine
 10
5.961560168901726
 20
-8.794110295860905
 30
0.0
 11
5.96156016890173
 21
-8.60692490654425
 31
0.0
  0
LINE
  5
AAA
330
AA6
100
AcDbEntity
  8
Notes
 62
     0
440
 16777216
370
    -2
100
AcDbLine
 10
5.921560168901736
 20
-8.61592490654425
 30
0.0
 11
5.906560168901736
 21
-8.61592490654425
 31
0.0
  0
LINE
  5
AAB
330
AA6
100
AcDbEntity
  8
Notes
 62
     0
440
 16777216
370
    -2
100
AcDbLine
 10
5.97656016890173
 20
-8.61592490654425
 30
0.0
 11
5.99156016890173
 21
-8.61592490654425
 31
0.0
  0
SOLID
  5
AAC
330
AA6
100
AcDbEntity
  8
Notes
 62
     0
440
 16777216
100
AcDbTrace
 10
5.921560168901736
 20
-8.613424906544251
 30
0.0
 11
5.921560168901736
 21
-8.61842490654425
 31
0.0
 12
5.936560168901737
 22
-8.61592490654425
 32
0.0
 13
5.936560168901737
 23
-8.61592490654425
 33
0.0
  0
SOLID
  5
AAD
330
AA6
100
AcDbEntity
  8
Notes
 62
     0
440
 16777216
100
AcDbTrace
 10
5.97656016890173
 20
-8.613424906544251
 30
0.0
 11
5.97656016890173
 21
-8.61842490654425
 31
0.0
 12
5.96156016890173
 22
-8.61592490654425
 32
0.0
 13
5.96156016890173
 23
-8.61592490654425
 33
0.0
  0
MTEXT
  5
AAE
330
AA6
100
AcDbEntity
  8
Notes
 62
     0
440
 16777216
100
AcDbMText
 10
6.213415093756817
 20
-8.61592490654425
 30
0.0
 40
0.018
 41
0.239801937022591
 46
0.0
 71
     6
 72
     1
  1
\A1;{\C256;1}x 50 Ohm Transmission Line
  7
Arial
 73
     1
 44
1.0
  0
POINT
  5
AAF
330
AA6
100
AcDbEntity
  8
Defpoints
 62
     0
440
 16777216
100
AcDbPoint
 10
5.936560168901737
 20
-8.803485295860904
 30
0.0
  0
POINT
  5
AB0
330
AA6
100
AcDbEntity
  8
Defpoints
 62
     0
440
 16777216
100
AcDbPoint
 10
5.961560168901726
 20
-8.803485295860904
 30
0.0
  0
POINT
  5
AB1
330
AA6
100
AcDbEntity
  8
Defpoints
 62
     0
440
 16777216
100
AcDbPoint
 10
5.96156016890173
 20
-8.61592490654425
 30
0.0
  0
ENDBLK
  5
AB2
330
AA6
100
AcDbEntity
  8
0
100
AcDbBlockEnd
  0
BLOCK
  5
AB4
330
AB3
100
AcDbEntity
  8
0
100
AcDbBlockBegin
  2
*D38
 70
     1
 10
0.0
 20
0.0
 30
0.0
  3
*D38
  1

  0
LINE
  5
AB5
330
AB3
100
AcDbEntity
  8
Notes
 62
     0
440
 16777216
370
    -2
100
AcDbLine
 10
5.961560168901726
 20
-8.794110295860905
 30
0.0
 11
5.961560168901726
 21
-8.672389811721696
 31
0.0
  0
LINE
  5
AB6
330
AB3
100
AcDbEntity
  8
Notes
 62
     0
440
 16777216
370
    -2
100
AcDbLine
 10
6.009059024132535
 20
-8.794110295860905
 30
0.0
 11
6.009059024132535
 21
-8.672389811721696
 31
0.0
  0
LINE
  5
AB7
330
AB3
100
AcDbEntity
  8
Notes
 62
     0
440
 16777216
370
    -2
100
AcDbLine
 10
5.976560168901727
 20
-8.681389811721697
 30
0.0
 11
5.994059024132535
 21
-8.681389811721697
 31
0.0
  0
LINE
  5
AB8
330
AB3
100
AcDbEntity
  8
Notes
 62
     0
440
 16777216
370
    -2
100
AcDbLine
 10
6.009059024132535
 20
-8.681389811721697
 30
0.0
 11
6.024059024132536
 21
-8.681389811721697
 31
0.0
  0
SOLID
  5
AB9
330
AB3
100
AcDbEntity
  8
Notes
 62
     0
440
 16777216
100
AcDbTrace
 10
5.976560168901727
 20
-8.678889811721697
 30
0.0
 11
5.976560168901727
 21
-8.683889811721696
 31
0.0
 12
5.961560168901726
 22
-8.681389811721697
 32
0.0
 13
5.961560168901726
 23
-8.681389811721697
 33
0.0
  0
SOLID
  5
ABA
330
AB3
100
AcDbEntity
  8
Notes
 62
     0
440
 16777216
100
AcDbTrace
 10
5.994059024132535
 20
-8.678889811721697
 30
0.0
 11
5.994059024132535
 21
-8.683889811721696
 31
0.0
 12
6.009059024132535
 22
-8.681389811721697
 32
0.0
 13
6.009059024132535
 23
-8.681389811721697
 33
0.0
  0
MTEXT
  5
ABB
330
AB3
100
AcDbEntity
  8
Notes
 62
     0
440
 16777216
100
AcDbMText
 10
6.289428147227072
 20
-8.681389811721697
 30
0.0
 40
0.018
 41
0.2722778096269991
 46
0.0
 71
     6
 72
     1
  1
\A1;{\C256;2}x 50 Ohm Transmission Line Gap
  7
Arial
 73
     1
 44
1.0
  0
POINT
  5
ABC
330
AB3
100
AcDbEntity
  8
Defpoints
 62
     0
440
 16777216
100
AcDbPoint
 10
5.961560168901726
 20
-8.803485295860904
 30
0.0
  0
POINT
  5
ABD
330
AB3
100
AcDbEntity
  8
Defpoints
 62
     0
440
 16777216
100
AcDbPoint
 10
6.009059024132535
 20
-8.803485295860904
 30
0.0
  0
POINT
  5
ABE
330
AB3
100
AcDbEntity
  8
Defpoints
 62
     0
440
 16777216
100
AcDbPoint
 10
6.009059024132535
 20
-8.681389811721697
 30
0.0
  0
ENDBLK
  5
ABF
330
AB3
100
AcDbEntity
  8
0
100
AcDbBlockEnd
  0
BLOCK
  5
BAF
330
BAE
100
AcDbEntity
  8
0
100
AcDbBlockBegin
  2
*D39
 70
     1
 10
0.0
 20
0.0
 30
0.0
  3
*D39
  1

  0
LINE
  5
BDC
330
BAE
100
AcDbEntity
  8
Notes
 62
     0
440
 16777216
370
    -2
100
AcDbLine
 10
-0.0124999869181601
 20
0.3206128909890768
 30
0.0
 11
-0.0124999869181598
 21
0.5077982803057317
 31
0.0
  0
LINE
  5
BDD
330
BAE
100
AcDbEntity
  8
Notes
 62
     0
440
 16777216
370
    -2
100
AcDbLine
 10
0.0125000130818314
 20
0.3206128909890768
 30
0.0
 11
0.0125000130818317
 21
0.5077982803057317
 31
0.0
  0
LINE
  5
BDE
330
BAE
100
AcDbEntity
  8
Notes
 62
     0
440
 16777216
370
    -2
100
AcDbLine
 10
-0.0274999869181598
 20
0.4987982803057319
 30
0.0
 11
-0.0424999869181598
 21
0.4987982803057319
 31
0.0
  0
LINE
  5
BDF
330
BAE
100
AcDbEntity
  8
Notes
 62
     0
440
 16777216
370
    -2
100
AcDbLine
 10
0.0275000130818317
 20
0.4987982803057319
 30
0.0
 11
0.0425000130818324
 21
0.4987982803057319
 31
0.0
  0
SOLID
  5
BE0
330
BAE
100
AcDbEntity
  8
Notes
 62
     0
440
 16777216
100
AcDbTrace
 10
-0.0274999869181598
 20
0.5012982803057317
 30
0.0
 11
-0.0274999869181598
 21
0.4962982803057318
 31
0.0
 12
-0.0124999869181598
 22
0.4987982803057319
 32
0.0
 13
-0.0124999869181598
 23
0.4987982803057319
 33
0.0
  0
SOLID
  5
BE1
330
BAE
100
AcDbEntity
  8
Notes
 62
     0
440
 16777216
100
AcDbTrace
 10
0.0275000130818317
 20
0.5012982803057317
 30
0.0
 11
0.0275000130818317
 21
0.4962982803057317
 31
0.0
 12
0.0125000130818317
 22
0.4987982803057319
 32
0.0
 13
0.0125000130818317
 23
0.4987982803057319
 33
0.0
  0
MTEXT
  5
BE2
330
BAE
100
AcDbEntity
  8
Notes
 62
     0
440
 16777216
100
AcDbMText
 10
0.2643549379369205
 20
0.4987982803057316
 30
0.0
 40
0.018
 41
0.239801937022591
 46
0.0
 71
     6
 72
     1
  1
\A1;{\C256;1}x 50 Ohm Transmission Line
  7
Arial
 73
     1
 44
1.0
  0
POINT
  5
BE3
330
BAE
100
AcDbEntity
  8
Defpoints
 62
     0
440
 16777216
100
AcDbPoint
 10
-0.0124999869181601
 20
0.3112378909890767
 30
0.0
  0
POINT
  5
BE4
330
BAE
100
AcDbEntity
  8
Defpoints
 62
     0
440
 16777216
100
AcDbPoint
 10
0.0125000130818314
 20
0.3112378909890767
 30
0.0
  0
POINT
  5
BE5
330
BAE
100
AcDbEntity
  8
Defpoints
 62
     0
440
 16777216
100
AcDbPoint
 10
0.0125000130818317
 20
0.4987982803057319
 30
0.0
  0
ENDBLK
  5
BB0
330
BAE
100
AcDbEntity
  8
0
100
AcDbBlockEnd
  0
BLOCK
  5
BBC
330
BBB
100
AcDbEntity
  8
0
100
AcDbBlockBegin
  2
*D40
 70
     1
 10
0.0
 20
0.0
 30
0.0
  3
*D40
  1

  0
LINE
  5
BE6
330
BBB
100
AcDbEntity
  8
Notes
 62
     0
440
 16777216
370
    -2
100
AcDbLine
 10
0.0125000130818314
 20
0.3206128909890768
 30
0.0
 11
0.0125000130818314
 21
0.4423333751282854
 31
0.0
  0
LINE
  5
BE7
330
BBB
100
AcDbEntity
  8
Notes
 62
     0
440
 16777216
370
    -2
100
AcDbLine
 10
0.0599988683126376
 20
0.3206128909890768
 30
0.0
 11
0.0599988683126376
 21
0.4423333751282854
 31
0.0
  0
LINE
  5
BE8
330
BBB
100
AcDbEntity
  8
Notes
 62
     0
440
 16777216
370
    -2
100
AcDbLine
 10
0.0275000130818314
 20
0.4333333751282853
 30
0.0
 11
0.0449988683126376
 21
0.4333333751282853
 31
0.0
  0
LINE
  5
BE9
330
BBB
100
AcDbEntity
  8
Notes
 62
     0
440
 16777216
370
    -2
100
AcDbLine
 10
0.0599988683126376
 20
0.4333333751282853
 30
0.0
 11
0.0749988683126388
 21
0.4333333751282853
 31
0.0
  0
SOLID
  5
BEA
330
BBB
100
AcDbEntity
  8
Notes
 62
     0
440
 16777216
100
AcDbTrace
 10
0.0275000130818314
 20
0.4358333751282853
 30
0.0
 11
0.0275000130818314
 21
0.4308333751282853
 31
0.0
 12
0.0125000130818314
 22
0.4333333751282853
 32
0.0
 13
0.0125000130818314
 23
0.4333333751282853
 33
0.0
  0
SOLID
  5
BEB
330
BBB
100
AcDbEntity
  8
Notes
 62
     0
440
 16777216
100
AcDbTrace
 10
0.0449988683126376
 20
0.4358333751282853
 30
0.0
 11
0.0449988683126376
 21
0.4308333751282853
 31
0.0
 12
0.0599988683126376
 22
0.4333333751282853
 32
0.0
 13
0.0599988683126376
 23
0.4333333751282853
 33
0.0
  0
MTEXT
  5
BEC
330
BBB
100
AcDbEntity
  8
Notes
 62
     0
440
 16777216
100
AcDbMText
 10
0.3403679914071751
 20
0.4333333751282853
 30
0.0
 40
0.018
 41
0.2722778096269991
 46
0.0
 71
     6
 72
     1
  1
\A1;{\C256;2}x 50 Ohm Transmission Line Gap
  7
Arial
 73
     1
 44
1.0
  0
POINT
  5
BED
330
BBB
100
AcDbEntity
  8
Defpoints
 62
     0
440
 16777216
100
AcDbPoint
 10
0.0125000130818314
 20
0.3112378909890767
 30
0.0
  0
POINT
  5
BEE
330
BBB
100
AcDbEntity
  8
Defpoints
 62
     0
440
 16777216
100
AcDbPoint
 10
0.0599988683126376
 20
0.3112378909890767
 30
0.0
  0
POINT
  5
BEF
330
BBB
100
AcDbEntity
  8
Defpoints
 62
     0
440
 16777216
100
AcDbPoint
 10
0.0599988683126376
 20
0.4333333751282853
 30
0.0
  0
ENDBLK
  5
BBD
330
BBB
100
AcDbEntity
  8
0
100
AcDbBlockEnd
  0
BLOCK
  5
BF7
330
BF6
100
AcDbEntity
  8
0
100
AcDbBlockBegin
  2
*D41
 70
     1
 10
0.0
 20
0.0
 30
0.0
  3
*D41
  1

  0
LINE
  5
BF8
330
BF6
100
AcDbEntity
  8
Notes
 62
     0
440
 16777216
370
    -2
100
AcDbLine
 10
10.0871700142134
 20
-8.812305802648536
 30
0.0
 11
10.0871700142134
 21
-8.584648437846119
 31
0.0
  0
LINE
  5
BF9
330
BF6
100
AcDbEntity
  8
Notes
 62
     0
440
 16777216
370
    -2
100
AcDbLine
 10
10.13317001421337
 20
-8.812305802648543
 30
0.0
 11
10.13317001421337
 21
-8.584648437846119
 31
0.0
  0
LINE
  5
BFA
330
BF6
100
AcDbEntity
  8
Notes
 62
     0
440
 16777216
370
    -2
100
AcDbLine
 10
10.1021700142134
 20
-8.59364843784612
 30
0.0
 11
10.11817001421337
 21
-8.59364843784612
 31
0.0
  0
LINE
  5
BFB
330
BF6
100
AcDbEntity
  8
Notes
 62
     0
440
 16777216
370
    -2
100
AcDbLine
 10
10.13317001421337
 20
-8.59364843784612
 30
0.0
 11
10.14817001421337
 21
-8.59364843784612
 31
0.0
  0
SOLID
  5
BFC
330
BF6
100
AcDbEntity
  8
Notes
 62
     0
440
 16777216
100
AcDbTrace
 10
10.1021700142134
 20
-8.591148437846122
 30
0.0
 11
10.1021700142134
 21
-8.596148437846121
 31
0.0
 12
10.0871700142134
 22
-8.59364843784612
 32
0.0
 13
10.0871700142134
 23
-8.59364843784612
 33
0.0
  0
SOLID
  5
BFD
330
BF6
100
AcDbEntity
  8
Notes
 62
     0
440
 16777216
100
AcDbTrace
 10
10.11817001421337
 20
-8.591148437846122
 30
0.0
 11
10.11817001421337
 21
-8.596148437846121
 31
0.0
 12
10.13317001421337
 22
-8.59364843784612
 32
0.0
 13
10.13317001421337
 23
-8.59364843784612
 33
0.0
  0
MTEXT
  5
BFE
330
BF6
100
AcDbEntity
  8
Notes
 62
     0
440
 16777216
100
AcDbMText
 10
10.37002493906846
 20
-8.59364843784612
 30
0.0
 40
0.018
 41
0.239801937022591
 46
0.0
 71
     6
 72
     1
  1
\A1;{\C256;1}x 50 Ohm Transmission Line
  7
Arial
 73
     1
 44
1.0
  0
POINT
  5
BFF
330
BF6
100
AcDbEntity
  8
Defpoints
 62
     0
440
 16777216
100
AcDbPoint
 10
10.0871700142134
 20
-8.821680802648536
 30
0.0
  0
POINT
  5
C00
330
BF6
100
AcDbEntity
  8
Defpoints
 62
     0
440
 16777216
100
AcDbPoint
 10
10.13317001421337
 20
-8.821680802648543
 30
0.0
  0
POINT
  5
C01
330
BF6
100
AcDbEntity
  8
Defpoints
 62
     0
440
 16777216
100
AcDbPoint
 10
10.13317001421337
 20
-8.59364843784612
 30
0.0
  0
ENDBLK
  5
C02
330
BF6
100
AcDbEntity
  8
0
100
AcDbBlockEnd
  0
BLOCK
  5
C04
330
C03
100
AcDbEntity
  8
0
100
AcDbBlockBegin
  2
*D42
 70
     1
 10
0.0
 20
0.0
 30
0.0
  3
*D42
  1

  0
LINE
  5
C05
330
C03
100
AcDbEntity
  8
Notes
 62
     0
440
 16777216
370
    -2
100
AcDbLine
 10
10.13317001421337
 20
-8.812305802648543
 30
0.0
 11
10.13317001421337
 21
-8.650113343023567
 31
0.0
  0
LINE
  5
C06
330
C03
100
AcDbEntity
  8
Notes
 62
     0
440
 16777216
370
    -2
100
AcDbLine
 10
10.19117001421348
 20
-8.812305802648543
 30
0.0
 11
10.19117001421348
 21
-8.650113343023567
 31
0.0
  0
LINE
  5
C07
330
C03
100
AcDbEntity
  8
Notes
 62
     0
440
 16777216
370
    -2
100
AcDbLine
 10
10.14817001421338
 20
-8.659113343023566
 30
0.0
 11
10.17617001421348
 21
-8.659113343023566
 31
0.0
  0
LINE
  5
C08
330
C03
100
AcDbEntity
  8
Notes
 62
     0
440
 16777216
370
    -2
100
AcDbLine
 10
10.19117001421348
 20
-8.659113343023566
 30
0.0
 11
10.20617001421348
 21
-8.659113343023566
 31
0.0
  0
SOLID
  5
C09
330
C03
100
AcDbEntity
  8
Notes
 62
     0
440
 16777216
100
AcDbTrace
 10
10.14817001421338
 20
-8.656613343023565
 30
0.0
 11
10.14817001421338
 21
-8.661613343023567
 31
0.0
 12
10.13317001421337
 22
-8.659113343023566
 32
0.0
 13
10.13317001421337
 23
-8.659113343023566
 33
0.0
  0
SOLID
  5
C0A
330
C03
100
AcDbEntity
  8
Notes
 62
     0
440
 16777216
100
AcDbTrace
 10
10.17617001421348
 20
-8.656613343023565
 30
0.0
 11
10.17617001421348
 21
-8.661613343023567
 31
0.0
 12
10.19117001421348
 22
-8.659113343023566
 32
0.0
 13
10.19117001421348
 23
-8.659113343023566
 33
0.0
  0
MTEXT
  5
C0B
330
C03
100
AcDbEntity
  8
Notes
 62
     0
440
 16777216
100
AcDbMText
 10
10.47153913730802
 20
-8.659113343023566
 30
0.0
 40
0.018
 41
0.2722778096269991
 46
0.0
 71
     6
 72
     1
  1
\A1;{\C256;2}x 50 Ohm Transmission Line Gap
  7
Arial
 73
     1
 44
1.0
  0
POINT
  5
C0C
330
C03
100
AcDbEntity
  8
Defpoints
 62
     0
440
 16777216
100
AcDbPoint
 10
10.13317001421337
 20
-8.821680802648543
 30
0.0
  0
POINT
  5
C0D
330
C03
100
AcDbEntity
  8
Defpoints
 62
     0
440
 16777216
100
AcDbPoint
 10
10.19117001421348
 20
-8.821680802648543
 30
0.0
  0
POINT
  5
C0E
330
C03
100
AcDbEntity
  8
Defpoints
 62
     0
440
 16777216
100
AcDbPoint
 10
10.19117001421348
 20
-8.659113343023566
 30
0.0
  0
ENDBLK
  5
C0F
330
C03
100
AcDbEntity
  8
0
100
AcDbBlockEnd
  0
BLOCK
  5
CD3
330
CD2
100
AcDbEntity
  8
0
100
AcDbBlockBegin
  2
*D43
 70
     1
 10
0.0
 20
0.0
 30
0.0
  3
*D43
  1

  0
LINE
  5
D00
330
CD2
100
AcDbEntity
  8
Notes
 62
     0
440
 16777216
370
    -2
100
AcDbLine
 10
-0.0230000000000174
 20
0.2663686834835147
 30
0.0
 11
-0.023000000000017
 21
0.4940260482859314
 31
0.0
  0
LINE
  5
D01
330
CD2
100
AcDbEntity
  8
Notes
 62
     0
440
 16777216
370
    -2
100
AcDbLine
 10
0.0229999999999535
 20
0.2663686834835094
 30
0.0
 11
0.0229999999999539
 21
0.4940260482859312
 31
0.0
  0
LINE
  5
D02
330
CD2
100
AcDbEntity
  8
Notes
 62
     0
440
 16777216
370
    -2
100
AcDbLine
 10
-0.008000000000017
 20
0.4850260482859313
 30
0.0
 11
0.0079999999999539
 21
0.4850260482859313
 31
0.0
  0
LINE
  5
D03
330
CD2
100
AcDbEntity
  8
Notes
 62
     0
440
 16777216
370
    -2
100
AcDbLine
 10
0.0229999999999539
 20
0.4850260482859312
 30
0.0
 11
0.0379999999999539
 21
0.4850260482859312
 31
0.0
  0
SOLID
  5
D04
330
CD2
100
AcDbEntity
  8
Notes
 62
     0
440
 16777216
100
AcDbTrace
 10
-0.008000000000017
 20
0.4875260482859315
 30
0.0
 11
-0.008000000000017
 21
0.4825260482859314
 31
0.0
 12
-0.023000000000017
 22
0.4850260482859313
 32
0.0
 13
-0.023000000000017
 23
0.4850260482859313
 33
0.0
  0
SOLID
  5
D05
330
CD2
100
AcDbEntity
  8
Notes
 62
     0
440
 16777216
100
AcDbTrace
 10
0.0079999999999539
 20
0.4875260482859315
 30
0.0
 11
0.0079999999999539
 21
0.4825260482859314
 31
0.0
 12
0.0229999999999539
 22
0.4850260482859312
 32
0.0
 13
0.0229999999999539
 23
0.4850260482859312
 33
0.0
  0
MTEXT
  5
D06
330
CD2
100
AcDbEntity
  8
Notes
 62
     0
440
 16777216
100
AcDbMText
 10
0.259854924855042
 20
0.4850260482859312
 30
0.0
 40
0.018
 41
0.239801937022591
 46
0.0
 71
     6
 72
     1
  1
\A1;{\C256;1}x 50 Ohm Transmission Line
  7
Arial
 73
     1
 44
1.0
  0
POINT
  5
D07
330
CD2
100
AcDbEntity
  8
Defpoints
 62
     0
440
 16777216
100
AcDbPoint
 10
-0.0230000000000175
 20
0.2569936834835147
 30
0.0
  0
POINT
  5
D08
330
CD2
100
AcDbEntity
  8
Defpoints
 62
     0
440
 16777216
100
AcDbPoint
 10
0.0229999999999535
 20
0.2569936834835094
 30
0.0
  0
POINT
  5
D09
330
CD2
100
AcDbEntity
  8
Defpoints
 62
     0
440
 16777216
100
AcDbPoint
 10
0.0229999999999539
 20
0.4850260482859312
 30
0.0
  0
ENDBLK
  5
CD4
330
CD2
100
AcDbEntity
  8
0
100
AcDbBlockEnd
  0
BLOCK
  5
CE0
330
CDF
100
AcDbEntity
  8
0
100
AcDbBlockBegin
  2
*D44
 70
     1
 10
0.0
 20
0.0
 30
0.0
  3
*D44
  1

  0
LINE
  5
D0A
330
CDF
100
AcDbEntity
  8
Notes
 62
     0
440
 16777216
370
    -2
100
AcDbLine
 10
0.0229999999999535
 20
0.2663686834835094
 30
0.0
 11
0.0229999999999535
 21
0.4285611431084849
 31
0.0
  0
LINE
  5
D0B
330
CDF
100
AcDbEntity
  8
Notes
 62
     0
440
 16777216
370
    -2
100
AcDbLine
 10
0.0810000000000599
 20
0.2663686834835094
 30
0.0
 11
0.08100000000006
 21
0.4285611431084849
 31
0.0
  0
LINE
  5
D0C
330
CDF
100
AcDbEntity
  8
Notes
 62
     0
440
 16777216
370
    -2
100
AcDbLine
 10
0.0379999999999535
 20
0.419561143108485
 30
0.0
 11
0.0660000000000599
 21
0.419561143108485
 31
0.0
  0
LINE
  5
D0D
330
CDF
100
AcDbEntity
  8
Notes
 62
     0
440
 16777216
370
    -2
100
AcDbLine
 10
0.08100000000006
 20
0.419561143108485
 30
0.0
 11
0.0960000000000611
 21
0.419561143108485
 31
0.0
  0
SOLID
  5
D0E
330
CDF
100
AcDbEntity
  8
Notes
 62
     0
440
 16777216
100
AcDbTrace
 10
0.0379999999999535
 20
0.422061143108485
 30
0.0
 11
0.0379999999999535
 21
0.4170611431084849
 31
0.0
 12
0.0229999999999535
 22
0.419561143108485
 32
0.0
 13
0.0229999999999535
 23
0.419561143108485
 33
0.0
  0
SOLID
  5
D0F
330
CDF
100
AcDbEntity
  8
Notes
 62
     0
440
 16777216
100
AcDbTrace
 10
0.0660000000000599
 20
0.422061143108485
 30
0.0
 11
0.0660000000000599
 21
0.4170611431084849
 31
0.0
 12
0.08100000000006
 22
0.419561143108485
 32
0.0
 13
0.08100000000006
 23
0.419561143108485
 33
0.0
  0
MTEXT
  5
D10
330
CDF
100
AcDbEntity
  8
Notes
 62
     0
440
 16777216
100
AcDbMText
 10
0.3613691230945974
 20
0.419561143108485
 30
0.0
 40
0.018
 41
0.2722778096269991
 46
0.0
 71
     6
 72
     1
  1
\A1;{\C256;2}x 50 Ohm Transmission Line Gap
  7
Arial
 73
     1
 44
1.0
  0
POINT
  5
D11
330
CDF
100
AcDbEntity
  8
Defpoints
 62
     0
440
 16777216
100
AcDbPoint
 10
0.0229999999999535
 20
0.2569936834835094
 30
0.0
  0
POINT
  5
D12
330
CDF
100
AcDbEntity
  8
Defpoints
 62
     0
440
 16777216
100
AcDbPoint
 10
0.0810000000000599
 20
0.2569936834835094
 30
0.0
  0
POINT
  5
D13
330
CDF
100
AcDbEntity
  8
Defpoints
 62
     0
440
 16777216
100
AcDbPoint
 10
0.08100000000006
 20
0.419561143108485
 30
0.0
  0
ENDBLK
  5
CE1
330
CDF
100
AcDbEntity
  8
0
100
AcDbBlockEnd
  0
ENDSEC
  0
SECTION
  2
ENTITIES
  0
MTEXT
  5
31C
102
{ACAD_XDICTIONARY
360
31D
102
}
330
1F
100
AcDbEntity
  8
Notes
100
AcDbMText
 10
0.0624028836188817
 20
-0.7106737745695284
 30
0.0
 40
0.02
 41
1.557444249987542
 46
0.0
 71
     5
 72
     5
  3
\pxi-3,l4,ql,t4;{\fArial|b0|i0|c0|p34;\W1;\C7;1.^IThe component has been designed and qualified with this mounting footprint wit\C256;h a 0.020" test \C7;board with Dk value of approximatel\C256;y 3.5 \C7;comprised of commonly used board substrate mat
  3
erials such as RO4350 and Isola I-tera MT40. Deviations from the recommended mounting footprint may reduce RF and power handling performance. It is the customer's responsibility to qualify the component in the end application. \P\pi1,l0,tz;\P\pi-3,l4
  3
,t4;\C256;2.^I1\C7;x 50 ohm transmission line is for reference only and can be oriented in any direction. Customer to determine transmission line and gap dimensions to achieve 50 ohm impedance for end application.\P\pi1,l0,tz;\P\pi-3,l4,t4;3.^ITo ensur
  3
e proper electrical and thermal performance there must be a ground plane with 100% solder connection underneath the part orientated as shown with part marking facing up.\P\pi1,l0,tz;\P\pi-3,l4,t4;4.^IPTH connecting pads to ground are representative. \
  3
P\pi1,l0,tz;\P\pi-3,l4,t4;5.^IGround vias under part should be filled to prevent solder wicking.\P\pi1,l0,tz;\P\pi-3,l4,t4;6.^ISolder mask and solder stencil dimensions may vary due to different manufacturer capabilities and process variations. Layers 
  1
may be modified to account for manufacturer capabilities.\P\pi1,l0,tz;\P\pi-3,l4,t4;7.^IDimensions are in inches.\P\pi1,l0,qr,tz;C10A50Z4_Mounting_Footprint_241029}
  7
RomanS
 73
     1
 44
1.0
101
Embedded Object
 70
     5
 10
1.0
 20
0.0
 30
0.0
 11
0.0624028836188817
 21
-0.7106737745695284
 31
0.0
 40
1.557444249987542
 41
0.0
 42
1.514570259208731
 43
0.6633196907685312
 71
     2
 72
     1
 44
1.557444249987542
 45
0.375
 73
     0
 74
     0
 46
0.6893101517360069
1001
AcadAnnotative
1000
AnnotativeData
1002
{
1070
     1
1070
     0
1002
}
  0
LWPOLYLINE
  5
C74
330
1F
100
AcDbEntity
  8
PCB_Land_Pattern
100
AcDbPolyline
 90
        4
 70
     1
 43
0.0
 10
-0.0460000000000207
 20
0.0749999999999993
 10
-0.0460000000000456
 20
0.0969999999999374
 10
0.0459999999999674
 20
0.0969999999999374
 10
0.0459999999999923
 20
0.0749999999999993
  0
LWPOLYLINE
  5
C75
330
1F
100
AcDbEntity
  8
PCB_Solder_Stencil
100
AcDbPolyline
 90
        4
 70
     1
 43
0.0
 10
-0.0445000000000206
 20
0.0764999999999994
 10
-0.0445000000000455
 20
0.0969999999999587
 10
0.0444999999999674
 20
0.0969999999999587
 10
0.0444999999999922
 20
0.0764999999999994
  0
LWPOLYLINE
  5
C76
330
1F
100
AcDbEntity
  8
PCB_Solder_Mask
100
AcDbPolyline
 90
        4
 70
     1
 43
0.0
 10
-0.048000000000016
 20
0.0729999999999986
 10
-0.0480000000000072
 20
0.1109999999999971
 10
0.0480000000000072
 20
0.1109999999999971
 10
0.0479999999999947
 20
0.0729999999999986
  0
CIRCLE
  5
C77
330
1F
100
AcDbEntity
  8
PCB_Plated_Holes
100
AcDbCircle
 10
0.2043966688156686
 20
0.0401206714501932
 30
0.0
 40
0.0155
  0
CIRCLE
  5
C78
330
1F
100
AcDbEntity
  8
PCB_Plated_Holes
100
AcDbCircle
 10
-0.1956033311841949
 20
0.0401206714501932
 30
0.0
 40
0.0155
  0
CIRCLE
  5
C79
330
1F
100
AcDbEntity
  8
PCB_Plated_Holes
100
AcDbCircle
 10
0.1103793285218657
 20
0.0627729567776889
 30
0.0
 40
0.0155
  0
CIRCLE
  5
C7A
330
1F
100
AcDbEntity
  8
PCB_Plated_Holes
100
AcDbCircle
 10
-0.1099828407385601
 20
-0.0021056829544541
 30
0.0
 40
0.0155
  0
CIRCLE
  5
C7B
330
1F
100
AcDbEntity
  8
PCB_Plated_Holes
100
AcDbCircle
 10
-0.1000000000001577
 20
-0.1021056829544484
 30
0.0
 40
0.0155
  0
CIRCLE
  5
C7C
330
1F
100
AcDbEntity
  8
PCB_Plated_Holes
100
AcDbCircle
 10
-0.1000000000001577
 20
-0.2021056829544428
 30
0.0
 40
0.0155
  0
CIRCLE
  5
C7D
330
1F
100
AcDbEntity
  8
PCB_Plated_Holes
100
AcDbCircle
 10
-0.0000000000001918
 20
-0.1521056829544598
 30
0.0
 40
0.0155
  0
CIRCLE
  5
C7E
330
1F
100
AcDbEntity
  8
PCB_Plated_Holes
100
AcDbCircle
 10
0.0999999999997741
 20
-0.1021056829544484
 30
0.0
 40
0.0155
  0
CIRCLE
  5
C7F
330
1F
100
AcDbEntity
  8
PCB_Plated_Holes
100
AcDbCircle
 10
0.0999999999997741
 20
-0.2021056829544428
 30
0.0
 40
0.0155
  0
CIRCLE
  5
C80
330
1F
100
AcDbEntity
  8
PCB_Plated_Holes
100
AcDbCircle
 10
0.1999999999997399
 20
-0.1021056829544484
 30
0.0
 40
0.0155
  0
CIRCLE
  5
C81
330
1F
100
AcDbEntity
  8
PCB_Plated_Holes
100
AcDbCircle
 10
0.1999999999997399
 20
-0.2021056829544428
 30
0.0
 40
0.0155
  0
CIRCLE
  5
C82
330
1F
100
AcDbEntity
  8
PCB_Plated_Holes
100
AcDbCircle
 10
-0.2000000000001236
 20
-0.1021056829544484
 30
0.0
 40
0.0155
  0
CIRCLE
  5
C83
330
1F
100
AcDbEntity
  8
PCB_Plated_Holes
100
AcDbCircle
 10
-0.2000000000001236
 20
-0.2021056829544428
 30
0.0
 40
0.0155
  0
CIRCLE
  5
C84
330
1F
100
AcDbEntity
  8
PCB_Plated_Holes
100
AcDbCircle
 10
0.1103793285218657
 20
-0.0204898094215373
 30
0.0
 40
0.0155
  0
CIRCLE
  5
C85
330
1F
100
AcDbEntity
  8
Component_Outline
100
AcDbCircle
 10
-0.0013173281509893
 20
0.0411567687757248
 30
0.0
 40
0.015
  0
LWPOLYLINE
  5
C86
330
1F
100
AcDbEntity
  8
Component_Outline
100
AcDbPolyline
 90
        4
 70
     1
 43
0.0
 10
0.0499999999999972
 20
0.0999999999999979
 10
0.0499999999999972
 20
-0.0999999999999979
 10
-0.0499999999999972
 20
-0.0999999999999979
 10
-0.0499999999999972
 20
0.0999999999999979
  0
LWPOLYLINE
  5
C87
330
1F
100
AcDbEntity
  8
Component_Pads
  6
Continuous
100
AcDbPolyline
 90
        8
 70
     1
 43
0.0
 10
-0.0330000000000013
 20
0.0969999999999249
 10
-0.0460000000000065
 20
0.0970000000000173
 10
-0.0460000000000065
 20
0.0749999999999993
 10
0.0459999999999781
 20
0.0749999999999993
 10
0.0459999999999781
 20
0.0970000000000173
 10
0.0330000000000013
 20
0.0969999999999249
 10
0.0330000000000013
 20
0.0999999999999553
 10
-0.0330000000000297
 20
0.0999999999999553
  0
LWPOLYLINE
  5
C88
330
1F
100
AcDbEntity
  8
Component_Pads
  6
Continuous
100
AcDbPolyline
 90
        8
 70
     1
 43
0.0
 10
-0.0465000000000231
 20
0.0399999999999174
 10
-0.0465000000000231
 20
-0.0965000000000593
 10
-0.0330000000000297
 20
-0.0965000000000593
 10
-0.0330000000000297
 20
-0.0999999999999979
 10
0.0330000000000013
 20
-0.0999999999999979
 10
0.0330000000000013
 20
-0.0965000000000593
 10
0.0464999999999947
 20
-0.0965000000000593
 10
0.0464999999999947
 20
0.0399999999999174
  0
LWPOLYLINE
  5
C89
330
1F
100
AcDbEntity
  8
PCB_Land_Pattern
100
AcDbPolyline
 90
        4
 70
     1
 43
0.0
 10
-0.0499999999999972
 20
0.039999999999889
 10
0.0499999999999972
 20
0.039999999999889
 10
0.0499999999999972
 20
-0.0999999999999979
 10
-0.0499999999999972
 20
-0.0999999999999979
  0
LWPOLYLINE
  5
C8A
330
1F
100
AcDbEntity
  8
PCB_Solder_Stencil
100
AcDbPolyline
 90
        4
 70
     1
 43
0.0
 10
-0.0479999999999947
 20
0.0379999999998884
 10
0.0479999999999983
 20
0.0379999999998884
 10
0.0479999999999965
 20
-0.0999999999999979
 10
-0.0479999999999965
 20
-0.0999999999999979
  0
LWPOLYLINE
  5
C8B
330
1F
100
AcDbEntity
  8
PCB_Solder_Mask
100
AcDbPolyline
 90
        4
 70
     1
 43
0.0
 10
-0.0519999999999961
 20
0.0419999999998897
 10
0.0519999999999996
 20
0.0419999999998897
 10
0.0519999999999978
 20
-0.1109999999999971
 10
-0.0519999999999978
 20
-0.1109999999999971
  0
CIRCLE
  5
C8C
330
1F
100
AcDbEntity
  8
PCB_Plated_Holes
100
AcDbCircle
 10
-0.0401337607249985
 20
0.0330941560423916
 30
0.0
 40
0.005
  0
CIRCLE
  5
C8D
330
1F
100
AcDbEntity
  8
PCB_Plated_Holes
100
AcDbCircle
 10
-0.0301337607250076
 20
0.015773647966693
 30
0.0
 40
0.005
  0
CIRCLE
  5
C8E
330
1F
100
AcDbEntity
  8
PCB_Plated_Holes
100
AcDbCircle
 10
-0.0201337607249883
 20
0.0330941560423916
 30
0.0
 40
0.005
  0
CIRCLE
  5
C8F
330
1F
100
AcDbEntity
  8
PCB_Plated_Holes
100
AcDbCircle
 10
-0.0101337607249974
 20
0.015773647966693
 30
0.0
 40
0.005
  0
CIRCLE
  5
C90
330
1F
100
AcDbEntity
  8
PCB_Plated_Holes
100
AcDbCircle
 10
-0.0001337607250065
 20
0.0330941560423916
 30
0.0
 40
0.005
  0
CIRCLE
  5
C91
330
1F
100
AcDbEntity
  8
PCB_Plated_Holes
100
AcDbCircle
 10
0.0098662392750128
 20
0.015773647966693
 30
0.0
 40
0.005
  0
CIRCLE
  5
C92
330
1F
100
AcDbEntity
  8
PCB_Plated_Holes
100
AcDbCircle
 10
0.0198662392750038
 20
0.0330941560423916
 30
0.0
 40
0.005
  0
CIRCLE
  5
C93
330
1F
100
AcDbEntity
  8
PCB_Plated_Holes
100
AcDbCircle
 10
0.0298662392749947
 20
0.015773647966693
 30
0.0
 40
0.005
  0
CIRCLE
  5
C94
330
1F
100
AcDbEntity
  8
PCB_Plated_Holes
100
AcDbCircle
 10
0.039866239275014
 20
0.0330941560423916
 30
0.0
 40
0.005
  0
CIRCLE
  5
C95
330
1F
100
AcDbEntity
  8
PCB_Plated_Holes
100
AcDbCircle
 10
-0.0401337607249985
 20
-0.0015468601089772
 30
0.0
 40
0.005
  0
CIRCLE
  5
C96
330
1F
100
AcDbEntity
  8
PCB_Plated_Holes
100
AcDbCircle
 10
-0.0301337607250076
 20
-0.0188673681846758
 30
0.0
 40
0.005
  0
CIRCLE
  5
C97
330
1F
100
AcDbEntity
  8
PCB_Plated_Holes
100
AcDbCircle
 10
-0.0201337607249883
 20
-0.0015468601089772
 30
0.0
 40
0.005
  0
CIRCLE
  5
C98
330
1F
100
AcDbEntity
  8
PCB_Plated_Holes
100
AcDbCircle
 10
-0.0101337607249974
 20
-0.0188673681846758
 30
0.0
 40
0.005
  0
CIRCLE
  5
C99
330
1F
100
AcDbEntity
  8
PCB_Plated_Holes
100
AcDbCircle
 10
-0.0001337607250065
 20
-0.0015468601089772
 30
0.0
 40
0.005
  0
CIRCLE
  5
C9A
330
1F
100
AcDbEntity
  8
PCB_Plated_Holes
100
AcDbCircle
 10
0.0098662392750128
 20
-0.0188673681846758
 30
0.0
 40
0.005
  0
CIRCLE
  5
C9B
330
1F
100
AcDbEntity
  8
PCB_Plated_Holes
100
AcDbCircle
 10
0.0198662392750038
 20
-0.0015468601089772
 30
0.0
 40
0.005
  0
CIRCLE
  5
C9C
330
1F
100
AcDbEntity
  8
PCB_Plated_Holes
100
AcDbCircle
 10
0.0298662392749947
 20
-0.0188673681846758
 30
0.0
 40
0.005
  0
CIRCLE
  5
C9D
330
1F
100
AcDbEntity
  8
PCB_Plated_Holes
100
AcDbCircle
 10
0.039866239275014
 20
-0.0015468601089772
 30
0.0
 40
0.005
  0
CIRCLE
  5
C9E
330
1F
100
AcDbEntity
  8
PCB_Plated_Holes
100
AcDbCircle
 10
-0.0401337607249985
 20
-0.0361878762603745
 30
0.0
 40
0.005
  0
CIRCLE
  5
C9F
330
1F
100
AcDbEntity
  8
PCB_Plated_Holes
100
AcDbCircle
 10
-0.0301337607250076
 20
-0.0535083843360447
 30
0.0
 40
0.005
  0
CIRCLE
  5
CA0
330
1F
100
AcDbEntity
  8
PCB_Plated_Holes
100
AcDbCircle
 10
-0.0201337607249883
 20
-0.0361878762603745
 30
0.0
 40
0.005
  0
CIRCLE
  5
CA1
330
1F
100
AcDbEntity
  8
PCB_Plated_Holes
100
AcDbCircle
 10
-0.0101337607249974
 20
-0.0535083843360447
 30
0.0
 40
0.005
  0
CIRCLE
  5
CA2
330
1F
100
AcDbEntity
  8
PCB_Plated_Holes
100
AcDbCircle
 10
-0.0001337607250065
 20
-0.0361878762603745
 30
0.0
 40
0.005
  0
CIRCLE
  5
CA3
330
1F
100
AcDbEntity
  8
PCB_Plated_Holes
100
AcDbCircle
 10
0.0098662392750128
 20
-0.0535083843360447
 30
0.0
 40
0.005
  0
CIRCLE
  5
CA4
330
1F
100
AcDbEntity
  8
PCB_Plated_Holes
100
AcDbCircle
 10
0.0198662392750038
 20
-0.0361878762603745
 30
0.0
 40
0.005
  0
CIRCLE
  5
CA5
330
1F
100
AcDbEntity
  8
PCB_Plated_Holes
100
AcDbCircle
 10
0.0298662392749947
 20
-0.0535083843360447
 30
0.0
 40
0.005
  0
CIRCLE
  5
CA6
330
1F
100
AcDbEntity
  8
PCB_Plated_Holes
100
AcDbCircle
 10
0.039866239275014
 20
-0.0361878762603745
 30
0.0
 40
0.005
  0
CIRCLE
  5
CA7
330
1F
100
AcDbEntity
  8
PCB_Plated_Holes
100
AcDbCircle
 10
-0.0401337607249985
 20
-0.0708288924117433
 30
0.0
 40
0.005
  0
CIRCLE
  5
CA8
330
1F
100
AcDbEntity
  8
PCB_Plated_Holes
100
AcDbCircle
 10
-0.0301337607250076
 20
-0.0881494004874419
 30
0.0
 40
0.005
  0
CIRCLE
  5
CA9
330
1F
100
AcDbEntity
  8
PCB_Plated_Holes
100
AcDbCircle
 10
-0.0201337607249883
 20
-0.0708288924117433
 30
0.0
 40
0.005
  0
CIRCLE
  5
CAA
330
1F
100
AcDbEntity
  8
PCB_Plated_Holes
100
AcDbCircle
 10
-0.0101337607249974
 20
-0.0881494004874419
 30
0.0
 40
0.005
  0
CIRCLE
  5
CAB
330
1F
100
AcDbEntity
  8
PCB_Plated_Holes
100
AcDbCircle
 10
-0.0001337607250065
 20
-0.0708288924117433
 30
0.0
 40
0.005
  0
CIRCLE
  5
CAC
330
1F
100
AcDbEntity
  8
PCB_Plated_Holes
100
AcDbCircle
 10
0.0098662392750128
 20
-0.0881494004874419
 30
0.0
 40
0.005
  0
CIRCLE
  5
CAD
330
1F
100
AcDbEntity
  8
PCB_Plated_Holes
100
AcDbCircle
 10
0.0198662392750038
 20
-0.0708288924117433
 30
0.0
 40
0.005
  0
CIRCLE
  5
CAE
330
1F
100
AcDbEntity
  8
PCB_Plated_Holes
100
AcDbCircle
 10
0.0298662392749947
 20
-0.0881494004874419
 30
0.0
 40
0.005
  0
CIRCLE
  5
CAF
330
1F
100
AcDbEntity
  8
PCB_Plated_Holes
100
AcDbCircle
 10
0.039866239275014
 20
-0.0708288924117433
 30
0.0
 40
0.005
  0
CIRCLE
  5
CB0
330
1F
100
AcDbEntity
  8
PCB_Plated_Holes
100
AcDbCircle
 10
-0.0601337607250088
 20
0.0330941560423916
 30
0.0
 40
0.005
  0
CIRCLE
  5
CB1
330
1F
100
AcDbEntity
  8
PCB_Plated_Holes
100
AcDbCircle
 10
-0.0501337607249894
 20
0.015773647966693
 30
0.0
 40
0.005
  0
CIRCLE
  5
CB2
330
1F
100
AcDbEntity
  8
PCB_Plated_Holes
100
AcDbCircle
 10
-0.0601337607250088
 20
-0.0015468601089772
 30
0.0
 40
0.005
  0
CIRCLE
  5
CB3
330
1F
100
AcDbEntity
  8
PCB_Plated_Holes
100
AcDbCircle
 10
-0.0501337607249894
 20
-0.0188673681846758
 30
0.0
 40
0.005
  0
CIRCLE
  5
CB4
330
1F
100
AcDbEntity
  8
PCB_Plated_Holes
100
AcDbCircle
 10
-0.0601337607250088
 20
-0.0361878762603745
 30
0.0
 40
0.005
  0
CIRCLE
  5
CB5
330
1F
100
AcDbEntity
  8
PCB_Plated_Holes
100
AcDbCircle
 10
-0.0501337607249894
 20
-0.0535083843360447
 30
0.0
 40
0.005
  0
CIRCLE
  5
CB6
330
1F
100
AcDbEntity
  8
PCB_Plated_Holes
100
AcDbCircle
 10
-0.0601337607250088
 20
-0.0708288924117433
 30
0.0
 40
0.005
  0
CIRCLE
  5
CB7
330
1F
100
AcDbEntity
  8
PCB_Plated_Holes
100
AcDbCircle
 10
-0.0501337607249894
 20
-0.0881494004874419
 30
0.0
 40
0.005
  0
CIRCLE
  5
CB8
330
1F
100
AcDbEntity
  8
PCB_Plated_Holes
100
AcDbCircle
 10
0.0598662392749958
 20
0.0330941560423916
 30
0.0
 40
0.005
  0
CIRCLE
  5
CB9
330
1F
100
AcDbEntity
  8
PCB_Plated_Holes
100
AcDbCircle
 10
0.0598662392749958
 20
-0.0015468601089772
 30
0.0
 40
0.005
  0
CIRCLE
  5
CBA
330
1F
100
AcDbEntity
  8
PCB_Plated_Holes
100
AcDbCircle
 10
0.0598662392749958
 20
-0.0361878762603745
 30
0.0
 40
0.005
  0
CIRCLE
  5
CBB
330
1F
100
AcDbEntity
  8
PCB_Plated_Holes
100
AcDbCircle
 10
0.0598662392749958
 20
-0.0708288924117433
 30
0.0
 40
0.005
  0
CIRCLE
  5
CBC
330
1F
100
AcDbEntity
  8
PCB_Plated_Holes
100
AcDbCircle
 10
0.0498662392750049
 20
0.015773647966693
 30
0.0
 40
0.005
  0
CIRCLE
  5
CBD
330
1F
100
AcDbEntity
  8
PCB_Plated_Holes
100
AcDbCircle
 10
0.0498662392750049
 20
-0.0188673681846758
 30
0.0
 40
0.005
  0
CIRCLE
  5
CBE
330
1F
100
AcDbEntity
  8
PCB_Plated_Holes
100
AcDbCircle
 10
0.0498662392750049
 20
-0.0535083843360447
 30
0.0
 40
0.005
  0
CIRCLE
  5
CBF
330
1F
100
AcDbEntity
  8
PCB_Plated_Holes
100
AcDbCircle
 10
0.0498662392750049
 20
-0.0881494004874419
 30
0.0
 40
0.005
  0
CIRCLE
  5
CC0
330
1F
100
AcDbEntity
  8
PCB_Plated_Holes
100
AcDbCircle
 10
-0.0401337607249985
 20
-0.1054699085631405
 30
0.0
 40
0.005
  0
CIRCLE
  5
CC1
330
1F
100
AcDbEntity
  8
PCB_Plated_Holes
100
AcDbCircle
 10
-0.0301337607250076
 20
-0.1227904166388392
 30
0.0
 40
0.005
  0
CIRCLE
  5
CC2
330
1F
100
AcDbEntity
  8
PCB_Plated_Holes
100
AcDbCircle
 10
-0.0201337607249883
 20
-0.1054699085631405
 30
0.0
 40
0.005
  0
CIRCLE
  5
CC3
330
1F
100
AcDbEntity
  8
PCB_Plated_Holes
100
AcDbCircle
 10
-0.0101337607249974
 20
-0.1227904166388392
 30
0.0
 40
0.005
  0
CIRCLE
  5
CC4
330
1F
100
AcDbEntity
  8
PCB_Plated_Holes
100
AcDbCircle
 10
-0.0001337607250065
 20
-0.1054699085631405
 30
0.0
 40
0.005
  0
CIRCLE
  5
CC5
330
1F
100
AcDbEntity
  8
PCB_Plated_Holes
100
AcDbCircle
 10
0.0098662392750128
 20
-0.1227904166388392
 30
0.0
 40
0.005
  0
CIRCLE
  5
CC6
330
1F
100
AcDbEntity
  8
PCB_Plated_Holes
100
AcDbCircle
 10
0.0198662392750038
 20
-0.1054699085631405
 30
0.0
 40
0.005
  0
CIRCLE
  5
CC7
330
1F
100
AcDbEntity
  8
PCB_Plated_Holes
100
AcDbCircle
 10
0.0298662392749947
 20
-0.1227904166388392
 30
0.0
 40
0.005
  0
CIRCLE
  5
CC8
330
1F
100
AcDbEntity
  8
PCB_Plated_Holes
100
AcDbCircle
 10
0.039866239275014
 20
-0.1054699085631405
 30
0.0
 40
0.005
  0
CIRCLE
  5
CC9
330
1F
100
AcDbEntity
  8
PCB_Plated_Holes
100
AcDbCircle
 10
-0.0601337607250088
 20
-0.1054699085631405
 30
0.0
 40
0.005
  0
CIRCLE
  5
CCA
330
1F
100
AcDbEntity
  8
PCB_Plated_Holes
100
AcDbCircle
 10
-0.0501337607249894
 20
-0.1227904166388392
 30
0.0
 40
0.005
  0
CIRCLE
  5
CCB
330
1F
100
AcDbEntity
  8
PCB_Plated_Holes
100
AcDbCircle
 10
0.0598662392749958
 20
-0.1054699085631405
 30
0.0
 40
0.005
  0
CIRCLE
  5
CCC
330
1F
100
AcDbEntity
  8
PCB_Plated_Holes
100
AcDbCircle
 10
0.0498662392750049
 20
-0.1227904166388392
 30
0.0
 40
0.005
  0
LWPOLYLINE
  5
CCD
330
1F
100
AcDbEntity
  8
PCB_Top
100
AcDbPolyline
 90
        5
 70
     1
 43
0.0
 10
-0.0000000000000355
 20
0.2569936834835094
 42
-0.6689380582823097
 10
-0.0230000000000175
 20
0.2569936834835094
 10
-0.023000000000021
 20
0.0969999999999374
 10
0.02299999999995
 20
0.0969999999999374
 10
0.0229999999999535
 20
0.2569936834835094
 42
0.7622778616979563
  0
LWPOLYLINE
  5
CCE
330
1F
100
AcDbEntity
  8
PCB_Top
100
AcDbPolyline
 90
       10
 70
     1
 43
0.0
 10
0.2413505680834334
 20
-0.1752626856873878
 42
-0.2088872065035056
 10
0.2576549190734312
 20
0.0839783265553482
 42
0.6820822147750877
 10
0.0810000000000599
 20
0.2569936834835094
 10
0.0810000000000599
 20
0.039999999999889
 10
-0.0810000000001026
 20
0.039999999999889
 10
-0.0810000000001026
 20
0.2569936834835076
 42
0.6408726475045763
 10
-0.2366876943814447
 20
0.1327995385024199
 42
-0.2416323086913184
 10
-0.2644792841051213
 20
-0.0339831937765265
 42
0.8007343385502409
 10
-0.0794833760801765
 20
-0.2671630061827468
 42
-0.2530940745571232
 10
0.1102456221678238
 20
-0.2929345501774829
 42
0.7239667814819473
  0
MULTILEADER
  5
CCF
330
1F
100
AcDbEntity
  8
Notes
160
               676
310
A4020000180000000C00000016000000000000C00C00000033000000000000000C00000013000000993A0000E000000026000000426DC6AC04AAD33F166CE50A58EFD2BF000000000000000000000000000000000000000000000000000000000000F03F000000000000F03FBC89D897B2D2BCBC000000000000000050006C
310
00610074006500640020005400680072007500200048006F006C006500200054006F00200047004E004400000017000000010000007B14AE47E17A943F000000000000F03F0000000000000000000000000000F03F000000000000000000000000000000000000000000000000000000000100000022000000410072006900
310
61006C00000000003200000074000C00000033000000000000000C00000010000000030000000C00000016000000000000C00C00000012000000FF7F00000C00000013000000010000000C0000001400000001000000540000000700000003000000173182E83D75C03F566252E81DEFCDBF0000000000000000034477CFF1
310
3CBD3FC1C6F31FEF42CBBF0000000000000000FA4D8822B139C13F7ED8B9B37331CDBF00000000000000000C00000014000000010000000C00000013000000891300003C0000000600000002000000883F858577D7C03F6A1D06CE4890CDBF0000000000000000FED5C034AB9AC73F5F4140BDB548D2BF0000000000000000
310
0C00000013000000112700003C0000000600000002000000FED5C034AB9AC73F5F4140BDB548D2BF000000000000000066D1C600BC33D23F604140BDB548D2BF00000000000000000C00000016000000000000C00C00000012000000FF7F00000C00000017000000000000000C000000130000009A3A00000C000000160000
310
00000000C00C00000012000000FF7F00000C00000017000000FFFFFFFF0C0000003300000000000000
100
AcDbMLeader
270
     2
300
CONTEXT_DATA{
 40
1.0
 10
0.2844076163849167
 20
-0.2856878612665437
 30
0.0
 41
0.02
140
0.025
145
0.025
174
     1
175
     1
176
     0
177
     0
290
     1
304
Plated Thru Hole To GND
 11
0.0
 21
0.0
 31
1.0
340
DC
 12
0.3094076163849166
 22
-0.2755173292065152
 32
0.0
 13
1.0
 23
-0.0000000000000004
 33
0.0
 42
0.0
 43
0.3698292346132204
 44
0.0
 45
1.0
170
     1
 90
-1073741824
171
     1
172
     5
 91
-1073741824
141
0.0
 92
        0
291
     0
292
     0
173
     0
293
     0
142
0.0
143
0.0
294
     0
295
     0
296
     0
110
0.7397642257365363
120
0.1278715661430265
130
0.0
111
1.0
121
-0.0000000000000004
131
0.0
112
0.0000000000000004
122
1.0
132
0.0
297
     0
302
LEADER{
290
     1
291
     1
 10
0.1844076163849166
 20
-0.2856878612665436
 30
0.0
 11
1.0
 21
-0.0000000000000004
 31
0.0
 90
        0
 40
0.1
304
LEADER_LINE{
 10
0.1142111903675556
 20
-0.2129801660553792
 30
0.0
 91
        0
305
}
271
     0
303
}
272
     9
273
     9
301
}
340
25C
 90
   345632
170
     1
 91
-1056964608
341
14
171
    -2
290
     1
291
     1
 41
0.1
 42
0.025
172
     2
343
DC
173
     1
 95
        1
174
     1
175
     0
 92
-1056964608
292
     0
 93
-1056964608
 10
1.0
 20
1.0
 30
1.0
 43
0.0
176
     0
293
     0
294
     0
178
     0
179
     1
 45
1.0
271
     0
272
     9
273
     9
295
     0
  0
DIMENSION
  5
CD0
330
1F
100
AcDbEntity
  8
Notes
 62
     7
100
AcDbDimension
280
     0
  2
*D43
 10
0.0229999999999539
 20
0.4850260482859312
 30
0.0
 11
0.1399539563437465
 21
0.4850260482859312
 31
0.0
 70
   160
  1
{\C256;1}x 50 Ohm Transmission Line
 71
     6
 42
0.045999999999971
 73
     0
 74
     0
 75
     0
  3
Mounting
100
AcDbAlignedDimension
 13
-0.0230000000000175
 23
0.2569936834835147
 33
0.0
 14
0.0229999999999535
 24
0.2569936834835094
 34
0.0
 50
179.9999999999999
100
AcDbRotatedDimension
1001
ACAD
1000
DSTYLE
1002
{
1070
    41
1040
0.1
1070
   147
1040
0.005
1002
}
  0
DIMENSION
  5
CD1
330
1F
100
AcDbEntity
  8
Notes
 62
     7
100
AcDbDimension
280
     0
  2
*D44
 10
0.08100000000006
 20
0.419561143108485
 30
0.0
 11
0.2252302182810979
 21
0.419561143108485
 31
0.0
 70
   160
  1
{\C256;2}x 50 Ohm Transmission Line Gap
 71
     6
 42
0.0580000000001064
 73
     0
 74
     0
 75
     0
  3
Mounting
100
AcDbAlignedDimension
 13
0.0229999999999535
 23
0.2569936834835094
 33
0.0
 14
0.0810000000000599
 24
0.2569936834835094
 34
0.0
 50
180.0
100
AcDbRotatedDimension
1001
ACAD
1000
DSTYLE
1002
{
1070
    41
1040
0.1
1070
   147
1040
0.005
1002
}
  0
ENDSEC
  0
SECTION
  2
OBJECTS
  0
DICTIONARY
  5
C
330
0
100
AcDbDictionary
281
     1
  3
ACAD_CIP_PREVIOUS_PRODUCT_INFO
350
1A5
  3
ACAD_COLOR
350
73
  3
ACAD_DETAILVIEWSTYLE
350
1AB
  3
ACAD_GROUP
350
D
  3
ACAD_LAYOUT
350
1A
  3
ACAD_MATERIAL
350
72
  3
ACAD_MLEADERSTYLE
350
D7
  3
ACAD_MLINESTYLE
350
17
  3
ACAD_PLOTSETTINGS
350
19
  3
ACAD_PLOTSTYLENAME
350
E
  3
ACAD_SCALELIST
350
B6
  3
ACAD_SECTIONVIEWSTYLE
350
1A8
  3
ACAD_TABLESTYLE
350
86
  3
ACAD_VISUALSTYLE
350
99
  3
ACDB_RECOMPOSE_DATA
350
D2B
  3
AcDbVariableDictionary
350
66
  3
AEC_PROPERTY_SET_DEFS
350
297
  0
DICTIONARY
  5
18E
330
2
100
AcDbDictionary
280
     1
281
     1
  3
ACAD_LAYERSTATES
360
18F
  0
DICTIONARY
  5
E6
330
10
100
AcDbDictionary
280
     1
281
     1
  0
DICTIONARY
  5
24C
330
24B
100
AcDbDictionary
280
     1
281
     1
  0
DICTIONARY
  5
251
330
250
100
AcDbDictionary
280
     1
281
     1
  0
DICTIONARY
  5
15D
330
1F
100
AcDbDictionary
280
     1
281
     1
  0
DICTIONARY
  5
31D
330
31C
100
AcDbDictionary
280
     1
281
     1
  3
AcDbContextDataManager
360
31E
  0
XRECORD
  5
1A5
102
{ACAD_REACTORS
330
C
102
}
330
C
100
AcDbXrecord
280
     1
300
ACD
300
2021
300

  0
DICTIONARY
  5
73
102
{ACAD_REACTORS
330
C
102
}
330
C
100
AcDbDictionary
281
     1
  0
DICTIONARY
  5
1AB
102
{ACAD_REACTORS
330
C
102
}
330
C
100
AcDbDictionary
281
     1
  3
Imperial24
350
1AC
  0
DICTIONARY
  5
D
102
{ACAD_REACTORS
330
C
102
}
330
C
100
AcDbDictionary
281
     1
  0
DICTIONARY
  5
1A
102
{ACAD_REACTORS
330
C
102
}
330
C
100
AcDbDictionary
281
     1
  3
Layout1
350
59
  3
Layout2
350
5E
  3
Model
350
22
  0
DICTIONARY
  5
72
102
{ACAD_REACTORS
330
C
102
}
330
C
100
AcDbDictionary
281
     1
  3
ByBlock
350
97
  3
ByLayer
350
96
  3
Global
350
98
  0
DICTIONARY
  5
D7
102
{ACAD_REACTORS
330
C
102
}
330
C
100
AcDbDictionary
281
     1
  3
Annotative
350
E5
  3
datasheet
350
25C
  3
Standard
350
D8
  0
DICTIONARY
  5
17
102
{ACAD_REACTORS
330
C
102
}
330
C
100
AcDbDictionary
281
     1
  3
Standard
350
18
  0
DICTIONARY
  5
19
102
{ACAD_REACTORS
330
C
102
}
330
C
100
AcDbDictionary
281
     1
  0
ACDBDICTIONARYWDFLT
  5
E
102
{ACAD_REACTORS
330
C
102
}
330
C
100
AcDbDictionary
281
     1
  3
Normal
350
F
100
AcDbDictionaryWithDefault
340
F
  0
DICTIONARY
  5
B6
102
{ACAD_REACTORS
330
C
102
}
330
C
100
AcDbDictionary
281
     1
  3
A0
350
B7
  3
A1
350
124
  3
A2
350
125
  3
A3
350
126
  3
A4
350
127
  3
A5
350
128
  3
A6
350
129
  3
A7
350
12A
  3
A8
350
12B
  3
A9
350
12C
  3
B0
350
12D
  3
B1
350
12E
  3
B2
350
12F
  3
B3
350
130
  3
B4
350
131
  3
B5
350
132
  3
B6
350
133
  3
B7
350
134
  3
B8
350
135
  3
B9
350
136
  3
C0
350
137
  3
C1
350
138
  3
C2
350
139
  3
C3
350
13A
  3
C4
350
13B
  3
C5
350
13C
  3
C6
350
13D
  3
C7
350
13E
  3
C8
350
13F
  3
C9
350
140
  3
D0
350
141
  3
D1
350
142
  3
D2
350
143
  0
DICTIONARY
  5
1A8
102
{ACAD_REACTORS
330
C
102
}
330
C
100
AcDbDictionary
281
     1
  3
Imperial24
350
1AA
  0
DICTIONARY
  5
86
102
{ACAD_REACTORS
330
C
102
}
330
C
100
AcDbDictionary
281
     1
  3
Standard
350
87
  0
DICTIONARY
  5
99
102
{ACAD_REACTORS
330
C
102
}
330
C
100
AcDbDictionary
281
     1
  3
2dWireframe
350
9F
  3
Basic
350
9E
  3
Brighten
350
A5
  3
ColorChange
350
A9
  3
Conceptual
350
A2
  3
Dim
350
A4
  3
EdgeColorOff
350
175
  3
Facepattern
350
A8
  3
Flat
350
9A
  3
FlatWithEdges
350
9B
  3
Gouraud
350
9C
  3
GouraudWithEdges
350
9D
  3
Hidden
350
A1
  3
JitterOff
350
173
  3
Linepattern
350
A7
  3
OverhangOff
350
174
  3
Realistic
350
A3
  3
Shaded
350
182
  3
Shaded with edges
350
181
  3
Shades of Gray
350
17E
  3
Sketchy
350
17F
  3
Thicken
350
A6
  3
Wireframe
350
A0
  3
X-Ray
350
180
  0
XRECORD
  5
D2B
102
{ACAD_REACTORS
330
C
102
}
330
C
100
AcDbXrecord
280
     1
 90
        1
330
87
  0
DICTIONARY
  5
66
102
{ACAD_REACTORS
330
C
102
}
330
C
100
AcDbDictionary
281
     1
  3
CANNOSCALE
350
F0
  3
CMLEADERSTYLE
350
EF
  3
CTABLESTYLE
350
89
  3
CVIEWDETAILSTYLE
350
1B7
  3
CVIEWSECTIONSTYLE
350
1B8
  3
DIMASSOC
350
67
  3
HIDETEXT
350
6B
  3
LAYEREVAL
350
14D
  3
LAYERNOTIFY
350
14E
  0
DICTIONARY
  5
297
102
{ACAD_REACTORS
330
C
102
}
330
C
100
AcDbDictionary
281
     1
  0
DICTIONARY
  5
18F
102
{ACAD_REACTORS
330
18E
102
}
330
18E
100
AcDbDictionary
281
     1
  0
DICTIONARY
  5
31E
102
{ACAD_REACTORS
330
31D
102
}
330
31D
100
AcDbDictionary
281
     1
  3
ACDB_ANNOTATIONSCALES
350
31F
  0
ACDBDETAILVIEWSTYLE
  5
1AC
102
{ACAD_REACTORS
330
1AB
102
}
330
1AB
100
AcDbModelDocViewStyle
 70
     0
  3
Imperial24
290
     0
300
Imperial24
 90
        0
100
AcDbDetailViewStyle
 70
     0
 71
     0
 90
        3
 71
     1
340
11
 62
   256
 40
0.24
340
0
 62
   256
 40
0.24
300

 40
0.36
280
     3
 71
     2
340
16
 90
       25
 62
   256
 71
     3
340
11
 62
   256
 40
0.24
 90
        1
 40
0.75
 90
        1
300
%<\AcVar ViewType \f "%tc1">% %<\AcVar ViewDetailId>%\PSCALE %<\AcVar ViewScale \f "%sn">%
 71
     4
340
16
 90
       25
 62
   256
340
16
 90
       25
 62
   256
280
     0
  0
LAYOUT
  5
59
102
{ACAD_REACTORS
330
1A
102
}
330
1A
100
AcDbPlotSettings
  1

  2
None
  4

  6

 40
0.0
 41
0.0
 42
0.0
 43
0.0
 44
0.0
 45
0.0
 46
0.0
 47
0.0
 48
0.0
 49
0.0
140
0.0
141
0.0
142
1.0
143
1.0
 70
   688
 72
     0
 73
     0
 74
     5
  7

 75
    16
147
1.0
 76
     0
 77
     2
 78
   300
148
0.0
149
0.0
100
AcDbLayout
  1
Layout1
 70
     1
 71
     1
 10
0.0
 20
0.0
 11
12.0
 21
9.0
 12
0.0
 22
0.0
 32
0.0
 14
0.0
 24
0.0
 34
0.0
 15
0.0
 25
0.0
 35
0.0
146
0.0
 13
0.0
 23
0.0
 33
0.0
 16
1.0
 26
0.0
 36
0.0
 17
0.0
 27
1.0
 37
0.0
 76
     0
330
58
  0
LAYOUT
  5
5E
102
{ACAD_REACTORS
330
1A
102
}
330
1A
100
AcDbPlotSettings
  1

  2
None
  4

  6

 40
0.0
 41
0.0
 42
0.0
 43
0.0
 44
0.0
 45
0.0
 46
0.0
 47
0.0
 48
0.0
 49
0.0
140
0.0
141
0.0
142
1.0
143
1.0
 70
   688
 72
     0
 73
     0
 74
     5
  7

 75
    16
147
1.0
 76
     0
 77
     2
 78
   300
148
0.0
149
0.0
100
AcDbLayout
  1
Layout2
 70
     1
 71
     2
 10
0.0
 20
0.0
 11
12.0
 21
9.0
 12
0.0
 22
0.0
 32
0.0
 14
0.0
 24
0.0
 34
0.0
 15
0.0
 25
0.0
 35
0.0
146
0.0
 13
0.0
 23
0.0
 33
0.0
 16
1.0
 26
0.0
 36
0.0
 17
0.0
 27
1.0
 37
0.0
 76
     0
330
5D
  0
LAYOUT
  5
22
102
{ACAD_XDICTIONARY
360
194
102
}
102
{ACAD_REACTORS
330
1A
102
}
330
1A
100
AcDbPlotSettings
  1

  2
none_device
  4
ANSI_A_(8.50_x_11.00_Inches)
  6

 40
6.349999904632567
 41
19.04999923706055
 42
6.350006103515625
 43
19.04998779296875
 44
215.8999938964844
 45
279.3999938964844
 46
0.0
 47
0.0
 48
0.0
 49
0.0
140
0.0
141
0.0
142
1.0
143
2.584895464708373
 70
 11952
 72
     0
 73
     1
 74
     0
  7

 75
     0
147
0.3868628397755418
 76
     0
 77
     2
 78
   300
148
0.0
149
0.0
100
AcDbLayout
  1
Model
 70
     1
 71
     0
 10
0.0
 20
0.0
 11
12.0
 21
9.0
 12
0.0
 22
0.0
 32
0.0
 14
0.0
 24
0.0
 34
0.0
 15
0.0
 25
0.0
 35
0.0
146
0.0
 13
0.0
 23
0.0
 33
0.0
 16
1.0
 26
0.0
 36
0.0
 17
0.0
 27
1.0
 37
0.0
 76
     0
330
1F
331
94
  0
MATERIAL
  5
97
102
{ACAD_XDICTIONARY
360
188
102
}
102
{ACAD_REACTORS
330
72
102
}
330
72
100
AcDbMaterial
  1
ByBlock
 94
       63
  0
MATERIAL
  5
96
102
{ACAD_XDICTIONARY
360
186
102
}
102
{ACAD_REACTORS
330
72
102
}
330
72
100
AcDbMaterial
  1
ByLayer
 94
       63
  0
MATERIAL
  5
98
102
{ACAD_XDICTIONARY
360
110
102
}
102
{ACAD_REACTORS
330
72
102
}
330
72
100
AcDbMaterial
  1
Global
 43
0.0208000000566244
 43
0.0
 43
0.0
 43
0.0
 43
0.0
 43
0.0208000000566244
 43
0.0
 43
0.0
 43
0.0
 43
0.0
 43
1.0
 43
0.0
 43
0.0
 43
0.0
 43
0.0
 43
1.0
 49
0.0208000000566244
 49
0.0
 49
0.0
 49
0.0
 49
0.0
 49
0.0208000000566244
 49
0.0
 49
0.0
 49
0.0
 49
0.0
 49
1.0
 49
0.0
 49
0.0
 49
0.0
 49
0.0
 49
1.0
142
0.0208000000566244
142
0.0
142
0.0
142
0.0
142
0.0
142
0.0208000000566244
142
0.0
142
0.0
142
0.0
142
0.0
142
1.0
142
0.0
142
0.0
142
0.0
142
0.0
142
1.0
144
0.0208000000566244
144
0.0
144
0.0
144
0.0
144
0.0
144
0.0208000000566244
144
0.0
144
0.0
144
0.0
144
0.0
144
1.0
144
0.0
144
0.0
144
0.0
144
0.0
144
1.0
 94
       63
1001
ACAD
1070
    -1
1070
     3
1070
     0
1000

1071
        0
1070
     0
  0
MLEADERSTYLE
  5
E5
102
{ACAD_REACTORS
330
D7
102
}
330
D7
100
AcDbMLeaderStyle
179
     2
170
     2
171
     1
172
     0
 90
        2
 40
0.0
 41
0.0
173
     1
 91
-1056964608
340
14
 92
       -2
290
     1
 42
0.09
291
     1
 43
0.36
  3
Standard
 44
0.18
300

342
11
174
     1
178
     1
175
     1
176
     0
 93
-1056964608
 45
0.18
292
     0
297
     0
 46
0.18
 94
-1056964608
 47
1.0
 49
1.0
140
1.0
293
     1
141
0.0
294
     1
177
     0
142
1.0
295
     0
296
     1
143
0.125
271
     0
272
     9
273
     9
298
     0
  0
MLEADERSTYLE
  5
25C
102
{ACAD_REACTORS
330
D7
330
CCF
102
}
330
D7
100
AcDbMLeaderStyle
179
     2
170
     2
171
     1
172
     0
 90
        2
 40
0.0
 41
0.0
173
     1
 91
-1056964608
340
14
 92
       -2
290
     1
 42
0.05
291
     1
 43
0.1
  3
Standard
 44
0.075
300

342
DC
174
     1
178
     1
175
     1
176
     0
 93
-1056964608
 45
0.1
292
     0
297
     0
 46
0.18
 94
-1056964608
 47
1.0
 49
1.0
140
1.0
293
     1
141
0.0
294
     1
177
     0
142
1.0
295
     0
296
     0
143
0.1
271
     0
272
     9
273
     9
298
     0
  0
MLEADERSTYLE
  5
D8
102
{ACAD_REACTORS
330
D7
102
}
330
D7
100
AcDbMLeaderStyle
179
     2
170
     2
171
     1
172
     0
 90
        2
 40
0.0
 41
0.0
173
     1
 91
-1056964608
340
14
 92
       -2
290
     1
 42
0.09
291
     1
 43
0.36
  3
Standard
 44
0.18
300

342
11
174
     1
178
     1
175
     1
176
     0
 93
-1056964608
 45
0.18
292
     0
297
     0
 46
0.18
 94
-1056964608
 47
1.0
 49
1.0
140
1.0
293
     1
141
0.0
294
     1
177
     0
142
1.0
295
     0
296
     0
143
0.125
271
     0
272
     9
273
     9
298
     0
  0
MLINESTYLE
  5
18
102
{ACAD_REACTORS
330
17
102
}
330
17
100
AcDbMlineStyle
  2
STANDARD
 70
     0
  3

 62
   256
 51
90.0
 52
90.0
 71
     2
 49
0.5
 62
   256
  6
BYLAYER
 49
-0.5
 62
   256
  6
BYLAYER
  0
ACDBPLACEHOLDER
  5
F
102
{ACAD_REACTORS
330
E
102
}
330
E
  0
SCALE
  5
B7
102
{ACAD_REACTORS
330
B6
102
}
330
B6
100
AcDbScale
 70
     0
300
1:1
140
1.0
141
1.0
290
     1
  0
SCALE
  5
124
102
{ACAD_REACTORS
330
B6
102
}
330
B6
100
AcDbScale
 70
     0
300
1:2
140
1.0
141
2.0
290
     0
  0
SCALE
  5
125
102
{ACAD_REACTORS
330
B6
102
}
330
B6
100
AcDbScale
 70
     0
300
1:4
140
1.0
141
4.0
290
     0
  0
SCALE
  5
126
102
{ACAD_REACTORS
330
B6
102
}
330
B6
100
AcDbScale
 70
     0
300
1:5
140
1.0
141
5.0
290
     0
  0
SCALE
  5
127
102
{ACAD_REACTORS
330
B6
102
}
330
B6
100
AcDbScale
 70
     0
300
1:8
140
1.0
141
8.0
290
     0
  0
SCALE
  5
128
102
{ACAD_REACTORS
330
B6
102
}
330
B6
100
AcDbScale
 70
     0
300
1:10
140
1.0
141
10.0
290
     0
  0
SCALE
  5
129
102
{ACAD_REACTORS
330
B6
102
}
330
B6
100
AcDbScale
 70
     0
300
1:16
140
1.0
141
16.0
290
     0
  0
SCALE
  5
12A
102
{ACAD_REACTORS
330
B6
102
}
330
B6
100
AcDbScale
 70
     0
300
1:20
140
1.0
141
20.0
290
     0
  0
SCALE
  5
12B
102
{ACAD_REACTORS
330
B6
102
}
330
B6
100
AcDbScale
 70
     0
300
1:30
140
1.0
141
30.0
290
     0
  0
SCALE
  5
12C
102
{ACAD_REACTORS
330
B6
102
}
330
B6
100
AcDbScale
 70
     0
300
1:40
140
1.0
141
40.0
290
     0
  0
SCALE
  5
12D
102
{ACAD_REACTORS
330
B6
102
}
330
B6
100
AcDbScale
 70
     0
300
1:50
140
1.0
141
50.0
290
     0
  0
SCALE
  5
12E
102
{ACAD_REACTORS
330
B6
102
}
330
B6
100
AcDbScale
 70
     0
300
1:100
140
1.0
141
100.0
290
     0
  0
SCALE
  5
12F
102
{ACAD_REACTORS
330
B6
102
}
330
B6
100
AcDbScale
 70
     0
300
2:1
140
2.0
141
1.0
290
     0
  0
SCALE
  5
130
102
{ACAD_REACTORS
330
B6
102
}
330
B6
100
AcDbScale
 70
     0
300
4:1
140
4.0
141
1.0
290
     0
  0
SCALE
  5
131
102
{ACAD_REACTORS
330
B6
102
}
330
B6
100
AcDbScale
 70
     0
300
8:1
140
8.0
141
1.0
290
     0
  0
SCALE
  5
132
102
{ACAD_REACTORS
330
B6
102
}
330
B6
100
AcDbScale
 70
     0
300
10:1
140
10.0
141
1.0
290
     0
  0
SCALE
  5
133
102
{ACAD_REACTORS
330
B6
102
}
330
B6
100
AcDbScale
 70
     0
300
100:1
140
100.0
141
1.0
290
     0
  0
SCALE
  5
134
102
{ACAD_REACTORS
330
B6
102
}
330
B6
100
AcDbScale
 70
     0
300
1/128" = 1'-0"
140
0.0078125
141
12.0
290
     0
  0
SCALE
  5
135
102
{ACAD_REACTORS
330
B6
102
}
330
B6
100
AcDbScale
 70
     0
300
1/64" = 1'-0"
140
0.015625
141
12.0
290
     0
  0
SCALE
  5
136
102
{ACAD_REACTORS
330
B6
102
}
330
B6
100
AcDbScale
 70
     0
300
1/32" = 1'-0"
140
0.03125
141
12.0
290
     0
  0
SCALE
  5
137
102
{ACAD_REACTORS
330
B6
102
}
330
B6
100
AcDbScale
 70
     0
300
1/16" = 1'-0"
140
0.0625
141
12.0
290
     0
  0
SCALE
  5
138
102
{ACAD_REACTORS
330
B6
102
}
330
B6
100
AcDbScale
 70
     0
300
3/32" = 1'-0"
140
0.09375
141
12.0
290
     0
  0
SCALE
  5
139
102
{ACAD_REACTORS
330
B6
102
}
330
B6
100
AcDbScale
 70
     0
300
1/8" = 1'-0"
140
0.125
141
12.0
290
     0
  0
SCALE
  5
13A
102
{ACAD_REACTORS
330
B6
102
}
330
B6
100
AcDbScale
 70
     0
300
3/16" = 1'-0"
140
0.1875
141
12.0
290
     0
  0
SCALE
  5
13B
102
{ACAD_REACTORS
330
B6
102
}
330
B6
100
AcDbScale
 70
     0
300
1/4" = 1'-0"
140
0.25
141
12.0
290
     0
  0
SCALE
  5
13C
102
{ACAD_REACTORS
330
B6
102
}
330
B6
100
AcDbScale
 70
     0
300
3/8" = 1'-0"
140
0.375
141
12.0
290
     0
  0
SCALE
  5
13D
102
{ACAD_REACTORS
330
B6
102
}
330
B6
100
AcDbScale
 70
     0
300
1/2" = 1'-0"
140
0.5
141
12.0
290
     0
  0
SCALE
  5
13E
102
{ACAD_REACTORS
330
B6
102
}
330
B6
100
AcDbScale
 70
     0
300
3/4" = 1'-0"
140
0.75
141
12.0
290
     0
  0
SCALE
  5
13F
102
{ACAD_REACTORS
330
B6
102
}
330
B6
100
AcDbScale
 70
     0
300
1" = 1'-0"
140
1.0
141
12.0
290
     0
  0
SCALE
  5
140
102
{ACAD_REACTORS
330
B6
102
}
330
B6
100
AcDbScale
 70
     0
300
1-1/2" = 1'-0"
140
1.5
141
12.0
290
     0
  0
SCALE
  5
141
102
{ACAD_REACTORS
330
B6
102
}
330
B6
100
AcDbScale
 70
     0
300
3" = 1'-0"
140
3.0
141
12.0
290
     0
  0
SCALE
  5
142
102
{ACAD_REACTORS
330
B6
102
}
330
B6
100
AcDbScale
 70
     0
300
6" = 1'-0"
140
6.0
141
12.0
290
     0
  0
SCALE
  5
143
102
{ACAD_REACTORS
330
B6
102
}
330
B6
100
AcDbScale
 70
     0
300
1'-0" = 1'-0"
140
12.0
141
12.0
290
     0
  0
ACDBSECTIONVIEWSTYLE
  5
1AA
102
{ACAD_REACTORS
330
1A8
102
}
330
1A8
100
AcDbModelDocViewStyle
 70
     0
  3
Imperial24
290
     0
300
Imperial24
 90
        0
100
AcDbSectionViewStyle
 70
     0
 71
     0
 90
       78
 71
     1
340
11
 62
   256
 40
0.24
340
0
340
0
 62
   256
 40
0.24
300
I, O, Q, S, X, Z
 40
0.48
 90
        3
 40
0.18
 90
        1
 71
     2
340
16
 90
       25
 62
   256
340
16
 90
       50
 62
   256
 40
0.24
 40
0.0
 40
0.24
 71
     3
340
11
 62
   256
 40
0.24
 90
        1
 40
0.75
 90
        1
300
%<\AcVar ViewType \f "%tc1">% %<\AcVar ViewSectionStartId>%-%<\AcVar ViewSectionEndId>%\PSCALE %<\AcVar ViewScale \f "%sn">%
 71
     4
 62
   256
 62
   257
300
ANSI31
 40
1.0
 90
        0
290
     0
290
     0
 90
        6
 40
0.0
 40
1.570796326794896
 40
0.2617993877991494
 40
1.308996938995747
 40
-0.2617993877991494
 40
1.832595714594044
  0
TABLESTYLE
  5
87
102
{ACAD_XDICTIONARY
360
104
102
}
102
{ACAD_REACTORS
330
86
102
}
330
86
100
AcDbTableStyle
280
     0
  3
Standard
 70
     0
 71
     0
 40
0.06
 41
0.06
280
     0
281
     0
  7
Standard
140
0.18
170
     2
 62
     0
 63
     7
283
     0
 90
      512
 91
        0
  1

274
    -2
284
     1
 64
     0
275
    -2
285
     1
 65
     0
276
    -2
286
     1
 66
     0
277
    -2
287
     1
 67
     0
278
    -2
288
     1
 68
     0
279
    -2
289
     1
 69
     0
  7
Standard
140
0.25
170
     5
 62
     0
 63
     7
283
     0
 90
      512
 91
        0
  1

274
    -2
284
     1
 64
     0
275
    -2
285
     1
 65
     0
276
    -2
286
     1
 66
     0
277
    -2
287
     1
 67
     0
278
    -2
288
     1
 68
     0
279
    -2
289
     1
 69
     0
  7
Standard
140
0.18
170
     5
 62
     0
 63
     7
283
     0
 90
      512
 91
        0
  1

274
    -2
284
     1
 64
     0
275
    -2
285
     1
 65
     0
276
    -2
286
     1
 66
     0
277
    -2
287
     1
 67
     0
278
    -2
288
     1
 68
     0
279
    -2
289
     1
 69
     0
  0
VISUALSTYLE
  5
9F
102
{ACAD_REACTORS
330
99
102
}
330
99
100
AcDbVisualStyle
  2
2dWireframe
 70
     4
177
     3
291
     0
 70
    58
 90
        0
176
     1
 90
        2
176
     1
 90
        1
176
     1
 90
        0
176
     1
 40
0.6
176
     1
 40
30.0
176
     1
 62
     7
420
 16777215
176
     1
 90
        1
176
     1
 90
        4
176
     1
 62
     7
176
     1
 62
   257
176
     1
 90
        1
176
     1
 90
        1
176
     1
 40
1.0
176
     1
 90
        0
176
     1
 62
   257
176
     1
 40
1.0
176
     1
 90
        1
176
     1
 90
        6
176
     1
 90
        2
176
     1
 62
     7
176
     1
 90
        5
176
     1
 90
        0
176
     1
 90
        0
176
     1
290
     0
176
     1
 90
        1
176
     1
 40
0.0
176
     1
 90
        0
176
     1
290
     1
176
     1
290
     1
176
     1
290
     0
176
     1
290
     0
176
     1
290
     0
176
     1
290
     0
176
     1
290
     0
176
     1
290
     0
176
     1
290
     0
176
     1
 90
       50
176
     1
 40
0.0
176
     1
 40
1.0
176
     1
 90
        0
176
     1
 62
    18
176
     1
 90
       50
176
     1
 90
        3
176
     1
 62
     5
420
      255
176
     1
290
     0
176
     1
 90
       50
176
     1
 90
       50
176
     1
 90
       50
176
     1
290
     0
176
     1
 90
       50
176
     1
 62
   256
176
     0
 40
1.0
176
     0
 90
        2
176
     1
  1
strokes_ogs.tif
176
     1
290
     0
176
     1
 40
1.0
176
     1
 40
1.0
176
     1
  0
VISUALSTYLE
  5
9E
102
{ACAD_REACTORS
330
99
102
}
330
99
100
AcDbVisualStyle
  2
Basic
 70
     7
177
     3
291
     1
 70
    58
 90
        1
176
     1
 90
        0
176
     1
 90
        1
176
     1
 90
        0
176
     1
 40
0.6
176
     1
 40
30.0
176
     1
 62
     7
420
 16777215
176
     1
 90
        0
176
     1
 90
        4
176
     1
 62
     7
176
     1
 62
   257
176
     1
 90
        1
176
     1
 90
        1
176
     1
 40
1.0
176
     1
 90
        8
176
     1
 62
     7
176
     1
 40
1.0
176
     1
 90
        1
176
     1
 90
        6
176
     1
 90
        2
176
     1
 62
     7
176
     1
 90
        5
176
     1
 90
        0
176
     1
 90
        0
176
     1
290
     0
176
     1
 90
        1
176
     1
 40
0.0
176
     1
 90
        0
176
     1
290
     0
176
     1
290
     1
176
     1
290
     1
176
     1
290
     0
176
     1
290
     0
176
     1
290
     0
176
     1
290
     0
176
     1
290
     0
176
     1
290
     0
176
     1
 90
       50
176
     1
 40
0.0
176
     1
 40
1.0
176
     1
 90
        0
176
     1
 62
    18
176
     1
 90
       50
176
     1
 90
        3
176
     1
 62
     5
420
      255
176
     1
290
     0
176
     1
 90
       50
176
     1
 90
       50
176
     1
 90
       50
176
     1
290
     0
176
     1
 90
       50
176
     1
 62
   256
176
     0
 40
1.0
176
     0
 90
        2
176
     1
  1
strokes_ogs.tif
176
     1
290
     0
176
     1
 40
1.0
176
     1
 40
1.0
176
     1
  0
VISUALSTYLE
  5
A5
102
{ACAD_REACTORS
330
99
102
}
330
99
100
AcDbVisualStyle
  2
Brighten
 70
    12
177
     3
291
     1
 70
    58
 90
        2
176
     1
 90
        2
176
     1
 90
        1
176
     1
 90
        0
176
     1
 40
0.6
176
     1
 40
30.0
176
     1
 62
     7
420
 16777215
176
     1
 90
        1
176
     1
 90
        4
176
     1
 62
     7
176
     1
 62
   257
176
     1
 90
        1
176
     1
 90
        1
176
     1
 40
1.0
176
     1
 90
        8
176
     1
 62
     7
176
     1
 40
1.0
176
     1
 90
        1
176
     1
 90
        6
176
     1
 90
        2
176
     1
 62
     7
176
     1
 90
        5
176
     1
 90
        0
176
     1
 90
        0
176
     1
290
     0
176
     1
 90
        1
176
     1
 40
50.0
176
     1
 90
        0
176
     1
290
     0
176
     1
290
     1
176
     1
290
     1
176
     1
290
     0
176
     1
290
     0
176
     1
290
     0
176
     1
290
     0
176
     1
290
     0
176
     1
290
     0
176
     1
 90
       50
176
     1
 40
0.0
176
     1
 40
1.0
176
     1
 90
        0
176
     1
 62
    18
176
     1
 90
       50
176
     1
 90
        3
176
     1
 62
     5
420
      255
176
     1
290
     0
176
     1
 90
       50
176
     1
 90
       50
176
     1
 90
       50
176
     1
290
     0
176
     1
 90
       50
176
     1
 62
   256
176
     0
 40
1.0
176
     0
 90
        2
176
     1
  1
strokes_ogs.tif
176
     1
290
     0
176
     1
 40
1.0
176
     1
 40
1.0
176
     1
  0
VISUALSTYLE
  5
A9
102
{ACAD_REACTORS
330
99
102
}
330
99
100
AcDbVisualStyle
  2
ColorChange
 70
    16
177
     3
291
     1
 70
    58
 90
        2
176
     1
 90
        2
176
     1
 90
        3
176
     1
 90
        0
176
     1
 40
0.6
176
     1
 40
30.0
176
     1
 62
     8
420
  8421504
176
     1
 90
        1
176
     1
 90
        4
176
     1
 62
     7
176
     1
 62
   257
176
     1
 90
        1
176
     1
 90
        1
176
     1
 40
1.0
176
     1
 90
        8
176
     1
 62
     8
420
  8421504
176
     1
 40
1.0
176
     1
 90
        1
176
     1
 90
        6
176
     1
 90
        2
176
     1
 62
     7
176
     1
 90
        5
176
     1
 90
        0
176
     1
 90
        0
176
     1
290
     0
176
     1
 90
        1
176
     1
 40
0.0
176
     1
 90
        0
176
     1
290
     0
176
     1
290
     1
176
     1
290
     1
176
     1
290
     0
176
     1
290
     0
176
     1
290
     0
176
     1
290
     0
176
     1
290
     0
176
     1
290
     0
176
     1
 90
       50
176
     1
 40
0.0
176
     1
 40
1.0
176
     1
 90
        0
176
     1
 62
    18
176
     1
 90
       50
176
     1
 90
        3
176
     1
 62
     5
420
      255
176
     1
290
     0
176
     1
 90
       50
176
     1
 90
       50
176
     1
 90
       50
176
     1
290
     0
176
     1
 90
       50
176
     1
 62
   256
176
     0
 40
1.0
176
     0
 90
        2
176
     1
  1
strokes_ogs.tif
176
     1
290
     0
176
     1
 40
1.0
176
     1
 40
1.0
176
     1
  0
VISUALSTYLE
  5
A2
102
{ACAD_REACTORS
330
99
102
}
330
99
100
AcDbVisualStyle
  2
Conceptual
 70
     9
177
     3
291
     0
 70
    58
 90
        3
176
     1
 90
        2
176
     1
 90
        1
176
     1
 90
        0
176
     1
 40
0.6
176
     1
 40
30.0
176
     1
 62
     7
420
 16777215
176
     1
 90
        2
176
     1
 90
        2
176
     1
 62
     7
176
     1
 62
   257
176
     1
 90
        1
176
     1
 90
        1
176
     1
 40
40.0
176
     1
 90
        8
176
     1
 62
     7
176
     1
 40
1.0
176
     1
 90
        1
176
     1
 90
        6
176
     1
 90
        2
176
     1
 62
     7
176
     1
 90
        3
176
     1
 90
        0
176
     1
 90
        0
176
     1
290
     0
176
     1
 90
        1
176
     1
 40
0.0
176
     1
 90
        0
176
     1
290
     0
176
     1
290
     1
176
     1
290
     1
176
     1
290
     0
176
     1
290
     0
176
     1
290
     0
176
     1
290
     0
176
     1
290
     0
176
     1
290
     0
176
     1
 90
       50
176
     1
 40
0.0
176
     1
 40
1.0
176
     1
 90
        0
176
     1
 62
    18
176
     1
 90
       50
176
     1
 90
        3
176
     1
 62
     5
420
      255
176
     1
290
     0
176
     1
 90
       50
176
     1
 90
       50
176
     1
 90
       50
176
     1
290
     0
176
     1
 90
       50
176
     1
 62
   256
176
     0
 40
1.0
176
     0
 90
        2
176
     1
  1
strokes_ogs.tif
176
     1
290
     0
176
     1
 40
1.0
176
     1
 40
1.0
176
     1
  0
VISUALSTYLE
  5
A4
102
{ACAD_REACTORS
330
99
102
}
330
99
100
AcDbVisualStyle
  2
Dim
 70
    11
177
     3
291
     1
 70
    58
 90
        2
176
     1
 90
        2
176
     1
 90
        1
176
     1
 90
        0
176
     1
 40
0.6
176
     1
 40
30.0
176
     1
 62
     7
420
 16777215
176
     1
 90
        1
176
     1
 90
        4
176
     1
 62
     7
176
     1
 62
   257
176
     1
 90
        1
176
     1
 90
        1
176
     1
 40
1.0
176
     1
 90
        8
176
     1
 62
     7
176
     1
 40
1.0
176
     1
 90
        1
176
     1
 90
        6
176
     1
 90
        2
176
     1
 62
     7
176
     1
 90
        5
176
     1
 90
        0
176
     1
 90
        0
176
     1
290
     0
176
     1
 90
        1
176
     1
 40
-50.0
176
     1
 90
        0
176
     1
290
     0
176
     1
290
     1
176
     1
290
     1
176
     1
290
     0
176
     1
290
     0
176
     1
290
     0
176
     1
290
     0
176
     1
290
     0
176
     1
290
     0
176
     1
 90
       50
176
     1
 40
0.0
176
     1
 40
1.0
176
     1
 90
        0
176
     1
 62
    18
176
     1
 90
       50
176
     1
 90
        3
176
     1
 62
     5
420
      255
176
     1
290
     0
176
     1
 90
       50
176
     1
 90
       50
176
     1
 90
       50
176
     1
290
     0
176
     1
 90
       50
176
     1
 62
   256
176
     0
 40
1.0
176
     0
 90
        2
176
     1
  1
strokes_ogs.tif
176
     1
290
     0
176
     1
 40
1.0
176
     1
 40
1.0
176
     1
  0
VISUALSTYLE
  5
175
102
{ACAD_REACTORS
330
99
102
}
330
99
100
AcDbVisualStyle
  2
EdgeColorOff
 70
    22
177
     3
291
     1
 70
    58
 90
        2
176
     0
 90
        2
176
     0
 90
        0
176
     0
 90
        0
176
     0
 40
0.6
176
     0
 40
30.0
176
     0
 62
     7
420
 16777215
176
     0
 90
        1
176
     0
 90
        4
176
     0
 62
     7
176
     0
 62
   257
176
     0
 90
        1
176
     0
 90
        1
176
     0
 40
1.0
176
     0
 90
        8
176
     2
 62
     7
176
     0
 40
1.0
176
     0
 90
        1
176
     0
 90
        6
176
     0
 90
        2
176
     0
 62
     7
176
     0
 90
        5
176
     0
 90
        0
176
     0
 90
        0
176
     0
290
     0
176
     0
 90
        1
176
     0
 40
0.0
176
     0
 90
        0
176
     0
290
     0
176
     1
290
     1
176
     1
290
     1
176
     1
290
     0
176
     1
290
     0
176
     1
290
     0
176
     1
290
     0
176
     1
290
     0
176
     1
290
     0
176
     1
 90
       50
176
     1
 40
0.0
176
     1
 40
1.0
176
     1
 90
        0
176
     1
 62
    18
176
     1
 90
       50
176
     1
 90
        3
176
     1
 62
     5
420
      255
176
     1
290
     0
176
     1
 90
       50
176
     1
 90
       50
176
     1
 90
       50
176
     1
290
     0
176
     1
 90
       50
176
     1
 62
   256
176
     0
 40
1.0
176
     0
 90
        2
176
     1
  1
strokes_ogs.tif
176
     1
290
     0
176
     1
 40
1.0
176
     1
 40
1.0
176
     1
  0
VISUALSTYLE
  5
A8
102
{ACAD_REACTORS
330
99
102
}
330
99
100
AcDbVisualStyle
  2
Facepattern
 70
    15
177
     3
291
     1
 70
    58
 90
        2
176
     1
 90
        2
176
     1
 90
        1
176
     1
 90
        0
176
     1
 40
0.6
176
     1
 40
30.0
176
     1
 62
     7
420
 16777215
176
     1
 90
        1
176
     1
 90
        4
176
     1
 62
     7
176
     1
 62
   257
176
     1
 90
        1
176
     1
 90
        1
176
     1
 40
1.0
176
     1
 90
        8
176
     1
 62
     7
176
     1
 40
1.0
176
     1
 90
        1
176
     1
 90
        6
176
     1
 90
        2
176
     1
 62
     7
176
     1
 90
        5
176
     1
 90
        0
176
     1
 90
        0
176
     1
290
     0
176
     1
 90
        1
176
     1
 40
0.0
176
     1
 90
        0
176
     1
290
     0
176
     1
290
     1
176
     1
290
     1
176
     1
290
     0
176
     1
290
     0
176
     1
290
     0
176
     1
290
     0
176
     1
290
     0
176
     1
290
     0
176
     1
 90
       50
176
     1
 40
0.0
176
     1
 40
1.0
176
     1
 90
        0
176
     1
 62
    18
176
     1
 90
       50
176
     1
 90
        3
176
     1
 62
     5
420
      255
176
     1
290
     0
176
     1
 90
       50
176
     1
 90
       50
176
     1
 90
       50
176
     1
290
     0
176
     1
 90
       50
176
     1
 62
   256
176
     0
 40
1.0
176
     0
 90
        2
176
     1
  1
strokes_ogs.tif
176
     1
290
     0
176
     1
 40
1.0
176
     1
 40
1.0
176
     1
  0
VISUALSTYLE
  5
9A
102
{ACAD_REACTORS
330
99
102
}
330
99
100
AcDbVisualStyle
  2
Flat
 70
     0
177
     3
291
     1
 70
    58
 90
        2
176
     1
 90
        1
176
     1
 90
        1
176
     1
 90
        2
176
     1
 40
0.6
176
     1
 40
30.0
176
     1
 62
     7
420
 16777215
176
     1
 90
        0
176
     1
 90
        0
176
     1
 62
     7
176
     1
 62
   257
176
     1
 90
        1
176
     1
 90
        1
176
     1
 40
1.0
176
     1
 90
        8
176
     1
 62
     7
176
     1
 40
1.0
176
     1
 90
        1
176
     1
 90
        6
176
     1
 90
        2
176
     1
 62
     7
176
     1
 90
        5
176
     1
 90
        0
176
     1
 90
        0
176
     1
290
     0
176
     1
 90
       13
176
     1
 40
0.0
176
     1
 90
        0
176
     1
290
     0
176
     1
290
     1
176
     1
290
     1
176
     1
290
     0
176
     1
290
     0
176
     1
290
     0
176
     1
290
     0
176
     1
290
     0
176
     1
290
     0
176
     1
 90
       50
176
     1
 40
0.0
176
     1
 40
1.0
176
     1
 90
        0
176
     1
 62
    18
176
     1
 90
       50
176
     1
 90
        3
176
     1
 62
     5
420
      255
176
     1
290
     0
176
     1
 90
       50
176
     1
 90
       50
176
     1
 90
       50
176
     1
290
     0
176
     1
 90
       50
176
     1
 62
   256
176
     0
 40
1.0
176
     0
 90
        2
176
     1
  1
strokes_ogs.tif
176
     1
290
     0
176
     1
 40
1.0
176
     1
 40
1.0
176
     1
  0
VISUALSTYLE
  5
9B
102
{ACAD_REACTORS
330
99
102
}
330
99
100
AcDbVisualStyle
  2
FlatWithEdges
 70
     1
177
     3
291
     1
 70
    58
 90
        2
176
     1
 90
        1
176
     1
 90
        1
176
     1
 90
        2
176
     1
 40
0.6
176
     1
 40
30.0
176
     1
 62
     7
420
 16777215
176
     1
 90
        1
176
     1
 90
        0
176
     1
 62
     7
176
     1
 62
   257
176
     1
 90
        1
176
     1
 90
        1
176
     1
 40
1.0
176
     1
 90
        0
176
     1
 62
   257
176
     1
 40
1.0
176
     1
 90
        1
176
     1
 90
        6
176
     1
 90
        2
176
     1
 62
     7
176
     1
 90
        5
176
     1
 90
        0
176
     1
 90
        0
176
     1
290
     0
176
     1
 90
       13
176
     1
 40
0.0
176
     1
 90
        0
176
     1
290
     0
176
     1
290
     1
176
     1
290
     1
176
     1
290
     0
176
     1
290
     0
176
     1
290
     0
176
     1
290
     0
176
     1
290
     0
176
     1
290
     0
176
     1
 90
       50
176
     1
 40
0.0
176
     1
 40
1.0
176
     1
 90
        0
176
     1
 62
    18
176
     1
 90
       50
176
     1
 90
        3
176
     1
 62
     5
420
      255
176
     1
290
     0
176
     1
 90
       50
176
     1
 90
       50
176
     1
 90
       50
176
     1
290
     0
176
     1
 90
       50
176
     1
 62
   256
176
     0
 40
1.0
176
     0
 90
        2
176
     1
  1
strokes_ogs.tif
176
     1
290
     0
176
     1
 40
1.0
176
     1
 40
1.0
176
     1
  0
VISUALSTYLE
  5
9C
102
{ACAD_REACTORS
330
99
102
}
330
99
100
AcDbVisualStyle
  2
Gouraud
 70
     2
177
     3
291
     1
 70
    58
 90
        2
176
     1
 90
        2
176
     1
 90
        1
176
     1
 90
        2
176
     1
 40
0.6
176
     1
 40
30.0
176
     1
 62
     7
420
 16777215
176
     1
 90
        0
176
     1
 90
        0
176
     1
 62
     7
176
     1
 62
   257
176
     1
 90
        1
176
     1
 90
        1
176
     1
 40
1.0
176
     1
 90
        0
176
     1
 62
     7
176
     1
 40
1.0
176
     1
 90
        1
176
     1
 90
        6
176
     1
 90
        2
176
     1
 62
     7
176
     1
 90
        5
176
     1
 90
        0
176
     1
 90
        0
176
     1
290
     0
176
     1
 90
       13
176
     1
 40
0.0
176
     1
 90
        0
176
     1
290
     0
176
     1
290
     1
176
     1
290
     1
176
     1
290
     0
176
     1
290
     0
176
     1
290
     0
176
     1
290
     0
176
     1
290
     0
176
     1
290
     0
176
     1
 90
       50
176
     1
 40
0.0
176
     1
 40
1.0
176
     1
 90
        0
176
     1
 62
    18
176
     1
 90
       50
176
     1
 90
        3
176
     1
 62
     5
420
      255
176
     1
290
     0
176
     1
 90
       50
176
     1
 90
       50
176
     1
 90
       50
176
     1
290
     0
176
     1
 90
       50
176
     1
 62
   256
176
     0
 40
1.0
176
     0
 90
        2
176
     1
  1
strokes_ogs.tif
176
     1
290
     0
176
     1
 40
1.0
176
     1
 40
1.0
176
     1
  0
VISUALSTYLE
  5
9D
102
{ACAD_REACTORS
330
99
102
}
330
99
100
AcDbVisualStyle
  2
GouraudWithEdges
 70
     3
177
     3
291
     1
 70
    58
 90
        2
176
     1
 90
        2
176
     1
 90
        1
176
     1
 90
        2
176
     1
 40
0.6
176
     1
 40
30.0
176
     1
 62
     7
420
 16777215
176
     1
 90
        1
176
     1
 90
        0
176
     1
 62
     7
176
     1
 62
   257
176
     1
 90
        1
176
     1
 90
        1
176
     1
 40
1.0
176
     1
 90
        0
176
     1
 62
   257
176
     1
 40
1.0
176
     1
 90
        1
176
     1
 90
        6
176
     1
 90
        2
176
     1
 62
     7
176
     1
 90
        5
176
     1
 90
        0
176
     1
 90
        0
176
     1
290
     0
176
     1
 90
       13
176
     1
 40
0.0
176
     1
 90
        0
176
     1
290
     0
176
     1
290
     1
176
     1
290
     1
176
     1
290
     0
176
     1
290
     0
176
     1
290
     0
176
     1
290
     0
176
     1
290
     0
176
     1
290
     0
176
     1
 90
       50
176
     1
 40
0.0
176
     1
 40
1.0
176
     1
 90
        0
176
     1
 62
    18
176
     1
 90
       50
176
     1
 90
        3
176
     1
 62
     5
420
      255
176
     1
290
     0
176
     1
 90
       50
176
     1
 90
       50
176
     1
 90
       50
176
     1
290
     0
176
     1
 90
       50
176
     1
 62
   256
176
     0
 40
1.0
176
     0
 90
        2
176
     1
  1
strokes_ogs.tif
176
     1
290
     0
176
     1
 40
1.0
176
     1
 40
1.0
176
     1
  0
VISUALSTYLE
  5
A1
102
{ACAD_REACTORS
330
99
102
}
330
99
100
AcDbVisualStyle
  2
Hidden
 70
     6
177
     3
291
     0
 70
    58
 90
        1
176
     1
 90
        2
176
     1
 90
        2
176
     1
 90
        0
176
     1
 40
0.6
176
     1
 40
30.0
176
     1
 62
     7
420
 16777215
176
     1
 90
        2
176
     1
 90
        2
176
     1
 62
     7
176
     1
 62
   257
176
     1
 90
        2
176
     1
 90
        1
176
     1
 40
40.0
176
     1
 90
        0
176
     1
 62
   257
176
     1
 40
1.0
176
     1
 90
        1
176
     1
 90
        6
176
     1
 90
        2
176
     1
 62
     7
176
     1
 90
        3
176
     1
 90
        0
176
     1
 90
        0
176
     1
290
     0
176
     1
 90
        1
176
     1
 40
0.0
176
     1
 90
        0
176
     1
290
     0
176
     1
290
     1
176
     1
290
     1
176
     1
290
     0
176
     1
290
     0
176
     1
290
     0
176
     1
290
     0
176
     1
290
     0
176
     1
290
     0
176
     1
 90
       50
176
     1
 40
0.0
176
     1
 40
1.0
176
     1
 90
        0
176
     1
 62
    18
176
     1
 90
       50
176
     1
 90
        3
176
     1
 62
     5
420
      255
176
     1
290
     0
176
     1
 90
       50
176
     1
 90
       50
176
     1
 90
       50
176
     1
290
     0
176
     1
 90
       50
176
     1
 62
   256
176
     0
 40
1.0
176
     0
 90
        2
176
     1
  1
strokes_ogs.tif
176
     1
290
     0
176
     1
 40
1.0
176
     1
 40
1.0
176
     1
  0
VISUALSTYLE
  5
173
102
{ACAD_REACTORS
330
99
102
}
330
99
100
AcDbVisualStyle
  2
JitterOff
 70
    20
177
     3
291
     1
 70
    58
 90
        2
176
     0
 90
        2
176
     0
 90
        0
176
     0
 90
        0
176
     0
 40
0.6
176
     0
 40
30.0
176
     0
 62
     7
420
 16777215
176
     0
 90
        1
176
     0
 90
        4
176
     0
 62
     7
176
     0
 62
   257
176
     0
 90
        1
176
     0
 90
        1
176
     0
 40
1.0
176
     0
 90
       10
176
     2
 62
     7
176
     0
 40
1.0
176
     0
 90
        1
176
     0
 90
        6
176
     0
 90
        2
176
     0
 62
     7
176
     0
 90
        5
176
     0
 90
        0
176
     0
 90
        0
176
     0
290
     0
176
     0
 90
        1
176
     0
 40
0.0
176
     0
 90
        0
176
     0
290
     0
176
     1
290
     1
176
     1
290
     1
176
     1
290
     0
176
     1
290
     0
176
     1
290
     0
176
     1
290
     0
176
     1
290
     0
176
     1
290
     0
176
     1
 90
       50
176
     1
 40
0.0
176
     1
 40
1.0
176
     1
 90
        0
176
     1
 62
    18
176
     1
 90
       50
176
     1
 90
        3
176
     1
 62
     5
420
      255
176
     1
290
     0
176
     1
 90
       50
176
     1
 90
       50
176
     1
 90
       50
176
     1
290
     0
176
     1
 90
       50
176
     1
 62
   256
176
     0
 40
1.0
176
     0
 90
        2
176
     1
  1
strokes_ogs.tif
176
     1
290
     0
176
     1
 40
1.0
176
     1
 40
1.0
176
     1
  0
VISUALSTYLE
  5
A7
102
{ACAD_REACTORS
330
99
102
}
330
99
100
AcDbVisualStyle
  2
Linepattern
 70
    14
177
     3
291
     1
 70
    58
 90
        2
176
     1
 90
        2
176
     1
 90
        1
176
     1
 90
        0
176
     1
 40
0.6
176
     1
 40
30.0
176
     1
 62
     7
420
 16777215
176
     1
 90
        1
176
     1
 90
        4
176
     1
 62
     7
176
     1
 62
   257
176
     1
 90
        7
176
     1
 90
        7
176
     1
 40
1.0
176
     1
 90
        8
176
     1
 62
     7
176
     1
 40
1.0
176
     1
 90
        1
176
     1
 90
        6
176
     1
 90
        2
176
     1
 62
     7
176
     1
 90
        5
176
     1
 90
        0
176
     1
 90
        0
176
     1
290
     0
176
     1
 90
        1
176
     1
 40
0.0
176
     1
 90
        0
176
     1
290
     0
176
     1
290
     1
176
     1
290
     1
176
     1
290
     0
176
     1
290
     0
176
     1
290
     0
176
     1
290
     0
176
     1
290
     0
176
     1
290
     0
176
     1
 90
       50
176
     1
 40
0.0
176
     1
 40
1.0
176
     1
 90
        0
176
     1
 62
    18
176
     1
 90
       50
176
     1
 90
        3
176
     1
 62
     5
420
      255
176
     1
290
     0
176
     1
 90
       50
176
     1
 90
       50
176
     1
 90
       50
176
     1
290
     0
176
     1
 90
       50
176
     1
 62
   256
176
     0
 40
1.0
176
     0
 90
        2
176
     1
  1
strokes_ogs.tif
176
     1
290
     0
176
     1
 40
1.0
176
     1
 40
1.0
176
     1
  0
VISUALSTYLE
  5
174
102
{ACAD_REACTORS
330
99
102
}
330
99
100
AcDbVisualStyle
  2
OverhangOff
 70
    21
177
     3
291
     1
 70
    58
 90
        2
176
     0
 90
        2
176
     0
 90
        0
176
     0
 90
        0
176
     0
 40
0.6
176
     0
 40
30.0
176
     0
 62
     7
420
 16777215
176
     0
 90
        1
176
     0
 90
        4
176
     0
 62
     7
176
     0
 62
   257
176
     0
 90
        1
176
     0
 90
        1
176
     0
 40
1.0
176
     0
 90
        9
176
     2
 62
     7
176
     0
 40
1.0
176
     0
 90
        1
176
     0
 90
        6
176
     0
 90
        2
176
     0
 62
     7
176
     0
 90
        5
176
     0
 90
        0
176
     0
 90
        0
176
     0
290
     0
176
     0
 90
        1
176
     0
 40
0.0
176
     0
 90
        0
176
     0
290
     0
176
     1
290
     1
176
     1
290
     1
176
     1
290
     0
176
     1
290
     0
176
     1
290
     0
176
     1
290
     0
176
     1
290
     0
176
     1
290
     0
176
     1
 90
       50
176
     1
 40
0.0
176
     1
 40
1.0
176
     1
 90
        0
176
     1
 62
    18
176
     1
 90
       50
176
     1
 90
        3
176
     1
 62
     5
420
      255
176
     1
290
     0
176
     1
 90
       50
176
     1
 90
       50
176
     1
 90
       50
176
     1
290
     0
176
     1
 90
       50
176
     1
 62
   256
176
     0
 40
1.0
176
     0
 90
        2
176
     1
  1
strokes_ogs.tif
176
     1
290
     0
176
     1
 40
1.0
176
     1
 40
1.0
176
     1
  0
VISUALSTYLE
  5
A3
102
{ACAD_REACTORS
330
99
102
}
330
99
100
AcDbVisualStyle
  2
Realistic
 70
     8
177
     3
291
     0
 70
    58
 90
        2
176
     1
 90
        3
176
     1
 90
        0
176
     1
 90
        2
176
     1
 40
0.6
176
     1
 40
30.0
176
     1
 62
     7
420
 16777215
176
     1
 90
        0
176
     1
 90
        0
176
     1
 62
     7
176
     1
 62
   257
176
     1
 90
        1
176
     1
 90
        1
176
     1
 40
1.0
176
     1
 90
        8
176
     1
 62
   257
176
     1
 40
1.0
176
     1
 90
        1
176
     1
 90
        6
176
     1
 90
        2
176
     1
 62
     7
176
     1
 90
        3
176
     1
 90
        0
176
     1
 90
        0
176
     1
290
     0
176
     1
 90
       13
176
     1
 40
0.0
176
     1
 90
        0
176
     1
290
     0
176
     1
290
     1
176
     1
290
     1
176
     1
290
     0
176
     1
290
     0
176
     1
290
     0
176
     1
290
     0
176
     1
290
     0
176
     1
290
     0
176
     1
 90
       50
176
     1
 40
0.0
176
     1
 40
1.0
176
     1
 90
        0
176
     1
 62
    18
176
     1
 90
       50
176
     1
 90
        3
176
     1
 62
     5
420
      255
176
     1
290
     0
176
     1
 90
       50
176
     1
 90
       50
176
     1
 90
       50
176
     1
290
     0
176
     1
 90
       50
176
     1
 62
   256
176
     0
 40
1.0
176
     0
 90
        2
176
     1
  1
strokes_ogs.tif
176
     1
290
     0
176
     1
 40
1.0
176
     1
 40
1.0
176
     1
  0
VISUALSTYLE
  5
182
102
{ACAD_REACTORS
330
99
102
}
330
99
100
AcDbVisualStyle
  2
Shaded
 70
    27
177
     3
291
     0
 70
    58
 90
        2
176
     1
 90
        2
176
     1
 90
        1
176
     1
 90
        2
176
     1
 40
0.6
176
     1
 40
30.0
176
     1
 62
     7
420
 16777215
176
     1
 90
        0
176
     1
 90
        4
176
     1
 62
     7
176
     1
 62
   257
176
     1
 90
        1
176
     1
 90
        1
176
     1
 40
1.0
176
     1
 90
        8
176
     1
 62
   257
176
     1
 40
1.0
176
     1
 90
        1
176
     1
 90
        6
176
     1
 90
        2
176
     1
 62
     8
420
  7895160
176
     1
 90
        3
176
     1
 90
        0
176
     1
 90
        0
176
     1
290
     0
176
     1
 90
        5
176
     1
 40
0.0
176
     1
 90
        0
176
     1
290
     0
176
     1
290
     1
176
     1
290
     1
176
     1
290
     0
176
     1
290
     0
176
     1
290
     0
176
     1
290
     0
176
     1
290
     0
176
     1
290
     0
176
     1
 90
       50
176
     1
 40
0.0
176
     1
 40
1.0
176
     1
 90
        0
176
     1
 62
    18
176
     1
 90
       50
176
     1
 90
        3
176
     1
 62
     5
420
      255
176
     1
290
     0
176
     1
 90
       50
176
     1
 90
       50
176
     1
 90
       50
176
     1
290
     0
176
     1
 90
       50
176
     1
 62
   256
176
     0
 40
1.0
176
     0
 90
        2
176
     1
  1
strokes_ogs.tif
176
     1
290
     0
176
     1
 40
1.0
176
     1
 40
1.0
176
     1
  0
VISUALSTYLE
  5
181
102
{ACAD_REACTORS
330
99
102
}
330
99
100
AcDbVisualStyle
  2
Shaded with edges
 70
    26
177
     3
291
     0
 70
    58
 90
        2
176
     1
 90
        2
176
     1
 90
        1
176
     1
 90
        2
176
     1
 40
0.6
176
     1
 40
30.0
176
     1
 62
     7
420
 16777215
176
     1
 90
        1
176
     1
 90
        2
176
     1
 62
     7
176
     1
 62
   257
176
     1
 90
        2
176
     1
 90
        1
176
     1
 40
1.0
176
     1
 90
        8
176
     1
 62
   257
176
     1
 40
1.0
176
     1
 90
        1
176
     1
 90
        6
176
     1
 90
        2
176
     1
 62
     7
176
     1
 90
        3
176
     1
 90
        0
176
     1
 90
        0
176
     1
290
     0
176
     1
 90
        5
176
     1
 40
0.0
176
     1
 90
        0
176
     1
290
     0
176
     1
290
     1
176
     1
290
     1
176
     1
290
     0
176
     1
290
     0
176
     1
290
     0
176
     1
290
     0
176
     1
290
     0
176
     1
290
     0
176
     1
 90
       50
176
     1
 40
0.0
176
     1
 40
1.0
176
     1
 90
        0
176
     1
 62
    18
176
     1
 90
       50
176
     1
 90
        3
176
     1
 62
     5
420
      255
176
     1
290
     0
176
     1
 90
       50
176
     1
 90
       50
176
     1
 90
       50
176
     1
290
     0
176
     1
 90
       50
176
     1
 62
   256
176
     0
 40
1.0
176
     0
 90
        2
176
     1
  1
strokes_ogs.tif
176
     1
290
     0
176
     1
 40
1.0
176
     1
 40
1.0
176
     1
  0
VISUALSTYLE
  5
17E
102
{ACAD_REACTORS
330
99
102
}
330
99
100
AcDbVisualStyle
  2
Shades of Gray
 70
    23
177
     3
291
     0
 70
    58
 90
        2
176
     1
 90
        2
176
     1
 90
        3
176
     1
 90
        0
176
     1
 40
0.6
176
     1
 40
30.0
176
     1
 62
     7
420
 16777215
176
     1
 90
        2
176
     1
 90
        2
176
     1
 62
     7
176
     1
 62
     7
176
     1
 90
        1
176
     1
 90
        1
176
     1
 40
40.0
176
     1
 90
        8
176
     1
 62
     7
176
     1
 40
1.0
176
     1
 90
        1
176
     1
 90
        6
176
     1
 90
        2
176
     1
 62
     7
176
     1
 90
        3
176
     1
 90
        0
176
     1
 90
        0
176
     1
290
     0
176
     1
 90
        1
176
     1
 40
0.0
176
     1
 90
        0
176
     1
290
     0
176
     1
290
     1
176
     1
290
     1
176
     1
290
     0
176
     1
290
     0
176
     1
290
     0
176
     1
290
     0
176
     1
290
     0
176
     1
290
     0
176
     1
 90
       50
176
     1
 40
0.0
176
     1
 40
1.0
176
     1
 90
        0
176
     1
 62
    18
176
     1
 90
       50
176
     1
 90
        3
176
     1
 62
     5
420
      255
176
     1
290
     0
176
     1
 90
       50
176
     1
 90
       50
176
     1
 90
       50
176
     1
290
     0
176
     1
 90
       50
176
     1
 62
   256
176
     0
 40
1.0
176
     0
 90
        2
176
     1
  1
strokes_ogs.tif
176
     1
290
     0
176
     1
 40
1.0
176
     1
 40
1.0
176
     1
  0
VISUALSTYLE
  5
17F
102
{ACAD_REACTORS
330
99
102
}
330
99
100
AcDbVisualStyle
  2
Sketchy
 70
    24
177
     3
291
     0
 70
    58
 90
        1
176
     1
 90
        2
176
     1
 90
        2
176
     1
 90
        0
176
     1
 40
0.6
176
     1
 40
30.0
176
     1
 62
     7
420
 16777215
176
     1
 90
        2
176
     1
 90
        2
176
     1
 62
     7
176
     1
 62
     7
176
     1
 90
        1
176
     1
 90
        1
176
     1
 40
40.0
176
     1
 90
       11
176
     1
 62
     7
176
     1
 40
1.0
176
     1
 90
        1
176
     1
 90
        6
176
     1
 90
        2
176
     1
 62
     7
176
     1
 90
        6
176
     1
 90
        0
176
     1
 90
        0
176
     1
290
     0
176
     1
 90
        1
176
     1
 40
0.0
176
     1
 90
        0
176
     1
290
     0
176
     1
290
     1
176
     1
290
     1
176
     1
290
     0
176
     1
290
     0
176
     1
290
     0
176
     1
290
     0
176
     1
290
     0
176
     1
290
     0
176
     1
 90
       50
176
     1
 40
0.0
176
     1
 40
1.0
176
     1
 90
        0
176
     1
 62
    18
176
     1
 90
       50
176
     1
 90
        3
176
     1
 62
     5
420
      255
176
     1
290
     0
176
     1
 90
       50
176
     1
 90
       50
176
     1
 90
       50
176
     1
290
     0
176
     1
 90
       50
176
     1
 62
   256
176
     0
 40
1.0
176
     0
 90
        2
176
     1
  1
strokes_ogs.tif
176
     1
290
     0
176
     1
 40
1.0
176
     1
 40
1.0
176
     1
  0
VISUALSTYLE
  5
A6
102
{ACAD_REACTORS
330
99
102
}
330
99
100
AcDbVisualStyle
  2
Thicken
 70
    13
177
     3
291
     1
 70
    58
 90
        2
176
     1
 90
        2
176
     1
 90
        1
176
     1
 90
        0
176
     1
 40
0.6
176
     1
 40
30.0
176
     1
 62
     7
420
 16777215
176
     1
 90
        1
176
     1
 90
        4
176
     1
 62
     7
176
     1
 62
   257
176
     1
 90
        1
176
     1
 90
        1
176
     1
 40
1.0
176
     1
 90
       12
176
     1
 62
     7
176
     1
 40
1.0
176
     1
 90
        1
176
     1
 90
        6
176
     1
 90
        2
176
     1
 62
     7
176
     1
 90
        5
176
     1
 90
        0
176
     1
 90
        0
176
     1
290
     0
176
     1
 90
        1
176
     1
 40
0.0
176
     1
 90
        0
176
     1
290
     0
176
     1
290
     1
176
     1
290
     1
176
     1
290
     0
176
     1
290
     0
176
     1
290
     0
176
     1
290
     0
176
     1
290
     0
176
     1
290
     0
176
     1
 90
       50
176
     1
 40
0.0
176
     1
 40
1.0
176
     1
 90
        0
176
     1
 62
    18
176
     1
 90
       50
176
     1
 90
        3
176
     1
 62
     5
420
      255
176
     1
290
     0
176
     1
 90
       50
176
     1
 90
       50
176
     1
 90
       50
176
     1
290
     0
176
     1
 90
       50
176
     1
 62
   256
176
     0
 40
1.0
176
     0
 90
        2
176
     1
  1
strokes_ogs.tif
176
     1
290
     0
176
     1
 40
1.0
176
     1
 40
1.0
176
     1
  0
VISUALSTYLE
  5
A0
102
{ACAD_REACTORS
330
99
102
}
330
99
100
AcDbVisualStyle
  2
Wireframe
 70
     5
177
     3
291
     0
 70
    58
 90
        0
176
     1
 90
        2
176
     1
 90
        0
176
     1
 90
        0
176
     1
 40
0.6
176
     1
 40
30.0
176
     1
 62
     7
420
 16777215
176
     1
 90
        1
176
     1
 90
        4
176
     1
 62
     7
176
     1
 62
   257
176
     1
 90
        1
176
     1
 90
        1
176
     1
 40
1.0
176
     1
 90
        0
176
     1
 62
   257
176
     1
 40
1.0
176
     1
 90
        1
176
     1
 90
        6
176
     1
 90
        2
176
     1
 62
     7
176
     1
 90
        3
176
     1
 90
        0
176
     1
 90
        0
176
     1
290
     0
176
     1
 90
        1
176
     1
 40
0.0
176
     1
 90
        0
176
     1
290
     0
176
     1
290
     1
176
     1
290
     1
176
     1
290
     0
176
     1
290
     0
176
     1
290
     0
176
     1
290
     0
176
     1
290
     0
176
     1
290
     0
176
     1
 90
       50
176
     1
 40
0.0
176
     1
 40
1.0
176
     1
 90
        0
176
     1
 62
    18
176
     1
 90
       50
176
     1
 90
        3
176
     1
 62
     5
420
      255
176
     1
290
     0
176
     1
 90
       50
176
     1
 90
       50
176
     1
 90
       50
176
     1
290
     0
176
     1
 90
       50
176
     1
 62
   256
176
     0
 40
1.0
176
     0
 90
        2
176
     1
  1
strokes_ogs.tif
176
     1
290
     0
176
     1
 40
1.0
176
     1
 40
1.0
176
     1
  0
VISUALSTYLE
  5
180
102
{ACAD_REACTORS
330
99
102
}
330
99
100
AcDbVisualStyle
  2
X-Ray
 70
    25
177
     3
291
     0
 70
    58
 90
        2
176
     1
 90
        2
176
     1
 90
        1
176
     1
 90
        1
176
     1
 40
0.5
176
     1
 40
30.0
176
     1
 62
     7
420
 16777215
176
     1
 90
        1
176
     1
 90
        0
176
     1
 62
     7
176
     1
 62
   257
176
     1
 90
        1
176
     1
 90
        1
176
     1
 40
1.0
176
     1
 90
        8
176
     1
 62
     7
176
     1
 40
1.0
176
     1
 90
        1
176
     1
 90
        6
176
     1
 90
        2
176
     1
 62
     7
176
     1
 90
        3
176
     1
 90
        0
176
     1
 90
        0
176
     1
290
     0
176
     1
 90
       13
176
     1
 40
0.0
176
     1
 90
        0
176
     1
290
     0
176
     1
290
     1
176
     1
290
     1
176
     1
290
     0
176
     1
290
     0
176
     1
290
     0
176
     1
290
     0
176
     1
290
     0
176
     1
290
     0
176
     1
 90
       50
176
     1
 40
0.0
176
     1
 40
1.0
176
     1
 90
        0
176
     1
 62
    18
176
     1
 90
       50
176
     1
 90
        3
176
     1
 62
     5
420
      255
176
     1
290
     0
176
     1
 90
       50
176
     1
 90
       50
176
     1
 90
       50
176
     1
290
     0
176
     1
 90
       50
176
     1
 62
   256
176
     0
 40
1.0
176
     0
 90
        2
176
     1
  1
strokes_ogs.tif
176
     1
290
     0
176
     1
 40
1.0
176
     1
 40
1.0
176
     1
  0
DICTIONARYVAR
  5
F0
102
{ACAD_REACTORS
330
66
102
}
330
66
100
DictionaryVariables
280
     0
  1
1:1
  0
DICTIONARYVAR
  5
EF
102
{ACAD_REACTORS
330
66
102
}
330
66
100
DictionaryVariables
280
     0
  1
STANDARD
  0
DICTIONARYVAR
  5
89
102
{ACAD_REACTORS
330
66
102
}
330
66
100
DictionaryVariables
280
     0
  1
STANDARD
  0
DICTIONARYVAR
  5
1B7
102
{ACAD_REACTORS
330
66
102
}
330
66
100
DictionaryVariables
280
     0
  1
Imperial24
  0
DICTIONARYVAR
  5
1B8
102
{ACAD_REACTORS
330
66
102
}
330
66
100
DictionaryVariables
280
     0
  1
Imperial24
  0
DICTIONARYVAR
  5
67
102
{ACAD_REACTORS
330
66
102
}
330
66
100
DictionaryVariables
280
     0
  1
2
  0
DICTIONARYVAR
  5
6B
102
{ACAD_REACTORS
330
66
102
}
330
66
100
DictionaryVariables
280
     0
  1
1
  0
DICTIONARYVAR
  5
14D
102
{ACAD_REACTORS
330
66
102
}
330
66
100
DictionaryVariables
280
     0
  1
0
  0
DICTIONARYVAR
  5
14E
102
{ACAD_REACTORS
330
66
102
}
330
66
100
DictionaryVariables
280
     0
  1
0
  0
DICTIONARY
  5
31F
102
{ACAD_REACTORS
330
31E
102
}
330
31E
100
AcDbDictionary
281
     1
  0
DICTIONARY
  5
194
330
22
100
AcDbDictionary
280
     1
281
     1
  0
DICTIONARY
  5
188
330
97
100
AcDbDictionary
280
     1
281
     1
  3
FBXASSET
360
189
  0
DICTIONARY
  5
186
330
96
100
AcDbDictionary
280
     1
281
     1
  3
FBXASSET
360
187
  0
DICTIONARY
  5
110
330
98
100
AcDbDictionary
280
     1
281
     1
  3
BUMPTILE
360
112
  3
DIFFUSETILE
360
111
  3
FBXASSET
360
18A
  3
OPACITYTILE
360
113
  3
REFLECTIONTILE
360
114
  0
DICTIONARY
  5
104
330
87
100
AcDbDictionary
280
     1
281
     1
  3
ACAD_ROUNDTRIP_2008_TABLESTYLE_CELLSTYLEMAP
360
D2A
  0
XRECORD
  5
189
102
{ACAD_REACTORS
330
188
102
}
330
188
100
AcDbXrecord
280
     1
 70
     1
 90
429727718
  1
508B35C9-AEE7-456F-BE74-D52651303AC6
310
504B03040A0000080000B670623B3DEE336E79000000790000001B0000006175746F6465736B2D64657369676E2D7061636B6167652E786D6C3C3F786D6C2076657273696F6E3D22312E302220656E636F64696E673D227574662D3822203F3E3C666F726D6174733E3C666F726D61743E687474703A2F2F736368656D612E
310
6175746F6465736B2E636F6D2F64657369676E2D7061636B6167652F323030393C2F666F726D61743E3C2F666F726D6174733E504B0304140006080800B670623BD486FD9CA0000000F4000000130000005B436F6E74656E745F54797065735D2E786D6C7D8EC10E82300C865F65E91D8A1E8C310C0EEA1BF002731658846E
310
D98AC1B77784ABF1D8FE5FBFBF75BBCE937A534CCEB38643598122B6FEE978D0B0485F9C41B54DDD7D022595594E1A469170414C76A4D9A4D207E29CF43ECE46F218070CC6BECC4078ACAA135ACF422C856C0E68EA1BF5669944DDD7BCDE7B1F8E415D77AECB980613C2E4AC91FC167A2B244592486606FC29C8FD7F045B9A
310
EF7053A7E60B504B0304140006080800B670623B28ED286BEB0000007C01000008000000636F72652E786D6C8D90416EC3201045AF82665B6183218D6D61A254764FD00B204C5C94182C03558F5F9C3852BBEB6A467FFE9B197D71FA9E6FE8CBACC17AD7012D0820E3B41FAD9B3A48F1826B40272956EFE32F1B20A766D3C1
310
268314D3EAD3B24BDABB685CCCAAF3A3D94515828980F42D371D04FD696655A814B3235C8B45E9AB9A4C419F5D8653B2237A1CB163DE672FD6AC209BF3C08E0D1B30EB19C3FC9D72FCC6EB231EFA33EDE96BDD341517E5064B11EDFCBCAF57A3A2194156843498524CAA0FCA5B7268F9E185D42D21A2DCEC7FA0B48CFF8492
310
759155FBBB0F2C80A4F991FB408A72CB22977B50B96EB9C91F504B0304140006080800B670623B55019EA25F0000007C00000007000000636E782E786D6C4DCB3B0E80201045D1AD90E915ED2CF8AC45050C11660C8261F98AB1B07AC9C97D42D718D865D3E909258CFD00CCE24AC6E326A164D74DC0B4128928FF32603847
310
2BA13128B1252AC747C6BAB984FC68F0B87FE8960A5C09FE86CFB69FBA01504B0304140006080800B670623B7BC41AC871010000D40300000C0000006662782F636F72652E786D6CC553ED6E8320147D15C2DF4501B56B6D90A64BBB27D80B50A5CE54C120983EFEAE1F4DD7A56BBA5FF3879273EEE59E7310BE393735EA95
310
ED2AA333CC428A91D2B9292A5D66D8BB63B0C26823B835C67D2BC348CB46657880B1E0A535BE9DA1DC68A7B403549B42CDA0EC3AE530CA6B5864B8CB3F552343E91D5474A7B095F949962A6421D0502778E72C0840D390E18DC5F170E664C205F7BE2A66B62A605A75AC94C522DDEEE3651AEF837817C741F2CE92E02D592D
310
83FD6ECB76EC7595A651C2C9D02CB8AB9A8BBADC2AE954814544691A3016D0E883256BBA58278B17BA5A53CAC9507ED3E4DBE2C9265F691747B3DCA9ADC382819091F8E1162272A8933DE82182932144F88C09DF060D8140C84E1EEA8B8F1340BDCA9DB1093085F157AA97B557309586747CD0EF0B4EA64E983A6E0EAEEFCE
310
889E9EF17847386AA94B30211D2C0FDE0D3AF9A4610EAD5536E8DD1969631B593F67E381C33F5157F17725E5A636F6BF1491F980C8FC7B90E13E8A2F504B0304140006080800B670623B70102A487D0000009D0000000B0000006662782F636E782E786D6C4DCCD10A83201886E15B91FFDC95A5C30335ACCDFB886521330D
310
A76397BF1A1DECE883878F57749FD5A3B74D2F17830472A901D9F088930B8B849267CC01754AA418F3DF0D5018572BE160506249B16C274D761E8BCFBB7A179E27F65CB39A0F14D396184C9921B81F34C3ACA1B4B99ABB6E6F062A25AA5F69DF23ACBE504B0304140006080800B670623B3610CA3329010000120200003100
310
00006662782F42384135303843342D343331462D343546312D424341352D3532343432364645413344462F636F72652E786D6C8D515B6EC32010BC0AE22B55850D0E446E848992B43E412FE000495162B07854397EA176A4F62F3F2C9A9D991D58BEBB8F37F0AD7D30CE76905418026DA553C65E3A98E219B510EC04F7CEC5
310
3F3408EC30EA0E16180A7EF12E4D0B249D8DDAC68C5AA7F4020E21E80881BCE54B0783FCD2E3500D296646B856D320AFC34557A4CAEDCC133C449F0380794839A138B47B86DB2345744D7A44594FD0E1B867883594369BFE63BF7EEF793D0B054FC9A8456E548E63CE46FB674D8A58F068C6477CE9F510B582A2C1F80D1182
310
70F349E816B32D65AFB8DD62CCEB42FF274A937A52948C8DEB66893BCB021484D7734370E5D2E9F608A3EF93F3119479ABA0E50B14B8C298119A43CCC4FCFCECB8A18B6388CEE7EF5D5D4F994BD86CBBA182D76543B9FCAE2FD7B24DF103504B0304140006080800B670623B1B8617914E0100003303000030000000666278
310
2F42384135303843342D343331462D343546312D424341352D3532343432364645413344462F636E782E786D6CD593C16EC32010447F0571AD6CE3D489D20813A9877E410FBD62D82434182CC055F3F75D1292E692438FBD206B7698593D61BEFD1E2DF982108D773D6D6B460938E5B571FB9ECE6957AD29D90A1EBC4F7736
310
4A9C1CA1A759A682EF839FA72269D8C9D92654AD71C72206887E0E0A22CAF926B15E498B01E0AA19451807D01A34B919F16B070157417138917400F2F6FA41FCF0092A45DEE414C19BDC21783E4BD39D891265658C3D8DEA00A3ACE59CBC8678ACB54CB26EEB6BD7839D7E9348BE70AD9C8321B9BCA7F9A4A26C542347DEE0
310
50F09802D22BA6749A800A394DD62899107273365E3C82CFC6A55557BC06C10774B7ABE7AEC3B0F34CF06446280E154026D0542C187BA9DAB6628BF7B6DBB0E5A65B3EB1F58631DE64BBE083F7B65CC218087E22CABB042E51D1F2268F1FE12B3EA24D40D63E9CFE00120194D60B9D5BC67FE6D39CDF37E20AF817881F504B
310
0304140006080800B670623BBFEF2E3B690500003C100000340000006662782F42384135303843342D343331462D343546312D424341352D3532343432364645413344462F6F626A656374732E786D6CAD575D739B3814FD2B0CFB0C98D84E931D4227B6938EA793B6534F3BFB90198F0099B001899144EAECAFDF231018B0
310
D37A3FFC609090EEE7B94757C1FB7D915B2F54C88CB31BDB7727B64559CC938CA53776A576CE956DBD0F03C1B9EA2DB32D460A7A63EB693B0C52C1ABD24C257447AA5C8D66EF177F5832A68CDA569C13296F6C193FD182B8A4523CA1F2D94D88226EBADBBBBEDB2C1C8A4D05299F46424B222853B014F30C52ACC6287F389C
310
D85E1878FA7B18E87FB36AFAF62AAFF667A83F635211161F291B8999FAB3D5DDC5FCDA99CF6653677679E13B8BFBC5CAF1DF4D27CBCBE5F2FAF6EE1A8AA51290642C117467871F101B91C581D77CEA2C36869F3229E68CD1B8F61F1ED6361B89092D294B90C78C4A68EB793D190E7D1D9BDEE7A91E1B95FDE9F3BCEAEFE809
310
6A6D6F9F7D4B79F4275C90E7A04248AA51D5C4C738DAE06F72885AC4796EBE65D22A88A22223B995679120E2D50EB1542F098381188D4EA111AE3DB043FF20AF6F2B4AE3D7D83D65E5AECA730D4D3BAC91BD05FEA992B565D95F549CD6069B90AB2A63EACA38A45E4B6A87D781574F86817E4C2FCCC72690D62E2729520E37
310
9BAF234797BAF6D62B3BFC781FED37BA1E4F2B2F052FA9501A3E80569BB8F6A9A364D4FA67654E6F803383981F82F21591FF84F23D9882BC896C3FDBCF8C162508933B2E0AE4C69DD43F6BD2BE38DDDBF10BF86CB4FA784D37F3AF16075E67EC9030DECA1FC0A55373F5DFF3378C591FA9BDF485C10B0A8C8BA909E5262639
310
A8E72163488806A595734C81CB77D1DE0ED7604A303B76913CEC0272F412782FF88EFF4636D8AA56DF7B322474C4B767303F625997056C7B032C473C592B36CEBD15F3F9FF5233B7ABCDC74D257624A60F8658567497B14CE1EC3C80B76FD02011038F9EE9EB0F2E12387A9C844D3F09855125116D1D731DF8B43D2CF4E0A0
310
79A020C6BE946BCE0B7EA1E1219331CD73C228AF5A2DDD31A4B1DA918CE91350854D40A71723140BFA92E94E62B0626016CEFA5864A50E5977E8753CEDBEE1CBB7F52780D20E17AF0BA0F5F9B02A3AD07DCC732EB6D1EBB661421BE0C39E21BABF0FE16D22EA6929407C8DE596724C88B749B6DB5512BC7B228ADFD7CB7EA6
310
3A22397E690BA8D5D8D4E40CEC8CDA23C2C0B7D5898640101CEC9C6D331CE328CB93CAFBBAC70A642DF70DF95155945B52F08AA973C23469FD69ADEF84F7BB18F983A8F8C90E37F5D35980B2139A1C523540813E824EF83448CF7C72B598CE97D7CEEDDDDD3B6736BFBC771677EF66CE6A7E7139F7A793E9EDF2B2B3A8B624
310
0CDA13AA5F8388264EC4A0129909F3B7F5A16CEDF08128E97D680ACA4B9BE7B7B58BB638F0B00700EF36AE8B32A705658A68F83EE897FC2B41573190D1CCAF0B92D233A47CFEB019D9809933F67DD1A5467F8CF69AD9A5AE859342D45355448C64F968A371DC2D596ADC6E43D93D1B466F877A64E2893E54F23C4B40388995
310
525E5005DA3983ED45412510D3EFCA13737B3863F74BD30F2A12E5B4B5E489A025CE25500DB855B11ACE5BBFA185D35DD48D8DC3CE7DC69F2944DB42AA6F6CF09BCA622ADD08C7A36E7C6AE18000BAB08E040135C2D21C9D75B3A91B77BB746C403F38018DFE6EC939DD92F16B40BC05294B9CDA035AAD6D330AE27FE4786B
310
8E45145EA34A75BE1C263A676A35A8ACC6297337400BF16C54EF515F3F77CB77EB3583889C754FFA29081AA98E2222ADEF05DA3E63D2EDEA8B8756C05A7FB6CABC4A91CBF325398202CC952E70A008A830324BA200D5E5EF8F5F04C75DB4B0EE3340E071C98B823333B83577596BF3849B69F2085AA0FAFA212F26BEFF5877
310
FDE622B28D88A42E49E43326DA82D31E8CB006401E1DA726059ECEC168F97A6599036306A135688F9AD2E61A6EA178F4CD51974A9F2CCB9F36FE5EBD14601068D9C3BF01504B0304140006080000B670623B000000000000000000000000350000006662782F42384135303843342D343331462D343546312D424341352D35
310
32343432364645413344462F76657274696365732E62696E504B0304140006080800B670623BF270F1330600000004000000360000006662782F42384135303843342D343331462D343546312D424341352D3532343432364645413344462F747269616E676C65732E62696E636660600000504B0304140006080000B67062
310
3B000000000000000000000000370000006662782F42384135303843342D343331462D343546312D424341352D3532343432364645413344462F617474726962757465732E62696E504B0304140006080800B670623B08DA0BD19000000041010000360000006662782F42384135303843342D343331462D343546312D4243
310
41352D3532343432364645413344462F6469726563746F72792E786D6C858F410AC3201045AF22B36F53E9A60B35CBEEBAE80D244E44489C6234F4F835464A48035D0DF398FF9F8AF63D0E6CC63039F212F8F9020C7D47C6792B21C5FE7403D62A1188E2E60C98D7234A5830286103A55745067B9D86B8A3CF9C7F90C11DE6
310
07FB144396D7B6A82D282E9A152AD114D5EF2CB866EEE831B8EEA07A7BB5A8D7D61A2BAAEB7FD5F70921FF497D00504B0304140006080800B670623B3B4606F3FE000000A00100003B0000006662782F42384135303843342D343331462D343546312D424341352D3532343432364645413344462F7265736F75726365732F
310
636F72652E786D6C8D504B6E833010BD0A9A6D65B08134808CA354A427E8052C332156828DFCA97AFC9A40A576D7CDCCE87D344F8F9FBEE647F689CE6B6B7A6039850C8DB2A336530F315C4903D94970676DF82583CCC8197B5861107C72362E3BA4AC096842428D1D7107A5F71820538F74F4E0D50D6799CB1892C2DFF345
310
AABB9C306779A2934E701F5C0A906D4FD609C2A1B7D129F4BCD858C163D4E3AED163FAA9AF1A1D88F67CA98E6D35906AA82A52BFB39ABCD5CD915C86331BD86BD3B665CD8BD52C78D0F34F46E550061C419494B6843142CB0F5677F4D0D58717DA7494F26295FF31C565FCA7296A13AA728FBBD93C0896823C09C18BB5AFB4
310
9E65A6BD762BBE01504B010214000A0000080000B670623B3DEE336E79000000790000001B00000000000000000000000000000000006175746F6465736B2D64657369676E2D7061636B6167652E786D6C504B01021400140006080800B670623BD486FD9CA0000000F40000001300000000000000000000000000B2000000
310
5B436F6E74656E745F54797065735D2E786D6C504B01021400140006080800B670623B28ED286BEB0000007C010000080000000000000000000000000083010000636F72652E786D6C504B01021400140006080800B670623B55019EA25F0000007C000000070000000000000000000000000094020000636E782E786D6C50
310
4B01021400140006080800B670623B7BC41AC871010000D40300000C00000000000000000000000000180300006662782F636F72652E786D6C504B01021400140006080800B670623B70102A487D0000009D0000000B00000000000000000000000000B30400006662782F636E782E786D6C504B01021400140006080800B6
310
70623B3610CA3329010000120200003100000000000000000000000000590500006662782F42384135303843342D343331462D343546312D424341352D3532343432364645413344462F636F72652E786D6C504B01021400140006080800B670623B1B8617914E010000330300003000000000000000000000000000D10600
310
006662782F42384135303843342D343331462D343546312D424341352D3532343432364645413344462F636E782E786D6C504B01021400140006080800B670623BBFEF2E3B690500003C10000034000000000000000000000000006D0800006662782F42384135303843342D343331462D343546312D424341352D35323434
310
32364645413344462F6F626A656374732E786D6C504B01021400140006080000B670623B0000000000000000000000003500000000000000000000000000280E00006662782F42384135303843342D343331462D343546312D424341352D3532343432364645413344462F76657274696365732E62696E504B010214001400
310
06080800B670623BF270F133060000000400000036000000000000000000000000007B0E00006662782F42384135303843342D343331462D343546312D424341352D3532343432364645413344462F747269616E676C65732E62696E504B01021400140006080000B670623B00000000000000000000000037000000000000
310
00000000000000D50E00006662782F42384135303843342D343331462D343546312D424341352D3532343432364645413344462F617474726962757465732E62696E504B01021400140006080800B670623B08DA0BD1900000004101000036000000000000000000000000002A0F00006662782F42384135303843342D3433
310
31462D343546312D424341352D3532343432364645413344462F6469726563746F72792E786D6C504B01021400140006080800B670623B3B4606F3FE000000A00100003B000000000000000000000000000E1000006662782F42384135303843342D343331462D343546312D424341352D3532343432364645413344462F72
310
65736F75726365732F636F72652E786D6C504B0506000000000E000E0080040000651100000000
  0
XRECORD
  5
187
102
{ACAD_REACTORS
330
186
102
}
330
186
100
AcDbXrecord
280
     1
 70
     1
 90
429727718
  1
887D55A9-D0DD-414E-B741-A7DCD4DA2B4C
310
504B03040A0000080000B670623B3DEE336E79000000790000001B0000006175746F6465736B2D64657369676E2D7061636B6167652E786D6C3C3F786D6C2076657273696F6E3D22312E302220656E636F64696E673D227574662D3822203F3E3C666F726D6174733E3C666F726D61743E687474703A2F2F736368656D612E
310
6175746F6465736B2E636F6D2F64657369676E2D7061636B6167652F323030393C2F666F726D61743E3C2F666F726D6174733E504B0304140006080800B670623BD486FD9CA0000000F4000000130000005B436F6E74656E745F54797065735D2E786D6C7D8EC10E82300C865F65E91D8A1E8C310C0EEA1BF002731658846E
310
D98AC1B77784ABF1D8FE5FBFBF75BBCE937A534CCEB38643598122B6FEE978D0B0485F9C41B54DDD7D022595594E1A469170414C76A4D9A4D207E29CF43ECE46F218070CC6BECC4078ACAA135ACF422C856C0E68EA1BF5669944DDD7BCDE7B1F8E415D77AECB980613C2E4AC91FC167A2B244592486606FC29C8FD7F045B9A
310
EF7053A7E60B504B0304140006080800B670623BBC1638F5EC0000007C01000008000000636F72652E786D6C8D90416EC3201045AF82665B61836BE2D8C24471DB9CA01740401C94182C03558F5F9C3852BBEB6A467FFE9B197D7EF89E6EE8CB2CC17AD7032D0820E394D7D68D3DA478C67B4007C117EFE32F1B202727D3C3
310
2A83E0E3E2D3BC49CABB685CCCAAF3DA6CA20CC14440EA969B1E82BA98491632C5EC08D76296EA2A4753D06797E194AC468F2356E77DF66CCD02825543D50CACC62D39ED70FDC68EB8FD68F6F8787A6784342D1DDA1D2F5758F068A7E77DB518198D065111D2624A31A93E69DD11D6D5EC85EC3B4278B9DAFF4069D6FF8492
310
75F1B5DADE7D600104CD8FDC0782976B16B9DC83CA75CD4DFC00504B0304140006080800B670623B55019EA25F0000007C00000007000000636E782E786D6C4DCB3B0E80201045D1AD90E915ED2CF8AC45050C11660C8261F98AB1B07AC9C97D42D718D865D3E909258CFD00CCE24AC6E326A164D74DC0B4128928FF326038
310
472BA13128B1252AC747C6BAB984FC68F0B87FE8960A5C09FE86CFB69FBA01504B0304140006080800B670623B3586FFB671010000D40300000C0000006662782F636F72652E786D6CC553ED6E8320147D15C2DF4541A76D6D90A6DDD627D80B50A4CE54C120983EFEAE1F4DD7A55BBA5FF3879273EEE59E7310B6393735EA
310
95ED2AA3731C851423A5A5292A5DE6D8BB63B0C268C39935C67D29C3488B46E578803167A535BE9D2169B453DA01AA4DA16650749D7218C91A1639EEE4876A4428BC838AEE14B6429E44A9C228041AEA38EB9C0501681A32BC313F1ECE8C4C3867DE57C5CC56054CAB8E95B298A7F12E5EEED224C8E87E11242FE936C8DE96
310
AB60BB7F4D295D66D12E5B30323473E6AAE6A24E5A259C2A308F29CD82280A68FC1E256B9AAE93F489AED694323294DF34F9B678B0C957DA3DC7B3DCA9ADC33C022123F1CD2D44E450277AD04338234388F01913BE0D1A0281909D38D4171F27807A259DB1093085F157AA17B557309586747CD0CF0B46A64E983A6E0EAEEF
310
CE881F9EF1FB8E70D44297604238581EBC1B74B249C31C5AAB6CD0BB33D2C636A27ECCC62F0EFF445DC5DF95244D6DEC7F2922F30191F9F720C37DE49F504B0304140006080800B670623B4220A0FF7D0000009D0000000B0000006662782F636E782E786D6C4DCCD10A83201886E15B91FFDCE542CB0335D0EC3E6259C84A
310
C3E9D8E5AF46073BFAE0E1E315DD675BD1DBA5978F41C2FD4600B9F088930F8B849267CC01754AA418F3DF0D50183727E164506249B1EC174D6E1ECB9A0F5D7D785E68DB8151CD286E5A5363CA6B8A39E90D36D40E96B086F55A43A544F52B1D7B86D517504B0304140006080800B670623B2FA3FEDE290100001202000031
310
0000006662782F45374635344235342D363743322D343832342D383044432D4334454645303536354442422F636F72652E786D6C8D515B6EC32010BC0AE22B55850D2E386E848994D7097A0117488A1283C5A3CAF10BB523B57FF961D1ECCCECC0F2ED7DBC816FED8371B687A4C210682B9D32F6D2C314CFA883602BB8772E
310
FEA141608751F7B0C050F08B77695A20E96CD43666D43AA5177008414708E42D5F7A18E4971E876A483133C2B59A06791D2EBA22556E679EE021FA1C00CC43CA09C5717D6274C7286AD7FB06D1AEA1A8C3873DDAD3E3E98859CB0EBB1DAF67A1E02919B5C88DCA71CCD968FFAC49110B1ECDF8882FBD1EA256503418BF2342
310
106E3E08DD60B6A1EC15771B8C795DE8FF4469524F8A92B1F1AD59E2CEB20005E1F5DC105CB9F4797B84D1F7C9F908CABC55D0F2050A5C61CC1AD2F27A26E6E767C7962E8E213A9FBF7775FDCC5CC266DB960A5E970DE5F2BBBE5CCB36C50F504B0304140006080800B670623B1B8617914E01000033030000300000006662
310
782F45374635344235342D363743322D343832342D383044432D4334454645303536354442422F636E782E786D6CD593C16EC32010447F0571AD6CE3D489D20813A9877E410FBD62D82434182CC055F3F75D1292E692438FBD206B7698593D61BEFD1E2DF982108D773D6D6B460938E5B571FB9ECE6957AD29D90A1EBC4F77
310
364A9C1CA1A759A682EF839FA72269D8C9D92654AD71C72206887E0E0A22CAF926B15E498B01E0AA19451807D01A34B919F16B070157417138917400F2F6FA41FCF0092A45DEE414C19BDC21783E4BD39D891265658C3D8DEA00A3ACE59CBC8678ACB54CB26EEB6BD7839D7E9348BE70AD9C8321B9BCA7F9A4A26C542347DE
310
E050F09802D22BA6749A800A394DD62899107273365E3C82CFC6A55557BC06C10774B7ABE7AEC3B0F34CF06446280E154026D0542C187BA9DAB6628BF7B6DBB0E5A65B3EB1F58631DE64BBE083F7B65CC218087E22CABB042E51D1F2268F1FE12B3EA24D40D63E9CFE00120194D60B9D5BC67FE6D39CDF37E20AF817881F50
310
4B0304140006080800B670623B29652116630500003C100000340000006662782F45374635344235342D363743322D343832342D383044432D4334454645303536354442422F6F626A656374732E786D6CAD575D739B3814FD2B0CFB0C989834C90EA1639B24E3E9A6EDD4D3CE3E64C623834CD8006224913AFDF57B040203
310
B65BEF871F0C12D2FD3CF7E8CA7FBFCB33E3957291B2E2D674ED8969D02262715A24B76625B7D6B569BC0F7CCE98EC2D338D82E4F4D654D366E0279C55A59E8AE99654991CCDDECFFF3444440B6A1A514684B83545F44C7362934AB2988A173B2692D8C97667BB76B3702836E1A47C1E092D09A78584A5982F20C5688C7287
310
C389E904BEA3BE07BEFAD7ABA6A75739B53F43FD69212429A20365233153D70BEF2E2E6FAC4BCF9B5ADEBB0BD79ADFCF43CBBD9A4E16EF168B9BD9DD0D140BC921495BC2E9D60C1E101B9E46BED37CEA2CD6861F3329624541A3DA7F7858DBAC25C6B4A4458C3CA654405BCFEBC970E8AAD8F43E4FD558ABEC4F9FE7557F47
310
4F506B7BFBEC5BCA367FC105710E2AB8A00A554D7CB4A30DFE26FBA86D18CBF4B75418399194A72433B274C3097F33032C554B027F2046A1932B842B0FCCC0DDCBEBDB8AD2F835768F59B9ADB24C41D30C6A64AF817F2A456D59FA83F2E3DA60137255A585BCD60EC9B7929AC18DEFD49381AF1ED30BFDB109A4B1CD488294
310
C3CDE6EBC8D185AABD6568061FEE37BB95AAC7E3CA4BCE4ACAA5820FA0D526AE7DAA2869B5EE5999531BE0CC20E6FBA07C41E43FA27CF7A6206F3CDD793B4F6B919C1462CB788EDCD893FA674CDA17AB7B3B7C019F8D561FAEE966FED562DFE98C1D12C6A9FC015C2A35D7FF3D7FC398F591DA4B5FE0BFA2C0189FEA50AE22
310
92817A1ED3020951A03432862970F976B33383259812CC8E5D240BBA801CBCF8CE2BBEE3BF910DB6AAD5F79E05123AE2DB33981FB1ACCB02B69D00CB014FD68AB573A7627EF9BFD4CC2C5C7D58557C4B22FAA88925A4DBB44825CECE3D78FB060D1231F0E885BE7D673C86A3874958F593906B5502D1563157814FDAC3420D
310
F69A070A22EC4B98E23CFF171A1E5311D12C23056555ABA53B8614563B92D17D02AAB009E8F46284624E5F53D5490C560CCCC2591FF1B45421EB0EBD8EA7ED13BE7C5D7E0428CD60FEF60779EB13E6664FF711CB185F6FDED60D139A001FF60CD1FD6D086F1D51474901E26B2CB794A343BC8ED3EDB612E0DD2351FCB65CF4
310
33D511C9E14B5B40ADC6A6263DB0336A8F700DDF56271A024E70B0B3629DE21847591E55DED73D56206AB927E46FAABC5C939C55853C274C93D69FD6FA4E78BF8B11DF898C9ECD60553FAD39283BA6F18984AA23E8884F83F45C5F5F859797B31B2B9C84A1E5B9DE9D35BFF25C6B76152E422F9C5DCC3D847F5801ED09D5AF
310
41441327A25FF15487F9EB725FB666F048A4701E9A827292E6F97569A32DF61DEC01C0BB8DCBBCCC684E0B49147C1FD54BF685A0AB18C868E6973949E819523E3DAC463660E68C7D9F55A9D1EFA3BD7A76A16AE1A810F95CE59B82A4D968A376DC2E8B44BBDD86B27B368CDE0ED548C7137DA860591A83706223A12CA712B4
310
7306DBF39C0A20A6DF95C7FAF670C6EED7A61F946493D1D6926782963813403548A78AE470DEF80D2D9CEAA26E4D1C76F60BFE74219A06527D6B82DF641A51616F703CAAC6A7160E08A00BEB4810A0274592A1B36E3675E36E978A0DE80727A0D6DF2D39A75BD27E0D8837276589537B40ABB56D5A41F48F1C6FCD3188C4EB
310
A6929D2FFB89CE995A4D00AE813BDD032DC48B56BD437DFDDC2DD7AED70C2272D63DE9A72068A45A92F0A4BE17A8A06B9366E16707AD80B1FC649459952097E74BB23805982B55E0401150A165964402AA8BDF9F3E7386BB686EDCA780C0D382E5392BF460A6EFB2C6EA1937D3F809B440D5F5435C4C5CF7A9EEFAF54564BD
310
2182DA24162F98680B4E7930C21A0079709CEAEB99A372305ABE0C0D7D6078105A83F6A0296DAEE1068A47DD1C55A9F4C9B2FC69E3EFD44B81028E963DF81B504B0304140006080000B670623B000000000000000000000000350000006662782F45374635344235342D363743322D343832342D383044432D433445464530
310
3536354442422F76657274696365732E62696E504B0304140006080800B670623BF270F1330600000004000000360000006662782F45374635344235342D363743322D343832342D383044432D4334454645303536354442422F747269616E676C65732E62696E636660600000504B0304140006080000B670623B00000000
310
0000000000000000370000006662782F45374635344235342D363743322D343832342D383044432D4334454645303536354442422F617474726962757465732E62696E504B0304140006080800B670623B08DA0BD19000000041010000360000006662782F45374635344235342D363743322D343832342D383044432D4334
310
454645303536354442422F6469726563746F72792E786D6C858F410AC3201045AF22B36F53E9A60B35CBEEBAE80D244E44489C6234F4F835464A48035D0DF398FF9F8AF63D0E6CC63039F212F8F9020C7D47C6792B21C5FE7403D62A1188E2E60C98D7234A5830286103A55745067B9D86B8A3CF9C7F90C11DE607FB144396
310
D7B6A82D282E9A152AD114D5EF2CB866EEE831B8EEA07A7BB5A8D7D61A2BAAEB7FD5F70921FF497D00504B0304140006080800B670623B6378F24DFF000000A00100003B0000006662782F45374635344235342D363743322D343832342D383044432D4334454645303536354442422F7265736F75726365732F636F72652E
310
786D6C8D504B6E833010BD0A9A6D65B0094E42641C85B639412F6099496225D8C89FAAC7AF09546A77DDCC8CDE47F3F4C4F16B7C149FE88371B603565228D06A37187BED20C50BD9437194C23B177FC9A0B06AC40E6618A4B87A97A615D2CE46B431A3D60DB8822A048C50E8473E3A08FA86A32A558A5911EEE5A4F45D5DB1
310
6465A6B34E8A107D0E502C4FE609D26370C96B0CA25A58295232C3AA3143FE692E063D485EF7F5AEE71BD2D2F39634AFFC44DAF7DD9E9CCE6F9CD25DCBFA762BAAD92C4534E34F46ED51451C40D694B6843142EB0FD61C283F34FC85EE0F948A6A96FF31A569F8A729191B37F51A77B105902C0779125254735F793DCBCC7B
310
EE567E03504B010214000A0000080000B670623B3DEE336E79000000790000001B00000000000000000000000000000000006175746F6465736B2D64657369676E2D7061636B6167652E786D6C504B01021400140006080800B670623BD486FD9CA0000000F40000001300000000000000000000000000B20000005B436F6E
310
74656E745F54797065735D2E786D6C504B01021400140006080800B670623BBC1638F5EC0000007C010000080000000000000000000000000083010000636F72652E786D6C504B01021400140006080800B670623B55019EA25F0000007C000000070000000000000000000000000095020000636E782E786D6C504B010214
310
00140006080800B670623B3586FFB671010000D40300000C00000000000000000000000000190300006662782F636F72652E786D6C504B01021400140006080800B670623B4220A0FF7D0000009D0000000B00000000000000000000000000B40400006662782F636E782E786D6C504B01021400140006080800B670623B2F
310
A3FEDE290100001202000031000000000000000000000000005A0500006662782F45374635344235342D363743322D343832342D383044432D4334454645303536354442422F636F72652E786D6C504B01021400140006080800B670623B1B8617914E010000330300003000000000000000000000000000D2060000666278
310
2F45374635344235342D363743322D343832342D383044432D4334454645303536354442422F636E782E786D6C504B01021400140006080800B670623B29652116630500003C10000034000000000000000000000000006E0800006662782F45374635344235342D363743322D343832342D383044432D4334454645303536
310
354442422F6F626A656374732E786D6C504B01021400140006080000B670623B0000000000000000000000003500000000000000000000000000230E00006662782F45374635344235342D363743322D343832342D383044432D4334454645303536354442422F76657274696365732E62696E504B01021400140006080800
310
B670623BF270F13306000000040000003600000000000000000000000000760E00006662782F45374635344235342D363743322D343832342D383044432D4334454645303536354442422F747269616E676C65732E62696E504B01021400140006080000B670623B0000000000000000000000003700000000000000000000
310
000000D00E00006662782F45374635344235342D363743322D343832342D383044432D4334454645303536354442422F617474726962757465732E62696E504B01021400140006080800B670623B08DA0BD190000000410100003600000000000000000000000000250F00006662782F45374635344235342D363743322D34
310
3832342D383044432D4334454645303536354442422F6469726563746F72792E786D6C504B01021400140006080800B670623B6378F24DFF000000A00100003B00000000000000000000000000091000006662782F45374635344235342D363743322D343832342D383044432D4334454645303536354442422F7265736F75
310
726365732F636F72652E786D6C504B0506000000000E000E0080040000611100000000
  0
XRECORD
  5
112
102
{ACAD_REACTORS
330
110
102
}
330
110
100
AcDbXrecord
280
     1
270
     1
271
     1
  0
XRECORD
  5
111
102
{ACAD_REACTORS
330
110
102
}
330
110
100
AcDbXrecord
280
     1
270
     1
271
     1
  0
XRECORD
  5
18A
102
{ACAD_REACTORS
330
110
102
}
330
110
100
AcDbXrecord
280
     1
 70
     0
 90
1778669749
  1
9BF507EE-FAF7-4A99-A33D-4EE51894BC40
310
504B03040A0000080000B670623B3DEE336E79000000790000001B0000006175746F6465736B2D64657369676E2D7061636B6167652E786D6C3C3F786D6C2076657273696F6E3D22312E302220656E636F64696E673D227574662D3822203F3E3C666F726D6174733E3C666F726D61743E687474703A2F2F736368656D612E
310
6175746F6465736B2E636F6D2F64657369676E2D7061636B6167652F323030393C2F666F726D61743E3C2F666F726D6174733E504B0304140006080800B670623BD486FD9CA0000000F4000000130000005B436F6E74656E745F54797065735D2E786D6C7D8EC10E82300C865F65E91D8A1E8C310C0EEA1BF002731658846E
310
D98AC1B77784ABF1D8FE5FBFBF75BBCE937A534CCEB38643598122B6FEE978D0B0485F9C41B54DDD7D022595594E1A469170414C76A4D9A4D207E29CF43ECE46F218070CC6BECC4078ACAA135ACF422C856C0E68EA1BF5669944DDD7BCDE7B1F8E415D77AECB980613C2E4AC91FC167A2B244592486606FC29C8FD7F045B9A
310
EF7053A7E60B504B0304140006080800B670623BCA089DFFEC0000007C01000008000000636F72652E786D6C8D90416E83301045AF62CDB632D8402020E32882F604BD80653BC44AB011B6AB1EBF262152BBEB6A467FFE9B197D76FA9EEFE84BAFDE38DB03CD08206DA553C64E3DC470C1474027CE56E7C22F1B202B66DDC3
310
260367D3EAE2B24BD2D9A06D48AA754AEFA2F05E0740F29E9A1EBCBCEA59642286E4F0B76C11F226269DD15797E0188D42CF2346A57DE662F40ABCAEC77628C6120F654571D50C04B7F5B9C1E3997CD4F550BE3745C3F20DE62C98F9755FAE5A04AD801784B498524C8A4F5A75E4D055873772EC0861F966FF03C545FD138A
310
C686B2D8DF7D621E384D8F3C069CE55B16A93C824A75CB8DFF00504B0304140006080800B670623B55019EA25F0000007C00000007000000636E782E786D6C4DCB3B0E80201045D1AD90E915ED2CF8AC45050C11660C8261F98AB1B07AC9C97D42D718D865D3E909258CFD00CCE24AC6E326A164D74DC0B4128928FF326038
310
472BA13128B1252AC747C6BAB984FC68F0B87FE8960A5C09FE86CFB69FBA01504B0304140006080800B670623B68FC0B7272010000D40300000C0000006662782F636F72652E786D6CC5535B6E833010BC8AE5DF0A6C1E8124328E22D29EA01770C0A128602363A31CBFCB234A53A555FA553EC09AD9F5CE8C31DB5DDA060D
310
D2F4B556190E7C8A9154852E6B5565D8D993B7C668C799D1DA7E29C3488956667884316795D1AE5BA0422B2B950554E9522EA0E87B69312A1A5864B82F3E642B7CE12C54F467BF13C55954D20F7CA0A18EB3DE1A1080E621E31BF3D3F1C2C88C73E65C5D2E6C5DC2B4FA544B8379921C36797888BC3C8A032F4E73EA6D927D
310
EA1DF6F42D49F2E8350D5346C666CE6CDD5ED515460A2B4BCC434A375E1078347C0FE22D5D6DE3D50B5D6F2965642CBF6B725DF96493AB958DC245EEDCD6631E809089F8E61622B2A81703E8219C913144F84C09DF070D8140C8561C9BAB8F3340832CAC363130A576376A108D933095FA747AD0CF0B46E64E983A6D0EAE1F
310
CE089F9EF1FB8E70D44255604258581E9D1D75B259C3125A278D37D80B52DAB4A279CEC62F0EFF44DDC43F9454E8469BFF5244960322CBEF41C6FBC83F01504B0304140006080800B670623B0F71DDB67E0000009D0000000B0000006662782F636E782E786D6C4DCCD10A83201886E15B91FFDCA54DB73F502386BB8F5816
310
32D3703976F9ABD1C18E3E78F87855FB990379BBFCF2296AE02706C4C5471A7C9C349475A408A4352AA7B4FEDD80C47E761A7606A3A69CCA72D0E0C6BE8475D3E0E3F3409428EA6B27A84079A782899AA2EC1A7AE3ECCC2FD858CB2D544655BFD2B67BD87C01504B0304140006080800B670623BE134B4FB28010000120200
310
00310000006662782F38353834323741342D343835462D343034322D383541392D4331303331363839454531452F636F72652E786D6C8D515B6EC32010BC0AE22B55850D0EA424C24451959EA0172086A42831583CAA1CBF503B52FB971F16CDCECC0EACD8DFC71BF836215AEF7A481A0C817183D7D65D7A98D3197108F652
310
04EFD31F1A044E8DA6871586525C82CFD3020DDE25E352419DD76601558C264130DCCAA58771F832A36A544E8511AFCDA486ABBA988634A55D7852C4144A00300FA927949C71DABD1D28A29C7D208A6987383B6CD13BC16BB2E1DBE3911C453B0BA5C8D9EA456E758963CFD684674DAA588A64C747FC2118958C86B2C3788B
310
0841B8FB247487D98EB257CC77188BB6D2FF89F2A49F1465EBD2BA5BE2CEB2082511EDDC9042FB7CBA3DC298FBE4430275DE2A9AE1054ADC60CC08E3A29D89E5F9C5714317C7987C28DFBBBA9E0A97B0D97643A568EB864AF95D5FA9759BF207504B0304140006080800B670623B1B8617914E010000330300003000000066
310
62782F38353834323741342D343835462D343034322D383541392D4331303331363839454531452F636E782E786D6CD593C16EC32010447F0571AD6CE3D489D20813A9877E410FBD62D82434182CC055F3F75D1292E692438FBD206B7698593D61BEFD1E2DF982108D773D6D6B460938E5B571FB9ECE6957AD29D90A1EBC4F
310
77364A9C1CA1A759A682EF839FA72269D8C9D92654AD71C72206887E0E0A22CAF926B15E498B01E0AA19451807D01A34B919F16B070157417138917400F2F6FA41FCF0092A45DEE414C19BDC21783E4BD39D891265658C3D8DEA00A3ACE59CBC8678ACB54CB26EEB6BD7839D7E9348BE70AD9C8321B9BCA7F9A4A26C542347
310
DEE050F09802D22BA6749A800A394DD62899107273365E3C82CFC6A55557BC06C10774B7ABE7AEC3B0F34CF06446280E154026D0542C187BA9DAB6628BF7B6DBB0E5A65B3EB1F58631DE64BBE083F7B65CC218087E22CABB042E51D1F2268F1FE12B3EA24D40D63E9CFE00120194D60B9D5BC67FE6D39CDF37E20AF817881F
310
504B0304140006080800B670623B5933D422630500003B100000340000006662782F38353834323741342D343835462D343034322D383541392D4331303331363839454531452F6F626A656374732E786D6CAD575B6FA33814FE2B887D0642934E9B156594264D158D3A534DD4D13E548A0C38942D60649B4EBABF7E3F8321
310
40924EF6928780CDF1B97EE762EFF32E4B8D37CA45C2F21BD3B547A641F39045491EDF98A5DC5AD7A6F1D9F73863B243661A39C9E88DA9B64DDF8B392B0BBD15D12D295339D85DDEFE618890E6D434C2940871638AF08566C426A5641115AF764424B1E3EDCE76ED9AB0CF36E6A47819302D08A7B984A6D8CFC1C5A89572FB
310
CB91E9F89EA3BEFB9EFAD754E3D3544E654F5F7E920B49F2F040D880CDD89D2CEE2E2EA7D6E56432B6269F2E5CEB7679BBB0DCABF168FE693E9FCEEEA6102C240727AD09A75BD3BF876F78127A4EFDA9D5582B7E4CA590E5390D2BFB6161A5B3E618D182E611E2985001691DAB47FDA5AB7CD3F93C566B2DB2BB7D9E55DD13
310
1D468DEECDB3AB290BFE8409E21C54704115AA6AFF68436BFC8DF65E0B184BF5B74418199194272435D224E084BF9B3E481589EFF5D828747285706581E9BB7B7E5D5D911ABFC6EE312DB7659A2A689A7E85EC0DF04FA5A8344BFEA2FCB834E8845895492EAFB541F2BDA0A63FF59C6AD3F7D4637CA13FD68E34B629891172
310
98597F1D183A57B9B75A98FE9765B05BAB7C3C2EBCE0ACA05C2AF8005A4DE09AA7F29216EB9E15397500C6F47CBE77CA7778FE2BD277AF0AE2C693DD6437D1522427B9D8329E2136F6A8FA19A3E6C56ADF0E5F50CF06D48734EDCEBF22F69C56D97EC138153F804B85E6FABFC7AFEFB32E523BE1F3BD372418E363EDCA7548
310
52949E8724474014288D94610BB57C1BEC4C7F854A89CA8E5324F55B871CBC78CE1BBEE3BFE68D6A5589EF3C730474506FCFA8FCF0659516D0ED04580EEA6425581B77CAE797FF4BCECC16EB2FEB926F49481F746159D06D922712BD730FDEAE42BD40F42C7AA5EF3F198F60E86110D6DD20645A9480B795CF95E3E3A659A8
310
C55E724F408873315335CFFB8584874484344D494E59D94869DB90C26A5B64F49C802CAC1D3ABE18A098D3B7444D123D8A9E5AE8F5214F0AE5B2B6E9B575DA3E61CBD3EA2B4009FA940524DD1305FB6A1FB294F14DF0BEA90BA109ECE1481FDC3FFAE8D60E75141700BE82725371B4873751B2DD960265F788137FACE6DD40
310
B575E4F0A5C99F46629D92131467A41EE11ABD8D4CCC039CA0AFB37C93A08B232B8F0AEFCA1E0A1015DF13FC83322B362463652ECF71D3A8B1A7D1BE65DE1D62C44F22C317D35F574FEB16153BA2D13E543D10A80E74C4A65E78A6B7CBCBD1D5DD9DB59C2DAFACC96C3AB566E3F1C29ADCDD5DBAD7D3C9ED7C822ED74F80A6
310
41755310DE4443F44A9E68373FADF6596BFA0F440AE7BECE2727AE9F4F2B1B53B1E7E00CF0DD1E5C65454A339A4BA2D0FBA05ED2EF0443458F47BDBFCA484CCFE0F2ED7E3DD0013B679C7B5499467F0ECEEADDB9CA85A34CE44B99053949D2C1416DB85DE4B136BB7165FBAC0B7AB3542BED4F8CA182A549847A1319316519
310
95A83A67147B9E5101C47487F2485F1ECE38FD568F839204296D3479219888530154036E6528FBFBC66F98E0D4107563A2D7D9AFF8D389681A08F58D89F22693900A3B407754734FC51C10C010D6D640809EE4718AC1BA3ED4AEDB53CA37283F68805A7E4B72CEB0A4EDEAD5DD8C14059A76AFAA56BA6901E13F32BC51C720
310
12AF41295B5BF61BAD3195181FB506E6B40F4C10AF5AF40EF9F5B159AE5DD1F43C72D635E94310D45C2D49785C5D0B94D3B54AB3C5A38349C0587D338AB48C11CBF339599C02CCA54A70A008A8D03C0B2201D5F9EFCF8F9CE12A9A19CB0410789EB32C63B95ECCF455D658BFE0621A3DA32C5075FB101723D77DAE867E7D0F
310
D90444509B44E2151B4DC2290B065803200FBAA9BE9D392A0603F2D5C2D00D6302A615680F66D2FA166E2079D4C551A54AB758161FCEFD4E450A14704CECFEDF504B0304140006080000B670623B000000000000000000000000350000006662782F38353834323741342D343835462D343034322D383541392D4331303331
310
363839454531452F76657274696365732E62696E504B0304140006080800B670623BF270F1330600000004000000360000006662782F38353834323741342D343835462D343034322D383541392D4331303331363839454531452F747269616E676C65732E62696E636660600000504B0304140006080000B670623B000000
310
000000000000000000370000006662782F38353834323741342D343835462D343034322D383541392D4331303331363839454531452F617474726962757465732E62696E504B0304140006080800B670623B08DA0BD19000000041010000360000006662782F38353834323741342D343835462D343034322D383541392D43
310
31303331363839454531452F6469726563746F72792E786D6C858F410AC3201045AF22B36F53E9A60B35CBEEBAE80D244E44489C6234F4F835464A48035D0DF398FF9F8AF63D0E6CC63039F212F8F9020C7D47C6792B21C5FE7403D62A1188E2E60C98D7234A5830286103A55745067B9D86B8A3CF9C7F90C11DE607FB1443
310
96D7B6A82D282E9A152AD114D5EF2CB866EEE831B8EEA07A7BB5A8D7D61A2BAAEB7FD5F70921FF497D00504B0304140006080800B670623BD9A3B367FE000000A00100003B0000006662782F38353834323741342D343835462D343034322D383541392D4331303331363839454531452F7265736F75726365732F636F7265
310
2E786D6C8D504B6E833010BD0A9A6D65B01D0201194711694FD00B586642AD043BF2A7EAF16B122AB5BB6E6646EFA3797AE2F8B5DC8A4FF4C1383B002B291468B59B8C9D0748F1420E501CA5F0CEC55F3228AC5A708015062966EFD27D83B4B3116DCCA875136EA00A012314FA968F0182FEC045952AC5AC08D7F2AEF455CD
310
58B232D3592745883E07289E4FD609D26370C96B0CA27AB252A464A64D63A6FCD35C0C7A904D73EE467EE664DCD58CD4ED4849D79C5A723ED1B7A61977AF2D6F45B59AA58866F9C9A83DAA8813484E6947182394BFB3BAA7FBBEDEBFD0434FA9A856F91F53BA4FFF342563E38E6F719FB60092E5200F428A6AED2BAF479979
310
AFDDCA6F504B010214000A0000080000B670623B3DEE336E79000000790000001B00000000000000000000000000000000006175746F6465736B2D64657369676E2D7061636B6167652E786D6C504B01021400140006080800B670623BD486FD9CA0000000F40000001300000000000000000000000000B20000005B436F6E
310
74656E745F54797065735D2E786D6C504B01021400140006080800B670623BCA089DFFEC0000007C010000080000000000000000000000000083010000636F72652E786D6C504B01021400140006080800B670623B55019EA25F0000007C000000070000000000000000000000000095020000636E782E786D6C504B010214
310
00140006080800B670623B68FC0B7272010000D40300000C00000000000000000000000000190300006662782F636F72652E786D6C504B01021400140006080800B670623B0F71DDB67E0000009D0000000B00000000000000000000000000B50400006662782F636E782E786D6C504B01021400140006080800B670623BE1
310
34B4FB280100001202000031000000000000000000000000005C0500006662782F38353834323741342D343835462D343034322D383541392D4331303331363839454531452F636F72652E786D6C504B01021400140006080800B670623B1B8617914E010000330300003000000000000000000000000000D3060000666278
310
2F38353834323741342D343835462D343034322D383541392D4331303331363839454531452F636E782E786D6C504B01021400140006080800B670623B5933D422630500003B10000034000000000000000000000000006F0800006662782F38353834323741342D343835462D343034322D383541392D4331303331363839
310
454531452F6F626A656374732E786D6C504B01021400140006080000B670623B0000000000000000000000003500000000000000000000000000240E00006662782F38353834323741342D343835462D343034322D383541392D4331303331363839454531452F76657274696365732E62696E504B01021400140006080800
310
B670623BF270F13306000000040000003600000000000000000000000000770E00006662782F38353834323741342D343835462D343034322D383541392D4331303331363839454531452F747269616E676C65732E62696E504B01021400140006080000B670623B0000000000000000000000003700000000000000000000
310
000000D10E00006662782F38353834323741342D343835462D343034322D383541392D4331303331363839454531452F617474726962757465732E62696E504B01021400140006080800B670623B08DA0BD190000000410100003600000000000000000000000000260F00006662782F38353834323741342D343835462D34
310
3034322D383541392D4331303331363839454531452F6469726563746F72792E786D6C504B01021400140006080800B670623BD9A3B367FE000000A00100003B000000000000000000000000000A1000006662782F38353834323741342D343835462D343034322D383541392D4331303331363839454531452F7265736F75
310
726365732F636F72652E786D6C504B0506000000000E000E0080040000611100000000
  0
XRECORD
  5
113
102
{ACAD_REACTORS
330
110
102
}
330
110
100
AcDbXrecord
280
     1
270
     1
271
     1
  0
XRECORD
  5
114
102
{ACAD_REACTORS
330
110
102
}
330
110
100
AcDbXrecord
280
     1
270
     1
271
     1
  0
CELLSTYLEMAP
  5
D2A
102
{ACAD_REACTORS
330
104
102
}
330
104
100
AcDbCellStyleMap
 90
        3
300
CELLSTYLE
  1
TABLEFORMAT_BEGIN
 90
        5
170
     1
 91
        0
 92
    32768
 62
   257
 93
        1
300
CONTENTFORMAT
  1
CONTENTFORMAT_BEGIN
 90
        0
 91
        0
 92
      512
 93
        0
300

 40
0.0
140
1.0
 94
        5
 62
     0
340
11
144
0.25
309
CONTENTFORMAT_END
171
     1
301
MARGIN
  1
CELLMARGIN_BEGIN
 40
0.06
 40
0.06
 40
0.06
 40
0.06
 40
0.18
 40
0.18
309
CELLMARGIN_END
 94
        6
 95
        1
302
GRIDFORMAT
  1
GRIDFORMAT_BEGIN
 90
        0
 91
        1
 62
     0
 92
       -2
340
0
 93
        0
 40
0.045
309
GRIDFORMAT_END
 95
        2
302
GRIDFORMAT
  1
GRIDFORMAT_BEGIN
 90
        0
 91
        1
 62
     0
 92
       -2
340
0
 93
        0
 40
0.045
309
GRIDFORMAT_END
 95
        4
302
GRIDFORMAT
  1
GRIDFORMAT_BEGIN
 90
        0
 91
        1
 62
     0
 92
       -2
340
0
 93
        0
 40
0.045
309
GRIDFORMAT_END
 95
        8
302
GRIDFORMAT
  1
GRIDFORMAT_BEGIN
 90
        0
 91
        1
 62
     0
 92
       -2
340
0
 93
        0
 40
0.045
309
GRIDFORMAT_END
 95
       16
302
GRIDFORMAT
  1
GRIDFORMAT_BEGIN
 90
        0
 91
        1
 62
     0
 92
       -2
340
0
 93
        0
 40
0.045
309
GRIDFORMAT_END
 95
       32
302
GRIDFORMAT
  1
GRIDFORMAT_BEGIN
 90
        0
 91
        1
 62
     0
 92
       -2
340
0
 93
        0
 40
0.045
309
GRIDFORMAT_END
309
TABLEFORMAT_END
  1
CELLSTYLE_BEGIN
 90
        1
 91
        1
300
_TITLE
309
CELLSTYLE_END
300
CELLSTYLE
  1
TABLEFORMAT_BEGIN
 90
        5
170
     1
 91
        0
 92
        0
 62
   257
 93
        1
300
CONTENTFORMAT
  1
CONTENTFORMAT_BEGIN
 90
        0
 91
        0
 92
      512
 93
        0
300

 40
0.0
140
1.0
 94
        5
 62
     0
340
11
144
0.18
309
CONTENTFORMAT_END
171
     1
301
MARGIN
  1
CELLMARGIN_BEGIN
 40
0.06
 40
0.06
 40
0.06
 40
0.06
 40
0.18
 40
0.18
309
CELLMARGIN_END
 94
        6
 95
        1
302
GRIDFORMAT
  1
GRIDFORMAT_BEGIN
 90
        0
 91
        1
 62
     0
 92
       -2
340
0
 93
        0
 40
0.045
309
GRIDFORMAT_END
 95
        2
302
GRIDFORMAT
  1
GRIDFORMAT_BEGIN
 90
        0
 91
        1
 62
     0
 92
       -2
340
0
 93
        0
 40
0.045
309
GRIDFORMAT_END
 95
        4
302
GRIDFORMAT
  1
GRIDFORMAT_BEGIN
 90
        0
 91
        1
 62
     0
 92
       -2
340
0
 93
        0
 40
0.045
309
GRIDFORMAT_END
 95
        8
302
GRIDFORMAT
  1
GRIDFORMAT_BEGIN
 90
        0
 91
        1
 62
     0
 92
       -2
340
0
 93
        0
 40
0.045
309
GRIDFORMAT_END
 95
       16
302
GRIDFORMAT
  1
GRIDFORMAT_BEGIN
 90
        0
 91
        1
 62
     0
 92
       -2
340
0
 93
        0
 40
0.045
309
GRIDFORMAT_END
 95
       32
302
GRIDFORMAT
  1
GRIDFORMAT_BEGIN
 90
        0
 91
        1
 62
     0
 92
       -2
340
0
 93
        0
 40
0.045
309
GRIDFORMAT_END
309
TABLEFORMAT_END
  1
CELLSTYLE_BEGIN
 90
        2
 91
        1
300
_HEADER
309
CELLSTYLE_END
300
CELLSTYLE
  1
TABLEFORMAT_BEGIN
 90
        5
170
     1
 91
        0
 92
        0
 62
   257
 93
        1
300
CONTENTFORMAT
  1
CONTENTFORMAT_BEGIN
 90
        0
 91
        0
 92
      512
 93
        0
300

 40
0.0
140
1.0
 94
        2
 62
     0
340
11
144
0.18
309
CONTENTFORMAT_END
171
     1
301
MARGIN
  1
CELLMARGIN_BEGIN
 40
0.06
 40
0.06
 40
0.06
 40
0.06
 40
0.18
 40
0.18
309
CELLMARGIN_END
 94
        6
 95
        1
302
GRIDFORMAT
  1
GRIDFORMAT_BEGIN
 90
        0
 91
        1
 62
     0
 92
       -2
340
0
 93
        0
 40
0.045
309
GRIDFORMAT_END
 95
        2
302
GRIDFORMAT
  1
GRIDFORMAT_BEGIN
 90
        0
 91
        1
 62
     0
 92
       -2
340
0
 93
        0
 40
0.045
309
GRIDFORMAT_END
 95
        4
302
GRIDFORMAT
  1
GRIDFORMAT_BEGIN
 90
        0
 91
        1
 62
     0
 92
       -2
340
0
 93
        0
 40
0.045
309
GRIDFORMAT_END
 95
        8
302
GRIDFORMAT
  1
GRIDFORMAT_BEGIN
 90
        0
 91
        1
 62
     0
 92
       -2
340
0
 93
        0
 40
0.045
309
GRIDFORMAT_END
 95
       16
302
GRIDFORMAT
  1
GRIDFORMAT_BEGIN
 90
        0
 91
        1
 62
     0
 92
       -2
340
0
 93
        0
 40
0.045
309
GRIDFORMAT_END
 95
       32
302
GRIDFORMAT
  1
GRIDFORMAT_BEGIN
 90
        0
 91
        1
 62
     0
 92
       -2
340
0
 93
        0
 40
0.045
309
GRIDFORMAT_END
309
TABLEFORMAT_END
  1
CELLSTYLE_BEGIN
 90
        3
 91
        2
300
_DATA
309
CELLSTYLE_END
  0
ENDSEC
  0
SECTION
  2
ACDSDATA
 70
     2
 71
     8
  0
ACDSSCHEMA
 90
        0
  1
AcDb_Thumbnail_Schema
  2
AcDbDs::ID
280
    10
 91
        8
  2
Thumbnail_Data
280
    15
 91
        0
101
ACDSRECORD
 95
        0
 90
        1
  2
AcDbDs::TreatedAsObjectData
280
     1
291
     1
101
ACDSRECORD
 95
        0
 90
        2
  2
AcDbDs::Legacy
280
     1
291
     1
101
ACDSRECORD
  1
AcDbDs::ID
 90
        3
  2
AcDs:Indexable
280
     1
291
     1
101
ACDSRECORD
  1
AcDbDs::ID
 90
        4
  2
AcDbDs::HandleAttribute
280
     7
282
     1
  0
ACDSSCHEMA
 90
        1
  1
AcDbDs::TreatedAsObjectDataSchema
  2
AcDbDs::TreatedAsObjectData
280
     1
 91
        0
  0
ACDSSCHEMA
 90
        2
  1
AcDbDs::LegacySchema
  2
AcDbDs::Legacy
280
     1
 91
        0
  0
ACDSSCHEMA
 90
        3
  1
AcDbDs::IndexedPropertySchema
  2
AcDs:Indexable
280
     1
 91
        0
  0
ACDSSCHEMA
 90
        4
  1
AcDbDs::HandleAttributeSchema
  2
AcDbDs::HandleAttribute
280
     7
 91
        1
284
     1
  0
ACDSRECORD
 90
        0
  2
AcDbDs::ID
280
    10
320
22
  2
Thumbnail_Data
280
    15
 94
     1542
310
89504E470D0A1A0A0000000D4948445200000100000000BC0803000000A0D380EE00000300504C5445212830FFFFFF2128300000000000000000000000000000000000000000000000000000330000660000990000CC0000FF0033000033330033660033990033CC0033FF0066000066330066660066990066CC0066FF0099
310
000099330099660099990099CC0099FF00CC0000CC3300CC6600CC9900CCCC00CCFF00FF0000FF3300FF6600FF9900FFCC00FFFF3300003300333300663300993300CC3300FF3333003333333333663333993333CC3333FF3366003366333366663366993366CC3366FF3399003399333399663399993399CC3399FF33CC00
310
33CC3333CC6633CC9933CCCC33CCFF33FF0033FF3333FF6633FF9933FFCC33FFFF6600006600336600666600996600CC6600FF6633006633336633666633996633CC6633FF6666006666336666666666996666CC6666FF6699006699336699666699996699CC6699FF66CC0066CC3366CC6666CC9966CCCC66CCFF66FF0066
310
FF3366FF6666FF9966FFCC66FFFF9900009900339900669900999900CC9900FF9933009933339933669933999933CC9933FF9966009966339966669966999966CC9966FF9999009999339999669999999999CC9999FF99CC0099CC3399CC6699CC9999CCCC99CCFF99FF0099FF3399FF6699FF9999FFCC99FFFFCC0000CC00
310
33CC0066CC0099CC00CCCC00FFCC3300CC3333CC3366CC3399CC33CCCC33FFCC6600CC6633CC6666CC6699CC66CCCC66FFCC9900CC9933CC9966CC9999CC99CCCC99FFCCCC00CCCC33CCCC66CCCC99CCCCCCCCCCFFCCFF00CCFF33CCFF66CCFF99CCFFCCCCFFFFFF0000FF0033FF0066FF0099FF00CCFF00FFFF3300FF3333
310
FF3366FF3399FF33CCFF33FFFF6600FF6633FF6666FF6699FF66CCFF66FFFF9900FF9933FF9966FF9999FF99CCFF99FFFFCC00FFCC33FFCC66FFCC99FFCCCCFFCCFFFFFF00FFFF33FFFF66FFFF99FFFFCCFFFFFF0000000D0D0D1A1A1A2828283535354343435050505D5D5D6B6B6B787878868686939393A1A1A1AEAEAEBB
310
BBBBC9C9C9D6D6D6E4E4E4F1F1F1FFFFFF0000000000000000000000000000000000000000000000000000000000002E4550F1000002C14944415478DAED9C417283300C457D1C36BEFFAE1BDD8153B0F5BE21B6C10627A1D39936D17F3F4C12CC4A0F5996E49010D0BB28F51237DF398014922E806CDDC946250F48E535B0
310
5A2504D4290000008803D0CD799E03F0EF0D005801245900C5A8C7E6F9AF043A0F482F050000880541913C00000000000000000000000000000000000020A098D50168C7DC9BDF7E497105D08F39B7BFFF7E9A0251C8FEF5E4EEF631C81088C7B318E26054C47E008C017826A00E20864B00FC1200000000200D205E04E0DB
310
01AC1D98A638AD6FCD98395F06AD2510A7E5560B2C2D80F57A74EC02D6F9C00DC03CCF2D807C3DEA7840D6D1035C67825D0C88E7469029A4C29629D864CBB21E93B5E3FE6BA1320DD60FCBC73EA0510CEE1E707BFB0A721E506DCD00CA67A52202C0EA6B9B02DBF220D2107AEC013AFDA05310540270BFDDBD075417900901
310
A72910BC03E8F23D3B4F015302D0E40161CF039CB7437AE38BE1B3CD2279403CAF00C116CB479B0704893D72410FE816815AFB4C968F72F77DD702C745B07CDAE15C2208D81880EF85702B855FA4C2E61C801D08741E103CF704E376FF6D8B8276888A2523F4EF01C5D02D016ECECDED1CE862C0EE016D1990EAAE81EF2838
310
C888AAEA83910A00CC0624EAA3A102D540D703DA47CABF0928D483430FB84F03A1DF478C953CB7442E6D7CFBFEF17CD90B1D6D8B6A0028143A20C76B720F90743C863E902EEBA383C3EE0C47A3DC0378152015003C5F18D4012084104208218410FA9762F48745E9BB0A00000000FA5D30D4BEF700000000B4433F000040F6
310
4322247D0701000082184248B82BFC81B9A07C5B1C00000080E7AEB07C5B1C0000400821F467D5A0ECC6200000200EE0DF3241F9AD31000000218490EB620800000000420821BAC2EFBC38000000E2001042884428F0070A0000802A8006847622080000500B218410C5905C18070000C401204F89380000008007FA062DFE
310
E7847F63A24C0000000049454E44AE426082
  0
ENDSEC
  0
EOF
