  0
SECTION
  2
HEADER
  9
$ACADVER
  1
AC1032
  9
$ACADMAINTVER
 90
      174
  9
$DWGCODEPAGE
  3
ANSI_1252
  9
$LASTSAVEDBY
  1
kbernetski
  9
$REQUIREDVERSIONS
160
                 0
  9
$INSBASE
 10
0.0
 20
0.0
 30
0.0
  9
$EXTMIN
 10
-0.0196894489936788
 20
0.0790662965492687
 30
0.0
  9
$EXTMAX
 10
3.047464187700992
 20
1.103541817129539
 30
0.0
  9
$LIMMIN
 10
0.0
 20
0.0
  9
$LIMMAX
 10
12.0
 20
9.0
  9
$ORTHOMODE
 70
     0
  9
$REGENMODE
 70
     1
  9
$FILLMODE
 70
     1
  9
$QTEXTMODE
 70
     0
  9
$MIRRTEXT
 70
     0
  9
$LTSCALE
 40
1.0
  9
$ATTMODE
 70
     1
  9
$TEXTSIZE
 40
0.2
  9
$TRACEWID
 40
0.05
  9
$TEXTSTYLE
  7
Standard
  9
$CLAYER
  8
0
  9
$CELTYPE
  6
ByLayer
  9
$CECOLOR
 62
   256
  9
$CELTSCALE
 40
1.0
  9
$DISPSILH
 70
     0
  9
$DIMSCALE
 40
1.0
  9
$DIMASZ
 40
0.012
  9
$DIMEXO
 40
0.0075
  9
$DIMDLI
 40
0.38
  9
$DIMRND
 40
0.0
  9
$DIMDLE
 40
0.0
  9
$DIMEXE
 40
0.005
  9
$DIMTP
 40
0.0
  9
$DIMTM
 40
0.0
  9
$DIMTXT
 40
0.012
  9
$DIMCEN
 40
0.0
  9
$DIMTSZ
 40
0.0
  9
$DIMTOL
 70
     0
  9
$DIMLIM
 70
     0
  9
$DIMTIH
 70
     1
  9
$DIMTOH
 70
     1
  9
$DIMSE1
 70
     0
  9
$DIMSE2
 70
     0
  9
$DIMTAD
 70
     0
  9
$DIMZIN
 70
     0
  9
$DIMBLK
  1

  9
$DIMASO
 70
     1
  9
$DIMSHO
 70
     1
  9
$DIMPOST
  1

  9
$DIMAPOST
  1

  9
$DIMALT
 70
     0
  9
$DIMALTD
 70
     2
  9
$DIMALTF
 40
25.4
  9
$DIMLFAC
 40
1.0
  9
$DIMTOFL
 70
     0
  9
$DIMTVP
 40
0.0
  9
$DIMTIX
 70
     0
  9
$DIMSOXD
 70
     0
  9
$DIMSAH
 70
     0
  9
$DIMBLK1
  1

  9
$DIMBLK2
  1

  9
$DIMSTYLE
  2
Dan's Dim Style
  9
$DIMCLRD
 70
     0
  9
$DIMCLRE
 70
     0
  9
$DIMCLRT
 70
     0
  9
$DIMTFAC
 40
1.0
  9
$DIMGAP
 40
0.0075
  9
$DIMJUST
 70
     0
  9
$DIMSD1
 70
     0
  9
$DIMSD2
 70
     0
  9
$DIMTOLJ
 70
     1
  9
$DIMTZIN
 70
     0
  9
$DIMALTZ
 70
     0
  9
$DIMALTTZ
 70
     0
  9
$DIMUPT
 70
     0
  9
$DIMDEC
 70
     3
  9
$DIMTDEC
 70
     3
  9
$DIMALTU
 70
     2
  9
$DIMALTTD
 70
     2
  9
$DIMTXSTY
  7
Standard
  9
$DIMAUNIT
 70
     0
  9
$DIMADEC
 70
     0
  9
$DIMALTRND
 40
0.0
  9
$DIMAZIN
 70
     0
  9
$DIMDSEP
 70
    46
  9
$DIMATFIT
 70
     3
  9
$DIMFRAC
 70
     0
  9
$DIMLDRBLK
  1

  9
$DIMLUNIT
 70
     2
  9
$DIMLWD
 70
    -2
  9
$DIMLWE
 70
    -2
  9
$DIMTMOVE
 70
     0
  9
$DIMFXL
 40
1.0
  9
$DIMFXLON
 70
     0
  9
$DIMJOGANG
 40
0.7853981633974483
  9
$DIMTFILL
 70
     0
  9
$DIMTFILLCLR
 70
     0
  9
$DIMARCSYM
 70
     0
  9
$DIMLTYPE
  6

  9
$DIMLTEX1
  6

  9
$DIMLTEX2
  6

  9
$DIMTXTDIRECTION
 70
     0
  9
$LUNITS
 70
     2
  9
$LUPREC
 70
     4
  9
$SKETCHINC
 40
0.1
  9
$FILLETRAD
 40
0.0
  9
$AUNITS
 70
     0
  9
$AUPREC
 70
     0
  9
$MENU
  1
.
  9
$ELEVATION
 40
0.0
  9
$PELEVATION
 40
0.0
  9
$THICKNESS
 40
0.0
  9
$LIMCHECK
 70
     0
  9
$CHAMFERA
 40
0.0
  9
$CHAMFERB
 40
0.0
  9
$CHAMFERC
 40
0.0
  9
$CHAMFERD
 40
0.0
  9
$SKPOLY
 70
     0
  9
$TDCREATE
 40
2459178.366701389
  9
$TDUCREATE
 40
2459178.575035359
  9
$TDUPDATE
 40
2459418.333113426
  9
$TDUUPDATE
 40
2459418.499780093
  9
$TDINDWG
 40
0.2081387616
  9
$TDUSRTIMER
 40
0.2081387500
  9
$USRTIMER
 70
     1
  9
$ANGBASE
 50
0.0
  9
$ANGDIR
 70
     0
  9
$PDMODE
 70
     0
  9
$PDSIZE
 40
0.0
  9
$PLINEWID
 40
0.0
  9
$SPLFRAME
 70
     0
  9
$SPLINETYPE
 70
     6
  9
$SPLINESEGS
 70
     8
  9
$HANDSEED
  5
1B7F
  9
$SURFTAB1
 70
     6
  9
$SURFTAB2
 70
     6
  9
$SURFTYPE
 70
     6
  9
$SURFU
 70
     6
  9
$SURFV
 70
     6
  9
$UCSBASE
  2

  9
$UCSNAME
  2

  9
$UCSORG
 10
0.0
 20
0.0
 30
0.0
  9
$UCSXDIR
 10
1.0
 20
0.0
 30
0.0
  9
$UCSYDIR
 10
0.0
 20
1.0
 30
0.0
  9
$UCSORTHOREF
  2

  9
$UCSORTHOVIEW
 70
     0
  9
$UCSORGTOP
 10
0.0
 20
0.0
 30
0.0
  9
$UCSORGBOTTOM
 10
0.0
 20
0.0
 30
0.0
  9
$UCSORGLEFT
 10
0.0
 20
0.0
 30
0.0
  9
$UCSORGRIGHT
 10
0.0
 20
0.0
 30
0.0
  9
$UCSORGFRONT
 10
0.0
 20
0.0
 30
0.0
  9
$UCSORGBACK
 10
0.0
 20
0.0
 30
0.0
  9
$PUCSBASE
  2

  9
$PUCSNAME
  2

  9
$PUCSORG
 10
0.0
 20
0.0
 30
0.0
  9
$PUCSXDIR
 10
1.0
 20
0.0
 30
0.0
  9
$PUCSYDIR
 10
0.0
 20
1.0
 30
0.0
  9
$PUCSORTHOREF
  2

  9
$PUCSORTHOVIEW
 70
     0
  9
$PUCSORGTOP
 10
0.0
 20
0.0
 30
0.0
  9
$PUCSORGBOTTOM
 10
0.0
 20
0.0
 30
0.0
  9
$PUCSORGLEFT
 10
0.0
 20
0.0
 30
0.0
  9
$PUCSORGRIGHT
 10
0.0
 20
0.0
 30
0.0
  9
$PUCSORGFRONT
 10
0.0
 20
0.0
 30
0.0
  9
$PUCSORGBACK
 10
0.0
 20
0.0
 30
0.0
  9
$USERI1
 70
     0
  9
$USERI2
 70
     0
  9
$USERI3
 70
     0
  9
$USERI4
 70
     0
  9
$USERI5
 70
     0
  9
$USERR1
 40
0.0
  9
$USERR2
 40
0.0
  9
$USERR3
 40
0.0
  9
$USERR4
 40
0.0
  9
$USERR5
 40
0.0
  9
$WORLDVIEW
 70
     1
  9
$SHADEDGE
 70
     3
  9
$SHADEDIF
 70
    70
  9
$TILEMODE
 70
     0
  9
$MAXACTVP
 70
    64
  9
$PINSBASE
 10
0.0
 20
0.0
 30
0.0
  9
$PLIMCHECK
 70
     0
  9
$PEXTMIN
 10
1.049999952316284
 20
0.7999999523162842
 30
0.0
  9
$PEXTMAX
 10
9.449999570846559
 20
7.199999570846558
 30
0.0
  9
$PLIMMIN
 10
-0.2500002402958907
 20
-0.2499999962453767
  9
$PLIMMAX
 10
10.74999951940822
 20
8.249999763458733
  9
$UNITMODE
 70
     0
  9
$VISRETAIN
 70
     1
  9
$PLINEGEN
 70
     0
  9
$PSLTSCALE
 70
     1
  9
$TREEDEPTH
 70
  3020
  9
$CMLSTYLE
  2
Standard
  9
$CMLJUST
 70
     0
  9
$CMLSCALE
 40
1.0
  9
$PROXYGRAPHICS
 70
     1
  9
$MEASUREMENT
 70
     0
  9
$CELWEIGHT
370
    -1
  9
$ENDCAPS
280
     0
  9
$JOINSTYLE
280
     0
  9
$LWDISPLAY
290
     0
  9
$INSUNITS
 70
     1
  9
$HYPERLINKBASE
  1

  9
$STYLESHEET
  1

  9
$XEDIT
290
     1
  9
$CEPSNTYPE
380
     0
  9
$PSTYLEMODE
290
     1
  9
$FINGERPRINTGUID
  2
{10473EE4-6DAE-452D-BBC2-FC234C3BCF3B}
  9
$VERSIONGUID
  2
{E067031D-1C74-9748-B843-F6A59E7B06CB}
  9
$EXTNAMES
290
     1
  9
$PSVPSCALE
 40
0.0
  9
$OLESTARTUP
290
     0
  9
$SORTENTS
280
   127
  9
$INDEXCTL
280
     0
  9
$HIDETEXT
280
     1
  9
$XCLIPFRAME
280
     2
  9
$HALOGAP
280
     0
  9
$OBSCOLOR
 70
   257
  9
$OBSLTYPE
280
     0
  9
$INTERSECTIONDISPLAY
280
     0
  9
$INTERSECTIONCOLOR
 70
   257
  9
$DIMASSOC
280
     2
  9
$PROJECTNAME
  1

  9
$CAMERADISPLAY
290
     0
  9
$LENSLENGTH
 40
50.0
  9
$CAMERAHEIGHT
 40
0.0
  9
$STEPSPERSEC
 40
2.0
  9
$STEPSIZE
 40
6.0
  9
$3DDWFPREC
 40
2.0
  9
$PSOLWIDTH
 40
0.25
  9
$PSOLHEIGHT
 40
4.0
  9
$LOFTANG1
 40
1.570796326794896
  9
$LOFTANG2
 40
1.570796326794896
  9
$LOFTMAG1
 40
0.0
  9
$LOFTMAG2
 40
0.0
  9
$LOFTPARAM
 70
     7
  9
$LOFTNORMALS
280
     1
  9
$LATITUDE
 40
37.795
  9
$LONGITUDE
 40
-122.394
  9
$NORTHDIRECTION
 40
0.0
  9
$TIMEZONE
 70
 -8000
  9
$LIGHTGLYPHDISPLAY
280
     1
  9
$TILEMODELIGHTSYNCH
280
     1
  9
$CMATERIAL
347
96
  9
$SOLIDHIST
280
     0
  9
$SHOWHIST
280
     1
  9
$DWFFRAME
280
     2
  9
$DGNFRAME
280
     0
  9
$REALWORLDSCALE
290
     1
  9
$INTERFERECOLOR
 62
     1
  9
$INTERFEREOBJVS
345
A3
  9
$INTERFEREVPVS
346
A0
  9
$CSHADOW
280
     0
  9
$SHADOWPLANELOCATION
 40
0.0
  0
ENDSEC
  0
SECTION
  2
CLASSES
  0
CLASS
  1
ACDBDICTIONARYWDFLT
  2
AcDbDictionaryWithDefault
  3
ObjectDBX Classes
 90
        0
 91
        1
280
     0
281
     0
  0
CLASS
  1
DICTIONARYVAR
  2
AcDbDictionaryVar
  3
ObjectDBX Classes
 90
        0
 91
       11
280
     0
281
     0
  0
CLASS
  1
TABLESTYLE
  2
AcDbTableStyle
  3
ObjectDBX Classes
 90
     4095
 91
        1
280
     0
281
     0
  0
CLASS
  1
MATERIAL
  2
AcDbMaterial
  3
ObjectDBX Classes
 90
     1153
 91
        3
280
     0
281
     0
  0
CLASS
  1
VISUALSTYLE
  2
AcDbVisualStyle
  3
ObjectDBX Classes
 90
     4095
 91
       25
280
     0
281
     0
  0
CLASS
  1
SCALE
  2
AcDbScale
  3
ObjectDBX Classes
 90
     1153
 91
       33
280
     0
281
     0
  0
CLASS
  1
MLEADERSTYLE
  2
AcDbMLeaderStyle
  3
ACDB_MLEADERSTYLE_CLASS
 90
     4095
 91
        2
280
     0
281
     0
  0
CLASS
  1
CELLSTYLEMAP
  2
AcDbCellStyleMap
  3
ObjectDBX Classes
 90
     1152
 91
        1
280
     0
281
     0
  0
CLASS
  1
EXACXREFPANELOBJECT
  2
ExAcXREFPanelObject
  3
EXAC_ESW
 90
     1025
 91
        0
280
     0
281
     0
  0
CLASS
  1
NPOCOLLECTION
  2
AcDbImpNonPersistentObjectsCollection
  3
ObjectDBX Classes
 90
     1153
 91
        0
280
     0
281
     0
  0
CLASS
  1
LAYER_INDEX
  2
AcDbLayerIndex
  3
ObjectDBX Classes
 90
        0
 91
        0
280
     0
281
     0
  0
CLASS
  1
SPATIAL_INDEX
  2
AcDbSpatialIndex
  3
ObjectDBX Classes
 90
        0
 91
        0
280
     0
281
     0
  0
CLASS
  1
IDBUFFER
  2
AcDbIdBuffer
  3
ObjectDBX Classes
 90
        0
 91
        0
280
     0
281
     0
  0
CLASS
  1
ACDBSECTIONVIEWSTYLE
  2
AcDbSectionViewStyle
  3
ObjectDBX Classes
 90
     1025
 91
        1
280
     0
281
     0
  0
CLASS
  1
ACDBDETAILVIEWSTYLE
  2
AcDbDetailViewStyle
  3
ObjectDBX Classes
 90
     1025
 91
        1
280
     0
281
     0
  0
CLASS
  1
DIMASSOC
  2
AcDbDimAssoc
  3
"AcDbDimAssoc|Product Desc:     AcDim ARX App For Dimension|Company:          Autodesk, Inc.|WEB Address:      www.autodesk.com"
 90
        0
 91
        5
280
     0
281
     0
  0
CLASS
  1
SORTENTSTABLE
  2
AcDbSortentsTable
  3
ObjectDBX Classes
 90
        0
 91
       11
280
     0
281
     0
  0
CLASS
  1
ACDB_ALDIMOBJECTCONTEXTDATA_CLASS
  2
AcDbAlignedDimensionObjectContextData
  3
ObjectDBX Classes
 90
     1153
 91
        0
280
     0
281
     0
  0
ENDSEC
  0
SECTION
  2
TABLES
  0
TABLE
  2
VPORT
  5
8
330
0
100
AcDbSymbolTable
 70
     1
  0
VPORT
  5
94
330
8
100
AcDbSymbolTableRecord
100
AcDbViewportTableRecord
  2
*Active
 70
     0
 10
0.0
 20
0.0
 11
1.0
 21
1.0
 12
0.553949623589233
 22
0.5900559683932883
 13
0.0
 23
0.0
 14
0.5
 24
0.5
 15
0.5
 25
0.5
 16
0.0
 26
0.0
 36
1.0
 17
0.0
 27
0.0
 37
0.0
 40
0.7893790760100244
 41
2.26284348864994
 42
50.0
 43
0.0
 44
0.0
 50
0.0
 51
0.0
 71
     0
 72
  1000
 73
     1
 74
     3
 75
     0
 76
     1
 77
     0
 78
     0
281
     0
 65
     1
110
0.0
120
0.0
130
0.0
111
1.0
121
0.0
131
0.0
112
0.0
122
1.0
132
0.0
 79
     0
146
0.0
348
9F
 60
     3
 61
     5
292
     1
282
     1
141
0.0
142
0.0
 63
   250
421
  3355443
1001
ACAD_NAV_VCDISPLAY
1070
     3
  0
ENDTAB
  0
TABLE
  2
LTYPE
  5
5
330
0
100
AcDbSymbolTable
 70
     2
  0
LTYPE
  5
14
330
5
100
AcDbSymbolTableRecord
100
AcDbLinetypeTableRecord
  2
ByBlock
 70
     0
  3

 72
    65
 73
     0
 40
0.0
  0
LTYPE
  5
15
330
5
100
AcDbSymbolTableRecord
100
AcDbLinetypeTableRecord
  2
ByLayer
 70
     0
  3

 72
    65
 73
     0
 40
0.0
  0
LTYPE
  5
16
330
5
100
AcDbSymbolTableRecord
100
AcDbLinetypeTableRecord
  2
Continuous
 70
     0
  3
Solid line
 72
    65
 73
     0
 40
0.0
  0
ENDTAB
  0
TABLE
  2
LAYER
  5
2
102
{ACAD_XDICTIONARY
360
18E
102
}
330
0
100
AcDbSymbolTable
 70
    16
  0
LAYER
  5
10
102
{ACAD_XDICTIONARY
360
E6
102
}
330
2
100
AcDbSymbolTableRecord
100
AcDbLayerTableRecord
  2
0
 70
     0
 62
     7
  6
Continuous
370
    -3
390
F
347
98
348
0
  0
LAYER
  5
24F
330
2
100
AcDbSymbolTableRecord
100
AcDbLayerTableRecord
  2
Defpoints
 70
     0
 62
     7
  6
Continuous
290
     0
370
    -3
390
F
347
98
348
0
  0
LAYER
  5
250
330
2
100
AcDbSymbolTableRecord
100
AcDbLayerTableRecord
  2
Text and Dimensions
 70
     0
 62
     7
  6
Continuous
370
    -3
390
F
347
98
348
0
1001
AcAecLayerStandard
1000

1000

1001
AcCmTransparency
1071
        0
  0
LAYER
  5
668
102
{ACAD_XDICTIONARY
360
669
102
}
330
2
100
AcDbSymbolTableRecord
100
AcDbLayerTableRecord
  2
C1
 70
     0
 62
   211
  6
Continuous
370
    -3
390
F
347
98
348
0
  0
LAYER
  5
BCA
330
2
100
AcDbSymbolTableRecord
100
AcDbLayerTableRecord
  2
D_TB (RO4350)
 70
     0
 62
    21
420
 16752511
  6
Continuous
370
    -3
390
F
347
98
348
0
  0
LAYER
  5
BCD
330
2
100
AcDbSymbolTableRecord
100
AcDbLayerTableRecord
  2
V_TB (PlatbeSivr)
 70
     0
 62
     2
420
 16776960
  6
Continuous
370
    -3
390
F
347
98
348
0
  0
LAYER
  5
1765
102
{ACAD_XDICTIONARY
360
1766
102
}
330
2
100
AcDbSymbolTableRecord
100
AcDbLayerTableRecord
  2
CERAMIC
 70
     0
 62
     1
  6
Continuous
370
    -3
390
F
347
98
348
0
  0
LAYER
  5
1767
102
{ACAD_XDICTIONARY
360
1768
102
}
330
2
100
AcDbSymbolTableRecord
100
AcDbLayerTableRecord
  2
M1
 70
     0
 62
    23
  6
Continuous
370
    -3
390
F
347
98
348
0
1001
AcAecLayerStandard
1000

1000

  0
ENDTAB
  0
TABLE
  2
STYLE
  5
3
330
0
100
AcDbSymbolTable
 70
     3
  0
STYLE
  5
11
330
3
100
AcDbSymbolTableRecord
100
AcDbTextStyleTableRecord
  2
Standard
 70
     0
 40
0.0
 41
1.0
 50
0.0
 71
     0
 42
0.2
  3
arial.ttf
  4

1001
ACAD
1000
Arial
1071
       34
  0
STYLE
  5
DC
330
3
100
AcDbSymbolTableRecord
100
AcDbTextStyleTableRecord
  2
Annotative
 70
     0
 40
0.0
 41
1.0
 50
0.0
 71
     0
 42
0.2
  3
arial.ttf
  4

1001
AcadAnnotative
1000
AnnotativeData
1002
{
1070
     1
1070
     1
1002
}
1001
ACAD
1000
Arial
1071
       34
  0
STYLE
  5
66A
330
3
100
AcDbSymbolTableRecord
100
AcDbTextStyleTableRecord
  2
MARK
 70
     0
 40
0.0
 41
1.0
 50
0.0
 71
     0
 42
0.1
  3
simplex.shx
  4

  0
ENDTAB
  0
TABLE
  2
VIEW
  5
6
330
0
100
AcDbSymbolTable
 70
     7
  0
ENDTAB
  0
TABLE
  2
UCS
  5
7
330
0
100
AcDbSymbolTable
 70
     0
  0
ENDTAB
  0
TABLE
  2
APPID
  5
9
330
0
100
AcDbSymbolTable
 70
    17
  0
APPID
  5
12
330
9
100
AcDbSymbolTableRecord
100
AcDbRegAppTableRecord
  2
ACAD
 70
     0
  0
APPID
  5
DD
330
9
100
AcDbSymbolTableRecord
100
AcDbRegAppTableRecord
  2
AcadAnnoPO
 70
     0
  0
APPID
  5
DE
330
9
100
AcDbSymbolTableRecord
100
AcDbRegAppTableRecord
  2
AcadAnnotative
 70
     0
  0
APPID
  5
DF
330
9
100
AcDbSymbolTableRecord
100
AcDbRegAppTableRecord
  2
ACAD_DSTYLE_DIMJAG
 70
     0
  0
APPID
  5
E0
330
9
100
AcDbSymbolTableRecord
100
AcDbRegAppTableRecord
  2
ACAD_DSTYLE_DIMTALN
 70
     0
  0
APPID
  5
107
330
9
100
AcDbSymbolTableRecord
100
AcDbRegAppTableRecord
  2
ACAD_MLEADERVER
 70
     0
  0
APPID
  5
1A6
330
9
100
AcDbSymbolTableRecord
100
AcDbRegAppTableRecord
  2
ACAD_NAV_VCDISPLAY
 70
     0
  0
APPID
  5
252
330
9
100
AcDbSymbolTableRecord
100
AcDbRegAppTableRecord
  2
AcAecLayerStandard
 70
     0
  0
APPID
  5
253
330
9
100
AcDbSymbolTableRecord
100
AcDbRegAppTableRecord
  2
ACAD_DSTYLE_DIMRADIAL_EXTENSION
 70
     0
  0
APPID
  5
254
330
9
100
AcDbSymbolTableRecord
100
AcDbRegAppTableRecord
  2
AcCmTransparency
 70
     0
  0
APPID
  5
255
330
9
100
AcDbSymbolTableRecord
100
AcDbRegAppTableRecord
  2
ACAD_PSEXT
 70
     0
  0
APPID
  5
256
330
9
100
AcDbSymbolTableRecord
100
AcDbRegAppTableRecord
  2
ACAD_DSTYLE_DIMBREAK
 70
     0
  0
APPID
  5
257
330
9
100
AcDbSymbolTableRecord
100
AcDbRegAppTableRecord
  2
GradientColor1ACI
 70
     0
  0
APPID
  5
258
330
9
100
AcDbSymbolTableRecord
100
AcDbRegAppTableRecord
  2
GradientColor2ACI
 70
     0
  0
APPID
  5
66E
330
9
100
AcDbSymbolTableRecord
100
AcDbRegAppTableRecord
  2
ACAD_DSTYLE_DIMJOGGED_JOGANGLE_SYMBOL
 70
     0
  0
APPID
  5
11A1
330
9
100
AcDbSymbolTableRecord
100
AcDbRegAppTableRecord
  2
ACAD_EXEMPT_FROM_CAD_STANDARDS
 70
     0
  0
APPID
  5
12D4
330
9
100
AcDbSymbolTableRecord
100
AcDbRegAppTableRecord
  2
AcadAnnoMonitorAlertIconDisabled
 70
     0
  0
ENDTAB
  0
TABLE
  2
DIMSTYLE
  5
A
330
0
100
AcDbSymbolTable
 70
     6
100
AcDbDimStyleTable
 71
     6
340
251
340
27
340
E1
340
66C
340
66D
340
66B
  0
DIMSTYLE
105
27
330
A
100
AcDbSymbolTableRecord
100
AcDbDimStyleTableRecord
  2
Standard
 70
     0
340
11
  0
DIMSTYLE
105
E1
330
A
100
AcDbSymbolTableRecord
100
AcDbDimStyleTableRecord
  2
Annotative
 70
     0
 40
0.0
340
11
1001
AcadAnnotative
1000
AnnotativeData
1002
{
1070
     1
1070
     1
1002
}
1001
ACAD_DSTYLE_DIMJAG
1070
   388
1040
1.5
1001
ACAD_DSTYLE_DIMTALN
1070
   392
1070
     0
  0
DIMSTYLE
105
251
102
{ACAD_REACTORS
330
19D7
330
1A1D
330
1A43
330
1A66
330
1A88
330
1AAE
102
}
330
A
100
AcDbSymbolTableRecord
100
AcDbDimStyleTableRecord
  2
Dan's Dim Style
 70
     0
 41
0.012
 42
0.0075
 44
0.005
140
0.012
141
0.0
147
0.0075
271
     3
272
     3
340
11
1001
ACAD_DSTYLE_DIMBREAK
1070
   391
1040
0.125
1001
ACAD_DSTYLE_DIMJAG
1070
   388
1040
1.5
1001
ACAD_DSTYLE_DIMTALN
1070
   392
1070
     0
  0
DIMSTYLE
105
66B
330
A
100
AcDbSymbolTableRecord
100
AcDbDimStyleTableRecord
  2
10X
 70
     0
 47
0.005
 48
0.005
 49
0.18
 78
     4
144
0.1
271
     3
272
     3
283
     2
284
     4
340
11
1001
ACAD_DSTYLE_DIMJOGGED_JOGANGLE_SYMBOL
1070
   384
1040
0.7853981633974483
  0
DIMSTYLE
105
66C
330
A
100
AcDbSymbolTableRecord
100
AcDbDimStyleTableRecord
  2
5X
 70
     0
 47
0.005
 48
0.005
 49
0.18
 78
     4
144
0.2
271
     3
272
     3
283
     2
284
     4
340
11
1001
ACAD_DSTYLE_DIMJOGGED_JOGANGLE_SYMBOL
1070
   384
1040
0.7853981633974483
  0
DIMSTYLE
105
66D
330
A
100
AcDbSymbolTableRecord
100
AcDbDimStyleTableRecord
  2
2X
 70
     0
 47
0.005
 48
0.005
 49
0.18
 78
     4
144
0.5
271
     3
272
     3
283
     2
284
     4
340
11
1001
ACAD_DSTYLE_DIMJOGGED_JOGANGLE_SYMBOL
1070
   384
1040
0.7853981633974483
  0
ENDTAB
  0
TABLE
  2
BLOCK_RECORD
  5
1
330
0
100
AcDbSymbolTable
 70
    30
  0
BLOCK_RECORD
  5
1F
102
{ACAD_XDICTIONARY
360
15D
102
}
330
1
100
AcDbSymbolTableRecord
100
AcDbBlockTableRecord
  2
*Model_Space
340
22
 70
     0
280
     1
281
     0
  0
BLOCK_RECORD
  5
58
330
1
100
AcDbSymbolTableRecord
100
AcDbBlockTableRecord
  2
*Paper_Space
340
59
 70
     0
280
     1
281
     0
  0
BLOCK_RECORD
  5
5D
330
1
100
AcDbSymbolTableRecord
100
AcDbBlockTableRecord
  2
*Paper_Space0
340
5E
 70
     0
280
     1
281
     0
  0
BLOCK_RECORD
  5
67C
102
{ACAD_XDICTIONARY
360
67F
102
}
330
1
100
AcDbSymbolTableRecord
100
AcDbBlockTableRecord
  2
A$C0AAF7810
340
0
 70
     1
280
     1
281
     0
  0
BLOCK_RECORD
  5
7B2
330
1
100
AcDbSymbolTableRecord
100
AcDbBlockTableRecord
  2
*D3
340
0
 70
     0
280
     1
281
     0
  0
BLOCK_RECORD
  5
9E8
330
1
100
AcDbSymbolTableRecord
100
AcDbBlockTableRecord
  2
*D4
340
0
 70
     0
280
     1
281
     0
  0
BLOCK_RECORD
  5
A65
330
1
100
AcDbSymbolTableRecord
100
AcDbBlockTableRecord
  2
*D5
340
0
 70
     0
280
     1
281
     0
  0
BLOCK_RECORD
  5
1111
102
{ACAD_XDICTIONARY
360
111A
102
}
330
1
100
AcDbSymbolTableRecord
100
AcDbBlockTableRecord
  2
A$C63713886
340
0
 70
     1
280
     1
281
     0
  0
BLOCK_RECORD
  5
1133
330
1
100
AcDbSymbolTableRecord
100
AcDbBlockTableRecord
  2
*D7
340
0
 70
     0
280
     1
281
     0
  0
BLOCK_RECORD
  5
11FF
330
1
100
AcDbSymbolTableRecord
100
AcDbBlockTableRecord
  2
*D8
340
0
 70
     0
280
     1
281
     0
  0
BLOCK_RECORD
  5
14A8
330
1
100
AcDbSymbolTableRecord
100
AcDbBlockTableRecord
  2
*D10
340
0
 70
     0
280
     1
281
     0
  0
BLOCK_RECORD
  5
167C
330
1
100
AcDbSymbolTableRecord
100
AcDbBlockTableRecord
  2
*D11
340
0
 70
     0
280
     1
281
     0
  0
BLOCK_RECORD
  5
1689
102
{ACAD_XDICTIONARY
360
168E
102
}
330
1
100
AcDbSymbolTableRecord
100
AcDbBlockTableRecord
  2
A$C0aef9ff1
340
0
 70
     1
280
     1
281
     0
  0
BLOCK_RECORD
  5
175A
330
1
100
AcDbSymbolTableRecord
100
AcDbBlockTableRecord
  2
C150
340
0
310
28000000200000002000000001002000000000000010000001000000010000000000000000000000000000FF000000FF000000FF000000FF000000FF000000FF000000FF000000FF000000FF000000FF000000FF000000FF000000FF000000FF000000FF000000FF000000FF000000FF000000FF000000FF000000FF000000
310
FF000000FF000000FF000000FF000000FF000000FF000000FF000000FF000000FF000000FF000000FF000000FF0000FFFF0000FFFF0000FFFF0000FFFF0000FFFF0000FFFF0000FFFF0000FFFF0000FFFF0000FFFF0000FFFF0000FFFF0000FFFF0000FFFF0000FFFF0000FFFF0000FFFF0000FFFF0000FFFF0000FFFF0000
310
FFFF0000FFFF0000FFFF0000FFFF0000FFFF0000FFFF0000FFFF0000FFFF0000FFFF0000FFFF000000FF000000FF0000FFFF009900FF009900FF009900FF009900FF009900FF009900FF009900FF000000FF000000FF000000FF000000FF009900FF000000FF000000FF000000FF000000FF009900FF000000FF000000FF00
310
0000FF000000FF009900FF009900FF009900FF009900FF009900FF009900FF009900FF0000FFFF000000FF000000FF0000FFFF009900FF000000FF000000FF000000FF000000FF000000FF009900FF000000FF000000FF000000FF000000FF009900FF000000FF000000FF000000FF000000FF009900FF000000FF000000FF
310
000000FF000000FF009900FF000000FF000000FF000000FF000000FF000000FF009900FF0000FFFF000000FF000000FF0000FFFF009900FF000000FF000000FF000000FF000000FF000000FF009900FF000000FF000000FF000000FF000000FF009900FF000000FF000000FF000000FF000000FF009900FF000000FF000000
310
FF000000FF000000FF009900FF000000FF000000FF000000FF000000FF000000FF009900FF0000FFFF000000FF000000FF0000FFFF009900FF000000FF000000FF000000FF000000FF000000FF009900FF000000FF000000FF000000FF000000FF009900FF009900FF009900FF009900FF009900FF009900FF000000FF0000
310
00FF000000FF000000FF009900FF000000FF000000FF000000FF000000FF000000FF009900FF0000FFFF000000FF000000FF0000FFFF009900FF000000FF000000FF000000FF000000FF000000FF009900FF000000FF000000FF000000FF000000FF000000FF000000FF000000FF000000FF000000FF000000FF000000FF00
310
0000FF000000FF000000FF009900FF000000FF000000FF000000FF000000FF000000FF009900FF0000FFFF000000FF000000FF0000FFFF009900FF000000FF000000FF000000FF000000FF667FCCFF667FCCFF000000FF000000FF000000FF000000FF000000FF000000FF000000FF000000FF000000FF000000FF000000FF
310
000000FF000000FF000000FF009900FF000000FF000000FF000000FF000000FF000000FF009900FF0000FFFF000000FF000000FF0000FFFF009900FF000000FF000000FF000000FF667FCCFF000000FF009900FF667FCCFF000000FF000000FF000000FF000000FF000000FF000000FF000000FF000000FF000000FF000000
310
FF000000FF000000FF000000FF009900FF000000FF000000FF000000FF000000FF000000FF009900FF0000FFFF000000FF000000FF0000FFFF009900FF000000FF000000FF000000FF667FCCFF000000FF009900FF667FCCFF009900FF009900FF009900FF009900FF009900FF009900FF009900FF009900FF009900FF0099
310
00FF009900FF009900FF009900FF009900FF000000FF000000FF000000FF000000FF000000FF009900FF0000FFFF000000FF000000FF0000FFFF009900FF000000FF000000FF000000FF667FCCFF667FCCFF667FCCFF667FCCFF000000FF000000FF000000FF000000FF000000FF000000FF000000FF000000FF000000FF00
310
0000FF000000FF000000FF000000FF000000FF000000FF000000FF000000FF000000FF000000FF009900FF0000FFFF000000FF000000FF0000FFFF009900FF000000FF000000FF000000FF000000FF667FCCFF667FCCFF000000FF000000FF000000FF000000FF000000FF000000FF000000FF000000FF000000FF000000FF
310
000000FF000000FF000000FF000000FF000000FF000000FF000000FF000000FF000000FF000000FF009900FF0000FFFF000000FF000000FF0000FFFF009900FF000000FF000000FF000000FF000000FF000000FF000000FF000000FF000000FF000000FF000000FF000000FF000000FF000000FF000000FF000000FF000000
310
FF000000FF000000FF000000FF000000FF000000FF000000FF000000FF000000FF000000FF000000FF009900FF0000FFFF000000FF000000FF0000FFFF009900FF000000FF000000FF000000FF000000FF000000FF000000FF000000FF000000FF000000FF000000FF000000FF000000FF000000FF000000FF000000FF0000
310
00FF000000FF000000FF000000FF000000FF000000FF000000FF000000FF000000FF000000FF000000FF009900FF0000FFFF000000FF000000FF0000FFFF009900FF000000FF000000FF000000FF000000FF000000FF000000FF000000FF000000FF000000FF000000FF000000FF000000FF000000FF000000FF000000FF00
310
0000FF000000FF000000FF000000FF000000FF000000FF000000FF000000FF000000FF000000FF000000FF009900FF0000FFFF000000FF000000FF0000FFFF009900FF000000FF000000FF000000FF000000FF000000FF000000FF000000FF000000FF000000FF000000FF000000FF000000FF000000FF000000FF000000FF
310
000000FF000000FF000000FF000000FF000000FF000000FF000000FF000000FF000000FF000000FF000000FF009900FF0000FFFF000000FF000000FF0000FFFF009900FF000000FF000000FF000000FF000000FF000000FF000000FF000000FF000000FF000000FF000000FF000000FF000000FF000000FF000000FF000000
310
FF000000FF000000FF000000FF000000FF000000FF000000FF000000FF000000FF000000FF000000FF000000FF009900FF0000FFFF000000FF000000FF0000FFFF009900FF000000FF000000FF000000FF000000FF000000FF000000FF000000FF000000FF000000FF000000FF000000FF000000FF000000FF000000FF0000
310
00FF000000FF000000FF000000FF000000FF000000FF000000FF000000FF000000FF000000FF000000FF000000FF009900FF0000FFFF000000FF000000FF0000FFFF009900FF000000FF000000FF000000FF000000FF000000FF000000FF000000FF000000FF000000FF000000FF000000FF000000FF000000FF000000FF00
310
0000FF000000FF000000FF000000FF000000FF000000FF000000FF000000FF000000FF000000FF000000FF000000FF009900FF0000FFFF000000FF000000FF0000FFFF009900FF000000FF000000FF000000FF000000FF000000FF000000FF000000FF000000FF000000FF000000FF000000FF000000FF000000FF000000FF
310
000000FF000000FF000000FF000000FF000000FF000000FF000000FF000000FF000000FF000000FF000000FF000000FF009900FF0000FFFF000000FF000000FF0000FFFF009900FF000000FF000000FF000000FF000000FF000000FF000000FF000000FF000000FF000000FF000000FF000000FF000000FF000000FF000000
310
FF000000FF000000FF000000FF000000FF000000FF000000FF000000FF000000FF000000FF000000FF000000FF000000FF009900FF0000FFFF000000FF000000FF0000FFFF009900FF000000FF000000FF000000FF000000FF000000FF000000FF000000FF000000FF000000FF000000FF000000FF000000FF000000FF0000
310
00FF000000FF000000FF000000FF000000FF000000FF000000FF000000FF000000FF000000FF000000FF000000FF000000FF009900FF0000FFFF000000FF000000FF0000FFFF009900FF000000FF000000FF000000FF000000FF000000FF000000FF000000FF000000FF000000FF000000FF000000FF000000FF000000FF00
310
0000FF000000FF000000FF000000FF000000FF000000FF000000FF000000FF000000FF000000FF000000FF000000FF000000FF009900FF0000FFFF000000FF000000FF0000FFFF009900FF000000FF000000FF000000FF000000FF000000FF000000FF000000FF000000FF000000FF000000FF000000FF000000FF000000FF
310
000000FF000000FF000000FF000000FF000000FF000000FF000000FF000000FF000000FF000000FF000000FF000000FF000000FF009900FF0000FFFF000000FF000000FF0000FFFF009900FF000000FF000000FF000000FF000000FF000000FF000000FF000000FF000000FF000000FF000000FF000000FF000000FF000000
310
FF000000FF000000FF000000FF000000FF000000FF000000FF000000FF000000FF000000FF000000FF000000FF000000FF000000FF009900FF0000FFFF000000FF000000FF0000FFFF009900FF000000FF000000FF000000FF000000FF000000FF000000FF000000FF000000FF000000FF000000FF000000FF000000FF0000
310
00FF000000FF000000FF000000FF000000FF000000FF000000FF000000FF000000FF000000FF000000FF000000FF000000FF000000FF009900FF0000FFFF000000FF000000FF0000FFFF009900FF000000FF000000FF000000FF000000FF000000FF000000FF000000FF000000FF000000FF000000FF000000FF000000FF00
310
0000FF000000FF000000FF000000FF000000FF000000FF000000FF000000FF000000FF000000FF000000FF000000FF000000FF000000FF009900FF0000FFFF000000FF000000FF0000FFFF009900FF000000FF000000FF000000FF000000FF000000FF000000FF000000FF000000FF000000FF000000FF000000FF000000FF
310
000000FF000000FF000000FF000000FF000000FF000000FF000000FF000000FF000000FF000000FF000000FF000000FF000000FF000000FF009900FF0000FFFF000000FF000000FF0000FFFF009900FF000000FF000000FF000000FF000000FF000000FF000000FF000000FF000000FF000000FF000000FF000000FF000000
310
FF000000FF000000FF000000FF000000FF000000FF000000FF000000FF000000FF000000FF000000FF000000FF000000FF000000FF000000FF009900FF0000FFFF000000FF000000FF0000FFFF009900FF000000FF000000FF000000FF000000FF000000FF000000FF000000FF000000FF000000FF000000FF000000FF0000
310
00FF000000FF000000FF000000FF000000FF000000FF000000FF000000FF000000FF000000FF000000FF000000FF000000FF000000FF000000FF009900FF0000FFFF000000FF000000FF0000FFFF0000FFFF0000FFFF0000FFFF0000FFFF0000FFFF0000FFFF0000FFFF0000FFFF0000FFFF0000FFFF0000FFFF0000FFFF00
310
00FFFF0000FFFF0000FFFF0000FFFF0000FFFF0000FFFF0000FFFF0000FFFF0000FFFF0000FFFF0000FFFF0000FFFF0000FFFF0000FFFF0000FFFF0000FFFF0000FFFF000000FF000000FF000000FF000000FF000000FF000000FF000000FF000000FF000000FF000000FF000000FF000000FF000000FF000000FF000000FF
310
000000FF000000FF000000FF000000FF000000FF000000FF000000FF000000FF000000FF000000FF000000FF000000FF000000FF000000FF000000FF000000FF000000FF000000FF
102
{BLKREFS
102
}
 70
     1
280
     1
281
     0
  0
BLOCK_RECORD
  5
19C3
330
1
100
AcDbSymbolTableRecord
100
AcDbBlockTableRecord
  2
*D15
340
0
 70
     0
280
     1
281
     0
  0
BLOCK_RECORD
  5
19D8
330
1
100
AcDbSymbolTableRecord
100
AcDbBlockTableRecord
  2
*D17
340
0
 70
     0
280
     1
281
     0
  0
BLOCK_RECORD
  5
1A0D
330
1
100
AcDbSymbolTableRecord
100
AcDbBlockTableRecord
  2
*D18
340
0
 70
     0
280
     1
281
     0
  0
BLOCK_RECORD
  5
1A1E
330
1
100
AcDbSymbolTableRecord
100
AcDbBlockTableRecord
  2
*D20
340
0
 70
     0
280
     1
281
     0
  0
BLOCK_RECORD
  5
1A33
330
1
100
AcDbSymbolTableRecord
100
AcDbBlockTableRecord
  2
*D21
340
0
 70
     0
280
     1
281
     0
  0
BLOCK_RECORD
  5
1A44
330
1
100
AcDbSymbolTableRecord
100
AcDbBlockTableRecord
  2
*D23
340
0
 70
     0
280
     1
281
     0
  0
BLOCK_RECORD
  5
1A56
330
1
100
AcDbSymbolTableRecord
100
AcDbBlockTableRecord
  2
*D24
340
0
 70
     0
280
     1
281
     0
  0
BLOCK_RECORD
  5
1A67
330
1
100
AcDbSymbolTableRecord
100
AcDbBlockTableRecord
  2
*D26
340
0
 70
     0
280
     1
281
     0
  0
BLOCK_RECORD
  5
1A89
330
1
100
AcDbSymbolTableRecord
100
AcDbBlockTableRecord
  2
*D28
340
0
 70
     0
280
     1
281
     0
  0
BLOCK_RECORD
  5
1AAF
330
1
100
AcDbSymbolTableRecord
100
AcDbBlockTableRecord
  2
*D29
340
0
 70
     0
280
     1
281
     0
  0
ENDTAB
  0
ENDSEC
  0
SECTION
  2
BLOCKS
  0
BLOCK
  5
20
330
1F
100
AcDbEntity
  8
0
100
AcDbBlockBegin
  2
*Model_Space
 70
     0
 10
0.0
 20
0.0
 30
0.0
  3
*Model_Space
  1

  0
ENDBLK
  5
21
330
1F
100
AcDbEntity
  8
0
100
AcDbBlockEnd
  0
BLOCK
  5
5A
330
58
100
AcDbEntity
 67
     1
  8
0
100
AcDbBlockBegin
  2
*Paper_Space
 70
     0
 10
0.0
 20
0.0
 30
0.0
  3
*Paper_Space
  1

  0
ENDBLK
  5
5B
330
58
100
AcDbEntity
 67
     1
  8
0
100
AcDbBlockEnd
  0
BLOCK
  5
5F
330
5D
100
AcDbEntity
 67
     1
  8
0
100
AcDbBlockBegin
  2
*Paper_Space0
 70
     0
 10
0.0
 20
0.0
 30
0.0
  3
*Paper_Space0
  1

  0
ENDBLK
  5
60
330
5D
100
AcDbEntity
 67
     1
  8
0
100
AcDbBlockEnd
  0
BLOCK
  5
681
330
67C
100
AcDbEntity
  8
0
100
AcDbBlockBegin
  2
A$C0AAF7810
 70
     0
 10
0.0
 20
0.0
 30
0.0
  3
A$C0AAF7810
  1

  0
LWPOLYLINE
  5
67D
330
67C
100
AcDbEntity
  8
C1
  6
Continuous
100
AcDbPolyline
 90
        4
 70
     1
 43
0.0
 10
0.0000001368868539
 20
1.449999991306029
 10
0.0000001368868539
 20
0.9499999913060293
 10
0.3000001368867515
 20
0.9499999913060293
 10
0.3000001368867515
 20
1.449999991306029
  0
LWPOLYLINE
  5
67E
330
67C
100
AcDbEntity
  8
C1
  6
Continuous
100
AcDbPolyline
 90
        8
 70
     1
 43
0.0
 10
3.750000136886853
 20
2.399999991305847
 10
0.0500001368866947
 20
2.399999991305847
 10
0.0500001368866947
 20
1.84999999130612
 10
0.700000136886672
 20
1.84999999130612
 10
0.700000136886672
 20
0.5499999913059384
 10
0.0500001368866947
 20
0.5499999913059384
 10
0.0500001368866947
 20
-0.0000000086940162
 10
3.750000136886853
 20
-0.0000000086940162
  0
ENDBLK
  5
682
330
67C
100
AcDbEntity
  8
0
100
AcDbBlockEnd
  0
BLOCK
  5
7B3
330
7B2
100
AcDbEntity
  8
0
100
AcDbBlockBegin
  2
*D3
 70
     1
 10
0.0
 20
0.0
 30
0.0
  3
*D3
  1

  0
LINE
  5
1525
330
7B2
100
AcDbEntity
  8
Text and Dimensions
 62
     0
440
 16777216
370
    -2
100
AcDbLine
 10
1.30403462510034
 20
0.5019809587251601
 30
0.0
 11
1.083926682928844
 21
0.5019809587251599
 31
0.0
  0
LINE
  5
1526
330
7B2
100
AcDbEntity
  8
Text and Dimensions
 62
     0
440
 16777216
370
    -2
100
AcDbLine
 10
1.304074689041639
 20
0.5320322405700142
 30
0.0
 11
1.083926682928844
 21
0.5320322405700141
 31
0.0
  0
LINE
  5
1527
330
7B2
100
AcDbEntity
  8
Text and Dimensions
 62
     0
440
 16777216
370
    -2
100
AcDbLine
 10
1.088926682928845
 20
0.4899809587251599
 30
0.0
 11
1.088926682928845
 21
0.4779809587251599
 31
0.0
  0
LINE
  5
1528
330
7B2
100
AcDbEntity
  8
Text and Dimensions
 62
     0
440
 16777216
370
    -2
100
AcDbLine
 10
1.088926682928844
 20
0.5440322405700142
 30
0.0
 11
1.088926682928844
 21
0.5560322405700142
 31
0.0
  0
SOLID
  5
1529
330
7B2
100
AcDbEntity
  8
Text and Dimensions
 62
     0
440
 16777216
100
AcDbTrace
 10
1.086926682928845
 20
0.4899809587251599
 30
0.0
 11
1.090926682928845
 21
0.4899809587251599
 31
0.0
 12
1.088926682928844
 22
0.5019809587251599
 32
0.0
 13
1.088926682928844
 23
0.5019809587251599
 33
0.0
  0
SOLID
  5
152A
330
7B2
100
AcDbEntity
  8
Text and Dimensions
 62
     0
440
 16777216
100
AcDbTrace
 10
1.086926682928844
 20
0.5440322405700142
 30
0.0
 11
1.090926682928844
 21
0.5440322405700142
 31
0.0
 12
1.088926682928844
 22
0.5320322405700141
 32
0.0
 13
1.088926682928844
 23
0.5320322405700141
 33
0.0
  0
MTEXT
  5
152B
330
7B2
100
AcDbEntity
  8
Text and Dimensions
 62
     0
440
 16777216
100
AcDbMText
 10
1.088926682928844
 20
0.5170065996475866
 30
0.0
 40
0.012
 41
0.0
 46
0.0
 71
     5
 72
     1
  1
\A1;0.030
 73
     1
 44
1.0
  0
POINT
  5
152C
330
7B2
100
AcDbEntity
  8
Defpoints
 62
     0
440
 16777216
100
AcDbPoint
 10
1.31153462510034
 20
0.5019809587251601
 30
0.0
  0
POINT
  5
152D
330
7B2
100
AcDbEntity
  8
Defpoints
 62
     0
440
 16777216
100
AcDbPoint
 10
1.311574689041639
 20
0.5320322405700142
 30
0.0
  0
POINT
  5
152E
330
7B2
100
AcDbEntity
  8
Defpoints
 62
     0
440
 16777216
100
AcDbPoint
 10
1.088926682928844
 20
0.5320322405700141
 30
0.0
  0
ENDBLK
  5
7B4
330
7B2
100
AcDbEntity
  8
0
100
AcDbBlockEnd
  0
BLOCK
  5
9E9
330
9E8
100
AcDbEntity
  8
0
100
AcDbBlockBegin
  2
*D4
 70
     1
 10
0.0
 20
0.0
 30
0.0
  3
*D4
  1

  0
LINE
  5
1722
330
9E8
100
AcDbEntity
  8
0
 62
     0
440
 16777216
370
    -2
100
AcDbLine
 10
1.096394554756405
 20
0.6444071774639843
 30
0.0
 11
1.108394554756405
 21
0.6444071774639842
 31
0.0
  0
LINE
  5
1723
330
9E8
100
AcDbEntity
  8
0
 62
     0
440
 16777216
370
    -2
100
AcDbLine
 10
1.108394554756405
 20
0.6444071774639842
 30
0.0
 11
1.301308559929807
 21
0.5831747131206794
 31
0.0
  0
MTEXT
  5
1724
330
9E8
100
AcDbEntity
  8
0
 62
     0
440
 16777216
100
AcDbMText
 10
1.019775864442626
 20
0.6444071774639843
 30
0.0
 40
0.012
 41
0.0
 46
0.0
 71
     5
 72
     1
  1
\A1;Orientation Marker
 73
     1
 44
1.0
  0
SOLID
  5
1725
330
9E8
100
AcDbEntity
  8
0
 62
     0
440
 16777216
100
AcDbTrace
 10
1.30191362773497
 20
0.585080990369968
 30
0.0
 11
1.300703492124644
 21
0.581268435871391
 31
0.0
 12
1.312746223425538
 22
0.5795443062897002
 32
0.0
 13
1.312746223425538
 23
0.5795443062897002
 33
0.0
  0
POINT
  5
1726
330
9E8
100
AcDbEntity
  8
Defpoints
 62
     0
440
 16777216
100
AcDbPoint
 10
1.312746223425538
 20
0.5795443062897002
 30
0.0
  0
POINT
  5
1727
330
9E8
100
AcDbEntity
  8
Defpoints
 62
     0
440
 16777216
100
AcDbPoint
 10
1.360403154657751
 20
0.5644176111606204
 30
0.0
  0
ENDBLK
  5
9EA
330
9E8
100
AcDbEntity
  8
0
100
AcDbBlockEnd
  0
BLOCK
  5
A66
330
A65
100
AcDbEntity
  8
0
100
AcDbBlockBegin
  2
*D5
 70
     1
 10
0.0
 20
0.0
 30
0.0
  3
*D5
  1

  0
LINE
  5
A6E
330
A65
100
AcDbEntity
  8
0
 62
     0
440
 16777216
370
    -2
100
AcDbLine
 10
1.463472526534904
 20
0.9749984383595691
 30
0.0
 11
1.451472526534904
 21
0.9749984383595691
 31
0.0
  0
LINE
  5
A6F
330
A65
100
AcDbEntity
  8
0
 62
     0
440
 16777216
370
    -2
100
AcDbLine
 10
1.451472526534904
 20
0.9749984383595691
 30
0.0
 11
1.391852560900026
 21
0.8621264127444369
 31
0.0
  0
MTEXT
  5
A70
330
A65
100
AcDbEntity
  8
0
 62
     0
440
 16777216
100
AcDbMText
 10
1.548755609754549
 20
0.9749984383595693
 30
0.0
 40
0.012
 41
0.0
 46
0.0
 71
     5
 72
     1
  1
\A1;Hatched Area\PIndicates Footprint of\PPart
 73
     1
 44
1.0
  0
SOLID
  5
A71
330
A65
100
AcDbEntity
  8
0
 62
     0
440
 16777216
100
AcDbTrace
 10
1.390084105940155
 20
0.8630605257220302
 30
0.0
 11
1.393621015859897
 21
0.8611922997668438
 31
0.0
 12
1.386247883034466
 22
0.8515156829852116
 32
0.0
 13
1.386247883034466
 23
0.8515156829852116
 33
0.0
  0
POINT
  5
A72
330
A65
100
AcDbEntity
  8
Defpoints
 62
     0
440
 16777216
100
AcDbPoint
 10
1.386247883034466
 20
0.8515156829852116
 30
0.0
  0
POINT
  5
A73
330
A65
100
AcDbEntity
  8
Defpoints
 62
     0
440
 16777216
100
AcDbPoint
 10
1.317878378132041
 20
0.7220791020267355
 30
0.0
  0
ENDBLK
  5
A67
330
A65
100
AcDbEntity
  8
0
100
AcDbBlockEnd
  0
BLOCK
  5
111C
330
1111
100
AcDbEntity
  8
0
100
AcDbBlockBegin
  2
A$C63713886
 70
     0
 10
0.0
 20
0.0
 30
0.0
  3
A$C63713886
  1

  0
CIRCLE
  5
1112
330
1111
100
AcDbEntity
  8
D_TB (RO4350)
100
AcDbCircle
 10
0.2000572795134341
 20
0.0099999662447705
 30
0.0
 40
0.01
  0
CIRCLE
  5
1113
330
1111
100
AcDbEntity
  8
D_TB (RO4350)
100
AcDbCircle
 10
0.2800572795134182
 20
0.0099999662447705
 30
0.0
 40
0.01
  0
CIRCLE
  5
1114
330
1111
100
AcDbEntity
  8
D_TB (RO4350)
100
AcDbCircle
 10
0.0899999574147084
 20
0.0099999662447705
 30
0.0
 40
0.01
  0
CIRCLE
  5
1115
330
1111
100
AcDbEntity
  8
D_TB (RO4350)
100
AcDbCircle
 10
0.0099999574147243
 20
0.0099999662447705
 30
0.0
 40
0.01
  0
CIRCLE
  5
1116
330
1111
100
AcDbEntity
  8
V_TB (PlatbeSivr)
100
AcDbCircle
 10
0.2000572795134341
 20
0.0099999662447705
 30
0.0
 40
0.01
  0
CIRCLE
  5
1117
330
1111
100
AcDbEntity
  8
V_TB (PlatbeSivr)
100
AcDbCircle
 10
0.2800572795134182
 20
0.0099999662447705
 30
0.0
 40
0.01
  0
CIRCLE
  5
1118
330
1111
100
AcDbEntity
  8
V_TB (PlatbeSivr)
100
AcDbCircle
 10
0.0899999574147084
 20
0.0099999662447705
 30
0.0
 40
0.01
  0
CIRCLE
  5
1119
330
1111
100
AcDbEntity
  8
V_TB (PlatbeSivr)
100
AcDbCircle
 10
0.0099999574147243
 20
0.0099999662447705
 30
0.0
 40
0.01
  0
ENDBLK
  5
111D
330
1111
100
AcDbEntity
  8
0
100
AcDbBlockEnd
  0
BLOCK
  5
1134
330
1133
100
AcDbEntity
  8
0
100
AcDbBlockBegin
  2
*D7
 70
     1
 10
0.0
 20
0.0
 30
0.0
  3
*D7
  1

  0
LINE
  5
1728
330
1133
100
AcDbEntity
  8
0
 62
     0
440
 16777216
370
    -2
100
AcDbLine
 10
1.311534625100339
 20
0.497342883378157
 30
0.0
 11
1.311534625100339
 21
0.40592475703024
 31
0.0
  0
LINE
  5
1729
330
1133
100
AcDbEntity
  8
0
 62
     0
440
 16777216
370
    -2
100
AcDbLine
 10
1.361614752982948
 20
0.4973428960155219
 30
0.0
 11
1.361614752982948
 21
0.40592475703024
 31
0.0
  0
LINE
  5
172A
330
1133
100
AcDbEntity
  8
0
 62
     0
440
 16777216
370
    -2
100
AcDbLine
 10
1.323534625100339
 20
0.4109247570302399
 30
0.0
 11
1.349614752982948
 21
0.4109247570302399
 31
0.0
  0
LINE
  5
172B
330
1133
100
AcDbEntity
  8
0
 62
     0
440
 16777216
370
    -2
100
AcDbLine
 10
1.361614752982948
 20
0.4109247570302399
 30
0.0
 11
1.375817727134811
 21
0.4109247570302399
 31
0.0
  0
SOLID
  5
172C
330
1133
100
AcDbEntity
  8
0
 62
     0
440
 16777216
100
AcDbTrace
 10
1.323534625100339
 20
0.4129247570302399
 30
0.0
 11
1.323534625100339
 21
0.40892475703024
 31
0.0
 12
1.311534625100339
 22
0.4109247570302399
 32
0.0
 13
1.311534625100339
 23
0.4109247570302399
 33
0.0
  0
SOLID
  5
172D
330
1133
100
AcDbEntity
  8
0
 62
     0
440
 16777216
100
AcDbTrace
 10
1.349614752982948
 20
0.4129247570302399
 30
0.0
 11
1.349614752982948
 21
0.40892475703024
 31
0.0
 12
1.361614752982948
 22
0.4109247570302399
 32
0.0
 13
1.361614752982948
 23
0.4109247570302399
 33
0.0
  0
MTEXT
  5
172E
330
1133
100
AcDbEntity
  8
0
 62
     0
440
 16777216
100
AcDbMText
 10
1.456407224406298
 20
0.4109247570302399
 30
0.0
 40
0.012
 41
0.0
 46
0.0
 71
     5
 72
     1
  1
\A1;50{\H1.0833x;Ω\PTransmission Line}
 73
     1
 44
1.0
  0
POINT
  5
172F
330
1133
100
AcDbEntity
  8
Defpoints
 62
     0
440
 16777216
100
AcDbPoint
 10
1.311534625100339
 20
0.504842883378157
 30
0.0
  0
POINT
  5
1730
330
1133
100
AcDbEntity
  8
Defpoints
 62
     0
440
 16777216
100
AcDbPoint
 10
1.361614752982948
 20
0.5048428960155219
 30
0.0
  0
POINT
  5
1731
330
1133
100
AcDbEntity
  8
Defpoints
 62
     0
440
 16777216
100
AcDbPoint
 10
1.361614752982948
 20
0.4109247570302399
 30
0.0
  0
ENDBLK
  5
1135
330
1133
100
AcDbEntity
  8
0
100
AcDbBlockEnd
  0
BLOCK
  5
1200
330
11FF
100
AcDbEntity
  8
0
100
AcDbBlockBegin
  2
*D8
 70
     1
 10
0.0
 20
0.0
 30
0.0
  3
*D8
  1

  0
LINE
  5
1208
330
11FF
100
AcDbEntity
  8
0
 62
     0
440
 16777216
370
    -2
100
AcDbLine
 10
1.085330282378153
 20
0.4029673181612972
 30
0.0
 11
1.097330282378153
 21
0.4029673181612973
 31
0.0
  0
LINE
  5
1209
330
11FF
100
AcDbEntity
  8
0
 62
     0
440
 16777216
370
    -2
100
AcDbLine
 10
1.097330282378153
 20
0.4029673181612973
 30
0.0
 11
1.148370653262739
 21
0.3746755896590273
 31
0.0
  0
MTEXT
  5
120A
330
11FF
100
AcDbEntity
  8
0
 62
     0
440
 16777216
100
AcDbMText
 10
1.021075848544592
 20
0.4029673181612971
 30
0.0
 40
0.012
 41
0.0512332878581173
 46
0.0
 71
     5
 72
     1
  1
\A1;Copper/Ground
 73
     1
 44
1.0
  0
SOLID
  5
120B
330
11FF
100
AcDbEntity
  8
0
 62
     0
440
 16777216
100
AcDbTrace
 10
1.149340261726417
 20
0.376424835046949
 30
0.0
 11
1.147401044799062
 21
0.3729263442711057
 31
0.0
 12
1.158866125590269
 22
0.368857938876963
 32
0.0
 13
1.158866125590269
 23
0.368857938876963
 33
0.0
  0
POINT
  5
120C
330
11FF
100
AcDbEntity
  8
Defpoints
 62
     0
440
 16777216
100
AcDbPoint
 10
1.158866125590269
 20
0.368857938876963
 30
0.0
  0
POINT
  5
120D
330
11FF
100
AcDbEntity
  8
Defpoints
 62
     0
440
 16777216
100
AcDbPoint
 10
1.185979429103055
 20
0.3538290076899635
 30
0.0
  0
ENDBLK
  5
1201
330
11FF
100
AcDbEntity
  8
0
100
AcDbBlockEnd
  0
BLOCK
  5
14A9
330
14A8
100
AcDbEntity
  8
0
100
AcDbBlockBegin
  2
*D10
 70
     1
 10
0.0
 20
0.0
 30
0.0
  3
*D10
  1

  0
LINE
  5
1672
330
14A8
100
AcDbEntity
  8
0
 62
     0
440
 16777216
370
    -2
100
AcDbLine
 10
1.412175798007464
 20
0.5619039480493556
 30
0.0
 11
1.596582662414713
 21
0.5619039480493556
 31
0.0
  0
LINE
  5
1673
330
14A8
100
AcDbEntity
  8
0
 62
     0
440
 16777216
370
    -2
100
AcDbLine
 10
1.36907468904165
 20
0.5320322405700142
 30
0.0
 11
1.596582662414713
 21
0.5320322405700142
 31
0.0
  0
LINE
  5
1674
330
14A8
100
AcDbEntity
  8
0
 62
     0
440
 16777216
370
    -2
100
AcDbLine
 10
1.591582662414713
 20
0.5739039480493556
 30
0.0
 11
1.591582662414713
 21
0.5859039480493557
 31
0.0
  0
LINE
  5
1675
330
14A8
100
AcDbEntity
  8
0
 62
     0
440
 16777216
370
    -2
100
AcDbLine
 10
1.591582662414713
 20
0.5200322405700142
 30
0.0
 11
1.591582662414713
 21
0.5080322405700142
 31
0.0
  0
SOLID
  5
1676
330
14A8
100
AcDbEntity
  8
0
 62
     0
440
 16777216
100
AcDbTrace
 10
1.589582662414713
 20
0.5739039480493556
 30
0.0
 11
1.593582662414713
 21
0.5739039480493556
 31
0.0
 12
1.591582662414713
 22
0.5619039480493556
 32
0.0
 13
1.591582662414713
 23
0.5619039480493556
 33
0.0
  0
SOLID
  5
1677
330
14A8
100
AcDbEntity
  8
0
 62
     0
440
 16777216
100
AcDbTrace
 10
1.589582662414713
 20
0.5200322405700142
 30
0.0
 11
1.593582662414713
 21
0.5200322405700142
 31
0.0
 12
1.591582662414713
 22
0.5320322405700142
 32
0.0
 13
1.591582662414713
 23
0.5320322405700142
 33
0.0
  0
MTEXT
  5
1678
330
14A8
100
AcDbEntity
  8
0
 62
     0
440
 16777216
100
AcDbMText
 10
1.591582662414713
 20
0.5469680943096843
 30
0.0
 40
0.012
 41
0.0
 46
0.0
 71
     5
 72
     1
  1
\A1;0.030
 73
     1
 44
1.0
  0
POINT
  5
1679
330
14A8
100
AcDbEntity
  8
Defpoints
 62
     0
440
 16777216
100
AcDbPoint
 10
1.404675798007464
 20
0.5619039480493556
 30
0.0
  0
POINT
  5
167A
330
14A8
100
AcDbEntity
  8
Defpoints
 62
     0
440
 16777216
100
AcDbPoint
 10
1.36157468904165
 20
0.5320322405700142
 30
0.0
  0
POINT
  5
167B
330
14A8
100
AcDbEntity
  8
Defpoints
 62
     0
440
 16777216
100
AcDbPoint
 10
1.591582662414713
 20
0.5320322405700142
 30
0.0
  0
ENDBLK
  5
14AA
330
14A8
100
AcDbEntity
  8
0
100
AcDbBlockEnd
  0
BLOCK
  5
167D
330
167C
100
AcDbEntity
  8
0
100
AcDbBlockBegin
  2
*D11
 70
     1
 10
0.0
 20
0.0
 30
0.0
  3
*D11
  1

  0
LINE
  5
167E
330
167C
100
AcDbEntity
  8
0
 62
     0
440
 16777216
370
    -2
100
AcDbLine
 10
1.412175798007464
 20
0.5619039480493556
 30
0.0
 11
1.596582662414713
 21
0.5619039480493556
 31
0.0
  0
LINE
  5
167F
330
167C
100
AcDbEntity
  8
0
 62
     0
440
 16777216
370
    -2
100
AcDbLine
 10
1.36907468904165
 20
0.5320322405700142
 30
0.0
 11
1.596582662414713
 21
0.5320322405700142
 31
0.0
  0
LINE
  5
1680
330
167C
100
AcDbEntity
  8
0
 62
     0
440
 16777216
370
    -2
100
AcDbLine
 10
1.591582662414713
 20
0.5739039480493556
 30
0.0
 11
1.591582662414713
 21
0.5859039480493557
 31
0.0
  0
LINE
  5
1681
330
167C
100
AcDbEntity
  8
0
 62
     0
440
 16777216
370
    -2
100
AcDbLine
 10
1.591582662414713
 20
0.5200322405700142
 30
0.0
 11
1.591582662414713
 21
0.5080322405700142
 31
0.0
  0
SOLID
  5
1682
330
167C
100
AcDbEntity
  8
0
 62
     0
440
 16777216
100
AcDbTrace
 10
1.589582662414713
 20
0.5739039480493556
 30
0.0
 11
1.593582662414713
 21
0.5739039480493556
 31
0.0
 12
1.591582662414713
 22
0.5619039480493556
 32
0.0
 13
1.591582662414713
 23
0.5619039480493556
 33
0.0
  0
SOLID
  5
1683
330
167C
100
AcDbEntity
  8
0
 62
     0
440
 16777216
100
AcDbTrace
 10
1.589582662414713
 20
0.5200322405700142
 30
0.0
 11
1.593582662414713
 21
0.5200322405700142
 31
0.0
 12
1.591582662414713
 22
0.5320322405700142
 32
0.0
 13
1.591582662414713
 23
0.5320322405700142
 33
0.0
  0
MTEXT
  5
1684
330
167C
100
AcDbEntity
  8
0
 62
     0
440
 16777216
100
AcDbMText
 10
1.591582662414713
 20
0.5469680943096843
 30
0.0
 40
0.012
 41
0.0
 46
0.0
 71
     5
 72
     1
  1
\A1;0.030
 73
     1
 44
1.0
  0
POINT
  5
1685
330
167C
100
AcDbEntity
  8
Defpoints
 62
     0
440
 16777216
100
AcDbPoint
 10
1.404675798007464
 20
0.5619039480493556
 30
0.0
  0
POINT
  5
1686
330
167C
100
AcDbEntity
  8
Defpoints
 62
     0
440
 16777216
100
AcDbPoint
 10
1.36157468904165
 20
0.5320322405700142
 30
0.0
  0
POINT
  5
1687
330
167C
100
AcDbEntity
  8
Defpoints
 62
     0
440
 16777216
100
AcDbPoint
 10
1.591582662414713
 20
0.5320322405700142
 30
0.0
  0
ENDBLK
  5
1688
330
167C
100
AcDbEntity
  8
0
100
AcDbBlockEnd
  0
BLOCK
  5
1690
330
1689
100
AcDbEntity
  8
0
100
AcDbBlockBegin
  2
A$C0aef9ff1
 70
     0
 10
0.0
 20
0.0
 30
0.0
  3
A$C0aef9ff1
  1

  0
DIMENSION
  5
168A
330
1689
100
AcDbEntity
  8
0
100
AcDbDimension
280
     0
  2
*D11
 10
0.2300079733730629
 20
0.024
 30
0.0
 11
0.2300079733730627
 21
0.0389358537396701
 31
0.0
 12
-1.36157468904165
 22
-0.5080322405700142
 32
0.0
 70
   160
 71
     5
 42
0.0298717074793414
 73
     0
 74
     0
 75
     0
  3
Dan's Dim Style
100
AcDbAlignedDimension
 13
0.0431011089658133
 23
0.0538717074793412
 33
0.0
 14
-0.0000000000000004
 24
0.0239999999999998
 34
0.0
 50
90.0
100
AcDbRotatedDimension
  0
CIRCLE
  5
168B
330
1689
100
AcDbEntity
  8
0
100
AcDbCircle
 10
0.1404641015685926
 20
0.3858618331288622
 30
0.0
 40
0.004
  0
CIRCLE
  5
168C
330
1689
100
AcDbEntity
  8
0
100
AcDbCircle
 10
0.1604640740939989
 20
0.3858618170094284
 30
0.0
 40
0.004
  0
CIRCLE
  5
168D
330
1689
100
AcDbEntity
  8
0
100
AcDbCircle
 10
0.1804640191448021
 20
0.3858617847705609
 30
0.0
 40
0.004
  0
ENDBLK
  5
1691
330
1689
100
AcDbEntity
  8
0
100
AcDbBlockEnd
  0
BLOCK
  5
175B
330
175A
100
AcDbEntity
  8
0
100
AcDbBlockBegin
  2
C150
 70
     0
 10
0.0
 20
0.0
 30
0.0
  3
C150
  1

  0
LWPOLYLINE
  5
175C
330
175A
100
AcDbEntity
  8
C1
100
AcDbPolyline
 90
        4
 70
     1
 43
0.0
 10
-0.0250000000000057
 20
0.0
 10
0.0250000000000057
 20
0.0
 10
0.0250000000000057
 20
0.0300000000000011
 10
-0.0250000000000057
 20
0.0300000000000011
  0
LWPOLYLINE
  5
175D
330
175A
100
AcDbEntity
  8
C1
100
AcDbPolyline
 90
        8
 70
     1
 43
0.0
 10
0.1199999999999761
 20
0.0012499999999775
 10
0.0649999999999693
 20
0.0012499999999775
 10
0.0649999999999693
 20
0.0700000000000003
 10
-0.0650000000000262
 20
0.0700000000000003
 10
-0.0650000000000262
 20
0.0012499999999775
 10
-0.120000000000033
 20
0.0012499999999775
 10
-0.1199999999999761
 20
0.2499999999999929
 10
0.120000000000033
 20
0.2499999999999929
  0
CIRCLE
  5
175E
330
175A
100
AcDbEntity
  8
M1
100
AcDbCircle
 10
-0.0716009984564323
 20
0.0661068852815205
 30
0.0
 40
0.015
  0
LWPOLYLINE
  5
175F
330
175A
100
AcDbEntity
  8
CERAMIC
100
AcDbPolyline
 90
        5
 70
     0
 43
0.0
 10
0.1249999999999716
 20
0.2499999999999929
 10
0.1249999999999716
 20
-0.0000000000000071
 10
-0.1250000000000284
 20
-0.0000000000000071
 10
-0.1250000000000284
 20
0.2499999999999929
 10
0.1249999999999716
 20
0.2499999999999929
  0
ENDBLK
  5
1760
330
175A
100
AcDbEntity
  8
0
100
AcDbBlockEnd
  0
BLOCK
  5
19C4
330
19C3
100
AcDbEntity
  8
0
100
AcDbBlockBegin
  2
*D15
 70
     1
 10
0.0
 20
0.0
 30
0.0
  3
*D15
  1

  0
LINE
  5
19C5
330
19C3
100
AcDbEntity
  8
0
 62
     0
440
 16777216
370
    -2
100
AcDbLine
 10
1.311534625100339
 20
0.497342883378157
 30
0.0
 11
1.311534625100339
 21
0.40592475703024
 31
0.0
  0
LINE
  5
19C6
330
19C3
100
AcDbEntity
  8
0
 62
     0
440
 16777216
370
    -2
100
AcDbLine
 10
1.361614752982948
 20
0.4973428960155219
 30
0.0
 11
1.361614752982948
 21
0.40592475703024
 31
0.0
  0
LINE
  5
19C7
330
19C3
100
AcDbEntity
  8
0
 62
     0
440
 16777216
370
    -2
100
AcDbLine
 10
1.323534625100339
 20
0.4109247570302399
 30
0.0
 11
1.349614752982948
 21
0.4109247570302399
 31
0.0
  0
LINE
  5
19C8
330
19C3
100
AcDbEntity
  8
0
 62
     0
440
 16777216
370
    -2
100
AcDbLine
 10
1.361614752982948
 20
0.4109247570302399
 30
0.0
 11
1.375817727134811
 21
0.4109247570302399
 31
0.0
  0
SOLID
  5
19C9
330
19C3
100
AcDbEntity
  8
0
 62
     0
440
 16777216
100
AcDbTrace
 10
1.323534625100339
 20
0.4129247570302399
 30
0.0
 11
1.323534625100339
 21
0.40892475703024
 31
0.0
 12
1.311534625100339
 22
0.4109247570302399
 32
0.0
 13
1.311534625100339
 23
0.4109247570302399
 33
0.0
  0
SOLID
  5
19CA
330
19C3
100
AcDbEntity
  8
0
 62
     0
440
 16777216
100
AcDbTrace
 10
1.349614752982948
 20
0.4129247570302399
 30
0.0
 11
1.349614752982948
 21
0.40892475703024
 31
0.0
 12
1.361614752982948
 22
0.4109247570302399
 32
0.0
 13
1.361614752982948
 23
0.4109247570302399
 33
0.0
  0
MTEXT
  5
19CB
330
19C3
100
AcDbEntity
  8
0
 62
     0
440
 16777216
100
AcDbMText
 10
1.456407224406298
 20
0.4109247570302399
 30
0.0
 40
0.012
 41
0.0
 46
0.0
 71
     5
 72
     1
  1
\A1;50{\H1.0833x;Ω\PTransmission Line}
 73
     1
 44
1.0
  0
POINT
  5
19CC
330
19C3
100
AcDbEntity
  8
Defpoints
 62
     0
440
 16777216
100
AcDbPoint
 10
1.311534625100339
 20
0.504842883378157
 30
0.0
  0
POINT
  5
19CD
330
19C3
100
AcDbEntity
  8
Defpoints
 62
     0
440
 16777216
100
AcDbPoint
 10
1.361614752982948
 20
0.5048428960155219
 30
0.0
  0
POINT
  5
19CE
330
19C3
100
AcDbEntity
  8
Defpoints
 62
     0
440
 16777216
100
AcDbPoint
 10
1.361614752982948
 20
0.4109247570302399
 30
0.0
  0
ENDBLK
  5
19CF
330
19C3
100
AcDbEntity
  8
0
100
AcDbBlockEnd
  0
BLOCK
  5
19D9
330
19D8
100
AcDbEntity
  8
0
100
AcDbBlockBegin
  2
*D17
 70
     1
 10
0.0
 20
0.0
 30
0.0
  3
*D17
  1

  0
LINE
  5
1B3C
330
19D8
100
AcDbEntity
  8
0
 62
     0
440
 16777216
370
    -2
100
AcDbLine
 10
0.4811329787211341
 20
0.3532866543582711
 30
0.0
 11
0.4811329787211341
 21
0.4089973747783936
 31
0.0
  0
LINE
  5
1B3D
330
19D8
100
AcDbEntity
  8
0
 62
     0
440
 16777216
370
    -2
100
AcDbLine
 10
0.5311329787211454
 20
0.3507557530645584
 30
0.0
 11
0.5311329787211454
 21
0.4089973747783936
 31
0.0
  0
LINE
  5
1B3E
330
19D8
100
AcDbEntity
  8
0
 62
     0
440
 16777216
370
    -2
100
AcDbLine
 10
0.4931329787211341
 20
0.4039973747783936
 30
0.0
 11
0.5191329787211454
 21
0.4039973747783936
 31
0.0
  0
LINE
  5
1B3F
330
19D8
100
AcDbEntity
  8
0
 62
     0
440
 16777216
370
    -2
100
AcDbLine
 10
0.5311329787211454
 20
0.4039973747783936
 30
0.0
 11
0.5967710229521072
 21
0.4039973747783936
 31
0.0
  0
SOLID
  5
1B40
330
19D8
100
AcDbEntity
  8
0
 62
     0
440
 16777216
100
AcDbTrace
 10
0.4931329787211341
 20
0.4059973747783936
 30
0.0
 11
0.4931329787211341
 21
0.4019973747783937
 31
0.0
 12
0.4811329787211341
 22
0.4039973747783936
 32
0.0
 13
0.4811329787211341
 23
0.4039973747783936
 33
0.0
  0
SOLID
  5
1B41
330
19D8
100
AcDbEntity
  8
0
 62
     0
440
 16777216
100
AcDbTrace
 10
0.5191329787211454
 20
0.4059973747783936
 30
0.0
 11
0.5191329787211454
 21
0.4019973747783937
 31
0.0
 12
0.5311329787211454
 22
0.4039973747783936
 32
0.0
 13
0.5311329787211454
 23
0.4039973747783936
 33
0.0
  0
MTEXT
  5
1B42
330
19D8
100
AcDbEntity
  8
0
 62
     0
440
 16777216
100
AcDbMText
 10
0.6773605202235942
 20
0.4039973747783936
 30
0.0
 40
0.012
 41
0.0
 46
0.0
 71
     5
 72
     1
  1
\A1;50{\H1.0833x;Ω\PTransmission Line}
 73
     1
 44
1.0
  0
POINT
  5
1B43
330
19D8
100
AcDbEntity
  8
Defpoints
 62
     0
440
 16777216
100
AcDbPoint
 10
0.4811329787211341
 20
0.345786654358271
 30
0.0
  0
POINT
  5
1B44
330
19D8
100
AcDbEntity
  8
Defpoints
 62
     0
440
 16777216
100
AcDbPoint
 10
0.5311329787211454
 20
0.3432557530645583
 30
0.0
  0
POINT
  5
1B45
330
19D8
100
AcDbEntity
  8
Defpoints
 62
     0
440
 16777216
100
AcDbPoint
 10
0.5311329787211454
 20
0.4039973747783936
 30
0.0
  0
ENDBLK
  5
19DA
330
19D8
100
AcDbEntity
  8
0
100
AcDbBlockEnd
  0
BLOCK
  5
1A0E
330
1A0D
100
AcDbEntity
  8
0
100
AcDbBlockBegin
  2
*D18
 70
     1
 10
0.0
 20
0.0
 30
0.0
  3
*D18
  1

  0
LINE
  5
1A0F
330
1A0D
100
AcDbEntity
  8
0
 62
     0
440
 16777216
370
    -2
100
AcDbLine
 10
1.096394554756404
 20
0.6444071774639843
 30
0.0
 11
1.108394554756407
 21
0.6444071774639843
 31
0.0
  0
LINE
  5
1A10
330
1A0D
100
AcDbEntity
  8
0
 62
     0
440
 16777216
370
    -2
100
AcDbLine
 10
1.108394554756407
 20
0.6444071774639843
 30
0.0
 11
1.301308559929807
 21
0.5831747131206795
 31
0.0
  0
MTEXT
  5
1A11
330
1A0D
100
AcDbEntity
  8
0
 62
     0
440
 16777216
100
AcDbMText
 10
1.019775864442626
 20
0.6444071774639843
 30
0.0
 40
0.012
 41
0.0
 46
0.0
 71
     5
 72
     1
  1
\A1;Orientation Marker
 73
     1
 44
1.0
  0
SOLID
  5
1A12
330
1A0D
100
AcDbEntity
  8
0
 62
     0
440
 16777216
100
AcDbTrace
 10
1.30191362773497
 20
0.5850809903699679
 30
0.0
 11
1.300703492124644
 21
0.581268435871391
 31
0.0
 12
1.312746223425538
 22
0.5795443062897001
 32
0.0
 13
1.312746223425538
 23
0.5795443062897001
 33
0.0
  0
POINT
  5
1A13
330
1A0D
100
AcDbEntity
  8
Defpoints
 62
     0
440
 16777216
100
AcDbPoint
 10
1.312746223425538
 20
0.5795443062897001
 30
0.0
  0
POINT
  5
1A14
330
1A0D
100
AcDbEntity
  8
Defpoints
 62
     0
440
 16777216
100
AcDbPoint
 10
1.360403154657751
 20
0.5644176111606202
 30
0.0
  0
ENDBLK
  5
1A15
330
1A0D
100
AcDbEntity
  8
0
100
AcDbBlockEnd
  0
BLOCK
  5
1A1F
330
1A1E
100
AcDbEntity
  8
0
100
AcDbBlockBegin
  2
*D20
 70
     1
 10
0.0
 20
0.0
 30
0.0
  3
*D20
  1

  0
LINE
  5
1B46
330
1A1E
100
AcDbEntity
  8
0
 62
     0
440
 16777216
370
    -2
100
AcDbLine
 10
0.3103037922587963
 20
0.631822530387793
 30
0.0
 11
0.3223037922587964
 21
0.6318225303877929
 31
0.0
  0
LINE
  5
1B47
330
1A1E
100
AcDbEntity
  8
0
 62
     0
440
 16777216
370
    -2
100
AcDbLine
 10
0.3223037922587964
 20
0.6318225303877929
 30
0.0
 11
0.4184823735991594
 21
0.5557639972488334
 31
0.0
  0
MTEXT
  5
1B48
330
1A1E
100
AcDbEntity
  8
0
 62
     0
440
 16777216
100
AcDbMText
 10
0.2336851019450173
 20
0.631822530387793
 30
0.0
 40
0.012
 41
0.0
 46
0.0
 71
     5
 72
     1
  1
\A1;Orientation Marker
 73
     1
 44
1.0
  0
SOLID
  5
1B49
330
1A1E
100
AcDbEntity
  8
0
 62
     0
440
 16777216
100
AcDbTrace
 10
0.4197229486642858
 20
0.5573327462752192
 30
0.0
 11
0.417241798534033
 21
0.5541952482224475
 31
0.0
 12
0.4278948677574748
 22
0.5483205468580751
 32
0.0
 13
0.4278948677574748
 23
0.5483205468580751
 33
0.0
  0
POINT
  5
1B4A
330
1A1E
100
AcDbEntity
  8
Defpoints
 62
     0
440
 16777216
100
AcDbPoint
 10
0.4278948677574748
 20
0.5483205468580751
 30
0.0
  0
POINT
  5
1B4B
330
1A1E
100
AcDbEntity
  8
Defpoints
 62
     0
440
 16777216
100
AcDbPoint
 10
0.4671135934171219
 20
0.5173061702299161
 30
0.0
  0
ENDBLK
  5
1A20
330
1A1E
100
AcDbEntity
  8
0
100
AcDbBlockEnd
  0
BLOCK
  5
1A34
330
1A33
100
AcDbEntity
  8
0
100
AcDbBlockBegin
  2
*D21
 70
     1
 10
0.0
 20
0.0
 30
0.0
  3
*D21
  1

  0
LINE
  5
1A35
330
1A33
100
AcDbEntity
  8
0
 62
     0
440
 16777216
370
    -2
100
AcDbLine
 10
1.085330282378153
 20
0.4029673181612972
 30
0.0
 11
1.097330282378153
 21
0.4029673181612973
 31
0.0
  0
LINE
  5
1A36
330
1A33
100
AcDbEntity
  8
0
 62
     0
440
 16777216
370
    -2
100
AcDbLine
 10
1.097330282378153
 20
0.4029673181612973
 30
0.0
 11
1.148370653262739
 21
0.3746755896590273
 31
0.0
  0
MTEXT
  5
1A37
330
1A33
100
AcDbEntity
  8
0
 62
     0
440
 16777216
100
AcDbMText
 10
1.021075848544592
 20
0.4029673181612971
 30
0.0
 40
0.012
 41
0.0512332878581173
 46
0.0
 71
     5
 72
     1
  1
\A1;Copper/Ground
 73
     1
 44
1.0
  0
SOLID
  5
1A38
330
1A33
100
AcDbEntity
  8
0
 62
     0
440
 16777216
100
AcDbTrace
 10
1.149340261726417
 20
0.376424835046949
 30
0.0
 11
1.147401044799062
 21
0.3729263442711057
 31
0.0
 12
1.158866125590269
 22
0.368857938876963
 32
0.0
 13
1.158866125590269
 23
0.368857938876963
 33
0.0
  0
POINT
  5
1A39
330
1A33
100
AcDbEntity
  8
Defpoints
 62
     0
440
 16777216
100
AcDbPoint
 10
1.158866125590269
 20
0.368857938876963
 30
0.0
  0
POINT
  5
1A3A
330
1A33
100
AcDbEntity
  8
Defpoints
 62
     0
440
 16777216
100
AcDbPoint
 10
1.185979429103055
 20
0.3538290076899635
 30
0.0
  0
ENDBLK
  5
1A3B
330
1A33
100
AcDbEntity
  8
0
100
AcDbBlockEnd
  0
BLOCK
  5
1A45
330
1A44
100
AcDbEntity
  8
0
100
AcDbBlockBegin
  2
*D23
 70
     1
 10
0.0
 20
0.0
 30
0.0
  3
*D23
  1

  0
LINE
  5
1B4C
330
1A44
100
AcDbEntity
  8
0
 62
     0
440
 16777216
370
    -2
100
AcDbLine
 10
0.3627452498986106
 20
0.8495535638308954
 30
0.0
 11
0.3747452498986116
 21
0.8495535638308954
 31
0.0
  0
LINE
  5
1B4D
330
1A44
100
AcDbEntity
  8
0
 62
     0
440
 16777216
370
    -2
100
AcDbLine
 10
0.3747452498986116
 20
0.8495535638308954
 30
0.0
 11
0.4257856207831978
 21
0.8212618353286256
 31
0.0
  0
MTEXT
  5
1B4E
330
1A44
100
AcDbEntity
  8
0
 62
     0
440
 16777216
100
AcDbMText
 10
0.29849081606505
 20
0.8495535638308952
 30
0.0
 40
0.012
 41
0.0512332878581173
 46
0.0
 71
     5
 72
     1
  1
\A1;Copper/Ground
 73
     1
 44
1.0
  0
SOLID
  5
1B4F
330
1A44
100
AcDbEntity
  8
0
 62
     0
440
 16777216
100
AcDbTrace
 10
0.4267552292468752
 20
0.8230110807165472
 30
0.0
 11
0.4248160123195205
 21
0.819512589940704
 31
0.0
 12
0.4362810931107278
 22
0.8154441845465612
 32
0.0
 13
0.4362810931107278
 23
0.8154441845465612
 33
0.0
  0
POINT
  5
1B50
330
1A44
100
AcDbEntity
  8
Defpoints
 62
     0
440
 16777216
100
AcDbPoint
 10
0.4362810931107278
 20
0.8154441845465612
 30
0.0
  0
POINT
  5
1B51
330
1A44
100
AcDbEntity
  8
Defpoints
 62
     0
440
 16777216
100
AcDbPoint
 10
0.4633943966235138
 20
0.800415253359562
 30
0.0
  0
ENDBLK
  5
1A46
330
1A44
100
AcDbEntity
  8
0
100
AcDbBlockEnd
  0
BLOCK
  5
1A57
330
1A56
100
AcDbEntity
  8
0
100
AcDbBlockBegin
  2
*D24
 70
     1
 10
0.0
 20
0.0
 30
0.0
  3
*D24
  1

  0
LINE
  5
1A58
330
1A56
100
AcDbEntity
  8
0
 62
     0
440
 16777216
370
    -2
100
AcDbLine
 10
1.463472526534904
 20
0.9749984383595691
 30
0.0
 11
1.451472526534904
 21
0.9749984383595691
 31
0.0
  0
LINE
  5
1A59
330
1A56
100
AcDbEntity
  8
0
 62
     0
440
 16777216
370
    -2
100
AcDbLine
 10
1.451472526534904
 20
0.9749984383595691
 30
0.0
 11
1.391852560900026
 21
0.8621264127444369
 31
0.0
  0
MTEXT
  5
1A5A
330
1A56
100
AcDbEntity
  8
0
 62
     0
440
 16777216
100
AcDbMText
 10
1.548755609754549
 20
0.9749984383595693
 30
0.0
 40
0.012
 41
0.0
 46
0.0
 71
     5
 72
     1
  1
\A1;Hatched Area\PIndicates Footprint of\PPart
 73
     1
 44
1.0
  0
SOLID
  5
1A5B
330
1A56
100
AcDbEntity
  8
0
 62
     0
440
 16777216
100
AcDbTrace
 10
1.390084105940155
 20
0.8630605257220302
 30
0.0
 11
1.393621015859897
 21
0.8611922997668438
 31
0.0
 12
1.386247883034466
 22
0.8515156829852116
 32
0.0
 13
1.386247883034466
 23
0.8515156829852116
 33
0.0
  0
POINT
  5
1A5C
330
1A56
100
AcDbEntity
  8
Defpoints
 62
     0
440
 16777216
100
AcDbPoint
 10
1.386247883034466
 20
0.8515156829852116
 30
0.0
  0
POINT
  5
1A5D
330
1A56
100
AcDbEntity
  8
Defpoints
 62
     0
440
 16777216
100
AcDbPoint
 10
1.317878378132041
 20
0.7220791020267355
 30
0.0
  0
ENDBLK
  5
1A5E
330
1A56
100
AcDbEntity
  8
0
100
AcDbBlockEnd
  0
BLOCK
  5
1A68
330
1A67
100
AcDbEntity
  8
0
100
AcDbBlockBegin
  2
*D26
 70
     1
 10
0.0
 20
0.0
 30
0.0
  3
*D26
  1

  0
LINE
  5
1AFF
330
1A67
100
AcDbEntity
  8
0
 62
     0
440
 16777216
370
    -2
100
AcDbLine
 10
0.6237043779107593
 20
0.8488763864183123
 30
0.0
 11
0.611704377910759
 21
0.8488763864183123
 31
0.0
  0
LINE
  5
1B00
330
1A67
100
AcDbEntity
  8
0
 62
     0
440
 16777216
370
    -2
100
AcDbLine
 10
0.611704377910759
 20
0.8488763864183123
 30
0.0
 11
0.552084412275881
 21
0.7360043608031797
 31
0.0
  0
MTEXT
  5
1B01
330
1A67
100
AcDbEntity
  8
0
 62
     0
440
 16777216
100
AcDbMText
 10
0.7089874611304046
 20
0.8488763864183123
 30
0.0
 40
0.012
 41
0.0
 46
0.0
 71
     5
 72
     1
  1
\A1;Hatched Area\PIndicates Footprint of\PPart
 73
     1
 44
1.0
  0
SOLID
  5
1B02
330
1A67
100
AcDbEntity
  8
0
 62
     0
440
 16777216
100
AcDbTrace
 10
0.5503159573160101
 20
0.7369384737807728
 30
0.0
 11
0.5538528672357519
 21
0.7350702478255864
 31
0.0
 12
0.5464797344103216
 22
0.7253936310439544
 32
0.0
 13
0.5464797344103216
 23
0.7253936310439544
 33
0.0
  0
POINT
  5
1B03
330
1A67
100
AcDbEntity
  8
Defpoints
 62
     0
440
 16777216
100
AcDbPoint
 10
0.5464797344103216
 20
0.7253936310439544
 30
0.0
  0
POINT
  5
1B04
330
1A67
100
AcDbEntity
  8
Defpoints
 62
     0
440
 16777216
100
AcDbPoint
 10
0.4781102295078968
 20
0.5959570500854782
 30
0.0
  0
ENDBLK
  5
1A69
330
1A67
100
AcDbEntity
  8
0
100
AcDbBlockEnd
  0
BLOCK
  5
1A8A
330
1A89
100
AcDbEntity
  8
0
100
AcDbBlockBegin
  2
*D28
 70
     1
 10
0.0
 20
0.0
 30
0.0
  3
*D28
  1

  0
LINE
  5
1B05
330
1A89
100
AcDbEntity
  8
0
 62
     0
440
 16777216
370
    -2
100
AcDbLine
 10
0.5136329786804721
 20
0.4948195521138602
 30
0.0
 11
0.6836925093459083
 21
0.4948372617305045
 31
0.0
  0
LINE
  5
1B06
330
1A89
100
AcDbEntity
  8
0
 62
     0
440
 16777216
370
    -2
100
AcDbLine
 10
0.5136288131705299
 20
0.5348195521138522
 30
0.0
 11
0.6836883438359659
 21
0.5348372617304964
 31
0.0
  0
LINE
  5
1B07
330
1A89
100
AcDbEntity
  8
0
 62
     0
440
 16777216
370
    -2
100
AcDbLine
 10
0.6786937590259958
 20
0.4828367411068326
 30
0.0
 11
0.6786950086789716
 21
0.4708367411719005
 31
0.0
  0
LINE
  5
1B08
330
1A89
100
AcDbEntity
  8
0
 62
     0
440
 16777216
370
    -2
100
AcDbLine
 10
0.6786870942101016
 20
0.5468367409766886
 30
0.0
 11
0.6786858445571257
 21
0.5588367409116205
 31
0.0
  0
SOLID
  5
1B09
330
1A89
100
AcDbEntity
  8
0
 62
     0
440
 16777216
100
AcDbTrace
 10
0.6806937590151511
 20
0.4828369493823285
 30
0.0
 11
0.6766937590368404
 21
0.4828365328313365
 31
0.0
 12
0.6786925093730199
 22
0.4948367410417645
 32
0.0
 13
0.6786925093730199
 23
0.4948367410417645
 33
0.0
  0
SOLID
  5
1B0A
330
1A89
100
AcDbEntity
  8
0
 62
     0
440
 16777216
100
AcDbTrace
 10
0.680687094199257
 20
0.5468369492521845
 30
0.0
 11
0.6766870942209462
 21
0.5468365327011926
 31
0.0
 12
0.6786883438630776
 22
0.5348367410417565
 32
0.0
 13
0.6786883438630776
 23
0.5348367410417565
 33
0.0
  0
MTEXT
  5
1B0B
330
1A89
100
AcDbEntity
  8
0
 62
     0
440
 16777216
100
AcDbMText
 10
0.6786904911648011
 20
0.5142169201500098
 30
0.0
 40
0.012
 41
0.0
 46
0.0
 71
     5
 72
     1
  1
\A1;0.040
 73
     1
 44
1.0
  0
POINT
  5
1B0C
330
1A89
100
AcDbEntity
  8
Defpoints
 62
     0
440
 16777216
100
AcDbPoint
 10
0.5061329787211397
 20
0.4948187710807502
 30
0.0
  0
POINT
  5
1B0D
330
1A89
100
AcDbEntity
  8
Defpoints
 62
     0
440
 16777216
100
AcDbPoint
 10
0.5061288132111974
 20
0.5348187710807422
 30
0.0
  0
POINT
  5
1B0E
330
1A89
100
AcDbEntity
  8
Defpoints
 62
     0
440
 16777216
100
AcDbPoint
 10
0.6786883438630776
 20
0.5348367410417565
 30
0.0
  0
ENDBLK
  5
1A8B
330
1A89
100
AcDbEntity
  8
0
100
AcDbBlockEnd
  0
BLOCK
  5
1AB0
330
1AAF
100
AcDbEntity
  8
0
100
AcDbBlockBegin
  2
*D29
 70
     1
 10
0.0
 20
0.0
 30
0.0
  3
*D29
  1

  0
LINE
  5
1B0F
330
1AAF
100
AcDbEntity
  8
0
 62
     0
440
 16777216
370
    -2
100
AcDbLine
 10
0.4736329787211343
 20
0.4948187710807505
 30
0.0
 11
0.3309678666022989
 21
0.4948187710807505
 31
0.0
  0
LINE
  5
1B10
330
1AAF
100
AcDbEntity
  8
0
 62
     0
440
 16777216
370
    -2
100
AcDbLine
 10
0.4736329787211343
 20
0.4660687710807269
 30
0.0
 11
0.3309678666022989
 21
0.4660687710807269
 31
0.0
  0
LINE
  5
1B11
330
1AAF
100
AcDbEntity
  8
0
 62
     0
440
 16777216
370
    -2
100
AcDbLine
 10
0.3359678666022989
 20
0.5068187710807505
 30
0.0
 11
0.3359678666022989
 21
0.5188187710807505
 31
0.0
  0
LINE
  5
1B12
330
1AAF
100
AcDbEntity
  8
0
 62
     0
440
 16777216
370
    -2
100
AcDbLine
 10
0.3359678666022989
 20
0.4540687710807269
 30
0.0
 11
0.3359678666022989
 21
0.4420687710807263
 31
0.0
  0
LINE
  5
1B13
330
1AAF
100
AcDbEntity
  8
0
 62
     0
440
 16777216
370
    -2
100
AcDbLine
 10
0.3359678666022989
 20
0.4420687710807263
 30
0.0
 11
0.3239678666022989
 21
0.4420687710807263
 31
0.0
  0
SOLID
  5
1B14
330
1AAF
100
AcDbEntity
  8
0
 62
     0
440
 16777216
100
AcDbTrace
 10
0.3339678666022989
 20
0.5068187710807505
 30
0.0
 11
0.3379678666022989
 21
0.5068187710807505
 31
0.0
 12
0.3359678666022989
 22
0.4948187710807505
 32
0.0
 13
0.3359678666022989
 23
0.4948187710807505
 33
0.0
  0
SOLID
  5
1B15
330
1AAF
100
AcDbEntity
  8
0
 62
     0
440
 16777216
100
AcDbTrace
 10
0.3339678666022989
 20
0.4540687710807269
 30
0.0
 11
0.3379678666022989
 21
0.4540687710807269
 31
0.0
 12
0.3359678666022989
 22
0.4660687710807269
 32
0.0
 13
0.3359678666022989
 23
0.4660687710807269
 33
0.0
  0
MTEXT
  5
1B16
330
1AAF
100
AcDbEntity
  8
0
 62
     0
440
 16777216
100
AcDbMText
 10
0.2962414000265827
 20
0.4420687710807261
 30
0.0
 40
0.012
 41
0.0
 46
0.0
 71
     5
 72
     1
  1
\A1;0.030
 73
     1
 44
1.0
  0
POINT
  5
1B17
330
1AAF
100
AcDbEntity
  8
Defpoints
 62
     0
440
 16777216
100
AcDbPoint
 10
0.4811329787211342
 20
0.4948187710807505
 30
0.0
  0
POINT
  5
1B18
330
1AAF
100
AcDbEntity
  8
Defpoints
 62
     0
440
 16777216
100
AcDbPoint
 10
0.4811329787211342
 20
0.4660687710807269
 30
0.0
  0
POINT
  5
1B19
330
1AAF
100
AcDbEntity
  8
Defpoints
 62
     0
440
 16777216
100
AcDbPoint
 10
0.3359678666022989
 20
0.4660687710807269
 30
0.0
  0
ENDBLK
  5
1AB1
330
1AAF
100
AcDbEntity
  8
0
100
AcDbBlockEnd
  0
ENDSEC
  0
SECTION
  2
ENTITIES
  0
CIRCLE
  5
1898
330
1F
100
AcDbEntity
  8
0
100
AcDbCircle
 10
0.7017321443952214
 20
0.5801980996028164
 30
0.0
 40
0.0155
  0
CIRCLE
  5
1899
330
1F
100
AcDbEntity
  8
0
100
AcDbCircle
 10
0.7017321443952218
 20
0.6801980996028107
 30
0.0
 40
0.0155
  0
CIRCLE
  5
189A
330
1F
100
AcDbEntity
  8
0
100
AcDbCircle
 10
0.7017321443951934
 20
0.780198099602805
 30
0.0
 40
0.0155
  0
CIRCLE
  5
189E
330
1F
100
AcDbEntity
  8
0
100
AcDbCircle
 10
0.6017321443952559
 20
0.3694394425586921
 30
0.0
 40
0.0155
  0
CIRCLE
  5
189F
330
1F
100
AcDbEntity
  8
0
100
AcDbCircle
 10
0.3957494846891185
 20
0.3986383074320287
 30
0.0
 40
0.0155
  0
CIRCLE
  5
18A0
330
1F
100
AcDbEntity
  8
0
100
AcDbCircle
 10
0.7017321443952214
 20
0.4801980996028221
 30
0.0
 40
0.0155
  0
CIRCLE
  5
18A1
330
1F
100
AcDbEntity
  8
0
100
AcDbCircle
 10
0.3105254820272156
 20
0.5801980996028164
 30
0.0
 40
0.0155
  0
CIRCLE
  5
18A2
330
1F
100
AcDbEntity
  8
0
100
AcDbCircle
 10
0.3105254820272156
 20
0.6801980996028107
 30
0.0
 40
0.0155
  0
CIRCLE
  5
18A3
330
1F
100
AcDbEntity
  8
0
100
AcDbCircle
 10
0.3105254820272441
 20
0.780198099602805
 30
0.0
 40
0.0155
  0
CIRCLE
  5
18A4
330
1F
100
AcDbEntity
  8
0
100
AcDbCircle
 10
0.3105254820272156
 20
0.4801980996028221
 30
0.0
 40
0.0155
  0
CIRCLE
  5
18AD
330
1F
100
AcDbEntity
  8
0
100
AcDbCircle
 10
0.6017321443952275
 20
0.780198099602805
 30
0.0
 40
0.0155
  0
CIRCLE
  5
18AE
330
1F
100
AcDbEntity
  8
0
100
AcDbCircle
 10
0.5017321443952616
 20
0.780198099602805
 30
0.0
 40
0.0155
  0
CIRCLE
  5
18AF
330
1F
100
AcDbEntity
  8
0
100
AcDbCircle
 10
0.4017321443952957
 20
0.780198099602805
 30
0.0
 40
0.0155
  0
CIRCLE
  5
18B2
330
1F
100
AcDbEntity
  8
0
100
AcDbCircle
 10
0.5916330061957203
 20
0.4728187872680309
 30
0.0
 40
0.004
  0
CIRCLE
  5
18B3
330
1F
100
AcDbEntity
  8
0
100
AcDbCircle
 10
0.6116330061957021
 20
0.4728187872680309
 30
0.0
 40
0.004
  0
CIRCLE
  5
18B4
330
1F
100
AcDbEntity
  8
0
100
AcDbCircle
 10
0.6316330336702967
 20
0.4728188033874602
 30
0.0
 40
0.004
  0
CIRCLE
  5
18B5
330
1F
100
AcDbEntity
  8
0
100
AcDbCircle
 10
0.5816330061957009
 20
0.4901392953437295
 30
0.0
 40
0.004
  0
CIRCLE
  5
18B6
330
1F
100
AcDbEntity
  8
0
100
AcDbCircle
 10
0.6016330336702956
 20
0.4901393114631589
 30
0.0
 40
0.004
  0
CIRCLE
  5
18B7
330
1F
100
AcDbEntity
  8
0
100
AcDbCircle
 10
0.6216330061957214
 20
0.4901392953437295
 30
0.0
 40
0.004
  0
CIRCLE
  5
18B8
330
1F
100
AcDbEntity
  8
0
100
AcDbCircle
 10
0.6516329787211093
 20
0.4728187711485731
 30
0.0
 40
0.004
  0
CIRCLE
  5
18B9
330
1F
100
AcDbEntity
  8
0
100
AcDbCircle
 10
0.3516329787211267
 20
0.4728187711485731
 30
0.0
 40
0.004
  0
CIRCLE
  5
18BA
330
1F
100
AcDbEntity
  8
0
100
AcDbCircle
 10
0.3916330061957032
 20
0.4728187872680309
 30
0.0
 40
0.004
  0
CIRCLE
  5
18BB
330
1F
100
AcDbEntity
  8
0
100
AcDbCircle
 10
0.4116330336702978
 20
0.4728188033874602
 30
0.0
 40
0.004
  0
CIRCLE
  5
18BC
330
1F
100
AcDbEntity
  8
0
100
AcDbCircle
 10
0.361633006195702
 20
0.4901392953437295
 30
0.0
 40
0.004
  0
CIRCLE
  5
18BD
330
1F
100
AcDbEntity
  8
0
100
AcDbCircle
 10
0.3816330336702966
 20
0.4901393114631589
 30
0.0
 40
0.004
  0
CIRCLE
  5
18BE
330
1F
100
AcDbEntity
  8
0
100
AcDbCircle
 10
0.4016330061957225
 20
0.4901392953437295
 30
0.0
 40
0.004
  0
CIRCLE
  5
18BF
330
1F
100
AcDbEntity
  8
0
100
AcDbCircle
 10
0.4216330336702887
 20
0.4901393114631589
 30
0.0
 40
0.004
  0
CIRCLE
  5
18C0
330
1F
100
AcDbEntity
  8
0
100
AcDbCircle
 10
0.4316329787211109
 20
0.4728187711485731
 30
0.0
 40
0.004
  0
CIRCLE
  5
18C1
330
1F
100
AcDbEntity
  8
0
100
AcDbCircle
 10
0.3516329787211267
 20
0.5074597872999704
 30
0.0
 40
0.004
  0
CIRCLE
  5
18C2
330
1F
100
AcDbEntity
  8
0
100
AcDbCircle
 10
0.3916330061957032
 20
0.5074598034193997
 30
0.0
 40
0.004
  0
CIRCLE
  5
18C3
330
1F
100
AcDbEntity
  8
0
100
AcDbCircle
 10
0.4116330336702978
 20
0.5074598195388291
 30
0.0
 40
0.004
  0
CIRCLE
  5
18C4
330
1F
100
AcDbEntity
  8
0
100
AcDbCircle
 10
0.361633006195702
 20
0.5247803114950984
 30
0.0
 40
0.004
  0
CIRCLE
  5
18C5
330
1F
100
AcDbEntity
  8
0
100
AcDbCircle
 10
0.3816330336702966
 20
0.5247803276145277
 30
0.0
 40
0.004
  0
CIRCLE
  5
18C6
330
1F
100
AcDbEntity
  8
0
100
AcDbCircle
 10
0.4016330061957225
 20
0.5247803114950984
 30
0.0
 40
0.004
  0
CIRCLE
  5
18C7
330
1F
100
AcDbEntity
  8
0
100
AcDbCircle
 10
0.4216330336702887
 20
0.5247803276145277
 30
0.0
 40
0.004
  0
CIRCLE
  5
18C8
330
1F
100
AcDbEntity
  8
0
100
AcDbCircle
 10
0.4316329787211109
 20
0.5074597872999704
 30
0.0
 40
0.004
  0
CIRCLE
  5
18C9
330
1F
100
AcDbEntity
  8
0
100
AcDbCircle
 10
0.5916330061957203
 20
0.5074598034193997
 30
0.0
 40
0.004
  0
CIRCLE
  5
18CA
330
1F
100
AcDbEntity
  8
0
100
AcDbCircle
 10
0.6116330061957021
 20
0.5074598034193997
 30
0.0
 40
0.004
  0
CIRCLE
  5
18CB
330
1F
100
AcDbEntity
  8
0
100
AcDbCircle
 10
0.6316330336702967
 20
0.5074598195388291
 30
0.0
 40
0.004
  0
CIRCLE
  5
18CC
330
1F
100
AcDbEntity
  8
0
100
AcDbCircle
 10
0.5816330061957009
 20
0.5247803114950984
 30
0.0
 40
0.004
  0
CIRCLE
  5
18CD
330
1F
100
AcDbEntity
  8
0
100
AcDbCircle
 10
0.6016330336702956
 20
0.5247803276145277
 30
0.0
 40
0.004
  0
CIRCLE
  5
18CE
330
1F
100
AcDbEntity
  8
0
100
AcDbCircle
 10
0.6216330061957214
 20
0.5247803114950984
 30
0.0
 40
0.004
  0
CIRCLE
  5
18CF
330
1F
100
AcDbEntity
  8
0
100
AcDbCircle
 10
0.6516329787211093
 20
0.5074597872999704
 30
0.0
 40
0.004
  0
CIRCLE
  5
18D0
330
1F
100
AcDbEntity
  8
0
100
AcDbCircle
 10
0.3516329787211267
 20
0.5421008034513676
 30
0.0
 40
0.004
  0
CIRCLE
  5
18D1
330
1F
100
AcDbEntity
  8
0
100
AcDbCircle
 10
0.3916330061957032
 20
0.542100819570797
 30
0.0
 40
0.004
  0
CIRCLE
  5
18D2
330
1F
100
AcDbEntity
  8
0
100
AcDbCircle
 10
0.4116330336702978
 20
0.5421008356902263
 30
0.0
 40
0.004
  0
CIRCLE
  5
18D3
330
1F
100
AcDbEntity
  8
0
100
AcDbCircle
 10
0.361633006195702
 20
0.5594213276464672
 30
0.0
 40
0.004
  0
CIRCLE
  5
18D4
330
1F
100
AcDbEntity
  8
0
100
AcDbCircle
 10
0.3816330336702966
 20
0.5594213437658965
 30
0.0
 40
0.004
  0
CIRCLE
  5
18D5
330
1F
100
AcDbEntity
  8
0
100
AcDbCircle
 10
0.4016330061957225
 20
0.5594213276464672
 30
0.0
 40
0.004
  0
CIRCLE
  5
18D6
330
1F
100
AcDbEntity
  8
0
100
AcDbCircle
 10
0.4216330336702887
 20
0.5594213437658965
 30
0.0
 40
0.004
  0
CIRCLE
  5
18D7
330
1F
100
AcDbEntity
  8
0
100
AcDbCircle
 10
0.4316329787211109
 20
0.5421008034513676
 30
0.0
 40
0.004
  0
CIRCLE
  5
18D8
330
1F
100
AcDbEntity
  8
0
100
AcDbCircle
 10
0.4416330061957146
 20
0.5594213276464672
 30
0.0
 40
0.004
  0
CIRCLE
  5
18D9
330
1F
100
AcDbEntity
  8
0
100
AcDbCircle
 10
0.4516329787211211
 20
0.5421008034513676
 30
0.0
 40
0.004
  0
CIRCLE
  5
18DA
330
1F
100
AcDbEntity
  8
0
100
AcDbCircle
 10
0.4716330061957157
 20
0.542100819570797
 30
0.0
 40
0.004
  0
CIRCLE
  5
18DB
330
1F
100
AcDbEntity
  8
0
100
AcDbCircle
 10
0.4916330061956975
 20
0.542100819570797
 30
0.0
 40
0.004
  0
CIRCLE
  5
18DC
330
1F
100
AcDbEntity
  8
0
100
AcDbCircle
 10
0.5116330336702922
 20
0.5421008356902263
 30
0.0
 40
0.004
  0
CIRCLE
  5
18DD
330
1F
100
AcDbEntity
  8
0
100
AcDbCircle
 10
0.4616330061957248
 20
0.5594213276464672
 30
0.0
 40
0.004
  0
CIRCLE
  5
18DE
330
1F
100
AcDbEntity
  8
0
100
AcDbCircle
 10
0.481633033670291
 20
0.5594213437658965
 30
0.0
 40
0.004
  0
CIRCLE
  5
18DF
330
1F
100
AcDbEntity
  8
0
100
AcDbCircle
 10
0.5016330061957169
 20
0.5594213276464672
 30
0.0
 40
0.004
  0
CIRCLE
  5
18E0
330
1F
100
AcDbEntity
  8
0
100
AcDbCircle
 10
0.5216330336703115
 20
0.5594213437658965
 30
0.0
 40
0.004
  0
CIRCLE
  5
18E1
330
1F
100
AcDbEntity
  8
0
100
AcDbCircle
 10
0.5316329787211052
 20
0.5421008034513676
 30
0.0
 40
0.004
  0
CIRCLE
  5
18E2
330
1F
100
AcDbEntity
  8
0
100
AcDbCircle
 10
0.5416330061957089
 20
0.5594213276464672
 30
0.0
 40
0.004
  0
CIRCLE
  5
18E3
330
1F
100
AcDbEntity
  8
0
100
AcDbCircle
 10
0.5516329787211154
 20
0.5421008034513676
 30
0.0
 40
0.004
  0
CIRCLE
  5
18E4
330
1F
100
AcDbEntity
  8
0
100
AcDbCircle
 10
0.57163300619571
 20
0.542100819570797
 30
0.0
 40
0.004
  0
CIRCLE
  5
18E5
330
1F
100
AcDbEntity
  8
0
100
AcDbCircle
 10
0.5916330061957203
 20
0.542100819570797
 30
0.0
 40
0.004
  0
CIRCLE
  5
18E6
330
1F
100
AcDbEntity
  8
0
100
AcDbCircle
 10
0.6116330336703149
 20
0.5421008356902263
 30
0.0
 40
0.004
  0
CIRCLE
  5
18E7
330
1F
100
AcDbEntity
  8
0
100
AcDbCircle
 10
0.5616330061957191
 20
0.5594213276464672
 30
0.0
 40
0.004
  0
CIRCLE
  5
18E8
330
1F
100
AcDbEntity
  8
0
100
AcDbCircle
 10
0.5816330336703138
 20
0.5594213437658965
 30
0.0
 40
0.004
  0
CIRCLE
  5
18E9
330
1F
100
AcDbEntity
  8
0
100
AcDbCircle
 10
0.6016330061957112
 20
0.5594213276464672
 30
0.0
 40
0.004
  0
CIRCLE
  5
18EA
330
1F
100
AcDbEntity
  8
0
100
AcDbCircle
 10
0.6216330336703058
 20
0.5594213437658965
 30
0.0
 40
0.004
  0
CIRCLE
  5
18EB
330
1F
100
AcDbEntity
  8
0
100
AcDbCircle
 10
0.6316329787210995
 20
0.5421008034513676
 30
0.0
 40
0.004
  0
CIRCLE
  5
18EC
330
1F
100
AcDbEntity
  8
0
100
AcDbCircle
 10
0.6516329237719121
 20
0.5421007712124805
 30
0.0
 40
0.004
  0
CIRCLE
  5
18ED
330
1F
100
AcDbEntity
  8
0
100
AcDbCircle
 10
0.3516329787211267
 20
0.576741819602708
 30
0.0
 40
0.004
  0
CIRCLE
  5
18EE
330
1F
100
AcDbEntity
  8
0
100
AcDbCircle
 10
0.3916330061957032
 20
0.5767418357221658
 30
0.0
 40
0.004
  0
CIRCLE
  5
18EF
330
1F
100
AcDbEntity
  8
0
100
AcDbCircle
 10
0.4116330336702978
 20
0.5767418518415952
 30
0.0
 40
0.004
  0
CIRCLE
  5
18F0
330
1F
100
AcDbEntity
  8
0
100
AcDbCircle
 10
0.361633006195702
 20
0.5940623437978644
 30
0.0
 40
0.004
  0
CIRCLE
  5
18F1
330
1F
100
AcDbEntity
  8
0
100
AcDbCircle
 10
0.3816330336702966
 20
0.5940623599172938
 30
0.0
 40
0.004
  0
CIRCLE
  5
18F2
330
1F
100
AcDbEntity
  8
0
100
AcDbCircle
 10
0.4016330061957225
 20
0.5940623437978644
 30
0.0
 40
0.004
  0
CIRCLE
  5
18F3
330
1F
100
AcDbEntity
  8
0
100
AcDbCircle
 10
0.4216330336702887
 20
0.5940623599172938
 30
0.0
 40
0.004
  0
CIRCLE
  5
18F4
330
1F
100
AcDbEntity
  8
0
100
AcDbCircle
 10
0.4316329787211109
 20
0.576741819602708
 30
0.0
 40
0.004
  0
CIRCLE
  5
18F5
330
1F
100
AcDbEntity
  8
0
100
AcDbCircle
 10
0.4416330061957146
 20
0.5940623437978644
 30
0.0
 40
0.004
  0
CIRCLE
  5
18F6
330
1F
100
AcDbEntity
  8
0
100
AcDbCircle
 10
0.4516329787211211
 20
0.576741819602708
 30
0.0
 40
0.004
  0
CIRCLE
  5
18F7
330
1F
100
AcDbEntity
  8
0
100
AcDbCircle
 10
0.4716330061957157
 20
0.5767418357221658
 30
0.0
 40
0.004
  0
CIRCLE
  5
18F8
330
1F
100
AcDbEntity
  8
0
100
AcDbCircle
 10
0.4916330061956975
 20
0.5767418357221658
 30
0.0
 40
0.004
  0
CIRCLE
  5
18F9
330
1F
100
AcDbEntity
  8
0
100
AcDbCircle
 10
0.5116330336702922
 20
0.5767418518415952
 30
0.0
 40
0.004
  0
CIRCLE
  5
18FA
330
1F
100
AcDbEntity
  8
0
100
AcDbCircle
 10
0.4616330061957248
 20
0.5940623437978644
 30
0.0
 40
0.004
  0
CIRCLE
  5
18FB
330
1F
100
AcDbEntity
  8
0
100
AcDbCircle
 10
0.481633033670291
 20
0.5940623599172938
 30
0.0
 40
0.004
  0
CIRCLE
  5
18FC
330
1F
100
AcDbEntity
  8
0
100
AcDbCircle
 10
0.5016330061957169
 20
0.5940623437978644
 30
0.0
 40
0.004
  0
CIRCLE
  5
18FD
330
1F
100
AcDbEntity
  8
0
100
AcDbCircle
 10
0.5216330336703115
 20
0.5940623599172938
 30
0.0
 40
0.004
  0
CIRCLE
  5
18FE
330
1F
100
AcDbEntity
  8
0
100
AcDbCircle
 10
0.5316329787211052
 20
0.576741819602708
 30
0.0
 40
0.004
  0
CIRCLE
  5
18FF
330
1F
100
AcDbEntity
  8
0
100
AcDbCircle
 10
0.5416330061957089
 20
0.5940623437978644
 30
0.0
 40
0.004
  0
CIRCLE
  5
1900
330
1F
100
AcDbEntity
  8
0
100
AcDbCircle
 10
0.5516329787211154
 20
0.576741819602708
 30
0.0
 40
0.004
  0
CIRCLE
  5
1901
330
1F
100
AcDbEntity
  8
0
100
AcDbCircle
 10
0.57163300619571
 20
0.5767418357221658
 30
0.0
 40
0.004
  0
CIRCLE
  5
1902
330
1F
100
AcDbEntity
  8
0
100
AcDbCircle
 10
0.5916330061957203
 20
0.5767418357221658
 30
0.0
 40
0.004
  0
CIRCLE
  5
1903
330
1F
100
AcDbEntity
  8
0
100
AcDbCircle
 10
0.6116330336703149
 20
0.5767418518415952
 30
0.0
 40
0.004
  0
CIRCLE
  5
1904
330
1F
100
AcDbEntity
  8
0
100
AcDbCircle
 10
0.5616330061957191
 20
0.5940623437978644
 30
0.0
 40
0.004
  0
CIRCLE
  5
1905
330
1F
100
AcDbEntity
  8
0
100
AcDbCircle
 10
0.5816330336703138
 20
0.5940623599172938
 30
0.0
 40
0.004
  0
CIRCLE
  5
1906
330
1F
100
AcDbEntity
  8
0
100
AcDbCircle
 10
0.6016330061957112
 20
0.5940623437978644
 30
0.0
 40
0.004
  0
CIRCLE
  5
1907
330
1F
100
AcDbEntity
  8
0
100
AcDbCircle
 10
0.6216330336703058
 20
0.5940623599172938
 30
0.0
 40
0.004
  0
CIRCLE
  5
1908
330
1F
100
AcDbEntity
  8
0
100
AcDbCircle
 10
0.6316329787210995
 20
0.576741819602708
 30
0.0
 40
0.004
  0
CIRCLE
  5
1909
330
1F
100
AcDbEntity
  8
0
100
AcDbCircle
 10
0.6516329237719121
 20
0.5767417873638494
 30
0.0
 40
0.004
  0
CIRCLE
  5
190A
330
1F
100
AcDbEntity
  8
0
100
AcDbCircle
 10
0.3516329787211267
 20
0.6113828357541053
 30
0.0
 40
0.004
  0
CIRCLE
  5
190B
330
1F
100
AcDbEntity
  8
0
100
AcDbCircle
 10
0.3916330061957032
 20
0.6113828518735346
 30
0.0
 40
0.004
  0
CIRCLE
  5
190C
330
1F
100
AcDbEntity
  8
0
100
AcDbCircle
 10
0.4116330336702978
 20
0.611382867992964
 30
0.0
 40
0.004
  0
CIRCLE
  5
190D
330
1F
100
AcDbEntity
  8
0
100
AcDbCircle
 10
0.361633006195702
 20
0.6287033599492048
 30
0.0
 40
0.004
  0
CIRCLE
  5
190E
330
1F
100
AcDbEntity
  8
0
100
AcDbCircle
 10
0.3816330336702966
 20
0.6287033760686626
 30
0.0
 40
0.004
  0
CIRCLE
  5
190F
330
1F
100
AcDbEntity
  8
0
100
AcDbCircle
 10
0.4016330061957225
 20
0.6287033599492048
 30
0.0
 40
0.004
  0
CIRCLE
  5
1910
330
1F
100
AcDbEntity
  8
0
100
AcDbCircle
 10
0.4216330336702887
 20
0.6287033760686626
 30
0.0
 40
0.004
  0
CIRCLE
  5
1911
330
1F
100
AcDbEntity
  8
0
100
AcDbCircle
 10
0.4316329787211109
 20
0.6113828357541053
 30
0.0
 40
0.004
  0
CIRCLE
  5
1912
330
1F
100
AcDbEntity
  8
0
100
AcDbCircle
 10
0.4416330061957146
 20
0.6287033599492048
 30
0.0
 40
0.004
  0
CIRCLE
  5
1913
330
1F
100
AcDbEntity
  8
0
100
AcDbCircle
 10
0.4516329787211211
 20
0.6113828357541053
 30
0.0
 40
0.004
  0
CIRCLE
  5
1914
330
1F
100
AcDbEntity
  8
0
100
AcDbCircle
 10
0.4716330061957157
 20
0.6113828518735346
 30
0.0
 40
0.004
  0
CIRCLE
  5
1915
330
1F
100
AcDbEntity
  8
0
100
AcDbCircle
 10
0.4916330061956975
 20
0.6113828518735346
 30
0.0
 40
0.004
  0
CIRCLE
  5
1916
330
1F
100
AcDbEntity
  8
0
100
AcDbCircle
 10
0.5116330336702922
 20
0.611382867992964
 30
0.0
 40
0.004
  0
CIRCLE
  5
1917
330
1F
100
AcDbEntity
  8
0
100
AcDbCircle
 10
0.4616330061957248
 20
0.6287033599492048
 30
0.0
 40
0.004
  0
CIRCLE
  5
1918
330
1F
100
AcDbEntity
  8
0
100
AcDbCircle
 10
0.481633033670291
 20
0.6287033760686626
 30
0.0
 40
0.004
  0
CIRCLE
  5
1919
330
1F
100
AcDbEntity
  8
0
100
AcDbCircle
 10
0.5016330061957169
 20
0.6287033599492048
 30
0.0
 40
0.004
  0
CIRCLE
  5
191A
330
1F
100
AcDbEntity
  8
0
100
AcDbCircle
 10
0.5216330336703115
 20
0.6287033760686626
 30
0.0
 40
0.004
  0
CIRCLE
  5
191B
330
1F
100
AcDbEntity
  8
0
100
AcDbCircle
 10
0.5316329787211052
 20
0.6113828357541053
 30
0.0
 40
0.004
  0
CIRCLE
  5
191C
330
1F
100
AcDbEntity
  8
0
100
AcDbCircle
 10
0.5416330061957089
 20
0.6287033599492048
 30
0.0
 40
0.004
  0
CIRCLE
  5
191D
330
1F
100
AcDbEntity
  8
0
100
AcDbCircle
 10
0.5516329787211154
 20
0.6113828357541053
 30
0.0
 40
0.004
  0
CIRCLE
  5
191E
330
1F
100
AcDbEntity
  8
0
100
AcDbCircle
 10
0.57163300619571
 20
0.6113828518735346
 30
0.0
 40
0.004
  0
CIRCLE
  5
191F
330
1F
100
AcDbEntity
  8
0
100
AcDbCircle
 10
0.5916330061957203
 20
0.6113828518735346
 30
0.0
 40
0.004
  0
CIRCLE
  5
1920
330
1F
100
AcDbEntity
  8
0
100
AcDbCircle
 10
0.6116330336703149
 20
0.611382867992964
 30
0.0
 40
0.004
  0
CIRCLE
  5
1921
330
1F
100
AcDbEntity
  8
0
100
AcDbCircle
 10
0.5616330061957191
 20
0.6287033599492048
 30
0.0
 40
0.004
  0
CIRCLE
  5
1922
330
1F
100
AcDbEntity
  8
0
100
AcDbCircle
 10
0.5816330336703138
 20
0.6287033760686626
 30
0.0
 40
0.004
  0
CIRCLE
  5
1923
330
1F
100
AcDbEntity
  8
0
100
AcDbCircle
 10
0.6016330061957112
 20
0.6287033599492048
 30
0.0
 40
0.004
  0
CIRCLE
  5
1924
330
1F
100
AcDbEntity
  8
0
100
AcDbCircle
 10
0.6216330336703058
 20
0.6287033760686626
 30
0.0
 40
0.004
  0
CIRCLE
  5
1925
330
1F
100
AcDbEntity
  8
0
100
AcDbCircle
 10
0.6316329787210995
 20
0.6113828357541053
 30
0.0
 40
0.004
  0
CIRCLE
  5
1926
330
1F
100
AcDbEntity
  8
0
100
AcDbCircle
 10
0.6516329237719121
 20
0.6113828035152466
 30
0.0
 40
0.004
  0
CIRCLE
  5
1927
330
1F
100
AcDbEntity
  8
0
100
AcDbCircle
 10
0.3516329787211267
 20
0.6460238519054741
 30
0.0
 40
0.004
  0
CIRCLE
  5
1928
330
1F
100
AcDbEntity
  8
0
100
AcDbCircle
 10
0.3916330061957032
 20
0.6460238680249319
 30
0.0
 40
0.004
  0
CIRCLE
  5
1929
330
1F
100
AcDbEntity
  8
0
100
AcDbCircle
 10
0.4116330336702978
 20
0.6460238841443612
 30
0.0
 40
0.004
  0
CIRCLE
  5
192A
330
1F
100
AcDbEntity
  8
0
100
AcDbCircle
 10
0.361633006195702
 20
0.6633443761006021
 30
0.0
 40
0.004
  0
CIRCLE
  5
192B
330
1F
100
AcDbEntity
  8
0
100
AcDbCircle
 10
0.3816330336702966
 20
0.6633443922200314
 30
0.0
 40
0.004
  0
CIRCLE
  5
192C
330
1F
100
AcDbEntity
  8
0
100
AcDbCircle
 10
0.4016330061957225
 20
0.6633443761006021
 30
0.0
 40
0.004
  0
CIRCLE
  5
192D
330
1F
100
AcDbEntity
  8
0
100
AcDbCircle
 10
0.4216330336702887
 20
0.6633443922200314
 30
0.0
 40
0.004
  0
CIRCLE
  5
192E
330
1F
100
AcDbEntity
  8
0
100
AcDbCircle
 10
0.4316329787211109
 20
0.6460238519054741
 30
0.0
 40
0.004
  0
CIRCLE
  5
192F
330
1F
100
AcDbEntity
  8
0
100
AcDbCircle
 10
0.4416330061957146
 20
0.6633443761006021
 30
0.0
 40
0.004
  0
CIRCLE
  5
1930
330
1F
100
AcDbEntity
  8
0
100
AcDbCircle
 10
0.4516329787211211
 20
0.6460238519054741
 30
0.0
 40
0.004
  0
CIRCLE
  5
1931
330
1F
100
AcDbEntity
  8
0
100
AcDbCircle
 10
0.4716330061957157
 20
0.6460238680249319
 30
0.0
 40
0.004
  0
CIRCLE
  5
1932
330
1F
100
AcDbEntity
  8
0
100
AcDbCircle
 10
0.4916330061956975
 20
0.6460238680249319
 30
0.0
 40
0.004
  0
CIRCLE
  5
1933
330
1F
100
AcDbEntity
  8
0
100
AcDbCircle
 10
0.5116330336702922
 20
0.6460238841443612
 30
0.0
 40
0.004
  0
CIRCLE
  5
1934
330
1F
100
AcDbEntity
  8
0
100
AcDbCircle
 10
0.4616330061957248
 20
0.6633443761006021
 30
0.0
 40
0.004
  0
CIRCLE
  5
1935
330
1F
100
AcDbEntity
  8
0
100
AcDbCircle
 10
0.481633033670291
 20
0.6633443922200314
 30
0.0
 40
0.004
  0
CIRCLE
  5
1936
330
1F
100
AcDbEntity
  8
0
100
AcDbCircle
 10
0.5016330061957169
 20
0.6633443761006021
 30
0.0
 40
0.004
  0
CIRCLE
  5
1937
330
1F
100
AcDbEntity
  8
0
100
AcDbCircle
 10
0.5216330336703115
 20
0.6633443922200314
 30
0.0
 40
0.004
  0
CIRCLE
  5
1938
330
1F
100
AcDbEntity
  8
0
100
AcDbCircle
 10
0.5316329787211052
 20
0.6460238519054741
 30
0.0
 40
0.004
  0
CIRCLE
  5
1939
330
1F
100
AcDbEntity
  8
0
100
AcDbCircle
 10
0.5416330061957089
 20
0.6633443761006021
 30
0.0
 40
0.004
  0
CIRCLE
  5
193A
330
1F
100
AcDbEntity
  8
0
100
AcDbCircle
 10
0.5516329787211154
 20
0.6460238519054741
 30
0.0
 40
0.004
  0
CIRCLE
  5
193B
330
1F
100
AcDbEntity
  8
0
100
AcDbCircle
 10
0.57163300619571
 20
0.6460238680249319
 30
0.0
 40
0.004
  0
CIRCLE
  5
193C
330
1F
100
AcDbEntity
  8
0
100
AcDbCircle
 10
0.5916330061957203
 20
0.6460238680249319
 30
0.0
 40
0.004
  0
CIRCLE
  5
193D
330
1F
100
AcDbEntity
  8
0
100
AcDbCircle
 10
0.6116330336703149
 20
0.6460238841443612
 30
0.0
 40
0.004
  0
CIRCLE
  5
193E
330
1F
100
AcDbEntity
  8
0
100
AcDbCircle
 10
0.5616330061957191
 20
0.6633443761006021
 30
0.0
 40
0.004
  0
CIRCLE
  5
193F
330
1F
100
AcDbEntity
  8
0
100
AcDbCircle
 10
0.5816330336703138
 20
0.6633443922200314
 30
0.0
 40
0.004
  0
CIRCLE
  5
1940
330
1F
100
AcDbEntity
  8
0
100
AcDbCircle
 10
0.6016330061957112
 20
0.6633443761006021
 30
0.0
 40
0.004
  0
CIRCLE
  5
1941
330
1F
100
AcDbEntity
  8
0
100
AcDbCircle
 10
0.6216330336703058
 20
0.6633443922200314
 30
0.0
 40
0.004
  0
CIRCLE
  5
1942
330
1F
100
AcDbEntity
  8
0
100
AcDbCircle
 10
0.6316329787210995
 20
0.6460238519054741
 30
0.0
 40
0.004
  0
CIRCLE
  5
1943
330
1F
100
AcDbEntity
  8
0
100
AcDbCircle
 10
0.6516329237719121
 20
0.6460238196666154
 30
0.0
 40
0.004
  0
CIRCLE
  5
1944
330
1F
100
AcDbEntity
  8
0
100
AcDbCircle
 10
0.3516329787211267
 20
0.680664868056843
 30
0.0
 40
0.004
  0
CIRCLE
  5
1945
330
1F
100
AcDbEntity
  8
0
100
AcDbCircle
 10
0.3916330061957032
 20
0.6806648841762723
 30
0.0
 40
0.004
  0
CIRCLE
  5
1946
330
1F
100
AcDbEntity
  8
0
100
AcDbCircle
 10
0.4116330336702978
 20
0.6806649002957301
 30
0.0
 40
0.004
  0
CIRCLE
  5
1947
330
1F
100
AcDbEntity
  8
0
100
AcDbCircle
 10
0.361633006195702
 20
0.6979853922519994
 30
0.0
 40
0.004
  0
CIRCLE
  5
1948
330
1F
100
AcDbEntity
  8
0
100
AcDbCircle
 10
0.3816330336702966
 20
0.6979854083714287
 30
0.0
 40
0.004
  0
CIRCLE
  5
1949
330
1F
100
AcDbEntity
  8
0
100
AcDbCircle
 10
0.4016330061957225
 20
0.6979853922519994
 30
0.0
 40
0.004
  0
CIRCLE
  5
194A
330
1F
100
AcDbEntity
  8
0
100
AcDbCircle
 10
0.4216330336702887
 20
0.6979854083714287
 30
0.0
 40
0.004
  0
CIRCLE
  5
194B
330
1F
100
AcDbEntity
  8
0
100
AcDbCircle
 10
0.4316329787211109
 20
0.680664868056843
 30
0.0
 40
0.004
  0
CIRCLE
  5
194C
330
1F
100
AcDbEntity
  8
0
100
AcDbCircle
 10
0.4416330061957146
 20
0.6979853922519994
 30
0.0
 40
0.004
  0
CIRCLE
  5
194D
330
1F
100
AcDbEntity
  8
0
100
AcDbCircle
 10
0.4516329787211211
 20
0.680664868056843
 30
0.0
 40
0.004
  0
CIRCLE
  5
194E
330
1F
100
AcDbEntity
  8
0
100
AcDbCircle
 10
0.4716330061957157
 20
0.6806648841762723
 30
0.0
 40
0.004
  0
CIRCLE
  5
194F
330
1F
100
AcDbEntity
  8
0
100
AcDbCircle
 10
0.4916330061956975
 20
0.6806648841762723
 30
0.0
 40
0.004
  0
CIRCLE
  5
1950
330
1F
100
AcDbEntity
  8
0
100
AcDbCircle
 10
0.5116330336702922
 20
0.6806649002957301
 30
0.0
 40
0.004
  0
CIRCLE
  5
1951
330
1F
100
AcDbEntity
  8
0
100
AcDbCircle
 10
0.4616330061957248
 20
0.6979853922519994
 30
0.0
 40
0.004
  0
CIRCLE
  5
1952
330
1F
100
AcDbEntity
  8
0
100
AcDbCircle
 10
0.481633033670291
 20
0.6979854083714287
 30
0.0
 40
0.004
  0
CIRCLE
  5
1953
330
1F
100
AcDbEntity
  8
0
100
AcDbCircle
 10
0.5016330061957169
 20
0.6979853922519994
 30
0.0
 40
0.004
  0
CIRCLE
  5
1954
330
1F
100
AcDbEntity
  8
0
100
AcDbCircle
 10
0.5216330336703115
 20
0.6979854083714287
 30
0.0
 40
0.004
  0
CIRCLE
  5
1955
330
1F
100
AcDbEntity
  8
0
100
AcDbCircle
 10
0.5316329787211052
 20
0.680664868056843
 30
0.0
 40
0.004
  0
CIRCLE
  5
1956
330
1F
100
AcDbEntity
  8
0
100
AcDbCircle
 10
0.5416330061957089
 20
0.6979853922519994
 30
0.0
 40
0.004
  0
CIRCLE
  5
1957
330
1F
100
AcDbEntity
  8
0
100
AcDbCircle
 10
0.5516329787211154
 20
0.680664868056843
 30
0.0
 40
0.004
  0
CIRCLE
  5
1958
330
1F
100
AcDbEntity
  8
0
100
AcDbCircle
 10
0.57163300619571
 20
0.6806648841762723
 30
0.0
 40
0.004
  0
CIRCLE
  5
1959
330
1F
100
AcDbEntity
  8
0
100
AcDbCircle
 10
0.5916330061957203
 20
0.6806648841762723
 30
0.0
 40
0.004
  0
CIRCLE
  5
195A
330
1F
100
AcDbEntity
  8
0
100
AcDbCircle
 10
0.6116330336703149
 20
0.6806649002957301
 30
0.0
 40
0.004
  0
CIRCLE
  5
195B
330
1F
100
AcDbEntity
  8
0
100
AcDbCircle
 10
0.5616330061957191
 20
0.6979853922519994
 30
0.0
 40
0.004
  0
CIRCLE
  5
195C
330
1F
100
AcDbEntity
  8
0
100
AcDbCircle
 10
0.5816330336703138
 20
0.6979854083714287
 30
0.0
 40
0.004
  0
CIRCLE
  5
195D
330
1F
100
AcDbEntity
  8
0
100
AcDbCircle
 10
0.6016330061957112
 20
0.6979853922519994
 30
0.0
 40
0.004
  0
CIRCLE
  5
195E
330
1F
100
AcDbEntity
  8
0
100
AcDbCircle
 10
0.6216330336703058
 20
0.6979854083714287
 30
0.0
 40
0.004
  0
CIRCLE
  5
195F
330
1F
100
AcDbEntity
  8
0
100
AcDbCircle
 10
0.6316329787210995
 20
0.680664868056843
 30
0.0
 40
0.004
  0
CIRCLE
  5
1960
330
1F
100
AcDbEntity
  8
0
100
AcDbCircle
 10
0.6516329237719125
 20
0.6806648358179843
 30
0.0
 40
0.004
  0
CIRCLE
  5
1961
330
1F
100
AcDbEntity
  8
0
100
AcDbCircle
 10
0.3516329787211267
 20
0.7153058842082402
 30
0.0
 40
0.004
  0
CIRCLE
  5
1962
330
1F
100
AcDbEntity
  8
0
100
AcDbCircle
 10
0.3916330061957032
 20
0.7153059003276696
 30
0.0
 40
0.004
  0
CIRCLE
  5
1963
330
1F
100
AcDbEntity
  8
0
100
AcDbCircle
 10
0.4116330336702978
 20
0.7153059164470989
 30
0.0
 40
0.004
  0
CIRCLE
  5
1964
330
1F
100
AcDbEntity
  8
0
100
AcDbCircle
 10
0.361633006195702
 20
0.7326264084033398
 30
0.0
 40
0.004
  0
CIRCLE
  5
1965
330
1F
100
AcDbEntity
  8
0
100
AcDbCircle
 10
0.3816330336702966
 20
0.7326264245227975
 30
0.0
 40
0.004
  0
CIRCLE
  5
1966
330
1F
100
AcDbEntity
  8
0
100
AcDbCircle
 10
0.4016330061957225
 20
0.7326264084033398
 30
0.0
 40
0.004
  0
CIRCLE
  5
1967
330
1F
100
AcDbEntity
  8
0
100
AcDbCircle
 10
0.4216330336702887
 20
0.7326264245227975
 30
0.0
 40
0.004
  0
CIRCLE
  5
1968
330
1F
100
AcDbEntity
  8
0
100
AcDbCircle
 10
0.4316329787211109
 20
0.7153058842082402
 30
0.0
 40
0.004
  0
CIRCLE
  5
1969
330
1F
100
AcDbEntity
  8
0
100
AcDbCircle
 10
0.4416330061957146
 20
0.7326264084033398
 30
0.0
 40
0.004
  0
CIRCLE
  5
196A
330
1F
100
AcDbEntity
  8
0
100
AcDbCircle
 10
0.4516329787211211
 20
0.7153058842082402
 30
0.0
 40
0.004
  0
CIRCLE
  5
196B
330
1F
100
AcDbEntity
  8
0
100
AcDbCircle
 10
0.4716330061957157
 20
0.7153059003276696
 30
0.0
 40
0.004
  0
CIRCLE
  5
196C
330
1F
100
AcDbEntity
  8
0
100
AcDbCircle
 10
0.4916330061956975
 20
0.7153059003276696
 30
0.0
 40
0.004
  0
CIRCLE
  5
196D
330
1F
100
AcDbEntity
  8
0
100
AcDbCircle
 10
0.5116330336702922
 20
0.7153059164470989
 30
0.0
 40
0.004
  0
CIRCLE
  5
196E
330
1F
100
AcDbEntity
  8
0
100
AcDbCircle
 10
0.4616330061957248
 20
0.7326264084033398
 30
0.0
 40
0.004
  0
CIRCLE
  5
196F
330
1F
100
AcDbEntity
  8
0
100
AcDbCircle
 10
0.481633033670291
 20
0.7326264245227975
 30
0.0
 40
0.004
  0
CIRCLE
  5
1970
330
1F
100
AcDbEntity
  8
0
100
AcDbCircle
 10
0.5016330061957169
 20
0.7326264084033398
 30
0.0
 40
0.004
  0
CIRCLE
  5
1971
330
1F
100
AcDbEntity
  8
0
100
AcDbCircle
 10
0.5216330336703115
 20
0.7326264245227975
 30
0.0
 40
0.004
  0
CIRCLE
  5
1972
330
1F
100
AcDbEntity
  8
0
100
AcDbCircle
 10
0.5316329787211052
 20
0.7153058842082402
 30
0.0
 40
0.004
  0
CIRCLE
  5
1973
330
1F
100
AcDbEntity
  8
0
100
AcDbCircle
 10
0.5416330061957089
 20
0.7326264084033398
 30
0.0
 40
0.004
  0
CIRCLE
  5
1974
330
1F
100
AcDbEntity
  8
0
100
AcDbCircle
 10
0.5516329787211154
 20
0.7153058842082402
 30
0.0
 40
0.004
  0
CIRCLE
  5
1975
330
1F
100
AcDbEntity
  8
0
100
AcDbCircle
 10
0.57163300619571
 20
0.7153059003276696
 30
0.0
 40
0.004
  0
CIRCLE
  5
1976
330
1F
100
AcDbEntity
  8
0
100
AcDbCircle
 10
0.5916330061957203
 20
0.7153059003276696
 30
0.0
 40
0.004
  0
CIRCLE
  5
1977
330
1F
100
AcDbEntity
  8
0
100
AcDbCircle
 10
0.6116330336703149
 20
0.7153059164470989
 30
0.0
 40
0.004
  0
CIRCLE
  5
1978
330
1F
100
AcDbEntity
  8
0
100
AcDbCircle
 10
0.5616330061957191
 20
0.7326264084033398
 30
0.0
 40
0.004
  0
CIRCLE
  5
1979
330
1F
100
AcDbEntity
  8
0
100
AcDbCircle
 10
0.5816330336703138
 20
0.7326264245227975
 30
0.0
 40
0.004
  0
CIRCLE
  5
197A
330
1F
100
AcDbEntity
  8
0
100
AcDbCircle
 10
0.6016330061957112
 20
0.7326264084033398
 30
0.0
 40
0.004
  0
CIRCLE
  5
197B
330
1F
100
AcDbEntity
  8
0
100
AcDbCircle
 10
0.6216330336703058
 20
0.7326264245227975
 30
0.0
 40
0.004
  0
CIRCLE
  5
197C
330
1F
100
AcDbEntity
  8
0
100
AcDbCircle
 10
0.6316329787210995
 20
0.7153058842082402
 30
0.0
 40
0.004
  0
CIRCLE
  5
197D
330
1F
100
AcDbEntity
  8
0
100
AcDbCircle
 10
0.6416330061957032
 20
0.7326264084033398
 30
0.0
 40
0.004
  0
CIRCLE
  5
197E
330
1F
100
AcDbEntity
  8
0
100
AcDbCircle
 10
0.6516329237719125
 20
0.7153058519693815
 30
0.0
 40
0.004
  0
CIRCLE
  5
197F
330
1F
100
AcDbEntity
  8
0
100
AcDbCircle
 10
0.3516329787211267
 20
0.749946900359609
 30
0.0
 40
0.004
  0
CIRCLE
  5
1980
330
1F
100
AcDbEntity
  8
0
100
AcDbCircle
 10
0.3716330061957214
 20
0.7499469164790668
 30
0.0
 40
0.004
  0
CIRCLE
  5
1981
330
1F
100
AcDbEntity
  8
0
100
AcDbCircle
 10
0.3916330061957032
 20
0.7499469164790668
 30
0.0
 40
0.004
  0
CIRCLE
  5
1982
330
1F
100
AcDbEntity
  8
0
100
AcDbCircle
 10
0.4116330336702978
 20
0.7499469325984962
 30
0.0
 40
0.004
  0
CIRCLE
  5
1983
330
1F
100
AcDbEntity
  8
0
100
AcDbCircle
 10
0.4316329787211109
 20
0.749946900359609
 30
0.0
 40
0.004
  0
CIRCLE
  5
1984
330
1F
100
AcDbEntity
  8
0
100
AcDbCircle
 10
0.4516329787211211
 20
0.749946900359609
 30
0.0
 40
0.004
  0
CIRCLE
  5
1985
330
1F
100
AcDbEntity
  8
0
100
AcDbCircle
 10
0.4716330061957157
 20
0.7499469164790668
 30
0.0
 40
0.004
  0
CIRCLE
  5
1986
330
1F
100
AcDbEntity
  8
0
100
AcDbCircle
 10
0.4916330061956975
 20
0.7499469164790668
 30
0.0
 40
0.004
  0
CIRCLE
  5
1987
330
1F
100
AcDbEntity
  8
0
100
AcDbCircle
 10
0.5116330336702922
 20
0.7499469325984962
 30
0.0
 40
0.004
  0
CIRCLE
  5
1988
330
1F
100
AcDbEntity
  8
0
100
AcDbCircle
 10
0.5316329787211052
 20
0.749946900359609
 30
0.0
 40
0.004
  0
CIRCLE
  5
1989
330
1F
100
AcDbEntity
  8
0
100
AcDbCircle
 10
0.5516329787211154
 20
0.749946900359609
 30
0.0
 40
0.004
  0
CIRCLE
  5
198A
330
1F
100
AcDbEntity
  8
0
100
AcDbCircle
 10
0.57163300619571
 20
0.7499469164790668
 30
0.0
 40
0.004
  0
CIRCLE
  5
198B
330
1F
100
AcDbEntity
  8
0
100
AcDbCircle
 10
0.5916330061957203
 20
0.7499469164790668
 30
0.0
 40
0.004
  0
CIRCLE
  5
198C
330
1F
100
AcDbEntity
  8
0
100
AcDbCircle
 10
0.6116330336703149
 20
0.7499469325984962
 30
0.0
 40
0.004
  0
CIRCLE
  5
198D
330
1F
100
AcDbEntity
  8
0
100
AcDbCircle
 10
0.6316329787210995
 20
0.749946900359609
 30
0.0
 40
0.004
  0
CIRCLE
  5
198E
330
1F
100
AcDbEntity
  8
0
100
AcDbCircle
 10
0.6516329237719125
 20
0.7499468681207503
 30
0.0
 40
0.004
  0
CIRCLE
  5
198F
330
1F
100
AcDbEntity
  8
0
100
AcDbCircle
 10
0.6416330611449
 20
0.4901393275825598
 30
0.0
 40
0.004
  0
CIRCLE
  5
1990
330
1F
100
AcDbEntity
  8
0
100
AcDbCircle
 10
0.6416330061957028
 20
0.5247803114950699
 30
0.0
 40
0.004
  0
CIRCLE
  5
1991
330
1F
100
AcDbEntity
  8
0
100
AcDbCircle
 10
0.6416330061957028
 20
0.5594213276464388
 30
0.0
 40
0.004
  0
CIRCLE
  5
1992
330
1F
100
AcDbEntity
  8
0
100
AcDbCircle
 10
0.6416330061957028
 20
0.594062343797836
 30
0.0
 40
0.004
  0
CIRCLE
  5
1993
330
1F
100
AcDbEntity
  8
0
100
AcDbCircle
 10
0.6416330061957028
 20
0.6287033599492048
 30
0.0
 40
0.004
  0
CIRCLE
  5
1994
330
1F
100
AcDbEntity
  8
0
100
AcDbCircle
 10
0.6416330061957032
 20
0.6633443761005737
 30
0.0
 40
0.004
  0
CIRCLE
  5
1995
330
1F
100
AcDbEntity
  8
0
100
AcDbCircle
 10
0.6416330061957032
 20
0.6979853922519709
 30
0.0
 40
0.004
  0
CIRCLE
  5
1996
330
1F
100
AcDbEntity
  8
0
100
AcDbCircle
 10
0.3716330061957214
 20
0.4728187872680309
 30
0.0
 40
0.004
  0
CIRCLE
  5
1997
330
1F
100
AcDbEntity
  8
0
100
AcDbCircle
 10
0.3716330061957214
 20
0.5074598034194282
 30
0.0
 40
0.004
  0
CIRCLE
  5
1998
330
1F
100
AcDbEntity
  8
0
100
AcDbCircle
 10
0.3716330061957214
 20
0.5421008195708254
 30
0.0
 40
0.004
  0
CIRCLE
  5
1999
330
1F
100
AcDbEntity
  8
0
100
AcDbCircle
 10
0.3716330061957214
 20
0.5767418357221658
 30
0.0
 40
0.004
  0
CIRCLE
  5
199A
330
1F
100
AcDbEntity
  8
0
100
AcDbCircle
 10
0.3716330061957214
 20
0.6113828518735631
 30
0.0
 40
0.004
  0
CIRCLE
  5
199B
330
1F
100
AcDbEntity
  8
0
100
AcDbCircle
 10
0.3716330061957214
 20
0.6460238680249319
 30
0.0
 40
0.004
  0
CIRCLE
  5
199C
330
1F
100
AcDbEntity
  8
0
100
AcDbCircle
 10
0.3716330061957214
 20
0.6806648841763007
 30
0.0
 40
0.004
  0
CIRCLE
  5
199D
330
1F
100
AcDbEntity
  8
0
100
AcDbCircle
 10
0.3716330061957214
 20
0.715305900327698
 30
0.0
 40
0.004
  0
CIRCLE
  5
199E
330
1F
100
AcDbEntity
  8
0
100
AcDbCircle
 10
0.3516329787211267
 20
0.4381777549971759
 30
0.0
 40
0.004
  0
CIRCLE
  5
199F
330
1F
100
AcDbEntity
  8
0
100
AcDbCircle
 10
0.3916330061957032
 20
0.4381777711166336
 30
0.0
 40
0.004
  0
CIRCLE
  5
19A0
330
1F
100
AcDbEntity
  8
0
100
AcDbCircle
 10
0.4116330336702978
 20
0.438177787236063
 30
0.0
 40
0.004
  0
CIRCLE
  5
19A1
330
1F
100
AcDbEntity
  8
0
100
AcDbCircle
 10
0.361633006195702
 20
0.4554982791923323
 30
0.0
 40
0.004
  0
CIRCLE
  5
19A2
330
1F
100
AcDbEntity
  8
0
100
AcDbCircle
 10
0.3816330336702966
 20
0.4554982953117616
 30
0.0
 40
0.004
  0
CIRCLE
  5
19A3
330
1F
100
AcDbEntity
  8
0
100
AcDbCircle
 10
0.4016330061957225
 20
0.4554982791923323
 30
0.0
 40
0.004
  0
CIRCLE
  5
19A4
330
1F
100
AcDbEntity
  8
0
100
AcDbCircle
 10
0.4216330336702887
 20
0.4554982953117616
 30
0.0
 40
0.004
  0
CIRCLE
  5
19A5
330
1F
100
AcDbEntity
  8
0
100
AcDbCircle
 10
0.4316329787211109
 20
0.4381777549971759
 30
0.0
 40
0.004
  0
CIRCLE
  5
19A6
330
1F
100
AcDbEntity
  8
0
100
AcDbCircle
 10
0.3716330061957214
 20
0.4381777711166336
 30
0.0
 40
0.004
  0
CIRCLE
  5
19A9
330
1F
100
AcDbEntity
  8
0
100
AcDbCircle
 10
0.5916330336703047
 20
0.4381777872361198
 30
0.0
 40
0.004
  0
CIRCLE
  5
19AA
330
1F
100
AcDbEntity
  8
0
100
AcDbCircle
 10
0.6116330611448993
 20
0.4381778033555492
 30
0.0
 40
0.004
  0
CIRCLE
  5
19AB
330
1F
100
AcDbEntity
  8
0
100
AcDbCircle
 10
0.6316330336702967
 20
0.4381777872361198
 30
0.0
 40
0.004
  0
CIRCLE
  5
19AC
330
1F
100
AcDbEntity
  8
0
100
AcDbCircle
 10
0.6516330611448909
 20
0.4381778033555492
 30
0.0
 40
0.004
  0
CIRCLE
  5
19AD
330
1F
100
AcDbEntity
  8
0
100
AcDbCircle
 10
0.5816330061957009
 20
0.4554982791923607
 30
0.0
 40
0.004
  0
CIRCLE
  5
19AE
330
1F
100
AcDbEntity
  8
0
100
AcDbCircle
 10
0.6016330336702956
 20
0.45549829531179
 30
0.0
 40
0.004
  0
CIRCLE
  5
19AF
330
1F
100
AcDbEntity
  8
0
100
AcDbCircle
 10
0.6216330336703058
 20
0.45549829531179
 30
0.0
 40
0.004
  0
CIRCLE
  5
19B0
330
1F
100
AcDbEntity
  8
0
100
AcDbCircle
 10
0.6416330611449
 20
0.4554983114312194
 30
0.0
 40
0.004
  0
CIRCLE
  5
19B1
330
1F
100
AcDbEntity
  8
0
100
AcDbCircle
 10
0.6316330336702967
 20
0.4728188033874602
 30
0.0
 40
0.004
  0
CIRCLE
  5
19BC
330
1F
100
AcDbEntity
  8
0
100
AcDbCircle
 10
0.4345278147547936
 20
0.5309256563622697
 30
0.0
 40
0.0152919108914782
  0
LWPOLYLINE
  5
19C1
330
1F
100
AcDbEntity
  8
0
100
AcDbPolyline
 90
        8
 70
     1
 43
0.0
 10
0.4411288132111997
 20
0.4660687710807196
 10
0.3861288132111928
 20
0.4660687710807267
 10
0.3861288132112497
 20
0.714818771080742
 10
0.6261288132112588
 20
0.714818771080742
 10
0.626128813211202
 20
0.4660687710807267
 10
0.5711288132111952
 20
0.4660687710807267
 10
0.5711288132111952
 20
0.5348187710807423
 10
0.4411288132111997
 20
0.5348187710807423
  0
DIMENSION
  5
19D7
330
1F
100
AcDbEntity
  8
0
100
AcDbDimension
280
     0
  2
*D17
 10
0.5311329787211454
 20
0.4039973747783936
 30
0.0
 11
0.6773605202235942
 21
0.4039973747783936
 31
0.0
 70
   160
  1
50{\H1.0833x;Ω\PTransmission Line}
 71
     5
 42
0.0500000000000114
 73
     0
 74
     0
 75
     0
  3
Dan's Dim Style
100
AcDbAlignedDimension
 13
0.4811329787211341
 23
0.345786654358271
 33
0.0
 14
0.5311329787211454
 24
0.3432557530645583
 34
0.0
100
AcDbRotatedDimension
  0
DIMENSION
  5
1A1D
330
1F
100
AcDbEntity
  8
0
100
AcDbDimension
280
     0
  2
*D20
 10
0.4671135934171219
 20
0.5173061702299161
 30
0.0
 11
0.2336851019450173
 21
0.631822530387793
 31
0.0
 70
   163
  1
Orientation Marker
 71
     5
 42
0.0499999999999996
 73
     0
 74
     0
 75
     0
  3
Dan's Dim Style
100
AcDbDiametricDimension
 15
0.4278948677574748
 25
0.5483205468580751
 35
0.0
 40
0.0
1001
ACAD_DSTYLE_DIMRADIAL_EXTENSION
1070
   387
1070
     1
1070
   388
1040
0.0
1070
   390
1040
0.0
1001
ACAD
1000
DSTYLE
1002
{
1070
   288
1070
     1
1002
}
  0
DIMENSION
  5
1A43
330
1F
100
AcDbEntity
  8
0
100
AcDbDimension
280
     0
  2
*D23
 10
0.4633943966235138
 20
0.800415253359562
 30
0.0
 11
0.29849081606505
 21
0.8495535638308952
 31
0.0
 70
   163
  1
Copper/Ground
 71
     5
 42
0.0310000000000002
 73
     0
 74
     0
 75
     0
  3
Dan's Dim Style
100
AcDbDiametricDimension
 15
0.4362810931107278
 25
0.8154441845465612
 35
0.0
 40
0.0
1001
ACAD_DSTYLE_DIMRADIAL_EXTENSION
1070
   387
1070
     1
1070
   388
1040
0.0
1070
   390
1040
0.0
1001
ACAD
1000
DSTYLE
1002
{
1070
   288
1070
     1
1002
}
  0
LWPOLYLINE
  5
1A53
102
{ACAD_REACTORS
330
1AA3
330
1AC7
102
}
330
1F
100
AcDbEntity
  8
0
100
AcDbPolyline
 90
        4
 70
     1
 43
0.0
 10
0.4811329787211341
 20
0.4948187710807503
 10
0.5311329787211454
 20
0.4948187710807503
 10
0.5311329787211454
 20
0.4660687710807267
 10
0.4811329787211341
 20
0.4660687710807267
  0
HATCH
  5
1A55
330
1F
100
AcDbEntity
  8
0
100
AcDbHatch
 10
0.0
 20
0.0
 30
0.0
210
0.0
220
0.0
230
1.0
  2
ANSI31
 70
     0
 71
     0
 91
        2
 92
       17
 93
        4
 72
     1
 10
0.4811329787211341
 20
0.4948187710807503
 11
0.5311329787211454
 21
0.4948187710807503
 72
     1
 10
0.5311329787211454
 20
0.4948187710807503
 11
0.5311329787211454
 21
0.4660687710807267
 72
     1
 10
0.5311329787211454
 20
0.4660687710807267
 11
0.4811329787211341
 21
0.4660687710807267
 72
     1
 10
0.4811329787211341
 20
0.4660687710807267
 11
0.4811329787211341
 21
0.4948187710807503
 97
        0
 92
        1
 93
        8
 72
     1
 10
0.4411288132111997
 20
0.4660687710807196
 11
0.3861288132111928
 21
0.4660687710807267
 72
     1
 10
0.3861288132111928
 20
0.4660687710807267
 11
0.3861288132112497
 21
0.714818771080742
 72
     1
 10
0.3861288132112497
 20
0.714818771080742
 11
0.6261288132112588
 21
0.714818771080742
 72
     1
 10
0.6261288132112588
 20
0.714818771080742
 11
0.626128813211202
 21
0.4660687710807267
 72
     1
 10
0.626128813211202
 20
0.4660687710807267
 11
0.5711288132111952
 21
0.4660687710807267
 72
     1
 10
0.5711288132111952
 20
0.4660687710807267
 11
0.5711288132111952
 21
0.5348187710807423
 72
     1
 10
0.5711288132111952
 20
0.5348187710807423
 11
0.4411288132111997
 21
0.5348187710807423
 72
     1
 10
0.4411288132111997
 20
0.5348187710807423
 11
0.4411288132111997
 21
0.4660687710807196
 97
        0
 75
     1
 76
     1
 52
0.0
 41
0.075
 77
     0
 78
     1
 53
45.0
 43
-1.886431733376063
 44
-0.0183898153941639
 45
-0.0066291260736239
 46
0.0066291260736239
 79
     0
 98
        1
 10
-1.886431733376063
 20
-0.0183898153941639
1001
GradientColor1ACI
1070
     5
1001
GradientColor2ACI
1070
     2
1001
ACAD
1010
0.0
1020
0.0
1030
0.0
  0
DIMENSION
  5
1A66
330
1F
100
AcDbEntity
  8
0
100
AcDbDimension
280
     0
  2
*D26
 10
0.4781102295078968
 20
0.5959570500854782
 30
0.0
 11
0.7089874611304046
 21
0.8488763864183123
 31
0.0
 70
   163
  1
Hatched Area\PIndicates Footprint of\PPart
 71
     5
 42
0.1463838026928623
 73
     0
 74
     0
 75
     0
  3
Dan's Dim Style
100
AcDbDiametricDimension
 15
0.5464797344103216
 25
0.7253936310439544
 35
0.0
 40
0.0
1001
ACAD_DSTYLE_DIMRADIAL_EXTENSION
1070
   387
1070
     1
1070
   388
1040
0.0
1070
   390
1040
0.0
1001
ACAD
1000
DSTYLE
1002
{
1070
   288
1070
     1
1002
}
  0
LEADER
  5
1A86
330
1F
100
AcDbEntity
  8
0
100
AcDbLeader
  3
Dan's Dim Style
 73
     0
 40
0.0324092769440655
 41
0.1947094133697135
 76
     3
 10
0.6412198193491219
 20
0.5900837414515575
 30
0.0
 10
0.6928554834904724
 20
0.6243110750152146
 30
0.0
 10
0.7109882638936386
 20
0.6247696404487398
 30
0.0
340
1A87
  0
MTEXT
  5
1A87
102
{ACAD_REACTORS
330
1A86
102
}
330
1F
100
AcDbEntity
  8
0
100
AcDbMText
 10
0.7184882638936385
 20
0.6247696404487398
 30
0.0
 40
0.012
 41
0.2102267267052941
 46
0.0
 71
     4
 72
     1
  1
\pxqc;Multiple Plated Thru Holes\PTo Ground
 73
     1
 44
1.0
  0
DIMENSION
  5
1A88
102
{ACAD_XDICTIONARY
360
1A97
102
}
102
{ACAD_REACTORS
330
1AA3
102
}
330
1F
100
AcDbEntity
  8
0
100
AcDbDimension
280
     0
  2
*D28
 10
0.6786883438630776
 20
0.5348367410417565
 30
0.0
 11
0.6786904911648011
 21
0.5142169201500098
 31
0.0
 70
   161
 71
     5
 42
0.0400000002168854
 73
     0
 74
     0
 75
     0
  3
Dan's Dim Style
100
AcDbAlignedDimension
 13
0.5061329787211398
 23
0.4948187710807503
 33
0.0
 14
0.5061288132111974
 24
0.5348187710807423
 34
0.0
  0
DIMENSION
  5
1AAE
102
{ACAD_XDICTIONARY
360
1ABC
102
}
102
{ACAD_REACTORS
330
1AC7
102
}
330
1F
100
AcDbEntity
  8
0
100
AcDbDimension
280
     0
  2
*D29
 10
0.3359678666022989
 20
0.4660687710807269
 30
0.0
 11
0.2962414000265827
 21
0.4420687710807261
 31
0.0
 70
   160
  1
0.030
 71
     5
 42
0.0287500000000236
 73
     0
 74
     0
 75
     0
  3
Dan's Dim Style
100
AcDbAlignedDimension
 13
0.4811329787211341
 23
0.4948187710807503
 33
0.0
 14
0.4811329787211341
 24
0.4660687710807267
 34
0.0
 50
90.0
100
AcDbRotatedDimension
  0
LWPOLYLINE
  5
1B1B
102
{ACAD_REACTORS
330
1AA3
102
}
330
1F
100
AcDbEntity
  8
0
100
AcDbPolyline
 90
        4
 70
     0
 43
0.0
 10
0.4411288132111997
 20
0.3069425338150054
 10
0.4411288132111997
 20
0.5348187710807423
 10
0.5711288132111952
 20
0.5348187710807423
 10
0.5711288132111952
 20
0.3069425338150054
  0
SPLINE
  5
1B1C
330
1F
100
AcDbEntity
  8
0
100
AcDbSpline
210
0.0
220
0.0
230
1.0
 70
  1064
 71
     3
 72
    10
 73
     6
 74
     4
 42
0.000000001
 43
0.0000000001
 44
0.0000000001
 40
0.0
 40
0.0
 40
0.0
 40
0.0
 40
0.0204957141293058
 40
0.0597412735426199
 40
0.0816122102646179
 40
0.0816122102646179
 40
0.0816122102646179
 40
0.0816122102646179
 10
0.481132978721134
 20
0.3069425338150055
 30
0.0
 10
0.4846489969834972
 20
0.3155790153723527
 30
0.0
 10
0.4948975498012957
 20
0.3407527860401201
 30
0.0
 10
0.510048971155555
 20
0.2776906483670664
 30
0.0
 10
0.5255763904590887
 20
0.299703395384566
 30
0.0
 10
0.5311329787211454
 20
0.3075808004640583
 30
0.0
 11
0.481132978721134
 21
0.3069425338150055
 31
0.0
 11
0.491780195733643
 21
0.3244557022193453
 31
0.0
 11
0.5149986453649884
 21
0.2928152608447272
 31
0.0
 11
0.5311329787211454
 21
0.3075808004640583
 31
0.0
  0
LWPOLYLINE
  5
1B1D
330
1F
100
AcDbEntity
  8
0
100
AcDbPolyline
 90
        4
 70
     0
 43
0.0
 10
0.4811329787211341
 20
0.3069425338154241
 10
0.4811329787211341
 20
0.4948187710807503
 10
0.5311329787211454
 20
0.4948187710807503
 10
0.5311329787211454
 20
0.3075808004640583
  0
SPLINE
  5
1B52
330
1F
100
AcDbEntity
  8
0
100
AcDbSpline
210
0.0
220
0.0
230
1.0
 70
  1064
 71
     3
 72
    30
 73
    26
 74
    24
 42
0.000000001
 43
0.0000000001
 44
0.0000000001
 40
0.0
 40
0.0
 40
0.0
 40
0.0
 40
0.0900758099805669
 40
0.2198335809955939
 40
0.2940865062198714
 40
0.3762104535812556
 40
0.4628002341495183
 40
0.5541897848324481
 40
0.6243324548035253
 40
0.7001110359420848
 40
0.7993531368313139
 40
0.9097538831083557
 40
1.011556996992337
 40
1.132356735227016
 40
1.297775162263502
 40
1.437298502662006
 40
1.512000117558638
 40
1.629139510645714
 40
1.729631909322113
 40
1.859224274367925
 40
1.958467254522676
 40
2.038467753280967
 40
2.138622744914513
 40
2.238863354577677
 40
2.297092847137711
 40
2.297092847137711
 40
2.297092847137711
 40
2.297092847137711
 10
0.5711288132111952
 20
0.3069425338150054
 30
0.0
 10
0.5987574599235255
 20
0.2862107698159812
 30
0.0
 10
0.6661862662383852
 20
0.2356140788592825
 30
0.0
 10
0.7388302399250132
 20
0.3443780598972546
 30
0.0
 10
0.8283418246067395
 20
0.3690630113531092
 30
0.0
 10
0.896452828918121
 20
0.4287658087827477
 30
0.0
 10
0.8893771311137312
 20
0.5206877934594432
 30
0.0
 10
0.9447427699842613
 20
0.5957511642674199
 30
0.0
 10
0.9088537389497496
 20
0.6719916765804611
 30
0.0
 10
0.9141341082276234
 20
0.7622019097353612
 30
0.0
 10
0.8073182485183476
 20
0.8018828521522966
 30
0.0
 10
0.789890637714271
 20
0.9223065052397954
 30
0.0
 10
0.6610130010926932
 20
0.943501644653773
 30
0.0
 10
0.5411015648675121
 20
0.8922886022866894
 30
0.0
 10
0.404266810691178
 20
0.9026822762064535
 30
0.0
 10
0.2528270312228573
 20
0.9536456947048161
 30
0.0
 10
0.2030036073275303
 20
0.8368734867254897
 30
0.0
 10
0.192877418547717
 20
0.7468374392742044
 30
0.0
 10
0.0795459119062432
 20
0.6448449590737974
 30
0.0
 10
0.2323568110962086
 20
0.5641923929879389
 30
0.0
 10
0.1726614488616259
 20
0.4578973552285215
 30
0.0
 10
0.214659309131768
 20
0.3591932969683298
 30
0.0
 10
0.3094562342483904
 20
0.3429635412008251
 30
0.0
 10
0.3793006948974481
 20
0.2531186332248403
 30
0.0
 10
0.4245149383262335
 20
0.2924794776099297
 30
0.0
 10
0.4411288132111997
 20
0.3069425338150054
 30
0.0
 11
0.5711288132111952
 21
0.3069425338150054
 31
0.0
 11
0.6518109330611406
 21
0.2668919772623903
 31
0.0
 11
0.7579725123098875
 21
0.3415029565496255
 31
0.0
 11
0.8247336667210856
 21
0.3740059589654994
 31
0.0
 11
0.882907222980183
 21
0.4319730192875913
 31
0.0
 11
0.9000539437635168
 21
0.5168481043552263
 31
0.0
 11
0.9301268610783228
 21
0.6031479862682661
 31
0.0
 11
0.9155313293846027
 21
0.671755308073224
 31
0.0
 11
0.9006433743708885
 21
0.7460570049238538
 31
0.0
 11
0.8264470988045555
 21
0.8119653297469948
 31
0.0
 11
0.7703945674888093
 21
0.9070780970898972
 31
0.0
 11
0.6719956835065286
 21
0.933184296114585
 31
0.0
 11
0.5542595338130134
 21
0.9061514306927858
 31
0.0
 11
0.3889900505578048
 21
0.9131695435289914
 31
0.0
 11
0.249554782928076
 21
0.91812622154786
 31
0.0
 11
0.2127505630072655
 21
0.8531202167161113
 31
0.0
 11
0.1739057699392621
 21
0.7426090432343662
 31
0.0
 11
0.1237356939797145
 21
0.655536167607397
 31
0.0
 11
0.1982000577028078
 21
0.5494737349864077
 31
0.0
 11
0.1878227371529881
 21
0.4507747971592835
 31
0.0
 11
0.2183002582429534
 21
0.3768072332560024
 31
0.0
 11
0.3060223956587063
 21
0.3284766119447928
 31
0.0
 11
0.3916136219710466
 21
0.2763007381716349
 31
0.0
 11
0.4411288132111997
 21
0.3069425338150054
 31
0.0
  0
VIEWPORT
  5
127F
102
{ACAD_XDICTIONARY
360
1280
102
}
330
58
100
AcDbEntity
 67
     1
  8
0
100
AcDbViewport
 10
6.428396038960002
 20
3.24687080056602
 30
0.0
 40
15.99585001751202
 41
7.068915768034617
 68
     1
 69
     1
 12
6.428396038960002
 22
3.24687080056602
 13
0.0
 23
0.0
 14
0.5
 24
0.5
 15
0.5
 25
0.5
 16
0.0
 26
0.0
 36
1.0
 17
0.0
 27
0.0
 37
0.0
 42
50.0
 43
0.0
 44
0.0
 45
7.068915768034617
 50
0.0
 51
0.0
 72
  1000
 90
   819232
  1

281
     0
 71
     1
 74
     0
110
0.0
120
0.0
130
0.0
111
1.0
121
0.0
131
0.0
112
0.0
122
1.0
132
0.0
 79
     0
146
0.0
170
     0
 61
     5
348
9F
292
     1
282
     1
141
0.0
142
0.0
 63
   250
421
  3355443
  0
VIEWPORT
  5
1283
102
{ACAD_XDICTIONARY
360
1284
102
}
330
58
100
AcDbEntity
 67
     1
  8
0
100
AcDbViewport
 10
5.249999761581421
 20
3.999999761581421
 30
0.0
 40
8.399999618530275
 41
6.399999618530274
 68
     2
 69
     2
 12
0.5613568580455147
 22
0.6171148956125269
 13
0.0
 23
0.0
 14
0.5
 24
0.5
 15
0.5
 25
0.5
 16
0.0
 26
0.0
 36
1.0
 17
0.0
 27
0.0
 37
0.0
 42
50.0
 43
0.0
 44
0.0
 45
0.838155886923743
 50
0.0
 51
0.0
 72
  1000
 90
   819296
  1

281
     0
 71
     1
 74
     0
110
0.0
120
0.0
130
0.0
111
1.0
121
0.0
131
0.0
112
0.0
122
1.0
132
0.0
 79
     0
146
0.0
170
     0
 61
     5
348
9F
292
     1
282
     1
141
0.0
142
0.0
 63
   250
421
  3355443
  0
ENDSEC
  0
SECTION
  2
OBJECTS
  0
DICTIONARY
  5
C
330
0
100
AcDbDictionary
281
     1
  3
ACAD_CIP_PREVIOUS_PRODUCT_INFO
350
1A5
  3
ACAD_COLOR
350
73
  3
ACAD_DETAILVIEWSTYLE
350
1AB
  3
ACAD_GROUP
350
D
  3
ACAD_LAYOUT
350
1A
  3
ACAD_MATERIAL
350
72
  3
ACAD_MLEADERSTYLE
350
D7
  3
ACAD_MLINESTYLE
350
17
  3
ACAD_PLOTSETTINGS
350
19
  3
ACAD_PLOTSTYLENAME
350
E
  3
ACAD_SCALELIST
350
B6
  3
ACAD_SECTIONVIEWSTYLE
350
1A8
  3
ACAD_TABLESTYLE
350
86
  3
ACAD_VISUALSTYLE
350
99
  3
ACDB_RECOMPOSE_DATA
350
1B7E
  3
AcDbVariableDictionary
350
66
  3
AEC_PROPERTY_SET_DEFS
350
354
  0
DICTIONARY
  5
18E
330
2
100
AcDbDictionary
280
     1
281
     1
  3
ACAD_LAYERSTATES
360
18F
  0
DICTIONARY
  5
E6
330
10
100
AcDbDictionary
280
     1
281
     1
  0
DICTIONARY
  5
669
330
668
100
AcDbDictionary
280
     1
281
     1
  0
DICTIONARY
  5
1766
330
1765
100
AcDbDictionary
280
     1
281
     1
  0
DICTIONARY
  5
1768
330
1767
100
AcDbDictionary
280
     1
281
     1
  0
DICTIONARY
  5
15D
330
1F
100
AcDbDictionary
280
     1
281
     1
  3
ACAD_SORTENTS
360
A50
  0
DICTIONARY
  5
67F
330
67C
100
AcDbDictionary
280
     1
281
     1
  3
ACAD_SORTENTS
360
680
  0
DICTIONARY
  5
111A
330
1111
100
AcDbDictionary
280
     1
281
     1
  3
ACAD_SORTENTS
360
111B
  0
DICTIONARY
  5
168E
330
1689
100
AcDbDictionary
280
     1
281
     1
  3
ACAD_SORTENTS
360
168F
  0
DICTIONARY
  5
1A97
330
1A88
100
AcDbDictionary
280
     1
281
     1
  3
ACAD_DIMASSOC
360
1AA3
  0
DICTIONARY
  5
1ABC
330
1AAE
100
AcDbDictionary
280
     1
281
     1
  3
ACAD_DIMASSOC
360
1AC7
  0
DICTIONARY
  5
1280
330
127F
100
AcDbDictionary
280
     1
281
     1
  3
ASDK_XREC_ANNOTATION_SCALE_INFO
360
1281
  0
DICTIONARY
  5
1284
330
1283
100
AcDbDictionary
280
     1
281
     1
  3
ASDK_XREC_ANNOTATION_SCALE_INFO
360
1285
  0
XRECORD
  5
1A5
102
{ACAD_REACTORS
330
C
102
}
330
C
100
AcDbXrecord
280
     1
300
ACD
300
2021
300

  0
DICTIONARY
  5
73
102
{ACAD_REACTORS
330
C
102
}
330
C
100
AcDbDictionary
281
     1
  0
DICTIONARY
  5
1AB
102
{ACAD_REACTORS
330
C
102
}
330
C
100
AcDbDictionary
281
     1
  3
Imperial24
350
1AC
  0
DICTIONARY
  5
D
102
{ACAD_REACTORS
330
C
102
}
330
C
100
AcDbDictionary
281
     1
  0
DICTIONARY
  5
1A
102
{ACAD_REACTORS
330
C
102
}
330
C
100
AcDbDictionary
281
     1
  3
Layout1
350
59
  3
Layout2
350
5E
  3
Model
350
22
  0
DICTIONARY
  5
72
102
{ACAD_REACTORS
330
C
102
}
330
C
100
AcDbDictionary
281
     1
  3
ByBlock
350
97
  3
ByLayer
350
96
  3
Global
350
98
  0
DICTIONARY
  5
D7
102
{ACAD_REACTORS
330
C
102
}
330
C
100
AcDbDictionary
281
     1
  3
Annotative
350
E5
  3
Standard
350
D8
  0
DICTIONARY
  5
17
102
{ACAD_REACTORS
330
C
102
}
330
C
100
AcDbDictionary
281
     1
  3
Standard
350
18
  0
DICTIONARY
  5
19
102
{ACAD_REACTORS
330
C
102
}
330
C
100
AcDbDictionary
281
     1
  0
ACDBDICTIONARYWDFLT
  5
E
102
{ACAD_REACTORS
330
C
102
}
330
C
100
AcDbDictionary
281
     1
  3
Normal
350
F
100
AcDbDictionaryWithDefault
340
F
  0
DICTIONARY
  5
B6
102
{ACAD_REACTORS
330
C
102
}
330
C
100
AcDbDictionary
281
     1
  3
A0
350
B7
  3
A1
350
124
  3
A2
350
125
  3
A3
350
126
  3
A4
350
127
  3
A5
350
128
  3
A6
350
129
  3
A7
350
12A
  3
A8
350
12B
  3
A9
350
12C
  3
B0
350
12D
  3
B1
350
12E
  3
B2
350
12F
  3
B3
350
130
  3
B4
350
131
  3
B5
350
132
  3
B6
350
133
  3
B7
350
134
  3
B8
350
135
  3
B9
350
136
  3
C0
350
137
  3
C1
350
138
  3
C2
350
139
  3
C3
350
13A
  3
C4
350
13B
  3
C5
350
13C
  3
C6
350
13D
  3
C7
350
13E
  3
C8
350
13F
  3
C9
350
140
  3
D0
350
141
  3
D1
350
142
  3
D2
350
143
  0
DICTIONARY
  5
1A8
102
{ACAD_REACTORS
330
C
102
}
330
C
100
AcDbDictionary
281
     1
  3
Imperial24
350
1AA
  0
DICTIONARY
  5
86
102
{ACAD_REACTORS
330
C
102
}
330
C
100
AcDbDictionary
281
     1
  3
Standard
350
87
  0
DICTIONARY
  5
99
102
{ACAD_REACTORS
330
C
102
}
330
C
100
AcDbDictionary
281
     1
  3
2dWireframe
350
9F
  3
3dWireframe
350
176D
  3
Basic
350
9E
  3
Brighten
350
A5
  3
ColorChange
350
A9
  3
Conceptual
350
A2
  3
Dim
350
A4
  3
EdgeColorOff
350
175
  3
Facepattern
350
A8
  3
Flat
350
9A
  3
FlatWithEdges
350
9B
  3
Gouraud
350
9C
  3
GouraudWithEdges
350
9D
  3
Hidden
350
A1
  3
JitterOff
350
173
  3
Linepattern
350
A7
  3
OverhangOff
350
174
  3
Realistic
350
A3
  3
Shaded
350
182
  3
Shaded with edges
350
181
  3
Shades of Gray
350
17E
  3
Sketchy
350
17F
  3
Thicken
350
A6
  3
Wireframe
350
A0
  3
X-Ray
350
180
  0
XRECORD
  5
1B7E
102
{ACAD_REACTORS
330
C
102
}
330
C
100
AcDbXrecord
280
     1
 90
        1
330
87
  0
DICTIONARY
  5
66
102
{ACAD_REACTORS
330
C
102
}
330
C
100
AcDbDictionary
281
     1
  3
CANNOSCALE
350
F0
  3
CMLEADERSTYLE
350
EF
  3
CTABLESTYLE
350
89
  3
CVIEWDETAILSTYLE
350
1B7
  3
CVIEWSECTIONSTYLE
350
1B8
  3
DIMASSOC
350
67
  3
HIDETEXT
350
6B
  3
HPCOLOR
350
A52
  3
HPTRANSPARENCY
350
A51
  3
LAYEREVAL
350
14D
  3
LAYERNOTIFY
350
14E
  0
DICTIONARY
  5
354
102
{ACAD_REACTORS
330
C
102
}
330
C
100
AcDbDictionary
281
     1
  0
DICTIONARY
  5
18F
102
{ACAD_REACTORS
330
18E
102
}
330
18E
100
AcDbDictionary
281
     1
  0
SORTENTSTABLE
  5
A50
102
{ACAD_REACTORS
330
15D
102
}
330
15D
100
AcDbSortentsTable
330
1F
331
1898
  5
189A
331
1899
  5
189B
331
189A
  5
189C
331
189E
  5
18A0
331
189F
  5
18A1
331
18A0
  5
18A2
331
18A1
  5
18A3
331
18A2
  5
18A4
331
18A3
  5
18A5
331
18A4
  5
18A6
331
18AD
  5
18AF
331
18AE
  5
18B0
331
18AF
  5
18B1
331
18B2
  5
18B5
331
18B3
  5
18B6
331
18B4
  5
18B7
331
18B5
  5
18B8
331
18B6
  5
18B9
331
18B7
  5
18BA
331
18B8
  5
18BB
331
18B9
  5
18BC
331
18BA
  5
18BD
331
18BB
  5
18BE
331
18BC
  5
18BF
331
18BD
  5
18C0
331
18BE
  5
18C1
331
18BF
  5
18C2
331
18C0
  5
18C3
331
18C1
  5
18C4
331
18C2
  5
18C5
331
18C3
  5
18C6
331
18C4
  5
18C7
331
18C5
  5
18C8
331
18C6
  5
18C9
331
18C7
  5
18CA
331
18C8
  5
18CB
331
18C9
  5
18CC
331
18CA
  5
18CD
331
18CB
  5
18CE
331
18CC
  5
18CF
331
18CD
  5
18D0
331
18CE
  5
18D1
331
18CF
  5
18D2
331
18D0
  5
18D3
331
18D1
  5
18D4
331
18D2
  5
18D5
331
18D3
  5
18D6
331
18D4
  5
18D7
331
18D5
  5
18D8
331
18D6
  5
18D9
331
18D7
  5
18DA
331
18D8
  5
18DB
331
18D9
  5
18DC
331
18DA
  5
18DD
331
18DB
  5
18DE
331
18DC
  5
18DF
331
18DD
  5
18E0
331
18DE
  5
18E1
331
18DF
  5
18E2
331
18E0
  5
18E3
331
18E1
  5
18E4
331
18E2
  5
18E5
331
18E3
  5
18E6
331
18E4
  5
18E7
331
18E5
  5
18E8
331
18E6
  5
18E9
331
18E7
  5
18EA
331
18E8
  5
18EB
331
18E9
  5
18EC
331
18EA
  5
18ED
331
18EB
  5
18EE
331
18EC
  5
18EF
331
18ED
  5
18F0
331
18EE
  5
18F1
331
18EF
  5
18F2
331
18F0
  5
18F3
331
18F1
  5
18F4
331
18F2
  5
18F5
331
18F3
  5
18F6
331
18F4
  5
18F7
331
18F5
  5
18F8
331
18F6
  5
18F9
331
18F7
  5
18FA
331
18F8
  5
18FB
331
18F9
  5
18FC
331
18FA
  5
18FD
331
18FB
  5
18FE
331
18FC
  5
18FF
331
18FD
  5
1900
331
18FE
  5
1901
331
18FF
  5
1902
331
1900
  5
1903
331
1901
  5
1904
331
1902
  5
1905
331
1903
  5
1906
331
1904
  5
1907
331
1905
  5
1908
331
1906
  5
1909
331
1907
  5
190A
331
1908
  5
190B
331
1909
  5
190C
331
190A
  5
190D
331
190B
  5
190E
331
190C
  5
190F
331
190D
  5
1910
331
190E
  5
1911
331
190F
  5
1912
331
1910
  5
1913
331
1911
  5
1914
331
1912
  5
1915
331
1913
  5
1916
331
1914
  5
1917
331
1915
  5
1918
331
1916
  5
1919
331
1917
  5
191A
331
1918
  5
191B
331
1919
  5
191C
331
191A
  5
191D
331
191B
  5
191E
331
191C
  5
191F
331
191D
  5
1920
331
191E
  5
1921
331
191F
  5
1922
331
1920
  5
1923
331
1921
  5
1924
331
1922
  5
1925
331
1923
  5
1926
331
1924
  5
1927
331
1925
  5
1928
331
1926
  5
1929
331
1927
  5
192A
331
1928
  5
192B
331
1929
  5
192C
331
192A
  5
192D
331
192B
  5
192E
331
192C
  5
192F
331
192D
  5
1930
331
192E
  5
1931
331
192F
  5
1932
331
1930
  5
1933
331
1931
  5
1934
331
1932
  5
1935
331
1933
  5
1936
331
1934
  5
1937
331
1935
  5
1938
331
1936
  5
1939
331
1937
  5
193A
331
1938
  5
193B
331
1939
  5
193C
331
193A
  5
193D
331
193B
  5
193E
331
193C
  5
193F
331
193D
  5
1940
331
193E
  5
1941
331
193F
  5
1942
331
1940
  5
1943
331
1941
  5
1944
331
1942
  5
1945
331
1943
  5
1946
331
1944
  5
1947
331
1945
  5
1948
331
1946
  5
1949
331
1947
  5
194A
331
1948
  5
194B
331
1949
  5
194C
331
194A
  5
194D
331
194B
  5
194E
331
194C
  5
194F
331
194D
  5
1950
331
194E
  5
1951
331
194F
  5
1952
331
1950
  5
1953
331
1951
  5
1954
331
1952
  5
1955
331
1953
  5
1956
331
1954
  5
1957
331
1955
  5
1958
331
1956
  5
1959
331
1957
  5
195A
331
1958
  5
195B
331
1959
  5
195C
331
195A
  5
195D
331
195B
  5
195E
331
195C
  5
195F
331
195D
  5
1960
331
195E
  5
1961
331
195F
  5
1962
331
1960
  5
1963
331
1961
  5
1964
331
1962
  5
1965
331
1963
  5
1966
331
1964
  5
1967
331
1965
  5
1968
331
1966
  5
1969
331
1967
  5
196A
331
1968
  5
196B
331
1969
  5
196C
331
196A
  5
196D
331
196B
  5
196E
331
196C
  5
196F
331
196D
  5
1970
331
196E
  5
1971
331
196F
  5
1972
331
1970
  5
1973
331
1971
  5
1974
331
1972
  5
1975
331
1973
  5
1976
331
1974
  5
1977
331
1975
  5
1978
331
1976
  5
1979
331
1977
  5
197A
331
1978
  5
197B
331
1979
  5
197C
331
197A
  5
197D
331
197B
  5
197E
331
197C
  5
197F
331
197D
  5
1980
331
197E
  5
1981
331
197F
  5
1982
331
1980
  5
1983
331
1981
  5
1984
331
1982
  5
1985
331
1983
  5
1986
331
1984
  5
1987
331
1985
  5
1988
331
1986
  5
1989
331
1987
  5
198A
331
1988
  5
198B
331
1989
  5
198C
331
198A
  5
198D
331
198B
  5
198E
331
198C
  5
198F
331
198D
  5
1990
331
198E
  5
1991
331
198F
  5
1992
331
1990
  5
1993
331
1991
  5
1994
331
1992
  5
1995
331
1993
  5
1996
331
1994
  5
1997
331
1995
  5
1998
331
1996
  5
1999
331
1997
  5
199A
331
1998
  5
199B
331
1999
  5
199C
331
199A
  5
199D
331
199B
  5
199E
331
199C
  5
199F
331
199D
  5
19A0
331
199E
  5
19A1
331
199F
  5
19A2
331
19A0
  5
19A3
331
19A1
  5
19A4
331
19A2
  5
19A5
331
19A3
  5
19A6
331
19A4
  5
19A7
331
19A5
  5
19A8
331
19A6
  5
19AB
331
19A9
  5
19AC
331
19AA
  5
19AD
331
19AB
  5
19AE
331
19AC
  5
19AF
331
19AD
  5
19B0
331
19AE
  5
19B1
331
19AF
  5
19B2
331
19B0
  5
19B3
331
19B1
  5
19BC
331
19BC
  5
1A1D
331
19C1
  5
19D7
331
19D7
  5
1A54
331
1A1D
  5
1A55
331
1A43
  5
1A66
331
1A53
  5
1A86
331
1A55
  5
19C2
331
1A66
  5
1A87
331
1A86
  5
1A88
331
1A87
  5
1AAE
331
1A88
  5
1B1A
331
1AAE
  5
1B1B
331
1B1B
  5
1A53
331
1B1C
  5
1B1D
331
1B1D
  5
18B4
  0
SORTENTSTABLE
  5
680
102
{ACAD_REACTORS
330
67F
102
}
330
67F
100
AcDbSortentsTable
330
67C
  0
SORTENTSTABLE
  5
111B
102
{ACAD_REACTORS
330
111A
102
}
330
111A
100
AcDbSortentsTable
330
1111
  0
SORTENTSTABLE
  5
168F
102
{ACAD_REACTORS
330
168E
102
}
330
168E
100
AcDbSortentsTable
330
1689
  0
DIMASSOC
  5
1AA3
102
{ACAD_REACTORS
330
1A97
102
}
330
1A97
100
AcDbDimAssoc
330
1A88
 90
        1
 70
     0
 71
     0
  1
AcDbOsnapPointRef
 72
     2
331
1A53
 73
     2
 91
        1
 40
0.5
 10
2.392564712097203
 20
0.5132085864749141
 30
0.0
 75
     0
  0
DIMASSOC
  5
1AC7
102
{ACAD_REACTORS
330
1ABC
102
}
330
1ABC
100
AcDbDimAssoc
330
1AAE
 90
        3
 70
     0
 71
     0
  1
AcDbOsnapPointRef
 72
    13
331
1A53
 73
     2
 91
        1
 40
0.0
 10
2.367564712097197
 20
0.5132085864749141
 30
0.0
 75
     0
  1
AcDbOsnapPointRef
 72
     1
331
1A53
 73
     2
 91
        3
 40
1.0
 10
2.367564712097197
 20
0.4844585864748905
 30
0.0
 75
     0
  0
XRECORD
  5
1281
102
{ACAD_REACTORS
330
1280
102
}
330
1280
100
AcDbXrecord
280
     1
 90
        1
340
B7
  0
XRECORD
  5
1285
102
{ACAD_REACTORS
330
1284
102
}
330
1284
100
AcDbXrecord
280
     1
 90
        1
340
B7
  0
ACDBDETAILVIEWSTYLE
  5
1AC
102
{ACAD_REACTORS
330
1AB
102
}
330
1AB
100
AcDbModelDocViewStyle
 70
     0
  3
Imperial24
290
     0
300
Imperial24
 90
        0
100
AcDbDetailViewStyle
 70
     0
 71
     0
 90
        3
 71
     1
340
11
 62
   256
 40
0.24
340
0
 62
   256
 40
0.24
300

 40
0.36
280
     3
 71
     2
340
16
 90
       25
 62
   256
 71
     3
340
11
 62
   256
 40
0.24
 90
        1
 40
0.75
 90
        1
300
%<\AcVar ViewType \f "%tc1">% %<\AcVar ViewDetailId>%\PSCALE %<\AcVar ViewScale \f "%sn">%
 71
     4
340
16
 90
       25
 62
   256
340
16
 90
       25
 62
   256
280
     0
  0
LAYOUT
  5
59
102
{ACAD_REACTORS
330
1A
102
}
330
1A
100
AcDbPlotSettings
  1

  2
None
  4
Letter_(8.50_x_11.00_Inches)
  6

 40
6.349999904632568
 41
6.349999904632568
 42
6.350006103515625
 43
6.350006103515625
 44
215.8999938964844
 45
279.3999938964844
 46
0.0
 47
0.0
 48
0.0
 49
0.0
140
0.0
141
0.0
142
1.0
143
1.0
 70
   688
 72
     0
 73
     1
 74
     5
  7

 75
    16
147
1.0
 76
     0
 77
     2
 78
   300
148
0.0
149
0.0
100
AcDbLayout
  1
Layout1
 70
     1
 71
     1
 10
-0.2500002402958907
 20
-0.2499999962453767
 11
10.74999951940822
 21
8.249999763458733
 12
0.0
 22
0.0
 32
0.0
 14
1.049999952316284
 24
0.7999999523162842
 34
0.0
 15
9.449999570846559
 25
7.199999570846558
 35
0.0
146
0.0
 13
0.0
 23
0.0
 33
0.0
 16
1.0
 26
0.0
 36
0.0
 17
0.0
 27
1.0
 37
0.0
 76
     0
330
58
331
127F
1001
ACAD_PSEXT
1000
None
1000
None
1000
Not applicable
1000
The layout will not be plotted unless a new plotter configuration name is selected.
1070
     0
  0
LAYOUT
  5
5E
102
{ACAD_REACTORS
330
1A
102
}
330
1A
100
AcDbPlotSettings
  1

  2
None
  4

  6

 40
0.0
 41
0.0
 42
0.0
 43
0.0
 44
0.0
 45
0.0
 46
0.0
 47
0.0
 48
0.0
 49
0.0
140
0.0
141
0.0
142
1.0
143
1.0
 70
   688
 72
     0
 73
     0
 74
     5
  7

 75
    16
147
1.0
 76
     0
 77
     2
 78
   300
148
0.0
149
0.0
100
AcDbLayout
  1
Layout2
 70
     1
 71
     2
 10
0.0
 20
0.0
 11
12.0
 21
9.0
 12
0.0
 22
0.0
 32
0.0
 14
0.0
 24
0.0
 34
0.0
 15
0.0
 25
0.0
 35
0.0
146
0.0
 13
0.0
 23
0.0
 33
0.0
 16
1.0
 26
0.0
 36
0.0
 17
0.0
 27
1.0
 37
0.0
 76
     0
330
5D
  0
LAYOUT
  5
22
102
{ACAD_XDICTIONARY
360
194
102
}
102
{ACAD_REACTORS
330
1A
102
}
330
1A
100
AcDbPlotSettings
  1

  2
none_device
  4
ANSI_A_(8.50_x_11.00_Inches)
  6

 40
6.349999904632568
 41
19.04999923706055
 42
6.350006103515625
 43
19.04998779296875
 44
215.8999938964844
 45
279.3999938964844
 46
0.0
 47
0.0
 48
0.0
 49
0.0
140
0.0
141
0.0
142
1.0
143
2.584895464708373
 70
 11952
 72
     0
 73
     1
 74
     0
  7

 75
     0
147
0.3868628397755418
 76
     0
 77
     2
 78
   300
148
0.0
149
0.0
100
AcDbLayout
  1
Model
 70
     1
 71
     0
 10
0.0
 20
0.0
 11
12.0
 21
9.0
 12
0.0
 22
0.0
 32
0.0
 14
0.0
 24
0.0
 34
0.0
 15
0.0
 25
0.0
 35
0.0
146
0.0
 13
0.0
 23
0.0
 33
0.0
 16
1.0
 26
0.0
 36
0.0
 17
0.0
 27
1.0
 37
0.0
 76
     0
330
1F
331
94
  0
MATERIAL
  5
97
102
{ACAD_XDICTIONARY
360
188
102
}
102
{ACAD_REACTORS
330
72
102
}
330
72
100
AcDbMaterial
  1
ByBlock
 94
       63
  0
MATERIAL
  5
96
102
{ACAD_XDICTIONARY
360
186
102
}
102
{ACAD_REACTORS
330
72
102
}
330
72
100
AcDbMaterial
  1
ByLayer
 94
       63
  0
MATERIAL
  5
98
102
{ACAD_XDICTIONARY
360
110
102
}
102
{ACAD_REACTORS
330
72
102
}
330
72
100
AcDbMaterial
  1
Global
 43
0.0208000000566244
 43
0.0
 43
0.0
 43
0.0
 43
0.0
 43
0.0208000000566244
 43
0.0
 43
0.0
 43
0.0
 43
0.0
 43
1.0
 43
0.0
 43
0.0
 43
0.0
 43
0.0
 43
1.0
 49
0.0208000000566244
 49
0.0
 49
0.0
 49
0.0
 49
0.0
 49
0.0208000000566244
 49
0.0
 49
0.0
 49
0.0
 49
0.0
 49
1.0
 49
0.0
 49
0.0
 49
0.0
 49
0.0
 49
1.0
142
0.0208000000566244
142
0.0
142
0.0
142
0.0
142
0.0
142
0.0208000000566244
142
0.0
142
0.0
142
0.0
142
0.0
142
1.0
142
0.0
142
0.0
142
0.0
142
0.0
142
1.0
144
0.0208000000566244
144
0.0
144
0.0
144
0.0
144
0.0
144
0.0208000000566244
144
0.0
144
0.0
144
0.0
144
0.0
144
1.0
144
0.0
144
0.0
144
0.0
144
0.0
144
1.0
 94
       63
1001
ACAD
1070
    -1
1070
     3
1070
     0
1000

1071
        0
1070
     0
  0
MLEADERSTYLE
  5
E5
102
{ACAD_REACTORS
330
D7
102
}
330
D7
100
AcDbMLeaderStyle
179
     2
170
     2
171
     1
172
     0
 90
        2
 40
0.0
 41
0.0
173
     1
 91
-1056964608
340
14
 92
       -2
290
     1
 42
0.09
291
     1
 43
0.36
  3
Standard
 44
0.18
300

342
11
174
     1
178
     1
175
     1
176
     0
 93
-1056964608
 45
0.18
292
     0
297
     0
 46
0.18
 94
-1056964608
 47
1.0
 49
1.0
140
1.0
293
     1
141
0.0
294
     1
177
     0
142
1.0
295
     0
296
     1
143
0.125
271
     0
272
     9
273
     9
298
     0
  0
MLEADERSTYLE
  5
D8
102
{ACAD_REACTORS
330
D7
102
}
330
D7
100
AcDbMLeaderStyle
179
     2
170
     2
171
     1
172
     0
 90
        2
 40
0.0
 41
0.0
173
     1
 91
-1056964608
340
14
 92
       -2
290
     1
 42
0.09
291
     1
 43
0.36
  3
Standard
 44
0.18
300

342
11
174
     1
178
     1
175
     1
176
     0
 93
-1056964608
 45
0.18
292
     0
297
     0
 46
0.18
 94
-1056964608
 47
1.0
 49
1.0
140
1.0
293
     1
141
0.0
294
     1
177
     0
142
1.0
295
     0
296
     0
143
0.125
271
     0
272
     9
273
     9
298
     0
  0
MLINESTYLE
  5
18
102
{ACAD_REACTORS
330
17
102
}
330
17
100
AcDbMlineStyle
  2
STANDARD
 70
     0
  3

 62
   256
 51
90.0
 52
90.0
 71
     2
 49
0.5
 62
   256
  6
BYLAYER
 49
-0.5
 62
   256
  6
BYLAYER
  0
ACDBPLACEHOLDER
  5
F
102
{ACAD_REACTORS
330
E
102
}
330
E
  0
SCALE
  5
B7
102
{ACAD_REACTORS
330
B6
102
}
330
B6
100
AcDbScale
 70
     0
300
1:1
140
1.0
141
1.0
290
     1
  0
SCALE
  5
124
102
{ACAD_REACTORS
330
B6
102
}
330
B6
100
AcDbScale
 70
     0
300
1:2
140
1.0
141
2.0
290
     0
  0
SCALE
  5
125
102
{ACAD_REACTORS
330
B6
102
}
330
B6
100
AcDbScale
 70
     0
300
1:4
140
1.0
141
4.0
290
     0
  0
SCALE
  5
126
102
{ACAD_REACTORS
330
B6
102
}
330
B6
100
AcDbScale
 70
     0
300
1:5
140
1.0
141
5.0
290
     0
  0
SCALE
  5
127
102
{ACAD_REACTORS
330
B6
102
}
330
B6
100
AcDbScale
 70
     0
300
1:8
140
1.0
141
8.0
290
     0
  0
SCALE
  5
128
102
{ACAD_REACTORS
330
B6
102
}
330
B6
100
AcDbScale
 70
     0
300
1:10
140
1.0
141
10.0
290
     0
  0
SCALE
  5
129
102
{ACAD_REACTORS
330
B6
102
}
330
B6
100
AcDbScale
 70
     0
300
1:16
140
1.0
141
16.0
290
     0
  0
SCALE
  5
12A
102
{ACAD_REACTORS
330
B6
102
}
330
B6
100
AcDbScale
 70
     0
300
1:20
140
1.0
141
20.0
290
     0
  0
SCALE
  5
12B
102
{ACAD_REACTORS
330
B6
102
}
330
B6
100
AcDbScale
 70
     0
300
1:30
140
1.0
141
30.0
290
     0
  0
SCALE
  5
12C
102
{ACAD_REACTORS
330
B6
102
}
330
B6
100
AcDbScale
 70
     0
300
1:40
140
1.0
141
40.0
290
     0
  0
SCALE
  5
12D
102
{ACAD_REACTORS
330
B6
102
}
330
B6
100
AcDbScale
 70
     0
300
1:50
140
1.0
141
50.0
290
     0
  0
SCALE
  5
12E
102
{ACAD_REACTORS
330
B6
102
}
330
B6
100
AcDbScale
 70
     0
300
1:100
140
1.0
141
100.0
290
     0
  0
SCALE
  5
12F
102
{ACAD_REACTORS
330
B6
102
}
330
B6
100
AcDbScale
 70
     0
300
2:1
140
2.0
141
1.0
290
     0
  0
SCALE
  5
130
102
{ACAD_REACTORS
330
B6
102
}
330
B6
100
AcDbScale
 70
     0
300
4:1
140
4.0
141
1.0
290
     0
  0
SCALE
  5
131
102
{ACAD_REACTORS
330
B6
102
}
330
B6
100
AcDbScale
 70
     0
300
8:1
140
8.0
141
1.0
290
     0
  0
SCALE
  5
132
102
{ACAD_REACTORS
330
B6
102
}
330
B6
100
AcDbScale
 70
     0
300
10:1
140
10.0
141
1.0
290
     0
  0
SCALE
  5
133
102
{ACAD_REACTORS
330
B6
102
}
330
B6
100
AcDbScale
 70
     0
300
100:1
140
100.0
141
1.0
290
     0
  0
SCALE
  5
134
102
{ACAD_REACTORS
330
B6
102
}
330
B6
100
AcDbScale
 70
     0
300
1/128" = 1'-0"
140
0.0078125
141
12.0
290
     0
  0
SCALE
  5
135
102
{ACAD_REACTORS
330
B6
102
}
330
B6
100
AcDbScale
 70
     0
300
1/64" = 1'-0"
140
0.015625
141
12.0
290
     0
  0
SCALE
  5
136
102
{ACAD_REACTORS
330
B6
102
}
330
B6
100
AcDbScale
 70
     0
300
1/32" = 1'-0"
140
0.03125
141
12.0
290
     0
  0
SCALE
  5
137
102
{ACAD_REACTORS
330
B6
102
}
330
B6
100
AcDbScale
 70
     0
300
1/16" = 1'-0"
140
0.0625
141
12.0
290
     0
  0
SCALE
  5
138
102
{ACAD_REACTORS
330
B6
102
}
330
B6
100
AcDbScale
 70
     0
300
3/32" = 1'-0"
140
0.09375
141
12.0
290
     0
  0
SCALE
  5
139
102
{ACAD_REACTORS
330
B6
102
}
330
B6
100
AcDbScale
 70
     0
300
1/8" = 1'-0"
140
0.125
141
12.0
290
     0
  0
SCALE
  5
13A
102
{ACAD_REACTORS
330
B6
102
}
330
B6
100
AcDbScale
 70
     0
300
3/16" = 1'-0"
140
0.1875
141
12.0
290
     0
  0
SCALE
  5
13B
102
{ACAD_REACTORS
330
B6
102
}
330
B6
100
AcDbScale
 70
     0
300
1/4" = 1'-0"
140
0.25
141
12.0
290
     0
  0
SCALE
  5
13C
102
{ACAD_REACTORS
330
B6
102
}
330
B6
100
AcDbScale
 70
     0
300
3/8" = 1'-0"
140
0.375
141
12.0
290
     0
  0
SCALE
  5
13D
102
{ACAD_REACTORS
330
B6
102
}
330
B6
100
AcDbScale
 70
     0
300
1/2" = 1'-0"
140
0.5
141
12.0
290
     0
  0
SCALE
  5
13E
102
{ACAD_REACTORS
330
B6
102
}
330
B6
100
AcDbScale
 70
     0
300
3/4" = 1'-0"
140
0.75
141
12.0
290
     0
  0
SCALE
  5
13F
102
{ACAD_REACTORS
330
B6
102
}
330
B6
100
AcDbScale
 70
     0
300
1" = 1'-0"
140
1.0
141
12.0
290
     0
  0
SCALE
  5
140
102
{ACAD_REACTORS
330
B6
102
}
330
B6
100
AcDbScale
 70
     0
300
1-1/2" = 1'-0"
140
1.5
141
12.0
290
     0
  0
SCALE
  5
141
102
{ACAD_REACTORS
330
B6
102
}
330
B6
100
AcDbScale
 70
     0
300
3" = 1'-0"
140
3.0
141
12.0
290
     0
  0
SCALE
  5
142
102
{ACAD_REACTORS
330
B6
102
}
330
B6
100
AcDbScale
 70
     0
300
6" = 1'-0"
140
6.0
141
12.0
290
     0
  0
SCALE
  5
143
102
{ACAD_REACTORS
330
B6
102
}
330
B6
100
AcDbScale
 70
     0
300
1'-0" = 1'-0"
140
12.0
141
12.0
290
     0
  0
ACDBSECTIONVIEWSTYLE
  5
1AA
102
{ACAD_REACTORS
330
1A8
102
}
330
1A8
100
AcDbModelDocViewStyle
 70
     0
  3
Imperial24
290
     0
300
Imperial24
 90
        0
100
AcDbSectionViewStyle
 70
     0
 71
     0
 90
       78
 71
     1
340
11
 62
   256
 40
0.24
340
0
340
0
 62
   256
 40
0.24
300
I, O, Q, S, X, Z
 40
0.48
 90
        3
 40
0.18
 90
        1
 71
     2
340
16
 90
       25
 62
   256
340
16
 90
       50
 62
   256
 40
0.24
 40
0.0
 40
0.24
 71
     3
340
11
 62
   256
 40
0.24
 90
        1
 40
0.75
 90
        1
300
%<\AcVar ViewType \f "%tc1">% %<\AcVar ViewSectionStartId>%-%<\AcVar ViewSectionEndId>%\PSCALE %<\AcVar ViewScale \f "%sn">%
 71
     4
 62
   256
 62
   257
300
ANSI31
 40
1.0
 90
        0
290
     0
290
     0
 90
        6
 40
0.0
 40
1.570796326794896
 40
0.2617993877991494
 40
1.308996938995747
 40
-0.2617993877991494
 40
1.832595714594046
  0
TABLESTYLE
  5
87
102
{ACAD_XDICTIONARY
360
104
102
}
102
{ACAD_REACTORS
330
86
102
}
330
86
100
AcDbTableStyle
280
     0
  3
Standard
 70
     0
 71
     0
 40
0.06
 41
0.06
280
     0
281
     0
  7
Standard
140
0.18
170
     2
 62
     0
 63
     7
283
     0
 90
      512
 91
        0
  1

274
    -2
284
     1
 64
     0
275
    -2
285
     1
 65
     0
276
    -2
286
     1
 66
     0
277
    -2
287
     1
 67
     0
278
    -2
288
     1
 68
     0
279
    -2
289
     1
 69
     0
  7
Standard
140
0.25
170
     5
 62
     0
 63
     7
283
     0
 90
      512
 91
        0
  1

274
    -2
284
     1
 64
     0
275
    -2
285
     1
 65
     0
276
    -2
286
     1
 66
     0
277
    -2
287
     1
 67
     0
278
    -2
288
     1
 68
     0
279
    -2
289
     1
 69
     0
  7
Standard
140
0.18
170
     5
 62
     0
 63
     7
283
     0
 90
      512
 91
        0
  1

274
    -2
284
     1
 64
     0
275
    -2
285
     1
 65
     0
276
    -2
286
     1
 66
     0
277
    -2
287
     1
 67
     0
278
    -2
288
     1
 68
     0
279
    -2
289
     1
 69
     0
  0
VISUALSTYLE
  5
9F
102
{ACAD_REACTORS
330
99
102
}
330
99
100
AcDbVisualStyle
  2
2dWireframe
 70
     4
177
     3
291
     0
 70
    58
 90
        0
176
     1
 90
        2
176
     1
 90
        1
176
     1
 90
        0
176
     1
 40
0.6
176
     1
 40
30.0
176
     1
 62
     7
420
 16777215
176
     1
 90
        1
176
     1
 90
        4
176
     1
 62
     7
176
     1
 62
   257
176
     1
 90
        1
176
     1
 90
        1
176
     1
 40
1.0
176
     1
 90
        0
176
     1
 62
   257
176
     1
 40
1.0
176
     1
 90
        1
176
     1
 90
        6
176
     1
 90
        2
176
     1
 62
     7
176
     1
 90
        5
176
     1
 90
        0
176
     1
 90
        0
176
     1
290
     0
176
     1
 90
        1
176
     1
 40
0.0
176
     1
 90
        0
176
     1
290
     1
176
     1
290
     1
176
     1
290
     0
176
     1
290
     0
176
     1
290
     0
176
     1
290
     0
176
     1
290
     0
176
     1
290
     0
176
     1
290
     0
176
     1
 90
       50
176
     1
 40
0.0
176
     1
 40
1.0
176
     1
 90
        0
176
     1
 62
    18
420
        0
176
     1
 90
       50
176
     1
 90
        3
176
     1
 62
     5
420
      255
176
     1
290
     0
176
     1
 90
       50
176
     1
 90
       50
176
     1
 90
       50
176
     1
290
     0
176
     1
 90
       50
176
     1
 62
   256
176
     0
 40
1.0
176
     0
 90
        2
176
     1
  1
strokes_ogs.tif
176
     1
290
     0
176
     1
 40
1.0
176
     1
 40
1.0
176
     1
  0
VISUALSTYLE
  5
176D
102
{ACAD_REACTORS
330
99
102
}
330
99
100
AcDbVisualStyle
  2
3dWireframe
 70
     5
177
     3
291
     0
 70
    58
 90
        0
176
     1
 90
        2
176
     1
 90
        0
176
     1
 90
        0
176
     1
 40
0.6
176
     1
 40
30.0
176
     1
 62
     7
176
     1
 90
        1
176
     1
 90
        4
176
     1
 62
     7
176
     1
 62
   257
176
     1
 90
        1
176
     1
 90
        1
176
     1
 40
1.0
176
     1
 90
        0
176
     1
 62
   257
176
     1
 40
1.0
176
     1
 90
        1
176
     1
 90
        6
176
     1
 90
        2
176
     1
 62
     7
176
     1
 90
        5
176
     1
 90
        0
176
     1
 90
        0
176
     1
290
     0
176
     1
 90
        1
176
     1
 40
0.0
176
     1
 90
        0
176
     1
290
     0
176
     1
290
     1
176
     1
290
     1
176
     1
290
     0
176
     1
290
     0
176
     1
290
     0
176
     1
290
     0
176
     1
290
     0
176
     1
290
     0
176
     1
 90
       50
176
     1
 40
0.0
176
     1
 40
1.0
176
     1
 90
        0
176
     1
 62
    18
420
        0
176
     1
 90
       50
176
     1
 90
        3
176
     1
 62
     5
420
      255
176
     1
290
     0
176
     1
 90
       50
176
     1
 90
       50
176
     1
 90
       50
176
     1
290
     0
176
     1
 90
       50
176
     1
 62
   256
176
     0
 40
1.0
176
     0
 90
        2
176
     1
  1
strokes_ogs.tif
176
     1
290
     0
176
     1
 40
1.0
176
     1
 40
1.0
176
     1
  0
VISUALSTYLE
  5
9E
102
{ACAD_REACTORS
330
99
102
}
330
99
100
AcDbVisualStyle
  2
Basic
 70
     7
177
     3
291
     1
 70
    58
 90
        1
176
     1
 90
        0
176
     1
 90
        1
176
     1
 90
        0
176
     1
 40
0.6
176
     1
 40
30.0
176
     1
 62
     7
420
 16777215
176
     1
 90
        0
176
     1
 90
        4
176
     1
 62
     7
176
     1
 62
   257
176
     1
 90
        1
176
     1
 90
        1
176
     1
 40
1.0
176
     1
 90
        8
176
     1
 62
     7
176
     1
 40
1.0
176
     1
 90
        1
176
     1
 90
        6
176
     1
 90
        2
176
     1
 62
     7
176
     1
 90
        5
176
     1
 90
        0
176
     1
 90
        0
176
     1
290
     0
176
     1
 90
        1
176
     1
 40
0.0
176
     1
 90
        0
176
     1
290
     0
176
     1
290
     1
176
     1
290
     1
176
     1
290
     0
176
     1
290
     0
176
     1
290
     0
176
     1
290
     0
176
     1
290
     0
176
     1
290
     0
176
     1
 90
       50
176
     1
 40
0.0
176
     1
 40
1.0
176
     1
 90
        0
176
     1
 62
    18
420
        0
176
     1
 90
       50
176
     1
 90
        3
176
     1
 62
     5
420
      255
176
     1
290
     0
176
     1
 90
       50
176
     1
 90
       50
176
     1
 90
       50
176
     1
290
     0
176
     1
 90
       50
176
     1
 62
   256
176
     0
 40
1.0
176
     0
 90
        2
176
     1
  1
strokes_ogs.tif
176
     1
290
     0
176
     1
 40
1.0
176
     1
 40
1.0
176
     1
  0
VISUALSTYLE
  5
A5
102
{ACAD_REACTORS
330
99
102
}
330
99
100
AcDbVisualStyle
  2
Brighten
 70
    12
177
     3
291
     1
 70
    58
 90
        2
176
     1
 90
        2
176
     1
 90
        1
176
     1
 90
        0
176
     1
 40
0.6
176
     1
 40
30.0
176
     1
 62
     7
420
 16777215
176
     1
 90
        1
176
     1
 90
        4
176
     1
 62
     7
176
     1
 62
   257
176
     1
 90
        1
176
     1
 90
        1
176
     1
 40
1.0
176
     1
 90
        8
176
     1
 62
     7
176
     1
 40
1.0
176
     1
 90
        1
176
     1
 90
        6
176
     1
 90
        2
176
     1
 62
     7
176
     1
 90
        5
176
     1
 90
        0
176
     1
 90
        0
176
     1
290
     0
176
     1
 90
        1
176
     1
 40
50.0
176
     1
 90
        0
176
     1
290
     0
176
     1
290
     1
176
     1
290
     1
176
     1
290
     0
176
     1
290
     0
176
     1
290
     0
176
     1
290
     0
176
     1
290
     0
176
     1
290
     0
176
     1
 90
       50
176
     1
 40
0.0
176
     1
 40
1.0
176
     1
 90
        0
176
     1
 62
    18
420
        0
176
     1
 90
       50
176
     1
 90
        3
176
     1
 62
     5
420
      255
176
     1
290
     0
176
     1
 90
       50
176
     1
 90
       50
176
     1
 90
       50
176
     1
290
     0
176
     1
 90
       50
176
     1
 62
   256
176
     0
 40
1.0
176
     0
 90
        2
176
     1
  1
strokes_ogs.tif
176
     1
290
     0
176
     1
 40
1.0
176
     1
 40
1.0
176
     1
  0
VISUALSTYLE
  5
A9
102
{ACAD_REACTORS
330
99
102
}
330
99
100
AcDbVisualStyle
  2
ColorChange
 70
    16
177
     3
291
     1
 70
    58
 90
        2
176
     1
 90
        2
176
     1
 90
        3
176
     1
 90
        0
176
     1
 40
0.6
176
     1
 40
30.0
176
     1
 62
     8
420
  8421504
176
     1
 90
        1
176
     1
 90
        4
176
     1
 62
     7
176
     1
 62
   257
176
     1
 90
        1
176
     1
 90
        1
176
     1
 40
1.0
176
     1
 90
        8
176
     1
 62
     8
420
  8421504
176
     1
 40
1.0
176
     1
 90
        1
176
     1
 90
        6
176
     1
 90
        2
176
     1
 62
     7
176
     1
 90
        5
176
     1
 90
        0
176
     1
 90
        0
176
     1
290
     0
176
     1
 90
        1
176
     1
 40
0.0
176
     1
 90
        0
176
     1
290
     0
176
     1
290
     1
176
     1
290
     1
176
     1
290
     0
176
     1
290
     0
176
     1
290
     0
176
     1
290
     0
176
     1
290
     0
176
     1
290
     0
176
     1
 90
       50
176
     1
 40
0.0
176
     1
 40
1.0
176
     1
 90
        0
176
     1
 62
    18
420
        0
176
     1
 90
       50
176
     1
 90
        3
176
     1
 62
     5
420
      255
176
     1
290
     0
176
     1
 90
       50
176
     1
 90
       50
176
     1
 90
       50
176
     1
290
     0
176
     1
 90
       50
176
     1
 62
   256
176
     0
 40
1.0
176
     0
 90
        2
176
     1
  1
strokes_ogs.tif
176
     1
290
     0
176
     1
 40
1.0
176
     1
 40
1.0
176
     1
  0
VISUALSTYLE
  5
A2
102
{ACAD_REACTORS
330
99
102
}
330
99
100
AcDbVisualStyle
  2
Conceptual
 70
     9
177
     3
291
     0
 70
    58
 90
        3
176
     1
 90
        2
176
     1
 90
        1
176
     1
 90
        0
176
     1
 40
0.6
176
     1
 40
30.0
176
     1
 62
     7
420
 16777215
176
     1
 90
        2
176
     1
 90
        2
176
     1
 62
     7
176
     1
 62
   257
176
     1
 90
        1
176
     1
 90
        1
176
     1
 40
40.0
176
     1
 90
        8
176
     1
 62
     7
176
     1
 40
1.0
176
     1
 90
        1
176
     1
 90
        6
176
     1
 90
        2
176
     1
 62
     7
176
     1
 90
        3
176
     1
 90
        0
176
     1
 90
        0
176
     1
290
     0
176
     1
 90
        1
176
     1
 40
0.0
176
     1
 90
        0
176
     1
290
     0
176
     1
290
     1
176
     1
290
     1
176
     1
290
     0
176
     1
290
     0
176
     1
290
     0
176
     1
290
     0
176
     1
290
     0
176
     1
290
     0
176
     1
 90
       50
176
     1
 40
0.0
176
     1
 40
1.0
176
     1
 90
        0
176
     1
 62
    18
420
        0
176
     1
 90
       50
176
     1
 90
        3
176
     1
 62
     5
420
      255
176
     1
290
     0
176
     1
 90
       50
176
     1
 90
       50
176
     1
 90
       50
176
     1
290
     0
176
     1
 90
       50
176
     1
 62
   256
176
     0
 40
1.0
176
     0
 90
        2
176
     1
  1
strokes_ogs.tif
176
     1
290
     0
176
     1
 40
1.0
176
     1
 40
1.0
176
     1
  0
VISUALSTYLE
  5
A4
102
{ACAD_REACTORS
330
99
102
}
330
99
100
AcDbVisualStyle
  2
Dim
 70
    11
177
     3
291
     1
 70
    58
 90
        2
176
     1
 90
        2
176
     1
 90
        1
176
     1
 90
        0
176
     1
 40
0.6
176
     1
 40
30.0
176
     1
 62
     7
420
 16777215
176
     1
 90
        1
176
     1
 90
        4
176
     1
 62
     7
176
     1
 62
   257
176
     1
 90
        1
176
     1
 90
        1
176
     1
 40
1.0
176
     1
 90
        8
176
     1
 62
     7
176
     1
 40
1.0
176
     1
 90
        1
176
     1
 90
        6
176
     1
 90
        2
176
     1
 62
     7
176
     1
 90
        5
176
     1
 90
        0
176
     1
 90
        0
176
     1
290
     0
176
     1
 90
        1
176
     1
 40
-50.0
176
     1
 90
        0
176
     1
290
     0
176
     1
290
     1
176
     1
290
     1
176
     1
290
     0
176
     1
290
     0
176
     1
290
     0
176
     1
290
     0
176
     1
290
     0
176
     1
290
     0
176
     1
 90
       50
176
     1
 40
0.0
176
     1
 40
1.0
176
     1
 90
        0
176
     1
 62
    18
420
        0
176
     1
 90
       50
176
     1
 90
        3
176
     1
 62
     5
420
      255
176
     1
290
     0
176
     1
 90
       50
176
     1
 90
       50
176
     1
 90
       50
176
     1
290
     0
176
     1
 90
       50
176
     1
 62
   256
176
     0
 40
1.0
176
     0
 90
        2
176
     1
  1
strokes_ogs.tif
176
     1
290
     0
176
     1
 40
1.0
176
     1
 40
1.0
176
     1
  0
VISUALSTYLE
  5
175
102
{ACAD_REACTORS
330
99
102
}
330
99
100
AcDbVisualStyle
  2
EdgeColorOff
 70
    22
177
     3
291
     1
 70
    58
 90
        2
176
     0
 90
        2
176
     0
 90
        0
176
     0
 90
        0
176
     0
 40
0.6
176
     0
 40
30.0
176
     0
 62
     7
420
 16777215
176
     0
 90
        1
176
     0
 90
        4
176
     0
 62
     7
176
     0
 62
   257
176
     0
 90
        1
176
     0
 90
        1
176
     0
 40
1.0
176
     0
 90
        8
176
     2
 62
     7
176
     0
 40
1.0
176
     0
 90
        1
176
     0
 90
        6
176
     0
 90
        2
176
     0
 62
     7
176
     0
 90
        5
176
     0
 90
        0
176
     0
 90
        0
176
     0
290
     0
176
     0
 90
        1
176
     0
 40
0.0
176
     0
 90
        0
176
     0
290
     0
176
     1
290
     1
176
     1
290
     1
176
     1
290
     0
176
     1
290
     0
176
     1
290
     0
176
     1
290
     0
176
     1
290
     0
176
     1
290
     0
176
     1
 90
       50
176
     1
 40
0.0
176
     1
 40
1.0
176
     1
 90
        0
176
     1
 62
    18
420
        0
176
     1
 90
       50
176
     1
 90
        3
176
     1
 62
     5
420
      255
176
     1
290
     0
176
     1
 90
       50
176
     1
 90
       50
176
     1
 90
       50
176
     1
290
     0
176
     1
 90
       50
176
     1
 62
   256
176
     0
 40
1.0
176
     0
 90
        2
176
     1
  1
strokes_ogs.tif
176
     1
290
     0
176
     1
 40
1.0
176
     1
 40
1.0
176
     1
  0
VISUALSTYLE
  5
A8
102
{ACAD_REACTORS
330
99
102
}
330
99
100
AcDbVisualStyle
  2
Facepattern
 70
    15
177
     3
291
     1
 70
    58
 90
        2
176
     1
 90
        2
176
     1
 90
        1
176
     1
 90
        0
176
     1
 40
0.6
176
     1
 40
30.0
176
     1
 62
     7
420
 16777215
176
     1
 90
        1
176
     1
 90
        4
176
     1
 62
     7
176
     1
 62
   257
176
     1
 90
        1
176
     1
 90
        1
176
     1
 40
1.0
176
     1
 90
        8
176
     1
 62
     7
176
     1
 40
1.0
176
     1
 90
        1
176
     1
 90
        6
176
     1
 90
        2
176
     1
 62
     7
176
     1
 90
        5
176
     1
 90
        0
176
     1
 90
        0
176
     1
290
     0
176
     1
 90
        1
176
     1
 40
0.0
176
     1
 90
        0
176
     1
290
     0
176
     1
290
     1
176
     1
290
     1
176
     1
290
     0
176
     1
290
     0
176
     1
290
     0
176
     1
290
     0
176
     1
290
     0
176
     1
290
     0
176
     1
 90
       50
176
     1
 40
0.0
176
     1
 40
1.0
176
     1
 90
        0
176
     1
 62
    18
420
        0
176
     1
 90
       50
176
     1
 90
        3
176
     1
 62
     5
420
      255
176
     1
290
     0
176
     1
 90
       50
176
     1
 90
       50
176
     1
 90
       50
176
     1
290
     0
176
     1
 90
       50
176
     1
 62
   256
176
     0
 40
1.0
176
     0
 90
        2
176
     1
  1
strokes_ogs.tif
176
     1
290
     0
176
     1
 40
1.0
176
     1
 40
1.0
176
     1
  0
VISUALSTYLE
  5
9A
102
{ACAD_REACTORS
330
99
102
}
330
99
100
AcDbVisualStyle
  2
Flat
 70
     0
177
     3
291
     1
 70
    58
 90
        2
176
     1
 90
        1
176
     1
 90
        1
176
     1
 90
        2
176
     1
 40
0.6
176
     1
 40
30.0
176
     1
 62
     7
420
 16777215
176
     1
 90
        0
176
     1
 90
        0
176
     1
 62
     7
176
     1
 62
   257
176
     1
 90
        1
176
     1
 90
        1
176
     1
 40
1.0
176
     1
 90
        8
176
     1
 62
     7
176
     1
 40
1.0
176
     1
 90
        1
176
     1
 90
        6
176
     1
 90
        2
176
     1
 62
     7
176
     1
 90
        5
176
     1
 90
        0
176
     1
 90
        0
176
     1
290
     0
176
     1
 90
       13
176
     1
 40
0.0
176
     1
 90
        0
176
     1
290
     0
176
     1
290
     1
176
     1
290
     1
176
     1
290
     0
176
     1
290
     0
176
     1
290
     0
176
     1
290
     0
176
     1
290
     0
176
     1
290
     0
176
     1
 90
       50
176
     1
 40
0.0
176
     1
 40
1.0
176
     1
 90
        0
176
     1
 62
    18
420
        0
176
     1
 90
       50
176
     1
 90
        3
176
     1
 62
     5
420
      255
176
     1
290
     0
176
     1
 90
       50
176
     1
 90
       50
176
     1
 90
       50
176
     1
290
     0
176
     1
 90
       50
176
     1
 62
   256
176
     0
 40
1.0
176
     0
 90
        2
176
     1
  1
strokes_ogs.tif
176
     1
290
     0
176
     1
 40
1.0
176
     1
 40
1.0
176
     1
  0
VISUALSTYLE
  5
9B
102
{ACAD_REACTORS
330
99
102
}
330
99
100
AcDbVisualStyle
  2
FlatWithEdges
 70
     1
177
     3
291
     1
 70
    58
 90
        2
176
     1
 90
        1
176
     1
 90
        1
176
     1
 90
        2
176
     1
 40
0.6
176
     1
 40
30.0
176
     1
 62
     7
420
 16777215
176
     1
 90
        1
176
     1
 90
        0
176
     1
 62
     7
176
     1
 62
   257
176
     1
 90
        1
176
     1
 90
        1
176
     1
 40
1.0
176
     1
 90
        0
176
     1
 62
   257
176
     1
 40
1.0
176
     1
 90
        1
176
     1
 90
        6
176
     1
 90
        2
176
     1
 62
     7
176
     1
 90
        5
176
     1
 90
        0
176
     1
 90
        0
176
     1
290
     0
176
     1
 90
       13
176
     1
 40
0.0
176
     1
 90
        0
176
     1
290
     0
176
     1
290
     1
176
     1
290
     1
176
     1
290
     0
176
     1
290
     0
176
     1
290
     0
176
     1
290
     0
176
     1
290
     0
176
     1
290
     0
176
     1
 90
       50
176
     1
 40
0.0
176
     1
 40
1.0
176
     1
 90
        0
176
     1
 62
    18
420
        0
176
     1
 90
       50
176
     1
 90
        3
176
     1
 62
     5
420
      255
176
     1
290
     0
176
     1
 90
       50
176
     1
 90
       50
176
     1
 90
       50
176
     1
290
     0
176
     1
 90
       50
176
     1
 62
   256
176
     0
 40
1.0
176
     0
 90
        2
176
     1
  1
strokes_ogs.tif
176
     1
290
     0
176
     1
 40
1.0
176
     1
 40
1.0
176
     1
  0
VISUALSTYLE
  5
9C
102
{ACAD_REACTORS
330
99
102
}
330
99
100
AcDbVisualStyle
  2
Gouraud
 70
     2
177
     3
291
     1
 70
    58
 90
        2
176
     1
 90
        2
176
     1
 90
        1
176
     1
 90
        2
176
     1
 40
0.6
176
     1
 40
30.0
176
     1
 62
     7
420
 16777215
176
     1
 90
        0
176
     1
 90
        0
176
     1
 62
     7
176
     1
 62
   257
176
     1
 90
        1
176
     1
 90
        1
176
     1
 40
1.0
176
     1
 90
        0
176
     1
 62
     7
176
     1
 40
1.0
176
     1
 90
        1
176
     1
 90
        6
176
     1
 90
        2
176
     1
 62
     7
176
     1
 90
        5
176
     1
 90
        0
176
     1
 90
        0
176
     1
290
     0
176
     1
 90
       13
176
     1
 40
0.0
176
     1
 90
        0
176
     1
290
     0
176
     1
290
     1
176
     1
290
     1
176
     1
290
     0
176
     1
290
     0
176
     1
290
     0
176
     1
290
     0
176
     1
290
     0
176
     1
290
     0
176
     1
 90
       50
176
     1
 40
0.0
176
     1
 40
1.0
176
     1
 90
        0
176
     1
 62
    18
420
        0
176
     1
 90
       50
176
     1
 90
        3
176
     1
 62
     5
420
      255
176
     1
290
     0
176
     1
 90
       50
176
     1
 90
       50
176
     1
 90
       50
176
     1
290
     0
176
     1
 90
       50
176
     1
 62
   256
176
     0
 40
1.0
176
     0
 90
        2
176
     1
  1
strokes_ogs.tif
176
     1
290
     0
176
     1
 40
1.0
176
     1
 40
1.0
176
     1
  0
VISUALSTYLE
  5
9D
102
{ACAD_REACTORS
330
99
102
}
330
99
100
AcDbVisualStyle
  2
GouraudWithEdges
 70
     3
177
     3
291
     1
 70
    58
 90
        2
176
     1
 90
        2
176
     1
 90
        1
176
     1
 90
        2
176
     1
 40
0.6
176
     1
 40
30.0
176
     1
 62
     7
420
 16777215
176
     1
 90
        1
176
     1
 90
        0
176
     1
 62
     7
176
     1
 62
   257
176
     1
 90
        1
176
     1
 90
        1
176
     1
 40
1.0
176
     1
 90
        0
176
     1
 62
   257
176
     1
 40
1.0
176
     1
 90
        1
176
     1
 90
        6
176
     1
 90
        2
176
     1
 62
     7
176
     1
 90
        5
176
     1
 90
        0
176
     1
 90
        0
176
     1
290
     0
176
     1
 90
       13
176
     1
 40
0.0
176
     1
 90
        0
176
     1
290
     0
176
     1
290
     1
176
     1
290
     1
176
     1
290
     0
176
     1
290
     0
176
     1
290
     0
176
     1
290
     0
176
     1
290
     0
176
     1
290
     0
176
     1
 90
       50
176
     1
 40
0.0
176
     1
 40
1.0
176
     1
 90
        0
176
     1
 62
    18
420
        0
176
     1
 90
       50
176
     1
 90
        3
176
     1
 62
     5
420
      255
176
     1
290
     0
176
     1
 90
       50
176
     1
 90
       50
176
     1
 90
       50
176
     1
290
     0
176
     1
 90
       50
176
     1
 62
   256
176
     0
 40
1.0
176
     0
 90
        2
176
     1
  1
strokes_ogs.tif
176
     1
290
     0
176
     1
 40
1.0
176
     1
 40
1.0
176
     1
  0
VISUALSTYLE
  5
A1
102
{ACAD_REACTORS
330
99
102
}
330
99
100
AcDbVisualStyle
  2
Hidden
 70
     6
177
     3
291
     0
 70
    58
 90
        1
176
     1
 90
        2
176
     1
 90
        2
176
     1
 90
        0
176
     1
 40
0.6
176
     1
 40
30.0
176
     1
 62
     7
420
 16777215
176
     1
 90
        2
176
     1
 90
        2
176
     1
 62
     7
176
     1
 62
   257
176
     1
 90
        2
176
     1
 90
        1
176
     1
 40
40.0
176
     1
 90
        0
176
     1
 62
   257
176
     1
 40
1.0
176
     1
 90
        1
176
     1
 90
        6
176
     1
 90
        2
176
     1
 62
     7
176
     1
 90
        3
176
     1
 90
        0
176
     1
 90
        0
176
     1
290
     0
176
     1
 90
        1
176
     1
 40
0.0
176
     1
 90
        0
176
     1
290
     0
176
     1
290
     1
176
     1
290
     1
176
     1
290
     0
176
     1
290
     0
176
     1
290
     0
176
     1
290
     0
176
     1
290
     0
176
     1
290
     0
176
     1
 90
       50
176
     1
 40
0.0
176
     1
 40
1.0
176
     1
 90
        0
176
     1
 62
    18
420
        0
176
     1
 90
       50
176
     1
 90
        3
176
     1
 62
     5
420
      255
176
     1
290
     0
176
     1
 90
       50
176
     1
 90
       50
176
     1
 90
       50
176
     1
290
     0
176
     1
 90
       50
176
     1
 62
   256
176
     0
 40
1.0
176
     0
 90
        2
176
     1
  1
strokes_ogs.tif
176
     1
290
     0
176
     1
 40
1.0
176
     1
 40
1.0
176
     1
  0
VISUALSTYLE
  5
173
102
{ACAD_REACTORS
330
99
102
}
330
99
100
AcDbVisualStyle
  2
JitterOff
 70
    20
177
     3
291
     1
 70
    58
 90
        2
176
     0
 90
        2
176
     0
 90
        0
176
     0
 90
        0
176
     0
 40
0.6
176
     0
 40
30.0
176
     0
 62
     7
420
 16777215
176
     0
 90
        1
176
     0
 90
        4
176
     0
 62
     7
176
     0
 62
   257
176
     0
 90
        1
176
     0
 90
        1
176
     0
 40
1.0
176
     0
 90
       10
176
     2
 62
     7
176
     0
 40
1.0
176
     0
 90
        1
176
     0
 90
        6
176
     0
 90
        2
176
     0
 62
     7
176
     0
 90
        5
176
     0
 90
        0
176
     0
 90
        0
176
     0
290
     0
176
     0
 90
        1
176
     0
 40
0.0
176
     0
 90
        0
176
     0
290
     0
176
     1
290
     1
176
     1
290
     1
176
     1
290
     0
176
     1
290
     0
176
     1
290
     0
176
     1
290
     0
176
     1
290
     0
176
     1
290
     0
176
     1
 90
       50
176
     1
 40
0.0
176
     1
 40
1.0
176
     1
 90
        0
176
     1
 62
    18
420
        0
176
     1
 90
       50
176
     1
 90
        3
176
     1
 62
     5
420
      255
176
     1
290
     0
176
     1
 90
       50
176
     1
 90
       50
176
     1
 90
       50
176
     1
290
     0
176
     1
 90
       50
176
     1
 62
   256
176
     0
 40
1.0
176
     0
 90
        2
176
     1
  1
strokes_ogs.tif
176
     1
290
     0
176
     1
 40
1.0
176
     1
 40
1.0
176
     1
  0
VISUALSTYLE
  5
A7
102
{ACAD_REACTORS
330
99
102
}
330
99
100
AcDbVisualStyle
  2
Linepattern
 70
    14
177
     3
291
     1
 70
    58
 90
        2
176
     1
 90
        2
176
     1
 90
        1
176
     1
 90
        0
176
     1
 40
0.6
176
     1
 40
30.0
176
     1
 62
     7
420
 16777215
176
     1
 90
        1
176
     1
 90
        4
176
     1
 62
     7
176
     1
 62
   257
176
     1
 90
        7
176
     1
 90
        7
176
     1
 40
1.0
176
     1
 90
        8
176
     1
 62
     7
176
     1
 40
1.0
176
     1
 90
        1
176
     1
 90
        6
176
     1
 90
        2
176
     1
 62
     7
176
     1
 90
        5
176
     1
 90
        0
176
     1
 90
        0
176
     1
290
     0
176
     1
 90
        1
176
     1
 40
0.0
176
     1
 90
        0
176
     1
290
     0
176
     1
290
     1
176
     1
290
     1
176
     1
290
     0
176
     1
290
     0
176
     1
290
     0
176
     1
290
     0
176
     1
290
     0
176
     1
290
     0
176
     1
 90
       50
176
     1
 40
0.0
176
     1
 40
1.0
176
     1
 90
        0
176
     1
 62
    18
420
        0
176
     1
 90
       50
176
     1
 90
        3
176
     1
 62
     5
420
      255
176
     1
290
     0
176
     1
 90
       50
176
     1
 90
       50
176
     1
 90
       50
176
     1
290
     0
176
     1
 90
       50
176
     1
 62
   256
176
     0
 40
1.0
176
     0
 90
        2
176
     1
  1
strokes_ogs.tif
176
     1
290
     0
176
     1
 40
1.0
176
     1
 40
1.0
176
     1
  0
VISUALSTYLE
  5
174
102
{ACAD_REACTORS
330
99
102
}
330
99
100
AcDbVisualStyle
  2
OverhangOff
 70
    21
177
     3
291
     1
 70
    58
 90
        2
176
     0
 90
        2
176
     0
 90
        0
176
     0
 90
        0
176
     0
 40
0.6
176
     0
 40
30.0
176
     0
 62
     7
420
 16777215
176
     0
 90
        1
176
     0
 90
        4
176
     0
 62
     7
176
     0
 62
   257
176
     0
 90
        1
176
     0
 90
        1
176
     0
 40
1.0
176
     0
 90
        9
176
     2
 62
     7
176
     0
 40
1.0
176
     0
 90
        1
176
     0
 90
        6
176
     0
 90
        2
176
     0
 62
     7
176
     0
 90
        5
176
     0
 90
        0
176
     0
 90
        0
176
     0
290
     0
176
     0
 90
        1
176
     0
 40
0.0
176
     0
 90
        0
176
     0
290
     0
176
     1
290
     1
176
     1
290
     1
176
     1
290
     0
176
     1
290
     0
176
     1
290
     0
176
     1
290
     0
176
     1
290
     0
176
     1
290
     0
176
     1
 90
       50
176
     1
 40
0.0
176
     1
 40
1.0
176
     1
 90
        0
176
     1
 62
    18
420
        0
176
     1
 90
       50
176
     1
 90
        3
176
     1
 62
     5
420
      255
176
     1
290
     0
176
     1
 90
       50
176
     1
 90
       50
176
     1
 90
       50
176
     1
290
     0
176
     1
 90
       50
176
     1
 62
   256
176
     0
 40
1.0
176
     0
 90
        2
176
     1
  1
strokes_ogs.tif
176
     1
290
     0
176
     1
 40
1.0
176
     1
 40
1.0
176
     1
  0
VISUALSTYLE
  5
A3
102
{ACAD_REACTORS
330
99
102
}
330
99
100
AcDbVisualStyle
  2
Realistic
 70
     8
177
     3
291
     0
 70
    58
 90
        2
176
     1
 90
        3
176
     1
 90
        0
176
     1
 90
        2
176
     1
 40
0.6
176
     1
 40
30.0
176
     1
 62
     7
420
 16777215
176
     1
 90
        0
176
     1
 90
        0
176
     1
 62
     7
176
     1
 62
   257
176
     1
 90
        1
176
     1
 90
        1
176
     1
 40
1.0
176
     1
 90
        8
176
     1
 62
   257
176
     1
 40
1.0
176
     1
 90
        1
176
     1
 90
        6
176
     1
 90
        2
176
     1
 62
     7
176
     1
 90
        3
176
     1
 90
        0
176
     1
 90
        0
176
     1
290
     0
176
     1
 90
       13
176
     1
 40
0.0
176
     1
 90
        0
176
     1
290
     0
176
     1
290
     1
176
     1
290
     1
176
     1
290
     0
176
     1
290
     0
176
     1
290
     0
176
     1
290
     0
176
     1
290
     0
176
     1
290
     0
176
     1
 90
       50
176
     1
 40
0.0
176
     1
 40
1.0
176
     1
 90
        0
176
     1
 62
    18
420
        0
176
     1
 90
       50
176
     1
 90
        3
176
     1
 62
     5
420
      255
176
     1
290
     0
176
     1
 90
       50
176
     1
 90
       50
176
     1
 90
       50
176
     1
290
     0
176
     1
 90
       50
176
     1
 62
   256
176
     0
 40
1.0
176
     0
 90
        2
176
     1
  1
strokes_ogs.tif
176
     1
290
     0
176
     1
 40
1.0
176
     1
 40
1.0
176
     1
  0
VISUALSTYLE
  5
182
102
{ACAD_REACTORS
330
99
102
}
330
99
100
AcDbVisualStyle
  2
Shaded
 70
    27
177
     3
291
     0
 70
    58
 90
        2
176
     1
 90
        2
176
     1
 90
        1
176
     1
 90
        2
176
     1
 40
0.6
176
     1
 40
30.0
176
     1
 62
     7
420
 16777215
176
     1
 90
        0
176
     1
 90
        4
176
     1
 62
     7
176
     1
 62
   257
176
     1
 90
        1
176
     1
 90
        1
176
     1
 40
1.0
176
     1
 90
        8
176
     1
 62
   257
176
     1
 40
1.0
176
     1
 90
        1
176
     1
 90
        6
176
     1
 90
        2
176
     1
 62
     8
420
  7895160
176
     1
 90
        3
176
     1
 90
        0
176
     1
 90
        0
176
     1
290
     0
176
     1
 90
        5
176
     1
 40
0.0
176
     1
 90
        0
176
     1
290
     0
176
     1
290
     1
176
     1
290
     1
176
     1
290
     0
176
     1
290
     0
176
     1
290
     0
176
     1
290
     0
176
     1
290
     0
176
     1
290
     0
176
     1
 90
       50
176
     1
 40
0.0
176
     1
 40
1.0
176
     1
 90
        0
176
     1
 62
    18
420
        0
176
     1
 90
       50
176
     1
 90
        3
176
     1
 62
     5
420
      255
176
     1
290
     0
176
     1
 90
       50
176
     1
 90
       50
176
     1
 90
       50
176
     1
290
     0
176
     1
 90
       50
176
     1
 62
   256
176
     0
 40
1.0
176
     0
 90
        2
176
     1
  1
strokes_ogs.tif
176
     1
290
     0
176
     1
 40
1.0
176
     1
 40
1.0
176
     1
  0
VISUALSTYLE
  5
181
102
{ACAD_REACTORS
330
99
102
}
330
99
100
AcDbVisualStyle
  2
Shaded with edges
 70
    26
177
     3
291
     0
 70
    58
 90
        2
176
     1
 90
        2
176
     1
 90
        1
176
     1
 90
        2
176
     1
 40
0.6
176
     1
 40
30.0
176
     1
 62
     7
420
 16777215
176
     1
 90
        1
176
     1
 90
        2
176
     1
 62
     7
176
     1
 62
   257
176
     1
 90
        2
176
     1
 90
        1
176
     1
 40
1.0
176
     1
 90
        8
176
     1
 62
   257
176
     1
 40
1.0
176
     1
 90
        1
176
     1
 90
        6
176
     1
 90
        2
176
     1
 62
     7
176
     1
 90
        3
176
     1
 90
        0
176
     1
 90
        0
176
     1
290
     0
176
     1
 90
        5
176
     1
 40
0.0
176
     1
 90
        0
176
     1
290
     0
176
     1
290
     1
176
     1
290
     1
176
     1
290
     0
176
     1
290
     0
176
     1
290
     0
176
     1
290
     0
176
     1
290
     0
176
     1
290
     0
176
     1
 90
       50
176
     1
 40
0.0
176
     1
 40
1.0
176
     1
 90
        0
176
     1
 62
    18
420
        0
176
     1
 90
       50
176
     1
 90
        3
176
     1
 62
     5
420
      255
176
     1
290
     0
176
     1
 90
       50
176
     1
 90
       50
176
     1
 90
       50
176
     1
290
     0
176
     1
 90
       50
176
     1
 62
   256
176
     0
 40
1.0
176
     0
 90
        2
176
     1
  1
strokes_ogs.tif
176
     1
290
     0
176
     1
 40
1.0
176
     1
 40
1.0
176
     1
  0
VISUALSTYLE
  5
17E
102
{ACAD_REACTORS
330
99
102
}
330
99
100
AcDbVisualStyle
  2
Shades of Gray
 70
    23
177
     3
291
     0
 70
    58
 90
        2
176
     1
 90
        2
176
     1
 90
        3
176
     1
 90
        0
176
     1
 40
0.6
176
     1
 40
30.0
176
     1
 62
     7
420
 16777215
176
     1
 90
        2
176
     1
 90
        2
176
     1
 62
     7
176
     1
 62
     7
176
     1
 90
        1
176
     1
 90
        1
176
     1
 40
40.0
176
     1
 90
        8
176
     1
 62
     7
176
     1
 40
1.0
176
     1
 90
        1
176
     1
 90
        6
176
     1
 90
        2
176
     1
 62
     7
176
     1
 90
        3
176
     1
 90
        0
176
     1
 90
        0
176
     1
290
     0
176
     1
 90
        1
176
     1
 40
0.0
176
     1
 90
        0
176
     1
290
     0
176
     1
290
     1
176
     1
290
     1
176
     1
290
     0
176
     1
290
     0
176
     1
290
     0
176
     1
290
     0
176
     1
290
     0
176
     1
290
     0
176
     1
 90
       50
176
     1
 40
0.0
176
     1
 40
1.0
176
     1
 90
        0
176
     1
 62
    18
420
        0
176
     1
 90
       50
176
     1
 90
        3
176
     1
 62
     5
420
      255
176
     1
290
     0
176
     1
 90
       50
176
     1
 90
       50
176
     1
 90
       50
176
     1
290
     0
176
     1
 90
       50
176
     1
 62
   256
176
     0
 40
1.0
176
     0
 90
        2
176
     1
  1
strokes_ogs.tif
176
     1
290
     0
176
     1
 40
1.0
176
     1
 40
1.0
176
     1
  0
VISUALSTYLE
  5
17F
102
{ACAD_REACTORS
330
99
102
}
330
99
100
AcDbVisualStyle
  2
Sketchy
 70
    24
177
     3
291
     0
 70
    58
 90
        1
176
     1
 90
        2
176
     1
 90
        2
176
     1
 90
        0
176
     1
 40
0.6
176
     1
 40
30.0
176
     1
 62
     7
420
 16777215
176
     1
 90
        2
176
     1
 90
        2
176
     1
 62
     7
176
     1
 62
     7
176
     1
 90
        1
176
     1
 90
        1
176
     1
 40
40.0
176
     1
 90
       11
176
     1
 62
     7
176
     1
 40
1.0
176
     1
 90
        1
176
     1
 90
        6
176
     1
 90
        2
176
     1
 62
     7
176
     1
 90
        6
176
     1
 90
        0
176
     1
 90
        0
176
     1
290
     0
176
     1
 90
        1
176
     1
 40
0.0
176
     1
 90
        0
176
     1
290
     0
176
     1
290
     1
176
     1
290
     1
176
     1
290
     0
176
     1
290
     0
176
     1
290
     0
176
     1
290
     0
176
     1
290
     0
176
     1
290
     0
176
     1
 90
       50
176
     1
 40
0.0
176
     1
 40
1.0
176
     1
 90
        0
176
     1
 62
    18
420
        0
176
     1
 90
       50
176
     1
 90
        3
176
     1
 62
     5
420
      255
176
     1
290
     0
176
     1
 90
       50
176
     1
 90
       50
176
     1
 90
       50
176
     1
290
     0
176
     1
 90
       50
176
     1
 62
   256
176
     0
 40
1.0
176
     0
 90
        2
176
     1
  1
strokes_ogs.tif
176
     1
290
     0
176
     1
 40
1.0
176
     1
 40
1.0
176
     1
  0
VISUALSTYLE
  5
A6
102
{ACAD_REACTORS
330
99
102
}
330
99
100
AcDbVisualStyle
  2
Thicken
 70
    13
177
     3
291
     1
 70
    58
 90
        2
176
     1
 90
        2
176
     1
 90
        1
176
     1
 90
        0
176
     1
 40
0.6
176
     1
 40
30.0
176
     1
 62
     7
420
 16777215
176
     1
 90
        1
176
     1
 90
        4
176
     1
 62
     7
176
     1
 62
   257
176
     1
 90
        1
176
     1
 90
        1
176
     1
 40
1.0
176
     1
 90
       12
176
     1
 62
     7
176
     1
 40
1.0
176
     1
 90
        1
176
     1
 90
        6
176
     1
 90
        2
176
     1
 62
     7
176
     1
 90
        5
176
     1
 90
        0
176
     1
 90
        0
176
     1
290
     0
176
     1
 90
        1
176
     1
 40
0.0
176
     1
 90
        0
176
     1
290
     0
176
     1
290
     1
176
     1
290
     1
176
     1
290
     0
176
     1
290
     0
176
     1
290
     0
176
     1
290
     0
176
     1
290
     0
176
     1
290
     0
176
     1
 90
       50
176
     1
 40
0.0
176
     1
 40
1.0
176
     1
 90
        0
176
     1
 62
    18
420
        0
176
     1
 90
       50
176
     1
 90
        3
176
     1
 62
     5
420
      255
176
     1
290
     0
176
     1
 90
       50
176
     1
 90
       50
176
     1
 90
       50
176
     1
290
     0
176
     1
 90
       50
176
     1
 62
   256
176
     0
 40
1.0
176
     0
 90
        2
176
     1
  1
strokes_ogs.tif
176
     1
290
     0
176
     1
 40
1.0
176
     1
 40
1.0
176
     1
  0
VISUALSTYLE
  5
A0
102
{ACAD_REACTORS
330
99
102
}
330
99
100
AcDbVisualStyle
  2
Wireframe
 70
     5
177
     3
291
     0
 70
    58
 90
        0
176
     1
 90
        2
176
     1
 90
        0
176
     1
 90
        0
176
     1
 40
0.6
176
     1
 40
30.0
176
     1
 62
     7
420
 16777215
176
     1
 90
        1
176
     1
 90
        4
176
     1
 62
     7
176
     1
 62
   257
176
     1
 90
        1
176
     1
 90
        1
176
     1
 40
1.0
176
     1
 90
        0
176
     1
 62
   257
176
     1
 40
1.0
176
     1
 90
        1
176
     1
 90
        6
176
     1
 90
        2
176
     1
 62
     7
176
     1
 90
        3
176
     1
 90
        0
176
     1
 90
        0
176
     1
290
     0
176
     1
 90
        1
176
     1
 40
0.0
176
     1
 90
        0
176
     1
290
     0
176
     1
290
     1
176
     1
290
     1
176
     1
290
     0
176
     1
290
     0
176
     1
290
     0
176
     1
290
     0
176
     1
290
     0
176
     1
290
     0
176
     1
 90
       50
176
     1
 40
0.0
176
     1
 40
1.0
176
     1
 90
        0
176
     1
 62
    18
420
        0
176
     1
 90
       50
176
     1
 90
        3
176
     1
 62
     5
420
      255
176
     1
290
     0
176
     1
 90
       50
176
     1
 90
       50
176
     1
 90
       50
176
     1
290
     0
176
     1
 90
       50
176
     1
 62
   256
176
     0
 40
1.0
176
     0
 90
        2
176
     1
  1
strokes_ogs.tif
176
     1
290
     0
176
     1
 40
1.0
176
     1
 40
1.0
176
     1
  0
VISUALSTYLE
  5
180
102
{ACAD_REACTORS
330
99
102
}
330
99
100
AcDbVisualStyle
  2
X-Ray
 70
    25
177
     3
291
     0
 70
    58
 90
        2
176
     1
 90
        2
176
     1
 90
        1
176
     1
 90
        1
176
     1
 40
0.5
176
     1
 40
30.0
176
     1
 62
     7
420
 16777215
176
     1
 90
        1
176
     1
 90
        0
176
     1
 62
     7
176
     1
 62
   257
176
     1
 90
        1
176
     1
 90
        1
176
     1
 40
1.0
176
     1
 90
        8
176
     1
 62
     7
176
     1
 40
1.0
176
     1
 90
        1
176
     1
 90
        6
176
     1
 90
        2
176
     1
 62
     7
176
     1
 90
        3
176
     1
 90
        0
176
     1
 90
        0
176
     1
290
     0
176
     1
 90
       13
176
     1
 40
0.0
176
     1
 90
        0
176
     1
290
     0
176
     1
290
     1
176
     1
290
     1
176
     1
290
     0
176
     1
290
     0
176
     1
290
     0
176
     1
290
     0
176
     1
290
     0
176
     1
290
     0
176
     1
 90
       50
176
     1
 40
0.0
176
     1
 40
1.0
176
     1
 90
        0
176
     1
 62
    18
420
        0
176
     1
 90
       50
176
     1
 90
        3
176
     1
 62
     5
420
      255
176
     1
290
     0
176
     1
 90
       50
176
     1
 90
       50
176
     1
 90
       50
176
     1
290
     0
176
     1
 90
       50
176
     1
 62
   256
176
     0
 40
1.0
176
     0
 90
        2
176
     1
  1
strokes_ogs.tif
176
     1
290
     0
176
     1
 40
1.0
176
     1
 40
1.0
176
     1
  0
DICTIONARYVAR
  5
F0
102
{ACAD_REACTORS
330
66
102
}
330
66
100
DictionaryVariables
280
     0
  1
1:1
  0
DICTIONARYVAR
  5
EF
102
{ACAD_REACTORS
330
66
102
}
330
66
100
DictionaryVariables
280
     0
  1
STANDARD
  0
DICTIONARYVAR
  5
89
102
{ACAD_REACTORS
330
66
102
}
330
66
100
DictionaryVariables
280
     0
  1
STANDARD
  0
DICTIONARYVAR
  5
1B7
102
{ACAD_REACTORS
330
66
102
}
330
66
100
DictionaryVariables
280
     0
  1
Imperial24
  0
DICTIONARYVAR
  5
1B8
102
{ACAD_REACTORS
330
66
102
}
330
66
100
DictionaryVariables
280
     0
  1
Imperial24
  0
DICTIONARYVAR
  5
67
102
{ACAD_REACTORS
330
66
102
}
330
66
100
DictionaryVariables
280
     0
  1
2
  0
DICTIONARYVAR
  5
6B
102
{ACAD_REACTORS
330
66
102
}
330
66
100
DictionaryVariables
280
     0
  1
1
  0
DICTIONARYVAR
  5
A52
102
{ACAD_REACTORS
330
66
102
}
330
66
100
DictionaryVariables
280
     0
  1
BYLAYER
  0
DICTIONARYVAR
  5
A51
102
{ACAD_REACTORS
330
66
102
}
330
66
100
DictionaryVariables
280
     0
  1
ByLayer
  0
DICTIONARYVAR
  5
14D
102
{ACAD_REACTORS
330
66
102
}
330
66
100
DictionaryVariables
280
     0
  1
0
  0
DICTIONARYVAR
  5
14E
102
{ACAD_REACTORS
330
66
102
}
330
66
100
DictionaryVariables
280
     0
  1
0
  0
DICTIONARY
  5
194
330
22
100
AcDbDictionary
280
     1
281
     1
  0
DICTIONARY
  5
188
330
97
100
AcDbDictionary
280
     1
281
     1
  3
FBXASSET
360
189
  0
DICTIONARY
  5
186
330
96
100
AcDbDictionary
280
     1
281
     1
  3
FBXASSET
360
187
  0
DICTIONARY
  5
110
330
98
100
AcDbDictionary
280
     1
281
     1
  3
BUMPTILE
360
112
  3
DIFFUSETILE
360
111
  3
FBXASSET
360
18A
  3
OPACITYTILE
360
113
  3
REFLECTIONTILE
360
114
  0
DICTIONARY
  5
104
330
87
100
AcDbDictionary
280
     1
281
     1
  3
ACAD_ROUNDTRIP_2008_TABLESTYLE_CELLSTYLEMAP
360
1B7D
  0
XRECORD
  5
189
102
{ACAD_REACTORS
330
188
102
}
330
188
100
AcDbXrecord
280
     1
 70
     1
 90
429727718
  1
508B35C9-AEE7-456F-BE74-D52651303AC6
310
504B03040A0000080000B670623B3DEE336E79000000790000001B0000006175746F6465736B2D64657369676E2D7061636B6167652E786D6C3C3F786D6C2076657273696F6E3D22312E302220656E636F64696E673D227574662D3822203F3E3C666F726D6174733E3C666F726D61743E687474703A2F2F736368656D612E
310
6175746F6465736B2E636F6D2F64657369676E2D7061636B6167652F323030393C2F666F726D61743E3C2F666F726D6174733E504B0304140006080800B670623BD486FD9CA0000000F4000000130000005B436F6E74656E745F54797065735D2E786D6C7D8EC10E82300C865F65E91D8A1E8C310C0EEA1BF002731658846E
310
D98AC1B77784ABF1D8FE5FBFBF75BBCE937A534CCEB38643598122B6FEE978D0B0485F9C41B54DDD7D022595594E1A469170414C76A4D9A4D207E29CF43ECE46F218070CC6BECC4078ACAA135ACF422C856C0E68EA1BF5669944DDD7BCDE7B1F8E415D77AECB980613C2E4AC91FC167A2B244592486606FC29C8FD7F045B9A
310
EF7053A7E60B504B0304140006080800B670623B28ED286BEB0000007C01000008000000636F72652E786D6C8D90416EC3201045AF82665B6183218D6D61A254764FD00B204C5C94182C03558F5F9C3852BBEB6A467FFE9B197D71FA9E6FE8CBACC17AD7012D0820E3B41FAD9B3A48F1826B40272956EFE32F1B20A766D3C1
310
268314D3EAD3B24BDABB685CCCAAF3A3D94515828980F42D371D04FD696655A814B3235C8B45E9AB9A4C419F5D8653B2237A1CB163DE672FD6AC209BF3C08E0D1B30EB19C3FC9D72FCC6EB231EFA33EDE96BDD341517E5064B11EDFCBCAF57A3A2194156843498524CAA0FCA5B7268F9E185D42D21A2DCEC7FA0B48CFF8492
310
759155FBBB0F2C80A4F991FB408A72CB22977B50B96EB9C91F504B0304140006080800B670623B55019EA25F0000007C00000007000000636E782E786D6C4DCB3B0E80201045D1AD90E915ED2CF8AC45050C11660C8261F98AB1B07AC9C97D42D718D865D3E909258CFD00CCE24AC6E326A164D74DC0B4128928FF32603847
310
2BA13128B1252AC747C6BAB984FC68F0B87FE8960A5C09FE86CFB69FBA01504B0304140006080800B670623B7BC41AC871010000D40300000C0000006662782F636F72652E786D6CC553ED6E8320147D15C2DF4501B56B6D90A64BBB27D80B50A5CE54C120983EFEAE1F4DD7A56BBA5FF3879273EEE59E7310BE393735EA95
310
ED2AA333CC428A91D2B9292A5D66D8BB63B0C26823B835C67D2BC348CB46657880B1E0A535BE9DA1DC68A7B403549B42CDA0EC3AE530CA6B5864B8CB3F552343E91D5474A7B095F949962A6421D0502778E72C0840D390E18DC5F170E664C205F7BE2A66B62A605A75AC94C522DDEEE3651AEF837817C741F2CE92E02D592D
310
83FD6ECB76EC7595A651C2C9D02CB8AB9A8BBADC2AE954814544691A3016D0E883256BBA58278B17BA5A53CAC9507ED3E4DBE2C9265F691747B3DCA9ADC382819091F8E1162272A8933DE82182932144F88C09DF060D8140C84E1EEA8B8F1340BDCA9DB1093085F157AA97B557309586747CD0EF0B4EA64E983A6E0EAEEFCE
310
889E9EF17847386AA94B30211D2C0FDE0D3AF9A4610EAD5536E8DD1969631B593F67E381C33F5157F17725E5A636F6BF1491F980C8FC7B90E13E8A2F504B0304140006080800B670623B70102A487D0000009D0000000B0000006662782F636E782E786D6C4DCCD10A83201886E15B91FFDC95A5C30335ACCDFB886521330D
310
A76397BF1A1DECE883878F57749FD5A3B74D2F17830472A901D9F088930B8B849267CC01754AA418F3DF0D5018572BE160506249B16C274D761E8BCFBB7A179E27F65CB39A0F14D396184C9921B81F34C3ACA1B4B99ABB6E6F062A25AA5F69DF23ACBE504B0304140006080800B670623B3610CA3329010000120200003100
310
00006662782F42384135303843342D343331462D343546312D424341352D3532343432364645413344462F636F72652E786D6C8D515B6EC32010BC0AE22B55850D0E446E848992B43E412FE000495162B07854397EA176A4F62F3F2C9A9D991D58BEBB8F37F0AD7D30CE76905418026DA553C65E3A98E219B510EC04F7CEC5
310
3F3408EC30EA0E16180A7EF12E4D0B249D8DDAC68C5AA7F4020E21E80881BCE54B0783FCD2E3500D296646B856D320AFC34557A4CAEDCC133C449F0380794839A138B47B86DB2345744D7A44594FD0E1B867883594369BFE63BF7EEF793D0B054FC9A8456E548E63CE46FB674D8A58F068C6477CE9F510B582A2C1F80D1182
310
70F349E816B32D65AFB8DD62CCEB42FF274A937A52948C8DEB66893BCB021484D7734370E5D2E9F608A3EF93F3119479ABA0E50B14B8C298119A43CCC4FCFCECB8A18B6388CEE7EF5D5D4F994BD86CBBA182D76543B9FCAE2FD7B24DF103504B0304140006080800B670623B1B8617914E0100003303000030000000666278
310
2F42384135303843342D343331462D343546312D424341352D3532343432364645413344462F636E782E786D6CD593C16EC32010447F0571AD6CE3D489D20813A9877E410FBD62D82434182CC055F3F75D1292E692438FBD206B7698593D61BEFD1E2DF982108D773D6D6B460938E5B571FB9ECE6957AD29D90A1EBC4F7736
310
4A9C1CA1A759A682EF839FA72269D8C9D92654AD71C72206887E0E0A22CAF926B15E498B01E0AA19451807D01A34B919F16B070157417138917400F2F6FA41FCF0092A45DEE414C19BDC21783E4BD39D891265658C3D8DEA00A3ACE59CBC8678ACB54CB26EEB6BD7839D7E9348BE70AD9C8321B9BCA7F9A4A26C542347DEE0
310
50F09802D22BA6749A800A394DD62899107273365E3C82CFC6A55557BC06C10774B7ABE7AEC3B0F34CF06446280E154026D0542C187BA9DAB6628BF7B6DBB0E5A65B3EB1F58631DE64BBE083F7B65CC218087E22CABB042E51D1F2268F1FE12B3EA24D40D63E9CFE00120194D60B9D5BC67FE6D39CDF37E20AF817881F504B
310
0304140006080800B670623BBFEF2E3B690500003C100000340000006662782F42384135303843342D343331462D343546312D424341352D3532343432364645413344462F6F626A656374732E786D6CAD575D739B3814FD2B0CFB0C98D84E931D4227B6938EA793B6534F3BFB90198F0099B001899144EAECAFDF231018B0
310
D37A3FFC609090EEE7B94757C1FB7D915B2F54C88CB31BDB7727B64559CC938CA53776A576CE956DBD0F03C1B9EA2DB32D460A7A63EB693B0C52C1ABD24C257447AA5C8D66EF177F5832A68CDA569C13296F6C193FD182B8A4523CA1F2D94D88226EBADBBBBEDB2C1C8A4D05299F46424B222853B014F30C52ACC6287F389C
310
D85E1878FA7B18E87FB36AFAF62AAFF667A83F635211161F291B8999FAB3D5DDC5FCDA99CF6653677679E13B8BFBC5CAF1DF4D27CBCBE5F2FAF6EE1A8AA51290642C117467871F101B91C581D77CEA2C36869F3229E68CD1B8F61F1ED6361B89092D294B90C78C4A68EB793D190E7D1D9BDEE7A91E1B95FDE9F3BCEAEFE809
310
6A6D6F9F7D4B79F4275C90E7A04248AA51D5C4C738DAE06F72885AC4796EBE65D22A88A22223B995679120E2D50EB1542F098381188D4EA111AE3DB043FF20AF6F2B4AE3D7D83D65E5AECA730D4D3BAC91BD05FEA992B565D95F549CD6069B90AB2A63EACA38A45E4B6A87D781574F86817E4C2FCCC72690D62E2729520E37
310
9BAF234797BAF6D62B3BFC781FED37BA1E4F2B2F052FA9501A3E80569BB8F6A9A364D4FA67654E6F803383981F82F21591FF84F23D9882BC896C3FDBCF8C162508933B2E0AE4C69DD43F6BD2BE38DDDBF10BF86CB4FA784D37F3AF16075E67EC9030DECA1FC0A55373F5DFF3378C591FA9BDF485C10B0A8C8BA909E5262639
310
A8E72163488806A595734C81CB77D1DE0ED7604A303B76913CEC0272F412782FF88EFF4636D8AA56DF7B322474C4B767303F625997056C7B032C473C592B36CEBD15F3F9FF5233B7ABCDC74D257624A60F8658567497B14CE1EC3C80B76FD02011038F9EE9EB0F2E12387A9C844D3F09855125116D1D731DF8B43D2CF4E0A0
310
79A020C6BE946BCE0B7EA1E1219331CD73C228AF5A2DDD31A4B1DA918CE91350854D40A71723140BFA92E94E62B0626016CEFA5864A50E5977E8753CEDBEE1CBB7F52780D20E17AF0BA0F5F9B02A3AD07DCC732EB6D1EBB661421BE0C39E21BABF0FE16D22EA6929407C8DE596724C88B749B6DB5512BC7B228ADFD7CB7EA6
310
3A22397E690BA8D5D8D4E40CEC8CDA23C2C0B7D5898640101CEC9C6D331CE328CB93CAFBBAC70A642DF70DF95155945B52F08AA973C23469FD69ADEF84F7BB18F983A8F8C90E37F5D35980B2139A1C523540813E824EF83448CF7C72B598CE97D7CEEDDDDD3B6736BFBC771677EF66CE6A7E7139F7A793E9EDF2B2B3A8B624
310
0CDA13AA5F8388264EC4A0129909F3B7F5A16CEDF08128E97D680ACA4B9BE7B7B58BB638F0B00700EF36AE8B32A705658A68F83EE897FC2B41573190D1CCAF0B92D233A47CFEB019D9809933F67DD1A5467F8CF69AD9A5AE859342D45355448C64F968A371DC2D596ADC6E43D93D1B466F877A64E2893E54F23C4B40388995
310
525E5005DA3983ED45412510D3EFCA13737B3863F74BD30F2A12E5B4B5E489A025CE25500DB855B11ACE5BBFA185D35DD48D8DC3CE7DC69F2944DB42AA6F6CF09BCA622ADD08C7A36E7C6AE18000BAB08E040135C2D21C9D75B3A91B77BB746C403F38018DFE6EC939DD92F16B40BC05294B9CDA035AAD6D330AE27FE4786B
310
8E45145EA34A75BE1C263A676A35A8ACC6297337400BF16C54EF515F3F77CB77EB3583889C754FFA29081AA98E2222ADEF05DA3E63D2EDEA8B8756C05A7FB6CABC4A91CBF325398202CC952E70A008A830324BA200D5E5EF8F5F04C75DB4B0EE3340E071C98B823333B83577596BF3849B69F2085AA0FAFA212F26BEFF5877
310
FDE622B28D88A42E49E43326DA82D31E8CB006401E1DA726059ECEC168F97A6599036306A135688F9AD2E61A6EA178F4CD51974A9F2CCB9F36FE5EBD14601068D9C3BF01504B0304140006080000B670623B000000000000000000000000350000006662782F42384135303843342D343331462D343546312D424341352D35
310
32343432364645413344462F76657274696365732E62696E504B0304140006080800B670623BF270F1330600000004000000360000006662782F42384135303843342D343331462D343546312D424341352D3532343432364645413344462F747269616E676C65732E62696E636660600000504B0304140006080000B67062
310
3B000000000000000000000000370000006662782F42384135303843342D343331462D343546312D424341352D3532343432364645413344462F617474726962757465732E62696E504B0304140006080800B670623B08DA0BD19000000041010000360000006662782F42384135303843342D343331462D343546312D4243
310
41352D3532343432364645413344462F6469726563746F72792E786D6C858F410AC3201045AF22B36F53E9A60B35CBEEBAE80D244E44489C6234F4F835464A48035D0DF398FF9F8AF63D0E6CC63039F212F8F9020C7D47C6792B21C5FE7403D62A1188E2E60C98D7234A5830286103A55745067B9D86B8A3CF9C7F90C11DE6
310
07FB144396D7B6A82D282E9A152AD114D5EF2CB866EEE831B8EEA07A7BB5A8D7D61A2BAAEB7FD5F70921FF497D00504B0304140006080800B670623B3B4606F3FE000000A00100003B0000006662782F42384135303843342D343331462D343546312D424341352D3532343432364645413344462F7265736F75726365732F
310
636F72652E786D6C8D504B6E833010BD0A9A6D65B08134808CA354A427E8052C332156828DFCA97AFC9A40A576D7CDCCE87D344F8F9FBEE647F689CE6B6B7A6039850C8DB2A336530F315C4903D94970676DF82583CCC8197B5861107C72362E3BA4AC096842428D1D7107A5F71820538F74F4E0D50D6799CB1892C2DFF345
310
AABB9C306779A2934E701F5C0A906D4FD609C2A1B7D129F4BCD858C163D4E3AED163FAA9AF1A1D88F67CA98E6D35906AA82A52BFB39ABCD5CD915C86331BD86BD3B665CD8BD52C78D0F34F46E550061C419494B6843142CB0F5677F4D0D58717DA7494F26295FF31C565FCA7296A13AA728FBBD93C0896823C09C18BB5AFB4
310
9E65A6BD762BBE01504B010214000A0000080000B670623B3DEE336E79000000790000001B00000000000000000000000000000000006175746F6465736B2D64657369676E2D7061636B6167652E786D6C504B01021400140006080800B670623BD486FD9CA0000000F40000001300000000000000000000000000B2000000
310
5B436F6E74656E745F54797065735D2E786D6C504B01021400140006080800B670623B28ED286BEB0000007C010000080000000000000000000000000083010000636F72652E786D6C504B01021400140006080800B670623B55019EA25F0000007C000000070000000000000000000000000094020000636E782E786D6C50
310
4B01021400140006080800B670623B7BC41AC871010000D40300000C00000000000000000000000000180300006662782F636F72652E786D6C504B01021400140006080800B670623B70102A487D0000009D0000000B00000000000000000000000000B30400006662782F636E782E786D6C504B01021400140006080800B6
310
70623B3610CA3329010000120200003100000000000000000000000000590500006662782F42384135303843342D343331462D343546312D424341352D3532343432364645413344462F636F72652E786D6C504B01021400140006080800B670623B1B8617914E010000330300003000000000000000000000000000D10600
310
006662782F42384135303843342D343331462D343546312D424341352D3532343432364645413344462F636E782E786D6C504B01021400140006080800B670623BBFEF2E3B690500003C10000034000000000000000000000000006D0800006662782F42384135303843342D343331462D343546312D424341352D35323434
310
32364645413344462F6F626A656374732E786D6C504B01021400140006080000B670623B0000000000000000000000003500000000000000000000000000280E00006662782F42384135303843342D343331462D343546312D424341352D3532343432364645413344462F76657274696365732E62696E504B010214001400
310
06080800B670623BF270F133060000000400000036000000000000000000000000007B0E00006662782F42384135303843342D343331462D343546312D424341352D3532343432364645413344462F747269616E676C65732E62696E504B01021400140006080000B670623B00000000000000000000000037000000000000
310
00000000000000D50E00006662782F42384135303843342D343331462D343546312D424341352D3532343432364645413344462F617474726962757465732E62696E504B01021400140006080800B670623B08DA0BD1900000004101000036000000000000000000000000002A0F00006662782F42384135303843342D3433
310
31462D343546312D424341352D3532343432364645413344462F6469726563746F72792E786D6C504B01021400140006080800B670623B3B4606F3FE000000A00100003B000000000000000000000000000E1000006662782F42384135303843342D343331462D343546312D424341352D3532343432364645413344462F72
310
65736F75726365732F636F72652E786D6C504B0506000000000E000E0080040000651100000000
  0
XRECORD
  5
187
102
{ACAD_REACTORS
330
186
102
}
330
186
100
AcDbXrecord
280
     1
 70
     1
 90
429727718
  1
887D55A9-D0DD-414E-B741-A7DCD4DA2B4C
310
504B03040A0000080000B670623B3DEE336E79000000790000001B0000006175746F6465736B2D64657369676E2D7061636B6167652E786D6C3C3F786D6C2076657273696F6E3D22312E302220656E636F64696E673D227574662D3822203F3E3C666F726D6174733E3C666F726D61743E687474703A2F2F736368656D612E
310
6175746F6465736B2E636F6D2F64657369676E2D7061636B6167652F323030393C2F666F726D61743E3C2F666F726D6174733E504B0304140006080800B670623BD486FD9CA0000000F4000000130000005B436F6E74656E745F54797065735D2E786D6C7D8EC10E82300C865F65E91D8A1E8C310C0EEA1BF002731658846E
310
D98AC1B77784ABF1D8FE5FBFBF75BBCE937A534CCEB38643598122B6FEE978D0B0485F9C41B54DDD7D022595594E1A469170414C76A4D9A4D207E29CF43ECE46F218070CC6BECC4078ACAA135ACF422C856C0E68EA1BF5669944DDD7BCDE7B1F8E415D77AECB980613C2E4AC91FC167A2B244592486606FC29C8FD7F045B9A
310
EF7053A7E60B504B0304140006080800B670623BBC1638F5EC0000007C01000008000000636F72652E786D6C8D90416EC3201045AF82665B61836BE2D8C24471DB9CA01740401C94182C03558F5F9C3852BBEB6A467FFE9B197D7EF89E6EE8CB2CC17AD7032D0820E394D7D68D3DA478C67B4007C117EFE32F1B202727D3C3
310
2A83E0E3E2D3BC49CABB685CCCAAF3DA6CA20CC14440EA969B1E82BA98491632C5EC08D76296EA2A4753D06797E194AC468F2356E77DF66CCD02825543D50CACC62D39ED70FDC68EB8FD68F6F8787A6784342D1DDA1D2F5758F068A7E77DB518198D065111D2624A31A93E69DD11D6D5EC85EC3B4278B9DAFF4069D6FF8492
310
75F1B5DADE7D600104CD8FDC0782976B16B9DC83CA75CD4DFC00504B0304140006080800B670623B55019EA25F0000007C00000007000000636E782E786D6C4DCB3B0E80201045D1AD90E915ED2CF8AC45050C11660C8261F98AB1B07AC9C97D42D718D865D3E909258CFD00CCE24AC6E326A164D74DC0B4128928FF326038
310
472BA13128B1252AC747C6BAB984FC68F0B87FE8960A5C09FE86CFB69FBA01504B0304140006080800B670623B3586FFB671010000D40300000C0000006662782F636F72652E786D6CC553ED6E8320147D15C2DF4541A76D6D90A6DDD627D80B50A4CE54C120983EFEAE1F4DD7A55BBA5FF3879273EEE59E7310B6393735EA
310
95ED2AA3731C851423A5A5292A5DE6D8BB63B0C268C39935C67D29C3488B46E578803167A535BE9D2169B453DA01AA4DA16650749D7218C91A1639EEE4876A4428BC838AEE14B6429E44A9C228041AEA38EB9C0501681A32BC313F1ECE8C4C3867DE57C5CC56054CAB8E95B298A7F12E5EEED224C8E87E11242FE936C8DE96
310
AB60BB7F4D295D66D12E5B30323473E6AAE6A24E5A259C2A308F29CD82280A68FC1E256B9AAE93F489AED694323294DF34F9B678B0C957DA3DC7B3DCA9ADC33C022123F1CD2D44E450277AD04338234388F01913BE0D1A0281909D38D4171F27807A259DB1093085F157AA17B557309586747CD0CF0B46A64E983A6E0EAEEF
310
CE881F9EF1FB8E70D44297604238581EBC1B74B249C31C5AAB6CD0BB33D2C636A27ECCC62F0EFF445DC5DF95244D6DEC7F2922F30191F9F720C37DE49F504B0304140006080800B670623B4220A0FF7D0000009D0000000B0000006662782F636E782E786D6C4DCCD10A83201886E15B91FFDCE542CB0335D0EC3E6259C84A
310
C3E9D8E5AF46073BFAE0E1E315DD675BD1DBA5978F41C2FD4600B9F088930F8B849267CC01754AA418F3DF0D50183727E164506249B1EC174D6E1ECB9A0F5D7D785E68DB8151CD286E5A5363CA6B8A39E90D36D40E96B086F55A43A544F52B1D7B86D517504B0304140006080800B670623B2FA3FEDE290100001202000031
310
0000006662782F45374635344235342D363743322D343832342D383044432D4334454645303536354442422F636F72652E786D6C8D515B6EC32010BC0AE22B55850D2E386E848994D7097A0117488A1283C5A3CAF10BB523B57FF961D1ECCCECC0F2ED7DBC816FED8371B687A4C210682B9D32F6D2C314CFA883602BB8772E
310
FEA141608751F7B0C050F08B77695A20E96CD43666D43AA5177008414708E42D5F7A18E4971E876A483133C2B59A06791D2EBA22556E679EE021FA1C00CC43CA09C5717D6274C7286AD7FB06D1AEA1A8C3873DDAD3E3E98859CB0EBB1DAF67A1E02919B5C88DCA71CCD968FFAC49110B1ECDF8882FBD1EA256503418BF2342
310
106E3E08DD60B6A1EC15771B8C795DE8FF4469524F8A92B1F1AD59E2CEB20005E1F5DC105CB9F4797B84D1F7C9F908CABC55D0F2050A5C61CC1AD2F27A26E6E767C7962E8E213A9FBF7775FDCC5CC266DB960A5E970DE5F2BBBE5CCB36C50F504B0304140006080800B670623B1B8617914E01000033030000300000006662
310
782F45374635344235342D363743322D343832342D383044432D4334454645303536354442422F636E782E786D6CD593C16EC32010447F0571AD6CE3D489D20813A9877E410FBD62D82434182CC055F3F75D1292E692438FBD206B7698593D61BEFD1E2DF982108D773D6D6B460938E5B571FB9ECE6957AD29D90A1EBC4F77
310
364A9C1CA1A759A682EF839FA72269D8C9D92654AD71C72206887E0E0A22CAF926B15E498B01E0AA19451807D01A34B919F16B070157417138917400F2F6FA41FCF0092A45DEE414C19BDC21783E4BD39D891265658C3D8DEA00A3ACE59CBC8678ACB54CB26EEB6BD7839D7E9348BE70AD9C8321B9BCA7F9A4A26C542347DE
310
E050F09802D22BA6749A800A394DD62899107273365E3C82CFC6A55557BC06C10774B7ABE7AEC3B0F34CF06446280E154026D0542C187BA9DAB6628BF7B6DBB0E5A65B3EB1F58631DE64BBE083F7B65CC218087E22CABB042E51D1F2268F1FE12B3EA24D40D63E9CFE00120194D60B9D5BC67FE6D39CDF37E20AF817881F50
310
4B0304140006080800B670623B29652116630500003C100000340000006662782F45374635344235342D363743322D343832342D383044432D4334454645303536354442422F6F626A656374732E786D6CAD575D739B3814FD2B0CFB0C989834C90EA1639B24E3E9A6EDD4D3CE3E64C623834CD8006224913AFDF57B040203
310
B65BEF871F0C12D2FD3CF7E8CA7FBFCB33E3957291B2E2D674ED8969D02262715A24B76625B7D6B569BC0F7CCE98EC2D338D82E4F4D654D366E0279C55A59E8AE99654991CCDDECFFF3444440B6A1A514684B83545F44C7362934AB2988A173B2692D8C97667BB76B3702836E1A47C1E092D09A78584A5982F20C5688C7287
310
C389E904BEA3BE07BEFAD7ABA6A75739B53F43FD69212429A20365233153D70BEF2E2E6FAC4BCF9B5ADEBB0BD79ADFCF43CBBD9A4E16EF168B9BD9DD0D140BC921495BC2E9D60C1E101B9E46BED37CEA2CD6861F3329624541A3DA7F7858DBAC25C6B4A4458C3CA654405BCFEBC970E8AAD8F43E4FD558ABEC4F9FE7557F47
310
4F506B7BFBEC5BCA367FC105710E2AB8A00A554D7CB4A30DFE26FBA86D18CBF4B75418399194A72433B274C3097F33032C554B027F2046A1932B842B0FCCC0DDCBEBDB8AD2F835768F59B9ADB24C41D30C6A64AF817F2A456D59FA83F2E3DA60137255A585BCD60EC9B7929AC18DEFD49381AF1ED30BFDB109A4B1CD488294
310
C3CDE6EBC8D185AABD6568061FEE37BB95AAC7E3CA4BCE4ACAA5820FA0D526AE7DAA2869B5EE5999531BE0CC20E6FBA07C41E43FA27CF7A6206F3CDD793B4F6B919C1462CB788EDCD893FA674CDA17AB7B3B7C019F8D561FAEE966FED562DFE98C1D12C6A9FC015C2A35D7FF3D7FC398F591DA4B5FE0BFA2C0189FEA50AE22
310
92817A1ED3020951A03432862970F976B33383259812CC8E5D240BBA801CBCF8CE2BBEE3BF910DB6AAD5F79E05123AE2DB33981FB1ACCB02B69D00CB014FD68AB573A7627EF9BFD4CC2C5C7D58557C4B22FAA88925A4DBB44825CECE3D78FB060D1231F0E885BE7D673C86A3874958F593906B5502D1563157814FDAC3420D
310
F69A070A22EC4B98E23CFF171A1E5311D12C23056555ABA53B8614563B92D17D02AAB009E8F46284624E5F53D5490C560CCCC2591FF1B45421EB0EBD8EA7ED13BE7C5D7E0428CD60FEF60779EB13E6664FF711CB185F6FDED60D139A001FF60CD1FD6D086F1D51474901E26B2CB794A343BC8ED3EDB612E0DD2351FCB65CF4
310
33D511C9E14B5B40ADC6A6263DB0336A8F700DDF56271A024E70B0B3629DE21847591E55DED73D56206AB927E46FAABC5C939C55853C274C93D69FD6FA4E78BF8B11DF898C9ECD60553FAD39283BA6F18984AA23E8884F83F45C5F5F859797B31B2B9C84A1E5B9DE9D35BFF25C6B76152E422F9C5DCC3D847F5801ED09D5AF
310
41441327A25FF15487F9EB725FB666F048A4701E9A827292E6F97569A32DF61DEC01C0BB8DCBBCCC684E0B49147C1FD54BF685A0AB18C868E6973949E819523E3DAC463660E68C7D9F55A9D1EFA3BD7A76A16AE1A810F95CE59B82A4D968A376DC2E8B44BBDD86B27B368CDE0ED548C7137DA860591A83706223A12CA712B4
310
7306DBF39C0A20A6DF95C7FAF670C6EED7A61F946493D1D6926782963813403548A78AE470DEF80D2D9CEAA26E4D1C76F60BFE74219A06527D6B82DF641A51616F703CAAC6A7160E08A00BEB4810A0274592A1B36E3675E36E978A0DE80727A0D6DF2D39A75BD27E0D8837276589537B40ABB56D5A41F48F1C6FCD3188C4EB
310
A6929D2FFB89CE995A4D00AE813BDD032DC48B56BD437DFDDC2DD7AED70C2272D63DE9A72068A45A92F0A4BE17A8A06B9366E16707AD80B1FC649459952097E74BB23805982B55E0401150A165964402AA8BDF9F3E7386BB686EDCA780C0D382E5392BF460A6EFB2C6EA1937D3F809B440D5F5435C4C5CF7A9EEFAF54564BD
310
2182DA24162F98680B4E7930C21A0079709CEAEB99A372305ABE0C0D7D6078105A83F6A0296DAEE1068A47DD1C55A9F4C9B2FC69E3EFD44B81028E963DF81B504B0304140006080000B670623B000000000000000000000000350000006662782F45374635344235342D363743322D343832342D383044432D433445464530
310
3536354442422F76657274696365732E62696E504B0304140006080800B670623BF270F1330600000004000000360000006662782F45374635344235342D363743322D343832342D383044432D4334454645303536354442422F747269616E676C65732E62696E636660600000504B0304140006080000B670623B00000000
310
0000000000000000370000006662782F45374635344235342D363743322D343832342D383044432D4334454645303536354442422F617474726962757465732E62696E504B0304140006080800B670623B08DA0BD19000000041010000360000006662782F45374635344235342D363743322D343832342D383044432D4334
310
454645303536354442422F6469726563746F72792E786D6C858F410AC3201045AF22B36F53E9A60B35CBEEBAE80D244E44489C6234F4F835464A48035D0DF398FF9F8AF63D0E6CC63039F212F8F9020C7D47C6792B21C5FE7403D62A1188E2E60C98D7234A5830286103A55745067B9D86B8A3CF9C7F90C11DE607FB144396
310
D7B6A82D282E9A152AD114D5EF2CB866EEE831B8EEA07A7BB5A8D7D61A2BAAEB7FD5F70921FF497D00504B0304140006080800B670623B6378F24DFF000000A00100003B0000006662782F45374635344235342D363743322D343832342D383044432D4334454645303536354442422F7265736F75726365732F636F72652E
310
786D6C8D504B6E833010BD0A9A6D65B0094E42641C85B639412F6099496225D8C89FAAC7AF09546A77DDCC8CDE47F3F4C4F16B7C149FE88371B603565228D06A37187BED20C50BD9437194C23B177FC9A0B06AC40E6618A4B87A97A615D2CE46B431A3D60DB8822A048C50E8473E3A08FA86A32A558A5911EEE5A4F45D5DB1
310
6465A6B34E8A107D0E502C4FE609D26370C96B0CA25A58295232C3AA3143FE692E063D485EF7F5AEE71BD2D2F39634AFFC44DAF7DD9E9CCE6F9CD25DCBFA762BAAD92C4534E34F46ED51451C40D694B6843142EB0FD61C283F34FC85EE0F948A6A96FF31A569F8A729191B37F51A77B105902C0779125254735F793DCBCC7B
310
EE567E03504B010214000A0000080000B670623B3DEE336E79000000790000001B00000000000000000000000000000000006175746F6465736B2D64657369676E2D7061636B6167652E786D6C504B01021400140006080800B670623BD486FD9CA0000000F40000001300000000000000000000000000B20000005B436F6E
310
74656E745F54797065735D2E786D6C504B01021400140006080800B670623BBC1638F5EC0000007C010000080000000000000000000000000083010000636F72652E786D6C504B01021400140006080800B670623B55019EA25F0000007C000000070000000000000000000000000095020000636E782E786D6C504B010214
310
00140006080800B670623B3586FFB671010000D40300000C00000000000000000000000000190300006662782F636F72652E786D6C504B01021400140006080800B670623B4220A0FF7D0000009D0000000B00000000000000000000000000B40400006662782F636E782E786D6C504B01021400140006080800B670623B2F
310
A3FEDE290100001202000031000000000000000000000000005A0500006662782F45374635344235342D363743322D343832342D383044432D4334454645303536354442422F636F72652E786D6C504B01021400140006080800B670623B1B8617914E010000330300003000000000000000000000000000D2060000666278
310
2F45374635344235342D363743322D343832342D383044432D4334454645303536354442422F636E782E786D6C504B01021400140006080800B670623B29652116630500003C10000034000000000000000000000000006E0800006662782F45374635344235342D363743322D343832342D383044432D4334454645303536
310
354442422F6F626A656374732E786D6C504B01021400140006080000B670623B0000000000000000000000003500000000000000000000000000230E00006662782F45374635344235342D363743322D343832342D383044432D4334454645303536354442422F76657274696365732E62696E504B01021400140006080800
310
B670623BF270F13306000000040000003600000000000000000000000000760E00006662782F45374635344235342D363743322D343832342D383044432D4334454645303536354442422F747269616E676C65732E62696E504B01021400140006080000B670623B0000000000000000000000003700000000000000000000
310
000000D00E00006662782F45374635344235342D363743322D343832342D383044432D4334454645303536354442422F617474726962757465732E62696E504B01021400140006080800B670623B08DA0BD190000000410100003600000000000000000000000000250F00006662782F45374635344235342D363743322D34
310
3832342D383044432D4334454645303536354442422F6469726563746F72792E786D6C504B01021400140006080800B670623B6378F24DFF000000A00100003B00000000000000000000000000091000006662782F45374635344235342D363743322D343832342D383044432D4334454645303536354442422F7265736F75
310
726365732F636F72652E786D6C504B0506000000000E000E0080040000611100000000
  0
XRECORD
  5
112
102
{ACAD_REACTORS
330
110
102
}
330
110
100
AcDbXrecord
280
     1
270
     1
271
     1
  0
XRECORD
  5
111
102
{ACAD_REACTORS
330
110
102
}
330
110
100
AcDbXrecord
280
     1
270
     1
271
     1
  0
XRECORD
  5
18A
102
{ACAD_REACTORS
330
110
102
}
330
110
100
AcDbXrecord
280
     1
 70
     0
 90
1778669749
  1
9BF507EE-FAF7-4A99-A33D-4EE51894BC40
310
504B03040A0000080000B670623B3DEE336E79000000790000001B0000006175746F6465736B2D64657369676E2D7061636B6167652E786D6C3C3F786D6C2076657273696F6E3D22312E302220656E636F64696E673D227574662D3822203F3E3C666F726D6174733E3C666F726D61743E687474703A2F2F736368656D612E
310
6175746F6465736B2E636F6D2F64657369676E2D7061636B6167652F323030393C2F666F726D61743E3C2F666F726D6174733E504B0304140006080800B670623BD486FD9CA0000000F4000000130000005B436F6E74656E745F54797065735D2E786D6C7D8EC10E82300C865F65E91D8A1E8C310C0EEA1BF002731658846E
310
D98AC1B77784ABF1D8FE5FBFBF75BBCE937A534CCEB38643598122B6FEE978D0B0485F9C41B54DDD7D022595594E1A469170414C76A4D9A4D207E29CF43ECE46F218070CC6BECC4078ACAA135ACF422C856C0E68EA1BF5669944DDD7BCDE7B1F8E415D77AECB980613C2E4AC91FC167A2B244592486606FC29C8FD7F045B9A
310
EF7053A7E60B504B0304140006080800B670623BCA089DFFEC0000007C01000008000000636F72652E786D6C8D90416E83301045AF62CDB632D8402020E32882F604BD80653BC44AB011B6AB1EBF262152BBEB6A467FFE9B197D76FA9EEFE84BAFDE38DB03CD08206DA553C64E3DC470C1474027CE56E7C22F1B202B66DDC3
310
260367D3EAE2B24BD2D9A06D48AA754AEFA2F05E0740F29E9A1EBCBCEA59642286E4F0B76C11F226269DD15797E0188D42CF2346A57DE662F40ABCAEC77628C6120F654571D50C04B7F5B9C1E3997CD4F550BE3745C3F20DE62C98F9755FAE5A04AD801784B498524C8A4F5A75E4D055873772EC0861F966FF03C545FD138A
310
C686B2D8DF7D621E384D8F3C069CE55B16A93C824A75CB8DFF00504B0304140006080800B670623B55019EA25F0000007C00000007000000636E782E786D6C4DCB3B0E80201045D1AD90E915ED2CF8AC45050C11660C8261F98AB1B07AC9C97D42D718D865D3E909258CFD00CCE24AC6E326A164D74DC0B4128928FF326038
310
472BA13128B1252AC747C6BAB984FC68F0B87FE8960A5C09FE86CFB69FBA01504B0304140006080800B670623B68FC0B7272010000D40300000C0000006662782F636F72652E786D6CC5535B6E833010BC8AE5DF0A6C1E8124328E22D29EA01770C0A128602363A31CBFCB234A53A555FA553EC09AD9F5CE8C31DB5DDA060D
310
D2F4B556190E7C8A9154852E6B5565D8D993B7C668C799D1DA7E29C3488956667884316795D1AE5BA0422B2B950554E9522EA0E87B69312A1A5864B82F3E642B7CE12C54F467BF13C55954D20F7CA0A18EB3DE1A1080E621E31BF3D3F1C2C88C73E65C5D2E6C5DC2B4FA544B8379921C36797888BC3C8A032F4E73EA6D927D
310
EA1DF6F42D49F2E8350D5346C666CE6CDD5ED515460A2B4BCC434A375E1078347C0FE22D5D6DE3D50B5D6F2965642CBF6B725DF96493AB958DC245EEDCD6631E809089F8E61622B2A81703E8219C913144F84C09DF070D8140C8561C9BAB8F3340832CAC363130A576376A108D933095FA747AD0CF0B46E64E983A6D0EAE1F
310
CE089F9EF1FB8E70D44255604258581E9D1D75B259C3125A278D37D80B52DAB4A279CEC62F0EFF44DDC43F9454E8469BFF5244960322CBEF41C6FBC83F01504B0304140006080800B670623B0F71DDB67E0000009D0000000B0000006662782F636E782E786D6C4DCCD10A83201886E15B91FFDCA54DB73F502386BB8F5816
310
32D3703976F9ABD1C18E3E78F87855FB990379BBFCF2296AE02706C4C5471A7C9C349475A408A4352AA7B4FEDD80C47E761A7606A3A69CCA72D0E0C6BE8475D3E0E3F3409428EA6B27A84079A782899AA2EC1A7AE3ECCC2FD858CB2D544655BFD2B67BD87C01504B0304140006080800B670623BE134B4FB28010000120200
310
00310000006662782F38353834323741342D343835462D343034322D383541392D4331303331363839454531452F636F72652E786D6C8D515B6EC32010BC0AE22B55850D0EA424C24451959EA0172086A42831583CAA1CBF503B52FB971F16CDCECC0EACD8DFC71BF836215AEF7A481A0C817183D7D65D7A98D3197108F652
310
04EFD31F1A044E8DA6871586525C82CFD3020DDE25E352419DD76601558C264130DCCAA58771F832A36A544E8511AFCDA486ABBA988634A55D7852C4144A00300FA927949C71DABD1D28A29C7D208A6987383B6CD13BC16BB2E1DBE3911C453B0BA5C8D9EA456E758963CFD684674DAA588A64C747FC2118958C86B2C3788B
310
0841B8FB247487D98EB257CC77188BB6D2FF89F2A49F1465EBD2BA5BE2CEB2082511EDDC9042FB7CBA3DC298FBE4430275DE2A9AE1054ADC60CC08E3A29D89E5F9C5714317C7987C28DFBBBA9E0A97B0D97643A568EB864AF95D5FA9759BF207504B0304140006080800B670623B1B8617914E010000330300003000000066
310
62782F38353834323741342D343835462D343034322D383541392D4331303331363839454531452F636E782E786D6CD593C16EC32010447F0571AD6CE3D489D20813A9877E410FBD62D82434182CC055F3F75D1292E692438FBD206B7698593D61BEFD1E2DF982108D773D6D6B460938E5B571FB9ECE6957AD29D90A1EBC4F
310
77364A9C1CA1A759A682EF839FA72269D8C9D92654AD71C72206887E0E0A22CAF926B15E498B01E0AA19451807D01A34B919F16B070157417138917400F2F6FA41FCF0092A45DEE414C19BDC21783E4BD39D891265658C3D8DEA00A3ACE59CBC8678ACB54CB26EEB6BD7839D7E9348BE70AD9C8321B9BCA7F9A4A26C542347
310
DEE050F09802D22BA6749A800A394DD62899107273365E3C82CFC6A55557BC06C10774B7ABE7AEC3B0F34CF06446280E154026D0542C187BA9DAB6628BF7B6DBB0E5A65B3EB1F58631DE64BBE083F7B65CC218087E22CABB042E51D1F2268F1FE12B3EA24D40D63E9CFE00120194D60B9D5BC67FE6D39CDF37E20AF817881F
310
504B0304140006080800B670623B5933D422630500003B100000340000006662782F38353834323741342D343835462D343034322D383541392D4331303331363839454531452F6F626A656374732E786D6CAD575B6FA33814FE2B887D0642934E9B156594264D158D3A534DD4D13E548A0C38942D60649B4EBABF7E3F8321
310
40924EF6928780CDF1B97EE762EFF32E4B8D37CA45C2F21BD3B547A641F39045491EDF98A5DC5AD7A6F1D9F73863B243661A39C9E88DA9B64DDF8B392B0BBD15D12D295339D85DDEFE618890E6D434C2940871638AF08566C426A5641115AF764424B1E3EDCE76ED9AB0CF36E6A47819302D08A7B984A6D8CFC1C5A89572FB
310
CB91E9F89EA3BEFB9EFAD754E3D3544E654F5F7E920B49F2F040D880CDD89D2CEE2E2EA7D6E56432B6269F2E5CEB7679BBB0DCABF168FE693E9FCEEEA6102C240727AD09A75BD3BF876F78127A4EFDA9D5582B7E4CA590E5390D2BFB6161A5B3E618D182E611E2985001691DAB47FDA5AB7CD3F93C566B2DB2BB7D9E55DD13
310
1D468DEECDB3AB290BFE8409E21C54704115AA6AFF68436BFC8DF65E0B184BF5B74418199194272435D224E084BF9B3E481589EFF5D828747285706581E9BB7B7E5D5D911ABFC6EE312DB7659A2A689A7E85EC0DF04FA5A8344BFEA2FCB834E8845895492EAFB541F2BDA0A63FF59C6AD3F7D4637CA13FD68E34B629891172
310
98597F1D183A57B9B75A98FE9765B05BAB7C3C2EBCE0ACA05C2AF8005A4DE09AA7F29216EB9E15397500C6F47CBE77CA7778FE2BD277AF0AE2C693DD6437D1522427B9D8329E2136F6A8FA19A3E6C56ADF0E5F50CF06D48734EDCEBF22F69C56D97EC138153F804B85E6FABFC7AFEFB32E523BE1F3BD372418E363EDCA7548
310
52949E8724474014288D94610BB57C1BEC4C7F854A89CA8E5324F55B871CBC78CE1BBEE3BFE68D6A5589EF3C730474506FCFA8FCF0659516D0ED04580EEA6425581B77CAE797FF4BCECC16EB2FEB926F49481F746159D06D922712BD730FDEAE42BD40F42C7AA5EF3F198F60E86110D6DD20645A9480B795CF95E3E3A659A8
310
C55E724F408873315335CFFB8584874484344D494E59D94869DB90C26A5B64F49C802CAC1D3ABE18A098D3B7444D123D8A9E5AE8F5214F0AE5B2B6E9B575DA3E61CBD3EA2B4009FA940524DD1305FB6A1FB294F14DF0BEA90BA109ECE1481FDC3FFAE8D60E75141700BE82725371B4873751B2DD960265F788137FACE6DD40
310
B575E4F0A5C99F46629D92131467A41EE11ABD8D4CCC039CA0AFB37C93A08B232B8F0AEFCA1E0A1015DF13FC83322B362463652ECF71D3A8B1A7D1BE65DE1D62C44F22C317D35F574FEB16153BA2D13E543D10A80E74C4A65E78A6B7CBCBD1D5DD9DB59C2DAFACC96C3AB566E3F1C29ADCDD5DBAD7D3C9ED7C822ED74F80A6
310
41755310DE4443F44A9E68373FADF6596BFA0F440AE7BECE2727AE9F4F2B1B53B1E7E00CF0DD1E5C65454A339A4BA2D0FBA05ED2EF0443458F47BDBFCA484CCFE0F2ED7E3DD0013B679C7B5499467F0ECEEADDB9CA85A34CE44B99053949D2C1416DB85DE4B136BB7165FBAC0B7AB3542BED4F8CA182A549847A1319316519
310
95A83A67147B9E5101C47487F2485F1ECE38FD568F839204296D3479219888530154036E6528FBFBC66F98E0D4107563A2D7D9AFF8D389681A08F58D89F22693900A3B407754734FC51C10C010D6D640809EE4718AC1BA3ED4AEDB53CA37283F68805A7E4B72CEB0A4EDEAD5DD8C14059A76AFAA56BA6901E13F32BC51C720
310
12AF41295B5BF61BAD3195181FB506E6B40F4C10AF5AF40EF9F5B159AE5DD1F43C72D635E94310D45C2D49785C5D0B94D3B54AB3C5A38349C0587D338AB48C11CBF339599C02CCA54A70A008A8D03C0B2201D5F9EFCF8F9CE12A9A19CB0410789EB32C63B95ECCF455D658BFE0621A3DA32C5075FB101723D77DAE867E7D0F
310
D90444509B44E2151B4DC2290B065803200FBAA9BE9D392A0603F2D5C2D00D6302A615680F66D2FA166E2079D4C551A54AB758161FCEFD4E450A14704CECFEDF504B0304140006080000B670623B000000000000000000000000350000006662782F38353834323741342D343835462D343034322D383541392D4331303331
310
363839454531452F76657274696365732E62696E504B0304140006080800B670623BF270F1330600000004000000360000006662782F38353834323741342D343835462D343034322D383541392D4331303331363839454531452F747269616E676C65732E62696E636660600000504B0304140006080000B670623B000000
310
000000000000000000370000006662782F38353834323741342D343835462D343034322D383541392D4331303331363839454531452F617474726962757465732E62696E504B0304140006080800B670623B08DA0BD19000000041010000360000006662782F38353834323741342D343835462D343034322D383541392D43
310
31303331363839454531452F6469726563746F72792E786D6C858F410AC3201045AF22B36F53E9A60B35CBEEBAE80D244E44489C6234F4F835464A48035D0DF398FF9F8AF63D0E6CC63039F212F8F9020C7D47C6792B21C5FE7403D62A1188E2E60C98D7234A5830286103A55745067B9D86B8A3CF9C7F90C11DE607FB1443
310
96D7B6A82D282E9A152AD114D5EF2CB866EEE831B8EEA07A7BB5A8D7D61A2BAAEB7FD5F70921FF497D00504B0304140006080800B670623BD9A3B367FE000000A00100003B0000006662782F38353834323741342D343835462D343034322D383541392D4331303331363839454531452F7265736F75726365732F636F7265
310
2E786D6C8D504B6E833010BD0A9A6D65B01D0201194711694FD00B586642AD043BF2A7EAF16B122AB5BB6E6646EFA3797AE2F8B5DC8A4FF4C1383B002B291468B59B8C9D0748F1420E501CA5F0CEC55F3228AC5A708015062966EFD27D83B4B3116DCCA875136EA00A012314FA968F0182FEC045952AC5AC08D7F2AEF455CD
310
58B232D3592745883E07289E4FD609D26370C96B0CA27AB252A464A64D63A6FCD35C0C7A904D73EE467EE664DCD58CD4ED4849D79C5A723ED1B7A61977AF2D6F45B59AA58866F9C9A83DAA8813484E6947182394BFB3BAA7FBBEDEBFD0434FA9A856F91F53BA4FFF342563E38E6F719FB60092E5200F428A6AED2BAF479979
310
AFDDCA6F504B010214000A0000080000B670623B3DEE336E79000000790000001B00000000000000000000000000000000006175746F6465736B2D64657369676E2D7061636B6167652E786D6C504B01021400140006080800B670623BD486FD9CA0000000F40000001300000000000000000000000000B20000005B436F6E
310
74656E745F54797065735D2E786D6C504B01021400140006080800B670623BCA089DFFEC0000007C010000080000000000000000000000000083010000636F72652E786D6C504B01021400140006080800B670623B55019EA25F0000007C000000070000000000000000000000000095020000636E782E786D6C504B010214
310
00140006080800B670623B68FC0B7272010000D40300000C00000000000000000000000000190300006662782F636F72652E786D6C504B01021400140006080800B670623B0F71DDB67E0000009D0000000B00000000000000000000000000B50400006662782F636E782E786D6C504B01021400140006080800B670623BE1
310
34B4FB280100001202000031000000000000000000000000005C0500006662782F38353834323741342D343835462D343034322D383541392D4331303331363839454531452F636F72652E786D6C504B01021400140006080800B670623B1B8617914E010000330300003000000000000000000000000000D3060000666278
310
2F38353834323741342D343835462D343034322D383541392D4331303331363839454531452F636E782E786D6C504B01021400140006080800B670623B5933D422630500003B10000034000000000000000000000000006F0800006662782F38353834323741342D343835462D343034322D383541392D4331303331363839
310
454531452F6F626A656374732E786D6C504B01021400140006080000B670623B0000000000000000000000003500000000000000000000000000240E00006662782F38353834323741342D343835462D343034322D383541392D4331303331363839454531452F76657274696365732E62696E504B01021400140006080800
310
B670623BF270F13306000000040000003600000000000000000000000000770E00006662782F38353834323741342D343835462D343034322D383541392D4331303331363839454531452F747269616E676C65732E62696E504B01021400140006080000B670623B0000000000000000000000003700000000000000000000
310
000000D10E00006662782F38353834323741342D343835462D343034322D383541392D4331303331363839454531452F617474726962757465732E62696E504B01021400140006080800B670623B08DA0BD190000000410100003600000000000000000000000000260F00006662782F38353834323741342D343835462D34
310
3034322D383541392D4331303331363839454531452F6469726563746F72792E786D6C504B01021400140006080800B670623BD9A3B367FE000000A00100003B000000000000000000000000000A1000006662782F38353834323741342D343835462D343034322D383541392D4331303331363839454531452F7265736F75
310
726365732F636F72652E786D6C504B0506000000000E000E0080040000611100000000
  0
XRECORD
  5
113
102
{ACAD_REACTORS
330
110
102
}
330
110
100
AcDbXrecord
280
     1
270
     1
271
     1
  0
XRECORD
  5
114
102
{ACAD_REACTORS
330
110
102
}
330
110
100
AcDbXrecord
280
     1
270
     1
271
     1
  0
CELLSTYLEMAP
  5
1B7D
102
{ACAD_REACTORS
330
104
102
}
330
104
100
AcDbCellStyleMap
 90
        3
300
CELLSTYLE
  1
TABLEFORMAT_BEGIN
 90
        5
170
     1
 91
        0
 92
    32768
 62
   257
 93
        1
300
CONTENTFORMAT
  1
CONTENTFORMAT_BEGIN
 90
        0
 91
        0
 92
      512
 93
        0
300

 40
0.0
140
1.0
 94
        5
 62
     0
340
11
144
0.25
309
CONTENTFORMAT_END
171
     1
301
MARGIN
  1
CELLMARGIN_BEGIN
 40
0.06
 40
0.06
 40
0.06
 40
0.06
 40
0.18
 40
0.18
309
CELLMARGIN_END
 94
        6
 95
        1
302
GRIDFORMAT
  1
GRIDFORMAT_BEGIN
 90
        0
 91
        1
 62
     0
 92
       -2
340
0
 93
        0
 40
0.045
309
GRIDFORMAT_END
 95
        2
302
GRIDFORMAT
  1
GRIDFORMAT_BEGIN
 90
        0
 91
        1
 62
     0
 92
       -2
340
0
 93
        0
 40
0.045
309
GRIDFORMAT_END
 95
        4
302
GRIDFORMAT
  1
GRIDFORMAT_BEGIN
 90
        0
 91
        1
 62
     0
 92
       -2
340
0
 93
        0
 40
0.045
309
GRIDFORMAT_END
 95
        8
302
GRIDFORMAT
  1
GRIDFORMAT_BEGIN
 90
        0
 91
        1
 62
     0
 92
       -2
340
0
 93
        0
 40
0.045
309
GRIDFORMAT_END
 95
       16
302
GRIDFORMAT
  1
GRIDFORMAT_BEGIN
 90
        0
 91
        1
 62
     0
 92
       -2
340
0
 93
        0
 40
0.045
309
GRIDFORMAT_END
 95
       32
302
GRIDFORMAT
  1
GRIDFORMAT_BEGIN
 90
        0
 91
        1
 62
     0
 92
       -2
340
0
 93
        0
 40
0.045
309
GRIDFORMAT_END
309
TABLEFORMAT_END
  1
CELLSTYLE_BEGIN
 90
        1
 91
        1
300
_TITLE
309
CELLSTYLE_END
300
CELLSTYLE
  1
TABLEFORMAT_BEGIN
 90
        5
170
     1
 91
        0
 92
        0
 62
   257
 93
        1
300
CONTENTFORMAT
  1
CONTENTFORMAT_BEGIN
 90
        0
 91
        0
 92
      512
 93
        0
300

 40
0.0
140
1.0
 94
        5
 62
     0
340
11
144
0.18
309
CONTENTFORMAT_END
171
     1
301
MARGIN
  1
CELLMARGIN_BEGIN
 40
0.06
 40
0.06
 40
0.06
 40
0.06
 40
0.18
 40
0.18
309
CELLMARGIN_END
 94
        6
 95
        1
302
GRIDFORMAT
  1
GRIDFORMAT_BEGIN
 90
        0
 91
        1
 62
     0
 92
       -2
340
0
 93
        0
 40
0.045
309
GRIDFORMAT_END
 95
        2
302
GRIDFORMAT
  1
GRIDFORMAT_BEGIN
 90
        0
 91
        1
 62
     0
 92
       -2
340
0
 93
        0
 40
0.045
309
GRIDFORMAT_END
 95
        4
302
GRIDFORMAT
  1
GRIDFORMAT_BEGIN
 90
        0
 91
        1
 62
     0
 92
       -2
340
0
 93
        0
 40
0.045
309
GRIDFORMAT_END
 95
        8
302
GRIDFORMAT
  1
GRIDFORMAT_BEGIN
 90
        0
 91
        1
 62
     0
 92
       -2
340
0
 93
        0
 40
0.045
309
GRIDFORMAT_END
 95
       16
302
GRIDFORMAT
  1
GRIDFORMAT_BEGIN
 90
        0
 91
        1
 62
     0
 92
       -2
340
0
 93
        0
 40
0.045
309
GRIDFORMAT_END
 95
       32
302
GRIDFORMAT
  1
GRIDFORMAT_BEGIN
 90
        0
 91
        1
 62
     0
 92
       -2
340
0
 93
        0
 40
0.045
309
GRIDFORMAT_END
309
TABLEFORMAT_END
  1
CELLSTYLE_BEGIN
 90
        2
 91
        1
300
_HEADER
309
CELLSTYLE_END
300
CELLSTYLE
  1
TABLEFORMAT_BEGIN
 90
        5
170
     1
 91
        0
 92
        0
 62
   257
 93
        1
300
CONTENTFORMAT
  1
CONTENTFORMAT_BEGIN
 90
        0
 91
        0
 92
      512
 93
        0
300

 40
0.0
140
1.0
 94
        2
 62
     0
340
11
144
0.18
309
CONTENTFORMAT_END
171
     1
301
MARGIN
  1
CELLMARGIN_BEGIN
 40
0.06
 40
0.06
 40
0.06
 40
0.06
 40
0.18
 40
0.18
309
CELLMARGIN_END
 94
        6
 95
        1
302
GRIDFORMAT
  1
GRIDFORMAT_BEGIN
 90
        0
 91
        1
 62
     0
 92
       -2
340
0
 93
        0
 40
0.045
309
GRIDFORMAT_END
 95
        2
302
GRIDFORMAT
  1
GRIDFORMAT_BEGIN
 90
        0
 91
        1
 62
     0
 92
       -2
340
0
 93
        0
 40
0.045
309
GRIDFORMAT_END
 95
        4
302
GRIDFORMAT
  1
GRIDFORMAT_BEGIN
 90
        0
 91
        1
 62
     0
 92
       -2
340
0
 93
        0
 40
0.045
309
GRIDFORMAT_END
 95
        8
302
GRIDFORMAT
  1
GRIDFORMAT_BEGIN
 90
        0
 91
        1
 62
     0
 92
       -2
340
0
 93
        0
 40
0.045
309
GRIDFORMAT_END
 95
       16
302
GRIDFORMAT
  1
GRIDFORMAT_BEGIN
 90
        0
 91
        1
 62
     0
 92
       -2
340
0
 93
        0
 40
0.045
309
GRIDFORMAT_END
 95
       32
302
GRIDFORMAT
  1
GRIDFORMAT_BEGIN
 90
        0
 91
        1
 62
     0
 92
       -2
340
0
 93
        0
 40
0.045
309
GRIDFORMAT_END
309
TABLEFORMAT_END
  1
CELLSTYLE_BEGIN
 90
        3
 91
        2
300
_DATA
309
CELLSTYLE_END
  0
ENDSEC
  0
SECTION
  2
ACDSDATA
 70
     2
 71
     8
  0
ACDSSCHEMA
 90
        0
  1
AcDb_Thumbnail_Schema
  2
AcDbDs::ID
280
    10
 91
        8
  2
Thumbnail_Data
280
    15
 91
        0
101
ACDSRECORD
 95
        0
 90
        1
  2
AcDbDs::TreatedAsObjectData
280
     1
291
     1
101
ACDSRECORD
 95
        0
 90
        2
  2
AcDbDs::Legacy
280
     1
291
     1
101
ACDSRECORD
  1
AcDbDs::ID
 90
        3
  2
AcDs:Indexable
280
     1
291
     1
101
ACDSRECORD
  1
AcDbDs::ID
 90
        4
  2
AcDbDs::HandleAttribute
280
     7
282
     1
  0
ACDSSCHEMA
 90
        1
  1
AcDbDs::TreatedAsObjectDataSchema
  2
AcDbDs::TreatedAsObjectData
280
     1
 91
        0
  0
ACDSSCHEMA
 90
        2
  1
AcDbDs::LegacySchema
  2
AcDbDs::Legacy
280
     1
 91
        0
  0
ACDSSCHEMA
 90
        3
  1
AcDbDs::IndexedPropertySchema
  2
AcDs:Indexable
280
     1
 91
        0
  0
ACDSSCHEMA
 90
        4
  1
AcDbDs::HandleAttributeSchema
  2
AcDbDs::HandleAttribute
280
     7
 91
        1
284
     1
  0
ACDSRECORD
 90
        0
  2
AcDbDs::ID
280
    10
320
59
  2
Thumbnail_Data
280
    15
 94
     2825
310
89504E470D0A1A0A0000000D4948445200000100000000C508030000008CFEDCE700000300504C5445FFFFFFFFFFFFFFFFFF0000000000000000000000000000000000000000000000000000330000660000990000CC0000FF0033000033330033660033990033CC0033FF0066000066330066660066990066CC0066FF0099
310
000099330099660099990099CC0099FF00CC0000CC3300CC6600CC9900CCCC00CCFF00FF0000FF3300FF6600FF9900FFCC00FFFF3300003300333300663300993300CC3300FF3333003333333333663333993333CC3333FF3366003366333366663366993366CC3366FF3399003399333399663399993399CC3399FF33CC00
310
33CC3333CC6633CC9933CCCC33CCFF33FF0033FF3333FF6633FF9933FFCC33FFFF6600006600336600666600996600CC6600FF6633006633336633666633996633CC6633FF6666006666336666666666996666CC6666FF6699006699336699666699996699CC6699FF66CC0066CC3366CC6666CC9966CCCC66CCFF66FF0066
310
FF3366FF6666FF9966FFCC66FFFF9900009900339900669900999900CC9900FF9933009933339933669933999933CC9933FF9966009966339966669966999966CC9966FF9999009999339999669999999999CC9999FF99CC0099CC3399CC6699CC9999CCCC99CCFF99FF0099FF3399FF6699FF9999FFCC99FFFFCC0000CC00
310
33CC0066CC0099CC00CCCC00FFCC3300CC3333CC3366CC3399CC33CCCC33FFCC6600CC6633CC6666CC6699CC66CCCC66FFCC9900CC9933CC9966CC9999CC99CCCC99FFCCCC00CCCC33CCCC66CCCC99CCCCCCCCCCFFCCFF00CCFF33CCFF66CCFF99CCFFCCCCFFFFFF0000FF0033FF0066FF0099FF00CCFF00FFFF3300FF3333
310
FF3366FF3399FF33CCFF33FFFF6600FF6633FF6666FF6699FF66CCFF66FFFF9900FF9933FF9966FF9999FF99CCFF99FFFFCC00FFCC33FFCC66FFCC99FFCCCCFFCCFFFFFF00FFFF33FFFF66FFFF99FFFFCCFFFFFF0000000D0D0D1A1A1A2828283535354343435050505D5D5D6B6B6B787878868686939393A1A1A1AEAEAEBB
310
BBBBC9C9C9D6D6D6E4E4E4F1F1F1FFFFFF000000000000000000000000000000000000000000000000000000000000AD4AB4E40000064C4944415478DAED9D6B921B210C8475FF63F6EF1C2295726CC3F06A4002C62357B253EBF2DAE61BA985C44BFE3CFC217FE4B90F07E0001C8003780100FEFD7FD6CF18C0E32DE0716D
310
C7D335C001B80BB8083A007701174107E02EE022E800DC055C041D80BB401900EEFE981541FCC28D76001322E8001E02000EC045D001B8083A00174107E022E8005C041D808BA003180740546188BFA7AA39E789E0F72B0F7DFBCC1F2930580820F3ED7BFE18DCBB9E2B8220EF6ACD720C102C03802EDBEEB3722C0030EB02
310
D46D8E40F4E81C8E07C09BE998C2431F80AE085AF716C675600D00FBDE12AC5D400E0730FC114B00ACE82E5B03C031004AC39B7000C78AA0AE071407B8713680EEA179AAEDE15BC1D405C40440673AD498E6804301406A16808EBEF44E00980530DB8B632C0DF704407D733019248E1441900EAE006084C021005A5600590E
310
404D04A1712FA0723F0F07A0F21EDD42682F821A950D58B05A0460AD01F47FA0B9088291F4FA2BD07E89B6C9D902C0E5496488207E8BD64BC675C05A0451E8D4566F70FC0CDA2F9940B00140AF05403A2D4027F8EA882027EA5507072313E346B005805D08E827602B826D3A685D903EA94A6E238057E3D0B82079529780A9
310
0862DE0220C316C039812D00AACC53BB7CAA7DC145573E2C4590683FE30497CB2F01E06470C202B0550461D27C6D13B003403B40C712BFBE283007605A045907F8BF7595B42F586A019300F85A77D8DD212EB20940EF8D26DBFF7201320AA0370A6C04406608AF584F47C14C9274A808A279E3430D88FABCE54BAC01502260
310
02A05DE3C7250A1097380A409446E64D4410D26901C4E5F56FA1051802483580F0804F62A493EB998A20F8711CBA23F47107ED386802A0EBFB51FAF7F680EE610FEC10C1AE390FEF1857EBFF7CA3A17E57C8260AF00ED09B0CAB7785B68860C6025AFD9FF5163005A0382DEA32AC1F3941E112C643C92C3A99D924C6AC2BDC
310
00F0FE5E4C2E10A4016914A032E86DB90031A3AB9D0DC63C821EC46707682B00730591EAB78B4305AAED0F7F4725CE14ED7E13007A6E58350CA6DE514C02F401CC5684180054FE9F0685BCEE96940F9B0008B51CAE120605F93088F2FA3B4B0046657114C3E0A7ED7118D49B04B50040D33D8214A7D91BC075D9318C01881D
310
000404DE7738D1BF8BDB27253128AD57331E1D46A52214E5827106983E712D89D1BDE26D51A0DA4F84486D60242989493A3002A58AC88E3942F15D0CBAC7A896C42E03234A2B36AD274A123304C29A7FA5243632307200808648C602DF1816FC76EDA1D6FE3D3345A552142D19415414BD1380C6F879B1FF93ED0D7D9969B5
310
7FE774F98992D86F00488BA24A9B01777516F7AE1748C786CA523950163F1E0024D7C5C97427F9024F77797E9F08222383929F141C1545792750E82ADA02B84C9141D5023E73065701D01241D4AB21B181974821AA0FFD0680C0023E145A007AA7CACA092258B100AB3DF175B2254B00C8E70248EAE45F54692E0063004A22
310
88564548A24910F2490FBF510C49360830F58063012415A1CB44E8200D0834201A1CA53AC4BA2E20FA1690AE8D082C4020485C20CC05CC2DC0BA22C44B5D61A710DC43045BA950662E3C92CAD9D874F9C3012019002E02185B308173A3C01A0B504999D5018475EFCC0AB90280A10513CA0B27451740350A642C606092D4F9
310
006C2D60FA754BC605B2AF45E977F56AD03D0170B9909254ACDD428307D0DE76E85600600060DE55D66DA37355BFD6E44A02804677611980AFB4D72CA0AB3662B187C8445114BD163009003A4B0B157793838206F00070D8363AFD21790E80EE2CB2B5BBCA5600D053A2F46650E8EE2C8D390010B3FD7B579D2F00730B183C
310
7364D9212BFCB699790D50B7FDD500F86D330792211C7FBE00F5E2610026476C9800A85BC120809B1CB2425609BB01DCE7989DB6158C0190350054CF1A4375D785A068D8FE04BB93A66C0F5BAB4E2186D000E677ABDB75E022EA00400180F96E7D86C7ED95F785BECE07B53DE96FE3818BB53C0EF12249BBF66F05808A45A4
310
6B8C6DDABFF7C449543C02F54F8152FB371FB9C91F9002A3F6EF3E76979FF575A90CCB8F00E84BA8A1DEFC9B1DBBAB77D4EA4D019840DD2A820EE06000E200DC055C041D80BB808BA00370176889E0DD1FB3007EF6C18AA003F8E98703701770117400EE022E820EC05DC045D0017814701174000F7781CF66E68FF9F9F428
310
200EC001380007F002F0F0C7E301FC05A30FE1A3644E13DF0000000049454E44AE4260822F02C06600E8ED1AE055117AAA09500068F87AEC0000CB9CA0795F31170058BA46A8430706D504B1768DD02C001DBB78EEB0FB7CF18055005AF7AB9DE504EB36981FFE6D7D230FA053F069004CDB6DD0E5926A01C018E127384149
310
09E4FD56CF9AE077CFC5E3EF8D937E1280866B56AF9797A76B87874A3FC1093287AD0E4FC8ED7DF46EE69300A44260F4495CEC049FFEE805F0B30FAD130C003FFD08006102E1040340984038C1001026104E30004414082718005E6E02C96D405FF2F3ED5180024000080001E003E0E58FD703F80F32D7EBCB4BF319AC0000
310
000049454E44AE4260821E060093061F02405EC3A13E91CD2102088089838F01202C628449337E37CE4830EAD4E43061D808F217DBEE9D2A899F7E88570880F459219EFDB1C96D54059E7F1B03F0BDB703E0ED008C46F000382A70001C0007C0318207C0518103E00038008E113C00BE5A05C8D9D7AFF87954E00038000E80
310
03E03F007F5E7E7B3D80BF31D300EF90070C8C0000000049454E44AE426082
  0
ACDSRECORD
 90
        0
  2
AcDbDs::ID
280
    10
320
22
  2
Thumbnail_Data
280
    15
 94
     1983
310
89504E470D0A1A0A0000000D49484452000001000000007108030000000DA58D8400000300504C5445000000FFFFFF0000000000000000000000000000000000000000000000000000000000330000660000990000CC0000FF0033000033330033660033990033CC0033FF0066000066330066660066990066CC0066FF0099
310
000099330099660099990099CC0099FF00CC0000CC3300CC6600CC9900CCCC00CCFF00FF0000FF3300FF6600FF9900FFCC00FFFF3300003300333300663300993300CC3300FF3333003333333333663333993333CC3333FF3366003366333366663366993366CC3366FF3399003399333399663399993399CC3399FF33CC00
310
33CC3333CC6633CC9933CCCC33CCFF33FF0033FF3333FF6633FF9933FFCC33FFFF6600006600336600666600996600CC6600FF6633006633336633666633996633CC6633FF6666006666336666666666996666CC6666FF6699006699336699666699996699CC6699FF66CC0066CC3366CC6666CC9966CCCC66CCFF66FF0066
310
FF3366FF6666FF9966FFCC66FFFF9900009900339900669900999900CC9900FF9933009933339933669933999933CC9933FF9966009966339966669966999966CC9966FF9999009999339999669999999999CC9999FF99CC0099CC3399CC6699CC9999CCCC99CCFF99FF0099FF3399FF6699FF9999FFCC99FFFFCC0000CC00
310
33CC0066CC0099CC00CCCC00FFCC3300CC3333CC3366CC3399CC33CCCC33FFCC6600CC6633CC6666CC6699CC66CCCC66FFCC9900CC9933CC9966CC9999CC99CCCC99FFCCCC00CCCC33CCCC66CCCC99CCCCCCCCCCFFCCFF00CCFF33CCFF66CCFF99CCFFCCCCFFFFFF0000FF0033FF0066FF0099FF00CCFF00FFFF3300FF3333
310
FF3366FF3399FF33CCFF33FFFF6600FF6633FF6666FF6699FF66CCFF66FFFF9900FF9933FF9966FF9999FF99CCFF99FFFFCC00FFCC33FFCC66FFCC99FFCCCCFFCCFFFFFF00FFFF33FFFF66FFFF99FFFFCCFFFFFF0000000D0D0D1A1A1A2828283535354343435050505D5D5D6B6B6B787878868686939393A1A1A1AEAEAEBB
310
BBBBC9C9C9D6D6D6E4E4E4F1F1F1FFFFFF0000000000000000000000000000000000000000000000000000000000003AE5ACE9000003FF4944415478DAED5CDB6EEB4008E4FFFF77DE8F74D4D8B00B2C4E2375872C6A5327765B331EAE7B113972E4C89123478E6C22F8912E7A3CD0C55ECC0D82BDF78A2AEE35B410CC379E
310
33213E8726FA7B1CAF20434A0294BD43C9369AE9FFD77FEEEF0CE06B10801C003E943FBC5C04BE890007002F48800D008C6A1473415F3A0050080E0821E0A200DE8D8F5F00400A01F2FC183D004820E80200DEBC02BFFFC3DC41700D003A0180377E8D0401A4A61D9EC2F88B208560D61F9196FA1D4604E073026C0098106E
310
E3B97E87E19C84A17F7704F01E032045066C6F06588477FF1402EE102210673990F9EBFA693F238E0699FE98BFFCCF881188EF2C6500E4110336F684C84BBD81F85A7FFD012F02A9FE2BE2DF87B400E4C33BB78EAB23560052FDFF3FE382103B81C568D8D5EF91FB81BF0EAF576A13A834FC94DA56733C73013B22B068F4BC
310
0C1CDA1844BD2A1BA8318A2A05544E10E608CED1A216D81480ECF9C3738232B2C06682AB4630580CE056E827E9078C21888981CA09903100CB53BAE93FF87EFD3D54881D0090C109FA1E502627C8550F155ABA532624087C21631CC49A0002E7615B3CA49C09F2D9C0ED044D1E249A0B32664279D2BC21007E720FE304A74C
310
D05062681AE645C37E082403BBB54CF046008ED3D81B80C5A8B851579C8CC838C1715CD463FE7E0094CA611973E1890E8E1BE400A0D210D10E2F644030CD9800806C28C73EE3D9FB9992A018573810D05E4DE9EF064431D530180140500DDE0303567FC1DC14924A35B86D5F143E03E6ACCF33069D098252FF8803E2E5FD92
310
3644282D20B9B1610C608E7F8A16B5E92264005C4DD1B10B3CB5466ADAD18D8FCE6D71999B22971304BA01E0560041318402003B4F11409209D646870AC52E2100A21070F1D14E90AD21B6CE06D538B83BF7197376C84A800000A8B1317F81E8D8256D05C050EEA4E57281016C1620530738B8A2DAECE32200A4EEFB8B8B64
310
A80050E5DDB010ECE5F60C475EDDD5B41862024097C377D17F99BD7AA3CBE14545B0B50B40A11C560C30ED123B618C930190A73E20EAFA91FA0004B4B0B3E2D49598ABE56E79A09A25A1B96D0178325192C707AAC1319899A10E039E4C96660340C6C9D2AE09944787E9160CA886C84718B0F99A91B20DC379F3A9FFB02D00
310
2801B0D87047841601D3F28CBB402900200600A2477C4CFBD3E98FB0EA9FAF0F47660285E620C5DAD1A5FD0600ACBBA35D560F4761903C01A8DF699008BDBFF5021B026F30806F6741143D41693A007A6DA9F7341324DE56129F00807A6F51DF109E00D0606BD55F0140AFBEC40BEAAF4EC1D258E811400080290CFAEA2FC1
310
D6089015006DF48F779148E78536D2DF2A0D374AA09DFB0FF4412D6476D35FAEA992356FD950FF9256C59D173B4B8B7DF58F1C3972E4C89123478EB0C83FB7BBF1B1D3AC0C060000000049454E44AE4260825002205705E06FA2C18F0780771B94F7E604A56075FCE08A9E0A86284B2307001CF58E95F401F741406E4EB0AE
310
A1FB3E303C5C5795444C00F84C8F9CC07CBC28FA5A191400B4D6DBD6BAD900D514A3DB08A9879ABF70323BA7EF1A24E402A338597FC77718E307945CD81CAF6C77920000000049454E44AE426082
  0
ENDSEC
  0
EOF
