  0
SECTION
  2
HEADER
  9
$ACADVER
  1
AC1032
  9
$ACADMAINTVER
 90
      174
  9
$DWGCODEPAGE
  3
ANSI_1252
  9
$LASTSAVEDBY
  1
hjones
  9
$REQUIREDVERSIONS
160
                 0
  9
$INSBASE
 10
0.0
 20
0.0
 30
0.0
  9
$EXTMIN
 10
0.8761773545144905
 20
0.2713983039344998
 30
0.0
  9
$EXTMAX
 10
1.75420233219429
 20
1.103541817129539
 30
0.0
  9
$LIMMIN
 10
0.0
 20
0.0
  9
$LIMMAX
 10
12.0
 20
9.0
  9
$ORTHOMODE
 70
     1
  9
$REGENMODE
 70
     1
  9
$FILLMODE
 70
     1
  9
$QTEXTMODE
 70
     0
  9
$MIRRTEXT
 70
     0
  9
$LTSCALE
 40
1.0
  9
$ATTMODE
 70
     1
  9
$TEXTSIZE
 40
0.2
  9
$TRACEWID
 40
0.05
  9
$TEXTSTYLE
  7
Standard
  9
$CLAYER
  8
0
  9
$CELTYPE
  6
ByLayer
  9
$CECOLOR
 62
   256
  9
$CELTSCALE
 40
1.0
  9
$DISPSILH
 70
     0
  9
$DIMSCALE
 40
1.0
  9
$DIMASZ
 40
0.012
  9
$DIMEXO
 40
0.0075
  9
$DIMDLI
 40
0.38
  9
$DIMRND
 40
0.0
  9
$DIMDLE
 40
0.0
  9
$DIMEXE
 40
0.005
  9
$DIMTP
 40
0.0
  9
$DIMTM
 40
0.0
  9
$DIMTXT
 40
0.012
  9
$DIMCEN
 40
0.0
  9
$DIMTSZ
 40
0.0
  9
$DIMTOL
 70
     0
  9
$DIMLIM
 70
     0
  9
$DIMTIH
 70
     1
  9
$DIMTOH
 70
     1
  9
$DIMSE1
 70
     0
  9
$DIMSE2
 70
     0
  9
$DIMTAD
 70
     0
  9
$DIMZIN
 70
     0
  9
$DIMBLK
  1

  9
$DIMASO
 70
     1
  9
$DIMSHO
 70
     1
  9
$DIMPOST
  1

  9
$DIMAPOST
  1

  9
$DIMALT
 70
     0
  9
$DIMALTD
 70
     2
  9
$DIMALTF
 40
25.4
  9
$DIMLFAC
 40
1.0
  9
$DIMTOFL
 70
     0
  9
$DIMTVP
 40
0.0
  9
$DIMTIX
 70
     0
  9
$DIMSOXD
 70
     0
  9
$DIMSAH
 70
     0
  9
$DIMBLK1
  1

  9
$DIMBLK2
  1

  9
$DIMSTYLE
  2
Dan's Dim Style
  9
$DIMCLRD
 70
     0
  9
$DIMCLRE
 70
     0
  9
$DIMCLRT
 70
     0
  9
$DIMTFAC
 40
1.0
  9
$DIMGAP
 40
0.0075
  9
$DIMJUST
 70
     0
  9
$DIMSD1
 70
     0
  9
$DIMSD2
 70
     0
  9
$DIMTOLJ
 70
     1
  9
$DIMTZIN
 70
     0
  9
$DIMALTZ
 70
     0
  9
$DIMALTTZ
 70
     0
  9
$DIMUPT
 70
     0
  9
$DIMDEC
 70
     3
  9
$DIMTDEC
 70
     3
  9
$DIMALTU
 70
     2
  9
$DIMALTTD
 70
     2
  9
$DIMTXSTY
  7
Standard
  9
$DIMAUNIT
 70
     0
  9
$DIMADEC
 70
     0
  9
$DIMALTRND
 40
0.0
  9
$DIMAZIN
 70
     0
  9
$DIMDSEP
 70
    46
  9
$DIMATFIT
 70
     3
  9
$DIMFRAC
 70
     0
  9
$DIMLDRBLK
  1

  9
$DIMLUNIT
 70
     2
  9
$DIMLWD
 70
    -2
  9
$DIMLWE
 70
    -2
  9
$DIMTMOVE
 70
     0
  9
$DIMFXL
 40
1.0
  9
$DIMFXLON
 70
     0
  9
$DIMJOGANG
 40
0.7853981633974483
  9
$DIMTFILL
 70
     0
  9
$DIMTFILLCLR
 70
     0
  9
$DIMARCSYM
 70
     0
  9
$DIMLTYPE
  6

  9
$DIMLTEX1
  6

  9
$DIMLTEX2
  6

  9
$DIMTXTDIRECTION
 70
     0
  9
$LUNITS
 70
     2
  9
$LUPREC
 70
     4
  9
$SKETCHINC
 40
0.1
  9
$FILLETRAD
 40
0.0
  9
$AUNITS
 70
     0
  9
$AUPREC
 70
     0
  9
$MENU
  1
.
  9
$ELEVATION
 40
0.0
  9
$PELEVATION
 40
0.0
  9
$THICKNESS
 40
0.0
  9
$LIMCHECK
 70
     0
  9
$CHAMFERA
 40
0.0
  9
$CHAMFERB
 40
0.0
  9
$CHAMFERC
 40
0.0
  9
$CHAMFERD
 40
0.0
  9
$SKPOLY
 70
     0
  9
$TDCREATE
 40
2459178.366701389
  9
$TDUCREATE
 40
2459178.575035359
  9
$TDUPDATE
 40
2459360.659456018
  9
$TDUUPDATE
 40
2459360.826122686
  9
$TDINDWG
 40
0.1949558912
  9
$TDUSRTIMER
 40
0.1949558796
  9
$USRTIMER
 70
     1
  9
$ANGBASE
 50
0.0
  9
$ANGDIR
 70
     0
  9
$PDMODE
 70
     0
  9
$PDSIZE
 40
0.0
  9
$PLINEWID
 40
0.0
  9
$SPLFRAME
 70
     0
  9
$SPLINETYPE
 70
     6
  9
$SPLINESEGS
 70
     8
  9
$HANDSEED
  5
175C
  9
$SURFTAB1
 70
     6
  9
$SURFTAB2
 70
     6
  9
$SURFTYPE
 70
     6
  9
$SURFU
 70
     6
  9
$SURFV
 70
     6
  9
$UCSBASE
  2

  9
$UCSNAME
  2

  9
$UCSORG
 10
0.0
 20
0.0
 30
0.0
  9
$UCSXDIR
 10
1.0
 20
0.0
 30
0.0
  9
$UCSYDIR
 10
0.0
 20
1.0
 30
0.0
  9
$UCSORTHOREF
  2

  9
$UCSORTHOVIEW
 70
     0
  9
$UCSORGTOP
 10
0.0
 20
0.0
 30
0.0
  9
$UCSORGBOTTOM
 10
0.0
 20
0.0
 30
0.0
  9
$UCSORGLEFT
 10
0.0
 20
0.0
 30
0.0
  9
$UCSORGRIGHT
 10
0.0
 20
0.0
 30
0.0
  9
$UCSORGFRONT
 10
0.0
 20
0.0
 30
0.0
  9
$UCSORGBACK
 10
0.0
 20
0.0
 30
0.0
  9
$PUCSBASE
  2

  9
$PUCSNAME
  2

  9
$PUCSORG
 10
0.0
 20
0.0
 30
0.0
  9
$PUCSXDIR
 10
1.0
 20
0.0
 30
0.0
  9
$PUCSYDIR
 10
0.0
 20
1.0
 30
0.0
  9
$PUCSORTHOREF
  2

  9
$PUCSORTHOVIEW
 70
     0
  9
$PUCSORGTOP
 10
0.0
 20
0.0
 30
0.0
  9
$PUCSORGBOTTOM
 10
0.0
 20
0.0
 30
0.0
  9
$PUCSORGLEFT
 10
0.0
 20
0.0
 30
0.0
  9
$PUCSORGRIGHT
 10
0.0
 20
0.0
 30
0.0
  9
$PUCSORGFRONT
 10
0.0
 20
0.0
 30
0.0
  9
$PUCSORGBACK
 10
0.0
 20
0.0
 30
0.0
  9
$USERI1
 70
     0
  9
$USERI2
 70
     0
  9
$USERI3
 70
     0
  9
$USERI4
 70
     0
  9
$USERI5
 70
     0
  9
$USERR1
 40
0.0
  9
$USERR2
 40
0.0
  9
$USERR3
 40
0.0
  9
$USERR4
 40
0.0
  9
$USERR5
 40
0.0
  9
$WORLDVIEW
 70
     1
  9
$SHADEDGE
 70
     3
  9
$SHADEDIF
 70
    70
  9
$TILEMODE
 70
     1
  9
$MAXACTVP
 70
    64
  9
$PINSBASE
 10
0.0
 20
0.0
 30
0.0
  9
$PLIMCHECK
 70
     0
  9
$PEXTMIN
 10
1.049999952316284
 20
0.7999999523162842
 30
0.0
  9
$PEXTMAX
 10
9.449999570846559
 20
7.199999570846558
 30
0.0
  9
$PLIMMIN
 10
-0.2500002402958907
 20
-0.2499999962453767
  9
$PLIMMAX
 10
10.74999951940822
 20
8.249999763458733
  9
$UNITMODE
 70
     0
  9
$VISRETAIN
 70
     1
  9
$PLINEGEN
 70
     0
  9
$PSLTSCALE
 70
     1
  9
$TREEDEPTH
 70
  3020
  9
$CMLSTYLE
  2
Standard
  9
$CMLJUST
 70
     0
  9
$CMLSCALE
 40
1.0
  9
$PROXYGRAPHICS
 70
     1
  9
$MEASUREMENT
 70
     0
  9
$CELWEIGHT
370
    -1
  9
$ENDCAPS
280
     0
  9
$JOINSTYLE
280
     0
  9
$LWDISPLAY
290
     0
  9
$INSUNITS
 70
     1
  9
$HYPERLINKBASE
  1

  9
$STYLESHEET
  1

  9
$XEDIT
290
     1
  9
$CEPSNTYPE
380
     0
  9
$PSTYLEMODE
290
     1
  9
$FINGERPRINTGUID
  2
{10473EE4-6DAE-452D-BBC2-FC234C3BCF3B}
  9
$VERSIONGUID
  2
{49A49D6B-4AC9-AF47-BE7F-E064637C3766}
  9
$EXTNAMES
290
     1
  9
$PSVPSCALE
 40
0.0
  9
$OLESTARTUP
290
     0
  9
$SORTENTS
280
   127
  9
$INDEXCTL
280
     0
  9
$HIDETEXT
280
     1
  9
$XCLIPFRAME
280
     2
  9
$HALOGAP
280
     0
  9
$OBSCOLOR
 70
   257
  9
$OBSLTYPE
280
     0
  9
$INTERSECTIONDISPLAY
280
     0
  9
$INTERSECTIONCOLOR
 70
   257
  9
$DIMASSOC
280
     2
  9
$PROJECTNAME
  1

  9
$CAMERADISPLAY
290
     0
  9
$LENSLENGTH
 40
50.0
  9
$CAMERAHEIGHT
 40
0.0
  9
$STEPSPERSEC
 40
2.0
  9
$STEPSIZE
 40
6.0
  9
$3DDWFPREC
 40
2.0
  9
$PSOLWIDTH
 40
0.25
  9
$PSOLHEIGHT
 40
4.0
  9
$LOFTANG1
 40
1.570796326794896
  9
$LOFTANG2
 40
1.570796326794896
  9
$LOFTMAG1
 40
0.0
  9
$LOFTMAG2
 40
0.0
  9
$LOFTPARAM
 70
     7
  9
$LOFTNORMALS
280
     1
  9
$LATITUDE
 40
37.795
  9
$LONGITUDE
 40
-122.394
  9
$NORTHDIRECTION
 40
0.0
  9
$TIMEZONE
 70
 -8000
  9
$LIGHTGLYPHDISPLAY
280
     1
  9
$TILEMODELIGHTSYNCH
280
     1
  9
$CMATERIAL
347
96
  9
$SOLIDHIST
280
     0
  9
$SHOWHIST
280
     1
  9
$DWFFRAME
280
     2
  9
$DGNFRAME
280
     0
  9
$REALWORLDSCALE
290
     1
  9
$INTERFERECOLOR
 62
     1
  9
$INTERFEREOBJVS
345
A3
  9
$INTERFEREVPVS
346
A0
  9
$CSHADOW
280
     0
  9
$SHADOWPLANELOCATION
 40
0.0
  0
ENDSEC
  0
SECTION
  2
CLASSES
  0
CLASS
  1
ACDBDICTIONARYWDFLT
  2
AcDbDictionaryWithDefault
  3
ObjectDBX Classes
 90
        0
 91
        1
280
     0
281
     0
  0
CLASS
  1
DICTIONARYVAR
  2
AcDbDictionaryVar
  3
ObjectDBX Classes
 90
        0
 91
       11
280
     0
281
     0
  0
CLASS
  1
TABLESTYLE
  2
AcDbTableStyle
  3
ObjectDBX Classes
 90
     4095
 91
        1
280
     0
281
     0
  0
CLASS
  1
MATERIAL
  2
AcDbMaterial
  3
ObjectDBX Classes
 90
     1153
 91
        3
280
     0
281
     0
  0
CLASS
  1
VISUALSTYLE
  2
AcDbVisualStyle
  3
ObjectDBX Classes
 90
     4095
 91
       24
280
     0
281
     0
  0
CLASS
  1
SCALE
  2
AcDbScale
  3
ObjectDBX Classes
 90
     1153
 91
       33
280
     0
281
     0
  0
CLASS
  1
MLEADERSTYLE
  2
AcDbMLeaderStyle
  3
ACDB_MLEADERSTYLE_CLASS
 90
     4095
 91
        2
280
     0
281
     0
  0
CLASS
  1
CELLSTYLEMAP
  2
AcDbCellStyleMap
  3
ObjectDBX Classes
 90
     1152
 91
        1
280
     0
281
     0
  0
CLASS
  1
EXACXREFPANELOBJECT
  2
ExAcXREFPanelObject
  3
EXAC_ESW
 90
     1025
 91
        0
280
     0
281
     0
  0
CLASS
  1
NPOCOLLECTION
  2
AcDbImpNonPersistentObjectsCollection
  3
ObjectDBX Classes
 90
     1153
 91
        0
280
     0
281
     0
  0
CLASS
  1
LAYER_INDEX
  2
AcDbLayerIndex
  3
ObjectDBX Classes
 90
        0
 91
        0
280
     0
281
     0
  0
CLASS
  1
SPATIAL_INDEX
  2
AcDbSpatialIndex
  3
ObjectDBX Classes
 90
        0
 91
        0
280
     0
281
     0
  0
CLASS
  1
IDBUFFER
  2
AcDbIdBuffer
  3
ObjectDBX Classes
 90
        0
 91
        0
280
     0
281
     0
  0
CLASS
  1
ACDBSECTIONVIEWSTYLE
  2
AcDbSectionViewStyle
  3
ObjectDBX Classes
 90
     1025
 91
        1
280
     0
281
     0
  0
CLASS
  1
ACDBDETAILVIEWSTYLE
  2
AcDbDetailViewStyle
  3
ObjectDBX Classes
 90
     1025
 91
        1
280
     0
281
     0
  0
CLASS
  1
DIMASSOC
  2
AcDbDimAssoc
  3
"AcDbDimAssoc|Product Desc:     AcDim ARX App For Dimension|Company:          Autodesk, Inc.|WEB Address:      www.autodesk.com"
 90
        0
 91
        3
280
     0
281
     0
  0
CLASS
  1
SORTENTSTABLE
  2
AcDbSortentsTable
  3
ObjectDBX Classes
 90
        0
 91
        4
280
     0
281
     0
  0
CLASS
  1
ACDB_ALDIMOBJECTCONTEXTDATA_CLASS
  2
AcDbAlignedDimensionObjectContextData
  3
ObjectDBX Classes
 90
     1153
 91
        0
280
     0
281
     0
  0
ENDSEC
  0
SECTION
  2
TABLES
  0
TABLE
  2
VPORT
  5
8
330
0
100
AcDbSymbolTable
 70
     1
  0
VPORT
  5
94
330
8
100
AcDbSymbolTableRecord
100
AcDbViewportTableRecord
  2
*Active
 70
     0
 10
0.0
 20
0.0
 11
1.0
 21
1.0
 12
1.316498080413019
 22
0.697424583040355
 13
0.0
 23
0.0
 14
0.5
 24
0.5
 15
0.5
 25
0.5
 16
0.0
 26
0.0
 36
1.0
 17
0.0
 27
0.0
 37
0.0
 40
0.861927893684277
 41
2.465092402464065
 42
50.0
 43
0.0
 44
0.0
 50
0.0
 51
0.0
 71
     0
 72
  1000
 73
     1
 74
     3
 75
     0
 76
     1
 77
     0
 78
     0
281
     0
 65
     1
110
0.0
120
0.0
130
0.0
111
1.0
121
0.0
131
0.0
112
0.0
122
1.0
132
0.0
 79
     0
146
0.0
348
9F
 60
     3
 61
     5
292
     1
282
     1
141
0.0
142
0.0
 63
   250
421
  3355443
1001
ACAD_NAV_VCDISPLAY
1070
     3
  0
ENDTAB
  0
TABLE
  2
LTYPE
  5
5
330
0
100
AcDbSymbolTable
 70
     1
  0
LTYPE
  5
14
330
5
100
AcDbSymbolTableRecord
100
AcDbLinetypeTableRecord
  2
ByBlock
 70
     0
  3

 72
    65
 73
     0
 40
0.0
  0
LTYPE
  5
15
330
5
100
AcDbSymbolTableRecord
100
AcDbLinetypeTableRecord
  2
ByLayer
 70
     0
  3

 72
    65
 73
     0
 40
0.0
  0
LTYPE
  5
16
330
5
100
AcDbSymbolTableRecord
100
AcDbLinetypeTableRecord
  2
Continuous
 70
     0
  3
Solid line
 72
    65
 73
     0
 40
0.0
  0
ENDTAB
  0
TABLE
  2
LAYER
  5
2
102
{ACAD_XDICTIONARY
360
18E
102
}
330
0
100
AcDbSymbolTable
 70
    10
  0
LAYER
  5
10
102
{ACAD_XDICTIONARY
360
E6
102
}
330
2
100
AcDbSymbolTableRecord
100
AcDbLayerTableRecord
  2
0
 70
     0
 62
     7
  6
Continuous
370
    -3
390
F
347
98
348
0
  0
LAYER
  5
24F
330
2
100
AcDbSymbolTableRecord
100
AcDbLayerTableRecord
  2
Defpoints
 70
     0
 62
     7
  6
Continuous
290
     0
370
    -3
390
F
347
98
348
0
  0
LAYER
  5
250
330
2
100
AcDbSymbolTableRecord
100
AcDbLayerTableRecord
  2
Text and Dimensions
 70
     0
 62
     7
  6
Continuous
370
    -3
390
F
347
98
348
0
1001
AcAecLayerStandard
1000

1000

1001
AcCmTransparency
1071
        0
  0
LAYER
  5
668
102
{ACAD_XDICTIONARY
360
669
102
}
330
2
100
AcDbSymbolTableRecord
100
AcDbLayerTableRecord
  2
C1
 70
     0
 62
   211
  6
Continuous
370
    -3
390
F
347
98
348
0
  0
LAYER
  5
BCA
330
2
100
AcDbSymbolTableRecord
100
AcDbLayerTableRecord
  2
D_TB (RO4350)
 70
     0
 62
    21
420
 16752511
  6
Continuous
370
    -3
390
F
347
98
348
0
  0
LAYER
  5
BCB
330
2
100
AcDbSymbolTableRecord
100
AcDbLayerTableRecord
  2
M_00 (PlatbeSivr)
 70
     0
 62
   241
420
 16744351
  6
Continuous
370
    -3
390
F
347
98
348
0
  0
LAYER
  5
BCC
330
2
100
AcDbSymbolTableRecord
100
AcDbLayerTableRecord
  2
M_02 (PlatbeSivr)
 70
     0
 62
    85
420
  6265164
  6
Continuous
370
    -3
390
F
347
98
348
0
  0
LAYER
  5
BCD
330
2
100
AcDbSymbolTableRecord
100
AcDbLayerTableRecord
  2
V_TB (PlatbeSivr)
 70
     0
 62
     2
420
 16776960
  6
Continuous
370
    -3
390
F
347
98
348
0
  0
LAYER
  5
BCE
330
2
100
AcDbSymbolTableRecord
100
AcDbLayerTableRecord
  2
Via Plating
 70
     0
 62
   142
  6
Continuous
370
    -3
390
F
347
98
348
0
1001
AcAecLayerStandard
1000

1000

1001
AcCmTransparency
1071
        0
  0
LAYER
  5
12A1
102
{ACAD_XDICTIONARY
360
12A2
102
}
330
2
100
AcDbSymbolTableRecord
100
AcDbLayerTableRecord
  2
Ceram
 70
     0
 62
     1
  6
Continuous
370
    -3
390
F
347
98
348
0
  0
ENDTAB
  0
TABLE
  2
STYLE
  5
3
330
0
100
AcDbSymbolTable
 70
     3
  0
STYLE
  5
11
330
3
100
AcDbSymbolTableRecord
100
AcDbTextStyleTableRecord
  2
Standard
 70
     0
 40
0.0
 41
1.0
 50
0.0
 71
     0
 42
0.2
  3
arial.ttf
  4

1001
ACAD
1000
Arial
1071
       34
  0
STYLE
  5
DC
330
3
100
AcDbSymbolTableRecord
100
AcDbTextStyleTableRecord
  2
Annotative
 70
     0
 40
0.0
 41
1.0
 50
0.0
 71
     0
 42
0.2
  3
arial.ttf
  4

1001
AcadAnnotative
1000
AnnotativeData
1002
{
1070
     1
1070
     1
1002
}
1001
ACAD
1000
Arial
1071
       34
  0
STYLE
  5
66A
330
3
100
AcDbSymbolTableRecord
100
AcDbTextStyleTableRecord
  2
MARK
 70
     0
 40
0.0
 41
1.0
 50
0.0
 71
     0
 42
0.1
  3
simplex.shx
  4

  0
ENDTAB
  0
TABLE
  2
VIEW
  5
6
330
0
100
AcDbSymbolTable
 70
     1
  0
ENDTAB
  0
TABLE
  2
UCS
  5
7
330
0
100
AcDbSymbolTable
 70
     0
  0
ENDTAB
  0
TABLE
  2
APPID
  5
9
330
0
100
AcDbSymbolTable
 70
    17
  0
APPID
  5
12
330
9
100
AcDbSymbolTableRecord
100
AcDbRegAppTableRecord
  2
ACAD
 70
     0
  0
APPID
  5
DD
330
9
100
AcDbSymbolTableRecord
100
AcDbRegAppTableRecord
  2
AcadAnnoPO
 70
     0
  0
APPID
  5
DE
330
9
100
AcDbSymbolTableRecord
100
AcDbRegAppTableRecord
  2
AcadAnnotative
 70
     0
  0
APPID
  5
DF
330
9
100
AcDbSymbolTableRecord
100
AcDbRegAppTableRecord
  2
ACAD_DSTYLE_DIMJAG
 70
     0
  0
APPID
  5
E0
330
9
100
AcDbSymbolTableRecord
100
AcDbRegAppTableRecord
  2
ACAD_DSTYLE_DIMTALN
 70
     0
  0
APPID
  5
107
330
9
100
AcDbSymbolTableRecord
100
AcDbRegAppTableRecord
  2
ACAD_MLEADERVER
 70
     0
  0
APPID
  5
1A6
330
9
100
AcDbSymbolTableRecord
100
AcDbRegAppTableRecord
  2
ACAD_NAV_VCDISPLAY
 70
     0
  0
APPID
  5
252
330
9
100
AcDbSymbolTableRecord
100
AcDbRegAppTableRecord
  2
AcAecLayerStandard
 70
     0
  0
APPID
  5
253
330
9
100
AcDbSymbolTableRecord
100
AcDbRegAppTableRecord
  2
ACAD_DSTYLE_DIMRADIAL_EXTENSION
 70
     0
  0
APPID
  5
254
330
9
100
AcDbSymbolTableRecord
100
AcDbRegAppTableRecord
  2
AcCmTransparency
 70
     0
  0
APPID
  5
255
330
9
100
AcDbSymbolTableRecord
100
AcDbRegAppTableRecord
  2
ACAD_PSEXT
 70
     0
  0
APPID
  5
256
330
9
100
AcDbSymbolTableRecord
100
AcDbRegAppTableRecord
  2
ACAD_DSTYLE_DIMBREAK
 70
     0
  0
APPID
  5
257
330
9
100
AcDbSymbolTableRecord
100
AcDbRegAppTableRecord
  2
GradientColor1ACI
 70
     0
  0
APPID
  5
258
330
9
100
AcDbSymbolTableRecord
100
AcDbRegAppTableRecord
  2
GradientColor2ACI
 70
     0
  0
APPID
  5
66E
330
9
100
AcDbSymbolTableRecord
100
AcDbRegAppTableRecord
  2
ACAD_DSTYLE_DIMJOGGED_JOGANGLE_SYMBOL
 70
     0
  0
APPID
  5
11A1
330
9
100
AcDbSymbolTableRecord
100
AcDbRegAppTableRecord
  2
ACAD_EXEMPT_FROM_CAD_STANDARDS
 70
     0
  0
APPID
  5
12D4
330
9
100
AcDbSymbolTableRecord
100
AcDbRegAppTableRecord
  2
AcadAnnoMonitorAlertIconDisabled
 70
     0
  0
ENDTAB
  0
TABLE
  2
DIMSTYLE
  5
A
330
0
100
AcDbSymbolTable
 70
     6
100
AcDbDimStyleTable
 71
     6
340
251
340
27
340
E1
340
66C
340
66D
340
66B
  0
DIMSTYLE
105
27
330
A
100
AcDbSymbolTableRecord
100
AcDbDimStyleTableRecord
  2
Standard
 70
     0
340
11
  0
DIMSTYLE
105
E1
330
A
100
AcDbSymbolTableRecord
100
AcDbDimStyleTableRecord
  2
Annotative
 70
     0
 40
0.0
340
11
1001
AcadAnnotative
1000
AnnotativeData
1002
{
1070
     1
1070
     1
1002
}
1001
ACAD_DSTYLE_DIMJAG
1070
   388
1040
1.5
1001
ACAD_DSTYLE_DIMTALN
1070
   392
1070
     0
  0
DIMSTYLE
105
251
102
{ACAD_REACTORS
330
7B1
330
9E5
330
A64
330
1132
330
11FE
330
14A7
102
}
330
A
100
AcDbSymbolTableRecord
100
AcDbDimStyleTableRecord
  2
Dan's Dim Style
 70
     0
 41
0.012
 42
0.0075
 44
0.005
140
0.012
141
0.0
147
0.0075
271
     3
272
     3
340
11
1001
ACAD_DSTYLE_DIMBREAK
1070
   391
1040
0.125
1001
ACAD_DSTYLE_DIMJAG
1070
   388
1040
1.5
1001
ACAD_DSTYLE_DIMTALN
1070
   392
1070
     0
  0
DIMSTYLE
105
66B
330
A
100
AcDbSymbolTableRecord
100
AcDbDimStyleTableRecord
  2
10X
 70
     0
 47
0.005
 48
0.005
 49
0.18
 78
     4
144
0.1
271
     3
272
     3
283
     2
284
     4
340
11
1001
ACAD_DSTYLE_DIMJOGGED_JOGANGLE_SYMBOL
1070
   384
1040
0.7853981633974483
  0
DIMSTYLE
105
66C
330
A
100
AcDbSymbolTableRecord
100
AcDbDimStyleTableRecord
  2
5X
 70
     0
 47
0.005
 48
0.005
 49
0.18
 78
     4
144
0.2
271
     3
272
     3
283
     2
284
     4
340
11
1001
ACAD_DSTYLE_DIMJOGGED_JOGANGLE_SYMBOL
1070
   384
1040
0.7853981633974483
  0
DIMSTYLE
105
66D
330
A
100
AcDbSymbolTableRecord
100
AcDbDimStyleTableRecord
  2
2X
 70
     0
 47
0.005
 48
0.005
 49
0.18
 78
     4
144
0.5
271
     3
272
     3
283
     2
284
     4
340
11
1001
ACAD_DSTYLE_DIMJOGGED_JOGANGLE_SYMBOL
1070
   384
1040
0.7853981633974483
  0
ENDTAB
  0
TABLE
  2
BLOCK_RECORD
  5
1
330
0
100
AcDbSymbolTable
 70
    13
  0
BLOCK_RECORD
  5
1F
102
{ACAD_XDICTIONARY
360
15D
102
}
330
1
100
AcDbSymbolTableRecord
100
AcDbBlockTableRecord
  2
*Model_Space
340
22
 70
     0
280
     1
281
     0
  0
BLOCK_RECORD
  5
58
330
1
100
AcDbSymbolTableRecord
100
AcDbBlockTableRecord
  2
*Paper_Space
340
59
 70
     0
280
     1
281
     0
  0
BLOCK_RECORD
  5
5D
330
1
100
AcDbSymbolTableRecord
100
AcDbBlockTableRecord
  2
*Paper_Space0
340
5E
 70
     0
280
     1
281
     0
  0
BLOCK_RECORD
  5
67C
102
{ACAD_XDICTIONARY
360
67F
102
}
330
1
100
AcDbSymbolTableRecord
100
AcDbBlockTableRecord
  2
A$C0AAF7810
340
0
 70
     1
280
     1
281
     0
  0
BLOCK_RECORD
  5
7B2
330
1
100
AcDbSymbolTableRecord
100
AcDbBlockTableRecord
  2
*D3
340
0
 70
     0
280
     1
281
     0
  0
BLOCK_RECORD
  5
9E8
330
1
100
AcDbSymbolTableRecord
100
AcDbBlockTableRecord
  2
*D4
340
0
 70
     0
280
     1
281
     0
  0
BLOCK_RECORD
  5
A65
330
1
100
AcDbSymbolTableRecord
100
AcDbBlockTableRecord
  2
*D5
340
0
 70
     0
280
     1
281
     0
  0
BLOCK_RECORD
  5
1111
102
{ACAD_XDICTIONARY
360
111A
102
}
330
1
100
AcDbSymbolTableRecord
100
AcDbBlockTableRecord
  2
A$C63713886
340
0
 70
     1
280
     1
281
     0
  0
BLOCK_RECORD
  5
1133
330
1
100
AcDbSymbolTableRecord
100
AcDbBlockTableRecord
  2
*D7
340
0
 70
     0
280
     1
281
     0
  0
BLOCK_RECORD
  5
11FF
330
1
100
AcDbSymbolTableRecord
100
AcDbBlockTableRecord
  2
*D8
340
0
 70
     0
280
     1
281
     0
  0
BLOCK_RECORD
  5
14A8
330
1
100
AcDbSymbolTableRecord
100
AcDbBlockTableRecord
  2
*D10
340
0
 70
     0
280
     1
281
     0
  0
BLOCK_RECORD
  5
167C
330
1
100
AcDbSymbolTableRecord
100
AcDbBlockTableRecord
  2
*D11
340
0
 70
     0
280
     1
281
     0
  0
BLOCK_RECORD
  5
1689
102
{ACAD_XDICTIONARY
360
168E
102
}
330
1
100
AcDbSymbolTableRecord
100
AcDbBlockTableRecord
  2
A$C0aef9ff1
340
0
 70
     1
280
     1
281
     0
  0
ENDTAB
  0
ENDSEC
  0
SECTION
  2
BLOCKS
  0
BLOCK
  5
20
330
1F
100
AcDbEntity
  8
0
100
AcDbBlockBegin
  2
*Model_Space
 70
     0
 10
0.0
 20
0.0
 30
0.0
  3
*Model_Space
  1

  0
ENDBLK
  5
21
330
1F
100
AcDbEntity
  8
0
100
AcDbBlockEnd
  0
BLOCK
  5
5A
330
58
100
AcDbEntity
 67
     1
  8
0
100
AcDbBlockBegin
  2
*Paper_Space
 70
     0
 10
0.0
 20
0.0
 30
0.0
  3
*Paper_Space
  1

  0
ENDBLK
  5
5B
330
58
100
AcDbEntity
 67
     1
  8
0
100
AcDbBlockEnd
  0
BLOCK
  5
5F
330
5D
100
AcDbEntity
 67
     1
  8
0
100
AcDbBlockBegin
  2
*Paper_Space0
 70
     0
 10
0.0
 20
0.0
 30
0.0
  3
*Paper_Space0
  1

  0
ENDBLK
  5
60
330
5D
100
AcDbEntity
 67
     1
  8
0
100
AcDbBlockEnd
  0
BLOCK
  5
681
330
67C
100
AcDbEntity
  8
0
100
AcDbBlockBegin
  2
A$C0AAF7810
 70
     0
 10
0.0
 20
0.0
 30
0.0
  3
A$C0AAF7810
  1

  0
LWPOLYLINE
  5
67D
330
67C
100
AcDbEntity
  8
C1
  6
Continuous
100
AcDbPolyline
 90
        4
 70
     1
 43
0.0
 10
0.0000001368868539
 20
1.449999991306029
 10
0.0000001368868539
 20
0.9499999913060293
 10
0.3000001368867515
 20
0.9499999913060293
 10
0.3000001368867515
 20
1.449999991306029
  0
LWPOLYLINE
  5
67E
330
67C
100
AcDbEntity
  8
C1
  6
Continuous
100
AcDbPolyline
 90
        8
 70
     1
 43
0.0
 10
3.750000136886853
 20
2.399999991305847
 10
0.0500001368866947
 20
2.399999991305847
 10
0.0500001368866947
 20
1.84999999130612
 10
0.700000136886672
 20
1.84999999130612
 10
0.700000136886672
 20
0.5499999913059384
 10
0.0500001368866947
 20
0.5499999913059384
 10
0.0500001368866947
 20
-0.0000000086940162
 10
3.750000136886853
 20
-0.0000000086940162
  0
ENDBLK
  5
682
330
67C
100
AcDbEntity
  8
0
100
AcDbBlockEnd
  0
BLOCK
  5
7B3
330
7B2
100
AcDbEntity
  8
0
100
AcDbBlockBegin
  2
*D3
 70
     1
 10
0.0
 20
0.0
 30
0.0
  3
*D3
  1

  0
LINE
  5
1525
330
7B2
100
AcDbEntity
  8
Text and Dimensions
 62
     0
440
 16777216
370
    -2
100
AcDbLine
 10
1.30403462510034
 20
0.5019809587251601
 30
0.0
 11
1.083926682928844
 21
0.5019809587251599
 31
0.0
  0
LINE
  5
1526
330
7B2
100
AcDbEntity
  8
Text and Dimensions
 62
     0
440
 16777216
370
    -2
100
AcDbLine
 10
1.304074689041639
 20
0.5320322405700142
 30
0.0
 11
1.083926682928844
 21
0.5320322405700141
 31
0.0
  0
LINE
  5
1527
330
7B2
100
AcDbEntity
  8
Text and Dimensions
 62
     0
440
 16777216
370
    -2
100
AcDbLine
 10
1.088926682928845
 20
0.4899809587251599
 30
0.0
 11
1.088926682928845
 21
0.4779809587251599
 31
0.0
  0
LINE
  5
1528
330
7B2
100
AcDbEntity
  8
Text and Dimensions
 62
     0
440
 16777216
370
    -2
100
AcDbLine
 10
1.088926682928844
 20
0.5440322405700142
 30
0.0
 11
1.088926682928844
 21
0.5560322405700142
 31
0.0
  0
SOLID
  5
1529
330
7B2
100
AcDbEntity
  8
Text and Dimensions
 62
     0
440
 16777216
100
AcDbTrace
 10
1.086926682928845
 20
0.4899809587251599
 30
0.0
 11
1.090926682928845
 21
0.4899809587251599
 31
0.0
 12
1.088926682928844
 22
0.5019809587251599
 32
0.0
 13
1.088926682928844
 23
0.5019809587251599
 33
0.0
  0
SOLID
  5
152A
330
7B2
100
AcDbEntity
  8
Text and Dimensions
 62
     0
440
 16777216
100
AcDbTrace
 10
1.086926682928844
 20
0.5440322405700142
 30
0.0
 11
1.090926682928844
 21
0.5440322405700142
 31
0.0
 12
1.088926682928844
 22
0.5320322405700141
 32
0.0
 13
1.088926682928844
 23
0.5320322405700141
 33
0.0
  0
MTEXT
  5
152B
330
7B2
100
AcDbEntity
  8
Text and Dimensions
 62
     0
440
 16777216
100
AcDbMText
 10
1.088926682928844
 20
0.5170065996475866
 30
0.0
 40
0.012
 41
0.0
 46
0.0
 71
     5
 72
     1
  1
\A1;0.030
 73
     1
 44
1.0
  0
POINT
  5
152C
330
7B2
100
AcDbEntity
  8
Defpoints
 62
     0
440
 16777216
100
AcDbPoint
 10
1.31153462510034
 20
0.5019809587251601
 30
0.0
  0
POINT
  5
152D
330
7B2
100
AcDbEntity
  8
Defpoints
 62
     0
440
 16777216
100
AcDbPoint
 10
1.311574689041639
 20
0.5320322405700142
 30
0.0
  0
POINT
  5
152E
330
7B2
100
AcDbEntity
  8
Defpoints
 62
     0
440
 16777216
100
AcDbPoint
 10
1.088926682928844
 20
0.5320322405700141
 30
0.0
  0
ENDBLK
  5
7B4
330
7B2
100
AcDbEntity
  8
0
100
AcDbBlockEnd
  0
BLOCK
  5
9E9
330
9E8
100
AcDbEntity
  8
0
100
AcDbBlockBegin
  2
*D4
 70
     1
 10
0.0
 20
0.0
 30
0.0
  3
*D4
  1

  0
LINE
  5
1722
330
9E8
100
AcDbEntity
  8
0
 62
     0
440
 16777216
370
    -2
100
AcDbLine
 10
1.096394554756405
 20
0.6444071774639843
 30
0.0
 11
1.108394554756405
 21
0.6444071774639842
 31
0.0
  0
LINE
  5
1723
330
9E8
100
AcDbEntity
  8
0
 62
     0
440
 16777216
370
    -2
100
AcDbLine
 10
1.108394554756405
 20
0.6444071774639842
 30
0.0
 11
1.301308559929807
 21
0.5831747131206794
 31
0.0
  0
MTEXT
  5
1724
330
9E8
100
AcDbEntity
  8
0
 62
     0
440
 16777216
100
AcDbMText
 10
1.019775864442626
 20
0.6444071774639843
 30
0.0
 40
0.012
 41
0.0
 46
0.0
 71
     5
 72
     1
  1
\A1;Orientation Marker
 73
     1
 44
1.0
  0
SOLID
  5
1725
330
9E8
100
AcDbEntity
  8
0
 62
     0
440
 16777216
100
AcDbTrace
 10
1.30191362773497
 20
0.585080990369968
 30
0.0
 11
1.300703492124644
 21
0.581268435871391
 31
0.0
 12
1.312746223425538
 22
0.5795443062897002
 32
0.0
 13
1.312746223425538
 23
0.5795443062897002
 33
0.0
  0
POINT
  5
1726
330
9E8
100
AcDbEntity
  8
Defpoints
 62
     0
440
 16777216
100
AcDbPoint
 10
1.312746223425538
 20
0.5795443062897002
 30
0.0
  0
POINT
  5
1727
330
9E8
100
AcDbEntity
  8
Defpoints
 62
     0
440
 16777216
100
AcDbPoint
 10
1.360403154657751
 20
0.5644176111606204
 30
0.0
  0
ENDBLK
  5
9EA
330
9E8
100
AcDbEntity
  8
0
100
AcDbBlockEnd
  0
BLOCK
  5
A66
330
A65
100
AcDbEntity
  8
0
100
AcDbBlockBegin
  2
*D5
 70
     1
 10
0.0
 20
0.0
 30
0.0
  3
*D5
  1

  0
LINE
  5
A6E
330
A65
100
AcDbEntity
  8
0
 62
     0
440
 16777216
370
    -2
100
AcDbLine
 10
1.463472526534904
 20
0.9749984383595691
 30
0.0
 11
1.451472526534904
 21
0.9749984383595691
 31
0.0
  0
LINE
  5
A6F
330
A65
100
AcDbEntity
  8
0
 62
     0
440
 16777216
370
    -2
100
AcDbLine
 10
1.451472526534904
 20
0.9749984383595691
 30
0.0
 11
1.391852560900026
 21
0.8621264127444369
 31
0.0
  0
MTEXT
  5
A70
330
A65
100
AcDbEntity
  8
0
 62
     0
440
 16777216
100
AcDbMText
 10
1.548755609754549
 20
0.9749984383595693
 30
0.0
 40
0.012
 41
0.0
 46
0.0
 71
     5
 72
     1
  1
\A1;Hatched Area\PIndicates Footprint of\PPart
 73
     1
 44
1.0
  0
SOLID
  5
A71
330
A65
100
AcDbEntity
  8
0
 62
     0
440
 16777216
100
AcDbTrace
 10
1.390084105940155
 20
0.8630605257220302
 30
0.0
 11
1.393621015859897
 21
0.8611922997668438
 31
0.0
 12
1.386247883034466
 22
0.8515156829852116
 32
0.0
 13
1.386247883034466
 23
0.8515156829852116
 33
0.0
  0
POINT
  5
A72
330
A65
100
AcDbEntity
  8
Defpoints
 62
     0
440
 16777216
100
AcDbPoint
 10
1.386247883034466
 20
0.8515156829852116
 30
0.0
  0
POINT
  5
A73
330
A65
100
AcDbEntity
  8
Defpoints
 62
     0
440
 16777216
100
AcDbPoint
 10
1.317878378132041
 20
0.7220791020267355
 30
0.0
  0
ENDBLK
  5
A67
330
A65
100
AcDbEntity
  8
0
100
AcDbBlockEnd
  0
BLOCK
  5
111C
330
1111
100
AcDbEntity
  8
0
100
AcDbBlockBegin
  2
A$C63713886
 70
     0
 10
0.0
 20
0.0
 30
0.0
  3
A$C63713886
  1

  0
CIRCLE
  5
1112
330
1111
100
AcDbEntity
  8
D_TB (RO4350)
100
AcDbCircle
 10
0.2000572795134341
 20
0.0099999662447705
 30
0.0
 40
0.01
  0
CIRCLE
  5
1113
330
1111
100
AcDbEntity
  8
D_TB (RO4350)
100
AcDbCircle
 10
0.2800572795134182
 20
0.0099999662447705
 30
0.0
 40
0.01
  0
CIRCLE
  5
1114
330
1111
100
AcDbEntity
  8
D_TB (RO4350)
100
AcDbCircle
 10
0.0899999574147084
 20
0.0099999662447705
 30
0.0
 40
0.01
  0
CIRCLE
  5
1115
330
1111
100
AcDbEntity
  8
D_TB (RO4350)
100
AcDbCircle
 10
0.0099999574147243
 20
0.0099999662447705
 30
0.0
 40
0.01
  0
CIRCLE
  5
1116
330
1111
100
AcDbEntity
  8
V_TB (PlatbeSivr)
100
AcDbCircle
 10
0.2000572795134341
 20
0.0099999662447705
 30
0.0
 40
0.01
  0
CIRCLE
  5
1117
330
1111
100
AcDbEntity
  8
V_TB (PlatbeSivr)
100
AcDbCircle
 10
0.2800572795134182
 20
0.0099999662447705
 30
0.0
 40
0.01
  0
CIRCLE
  5
1118
330
1111
100
AcDbEntity
  8
V_TB (PlatbeSivr)
100
AcDbCircle
 10
0.0899999574147084
 20
0.0099999662447705
 30
0.0
 40
0.01
  0
CIRCLE
  5
1119
330
1111
100
AcDbEntity
  8
V_TB (PlatbeSivr)
100
AcDbCircle
 10
0.0099999574147243
 20
0.0099999662447705
 30
0.0
 40
0.01
  0
ENDBLK
  5
111D
330
1111
100
AcDbEntity
  8
0
100
AcDbBlockEnd
  0
BLOCK
  5
1134
330
1133
100
AcDbEntity
  8
0
100
AcDbBlockBegin
  2
*D7
 70
     1
 10
0.0
 20
0.0
 30
0.0
  3
*D7
  1

  0
LINE
  5
1728
330
1133
100
AcDbEntity
  8
0
 62
     0
440
 16777216
370
    -2
100
AcDbLine
 10
1.311534625100339
 20
0.497342883378157
 30
0.0
 11
1.311534625100339
 21
0.40592475703024
 31
0.0
  0
LINE
  5
1729
330
1133
100
AcDbEntity
  8
0
 62
     0
440
 16777216
370
    -2
100
AcDbLine
 10
1.361614752982948
 20
0.4973428960155219
 30
0.0
 11
1.361614752982948
 21
0.40592475703024
 31
0.0
  0
LINE
  5
172A
330
1133
100
AcDbEntity
  8
0
 62
     0
440
 16777216
370
    -2
100
AcDbLine
 10
1.323534625100339
 20
0.4109247570302399
 30
0.0
 11
1.349614752982948
 21
0.4109247570302399
 31
0.0
  0
LINE
  5
172B
330
1133
100
AcDbEntity
  8
0
 62
     0
440
 16777216
370
    -2
100
AcDbLine
 10
1.361614752982948
 20
0.4109247570302399
 30
0.0
 11
1.375817727134811
 21
0.4109247570302399
 31
0.0
  0
SOLID
  5
172C
330
1133
100
AcDbEntity
  8
0
 62
     0
440
 16777216
100
AcDbTrace
 10
1.323534625100339
 20
0.4129247570302399
 30
0.0
 11
1.323534625100339
 21
0.40892475703024
 31
0.0
 12
1.311534625100339
 22
0.4109247570302399
 32
0.0
 13
1.311534625100339
 23
0.4109247570302399
 33
0.0
  0
SOLID
  5
172D
330
1133
100
AcDbEntity
  8
0
 62
     0
440
 16777216
100
AcDbTrace
 10
1.349614752982948
 20
0.4129247570302399
 30
0.0
 11
1.349614752982948
 21
0.40892475703024
 31
0.0
 12
1.361614752982948
 22
0.4109247570302399
 32
0.0
 13
1.361614752982948
 23
0.4109247570302399
 33
0.0
  0
MTEXT
  5
172E
330
1133
100
AcDbEntity
  8
0
 62
     0
440
 16777216
100
AcDbMText
 10
1.456407224406298
 20
0.4109247570302399
 30
0.0
 40
0.012
 41
0.0
 46
0.0
 71
     5
 72
     1
  1
\A1;50{\H1.0833x;Ω\PTransmission Line}
 73
     1
 44
1.0
  0
POINT
  5
172F
330
1133
100
AcDbEntity
  8
Defpoints
 62
     0
440
 16777216
100
AcDbPoint
 10
1.311534625100339
 20
0.504842883378157
 30
0.0
  0
POINT
  5
1730
330
1133
100
AcDbEntity
  8
Defpoints
 62
     0
440
 16777216
100
AcDbPoint
 10
1.361614752982948
 20
0.5048428960155219
 30
0.0
  0
POINT
  5
1731
330
1133
100
AcDbEntity
  8
Defpoints
 62
     0
440
 16777216
100
AcDbPoint
 10
1.361614752982948
 20
0.4109247570302399
 30
0.0
  0
ENDBLK
  5
1135
330
1133
100
AcDbEntity
  8
0
100
AcDbBlockEnd
  0
BLOCK
  5
1200
330
11FF
100
AcDbEntity
  8
0
100
AcDbBlockBegin
  2
*D8
 70
     1
 10
0.0
 20
0.0
 30
0.0
  3
*D8
  1

  0
LINE
  5
1208
330
11FF
100
AcDbEntity
  8
0
 62
     0
440
 16777216
370
    -2
100
AcDbLine
 10
1.085330282378153
 20
0.4029673181612972
 30
0.0
 11
1.097330282378153
 21
0.4029673181612973
 31
0.0
  0
LINE
  5
1209
330
11FF
100
AcDbEntity
  8
0
 62
     0
440
 16777216
370
    -2
100
AcDbLine
 10
1.097330282378153
 20
0.4029673181612973
 30
0.0
 11
1.148370653262739
 21
0.3746755896590273
 31
0.0
  0
MTEXT
  5
120A
330
11FF
100
AcDbEntity
  8
0
 62
     0
440
 16777216
100
AcDbMText
 10
1.021075848544592
 20
0.4029673181612971
 30
0.0
 40
0.012
 41
0.0512332878581173
 46
0.0
 71
     5
 72
     1
  1
\A1;Copper/Ground
 73
     1
 44
1.0
  0
SOLID
  5
120B
330
11FF
100
AcDbEntity
  8
0
 62
     0
440
 16777216
100
AcDbTrace
 10
1.149340261726417
 20
0.376424835046949
 30
0.0
 11
1.147401044799062
 21
0.3729263442711057
 31
0.0
 12
1.158866125590269
 22
0.368857938876963
 32
0.0
 13
1.158866125590269
 23
0.368857938876963
 33
0.0
  0
POINT
  5
120C
330
11FF
100
AcDbEntity
  8
Defpoints
 62
     0
440
 16777216
100
AcDbPoint
 10
1.158866125590269
 20
0.368857938876963
 30
0.0
  0
POINT
  5
120D
330
11FF
100
AcDbEntity
  8
Defpoints
 62
     0
440
 16777216
100
AcDbPoint
 10
1.185979429103055
 20
0.3538290076899635
 30
0.0
  0
ENDBLK
  5
1201
330
11FF
100
AcDbEntity
  8
0
100
AcDbBlockEnd
  0
BLOCK
  5
14A9
330
14A8
100
AcDbEntity
  8
0
100
AcDbBlockBegin
  2
*D10
 70
     1
 10
0.0
 20
0.0
 30
0.0
  3
*D10
  1

  0
LINE
  5
1672
330
14A8
100
AcDbEntity
  8
0
 62
     0
440
 16777216
370
    -2
100
AcDbLine
 10
1.412175798007464
 20
0.5619039480493556
 30
0.0
 11
1.596582662414713
 21
0.5619039480493556
 31
0.0
  0
LINE
  5
1673
330
14A8
100
AcDbEntity
  8
0
 62
     0
440
 16777216
370
    -2
100
AcDbLine
 10
1.36907468904165
 20
0.5320322405700142
 30
0.0
 11
1.596582662414713
 21
0.5320322405700142
 31
0.0
  0
LINE
  5
1674
330
14A8
100
AcDbEntity
  8
0
 62
     0
440
 16777216
370
    -2
100
AcDbLine
 10
1.591582662414713
 20
0.5739039480493556
 30
0.0
 11
1.591582662414713
 21
0.5859039480493557
 31
0.0
  0
LINE
  5
1675
330
14A8
100
AcDbEntity
  8
0
 62
     0
440
 16777216
370
    -2
100
AcDbLine
 10
1.591582662414713
 20
0.5200322405700142
 30
0.0
 11
1.591582662414713
 21
0.5080322405700142
 31
0.0
  0
SOLID
  5
1676
330
14A8
100
AcDbEntity
  8
0
 62
     0
440
 16777216
100
AcDbTrace
 10
1.589582662414713
 20
0.5739039480493556
 30
0.0
 11
1.593582662414713
 21
0.5739039480493556
 31
0.0
 12
1.591582662414713
 22
0.5619039480493556
 32
0.0
 13
1.591582662414713
 23
0.5619039480493556
 33
0.0
  0
SOLID
  5
1677
330
14A8
100
AcDbEntity
  8
0
 62
     0
440
 16777216
100
AcDbTrace
 10
1.589582662414713
 20
0.5200322405700142
 30
0.0
 11
1.593582662414713
 21
0.5200322405700142
 31
0.0
 12
1.591582662414713
 22
0.5320322405700142
 32
0.0
 13
1.591582662414713
 23
0.5320322405700142
 33
0.0
  0
MTEXT
  5
1678
330
14A8
100
AcDbEntity
  8
0
 62
     0
440
 16777216
100
AcDbMText
 10
1.591582662414713
 20
0.5469680943096843
 30
0.0
 40
0.012
 41
0.0
 46
0.0
 71
     5
 72
     1
  1
\A1;0.030
 73
     1
 44
1.0
  0
POINT
  5
1679
330
14A8
100
AcDbEntity
  8
Defpoints
 62
     0
440
 16777216
100
AcDbPoint
 10
1.404675798007464
 20
0.5619039480493556
 30
0.0
  0
POINT
  5
167A
330
14A8
100
AcDbEntity
  8
Defpoints
 62
     0
440
 16777216
100
AcDbPoint
 10
1.36157468904165
 20
0.5320322405700142
 30
0.0
  0
POINT
  5
167B
330
14A8
100
AcDbEntity
  8
Defpoints
 62
     0
440
 16777216
100
AcDbPoint
 10
1.591582662414713
 20
0.5320322405700142
 30
0.0
  0
ENDBLK
  5
14AA
330
14A8
100
AcDbEntity
  8
0
100
AcDbBlockEnd
  0
BLOCK
  5
167D
330
167C
100
AcDbEntity
  8
0
100
AcDbBlockBegin
  2
*D11
 70
     1
 10
0.0
 20
0.0
 30
0.0
  3
*D11
  1

  0
LINE
  5
167E
330
167C
100
AcDbEntity
  8
0
 62
     0
440
 16777216
370
    -2
100
AcDbLine
 10
1.412175798007464
 20
0.5619039480493556
 30
0.0
 11
1.596582662414713
 21
0.5619039480493556
 31
0.0
  0
LINE
  5
167F
330
167C
100
AcDbEntity
  8
0
 62
     0
440
 16777216
370
    -2
100
AcDbLine
 10
1.36907468904165
 20
0.5320322405700142
 30
0.0
 11
1.596582662414713
 21
0.5320322405700142
 31
0.0
  0
LINE
  5
1680
330
167C
100
AcDbEntity
  8
0
 62
     0
440
 16777216
370
    -2
100
AcDbLine
 10
1.591582662414713
 20
0.5739039480493556
 30
0.0
 11
1.591582662414713
 21
0.5859039480493557
 31
0.0
  0
LINE
  5
1681
330
167C
100
AcDbEntity
  8
0
 62
     0
440
 16777216
370
    -2
100
AcDbLine
 10
1.591582662414713
 20
0.5200322405700142
 30
0.0
 11
1.591582662414713
 21
0.5080322405700142
 31
0.0
  0
SOLID
  5
1682
330
167C
100
AcDbEntity
  8
0
 62
     0
440
 16777216
100
AcDbTrace
 10
1.589582662414713
 20
0.5739039480493556
 30
0.0
 11
1.593582662414713
 21
0.5739039480493556
 31
0.0
 12
1.591582662414713
 22
0.5619039480493556
 32
0.0
 13
1.591582662414713
 23
0.5619039480493556
 33
0.0
  0
SOLID
  5
1683
330
167C
100
AcDbEntity
  8
0
 62
     0
440
 16777216
100
AcDbTrace
 10
1.589582662414713
 20
0.5200322405700142
 30
0.0
 11
1.593582662414713
 21
0.5200322405700142
 31
0.0
 12
1.591582662414713
 22
0.5320322405700142
 32
0.0
 13
1.591582662414713
 23
0.5320322405700142
 33
0.0
  0
MTEXT
  5
1684
330
167C
100
AcDbEntity
  8
0
 62
     0
440
 16777216
100
AcDbMText
 10
1.591582662414713
 20
0.5469680943096843
 30
0.0
 40
0.012
 41
0.0
 46
0.0
 71
     5
 72
     1
  1
\A1;0.030
 73
     1
 44
1.0
  0
POINT
  5
1685
330
167C
100
AcDbEntity
  8
Defpoints
 62
     0
440
 16777216
100
AcDbPoint
 10
1.404675798007464
 20
0.5619039480493556
 30
0.0
  0
POINT
  5
1686
330
167C
100
AcDbEntity
  8
Defpoints
 62
     0
440
 16777216
100
AcDbPoint
 10
1.36157468904165
 20
0.5320322405700142
 30
0.0
  0
POINT
  5
1687
330
167C
100
AcDbEntity
  8
Defpoints
 62
     0
440
 16777216
100
AcDbPoint
 10
1.591582662414713
 20
0.5320322405700142
 30
0.0
  0
ENDBLK
  5
1688
330
167C
100
AcDbEntity
  8
0
100
AcDbBlockEnd
  0
BLOCK
  5
1690
330
1689
100
AcDbEntity
  8
0
100
AcDbBlockBegin
  2
A$C0aef9ff1
 70
     0
 10
0.0
 20
0.0
 30
0.0
  3
A$C0aef9ff1
  1

  0
DIMENSION
  5
168A
330
1689
100
AcDbEntity
  8
0
100
AcDbDimension
280
     0
  2
*D11
 10
0.2300079733730629
 20
0.024
 30
0.0
 11
0.2300079733730627
 21
0.0389358537396701
 31
0.0
 12
-1.36157468904165
 22
-0.5080322405700142
 32
0.0
 70
   160
 71
     5
 42
0.0298717074793414
 73
     0
 74
     0
 75
     0
  3
Dan's Dim Style
100
AcDbAlignedDimension
 13
0.0431011089658133
 23
0.0538717074793412
 33
0.0
 14
-0.0000000000000004
 24
0.0239999999999998
 34
0.0
 50
90.0
100
AcDbRotatedDimension
  0
CIRCLE
  5
168B
330
1689
100
AcDbEntity
  8
0
100
AcDbCircle
 10
0.1404641015685926
 20
0.3858618331288622
 30
0.0
 40
0.004
  0
CIRCLE
  5
168C
330
1689
100
AcDbEntity
  8
0
100
AcDbCircle
 10
0.1604640740939989
 20
0.3858618170094284
 30
0.0
 40
0.004
  0
CIRCLE
  5
168D
330
1689
100
AcDbEntity
  8
0
100
AcDbCircle
 10
0.1804640191448021
 20
0.3858617847705609
 30
0.0
 40
0.004
  0
ENDBLK
  5
1691
330
1689
100
AcDbEntity
  8
0
100
AcDbBlockEnd
  0
ENDSEC
  0
SECTION
  2
ENTITIES
  0
LWPOLYLINE
  5
68B
330
1F
100
AcDbEntity
  8
0
  6
Continuous
100
AcDbPolyline
 90
        4
 70
     1
 43
0.0
 10
1.311534625100339
 20
0.5019809587251598
 10
1.361614752982948
 20
0.5019809587251598
 10
1.361614752982948
 20
0.532032240570014
 10
1.311534625100339
 20
0.532032240570014
  0
LWPOLYLINE
  5
68C
102
{ACAD_REACTORS
330
14C0
102
}
330
1F
100
AcDbEntity
  8
0
  6
Continuous
100
AcDbPolyline
 90
        8
 70
     1
 43
0.0
 10
1.174288039845686
 20
0.8767345601554826
 10
1.173821085931301
 20
0.5019809587251598
 10
1.268866356141646
 20
0.5019809587251598
 10
1.269259132207468
 20
0.5619039480493555
 10
1.404675798007463
 20
0.5619039480493555
 10
1.404283021941641
 20
0.5019809587251598
 10
1.49930128144915
 20
0.5019809587251598
 10
1.49930128144915
 20
0.8767345601554826
  0
DIMENSION
  5
7B1
330
1F
100
AcDbEntity
  8
Text and Dimensions
100
AcDbDimension
280
     0
  2
*D3
 10
1.088926682928844
 20
0.5320322405700141
 30
0.0
 11
1.088926682928844
 21
0.5170065996475866
 31
0.0
 70
   160
 71
     5
 42
0.0300512818448542
 73
     0
 74
     0
 75
     0
  3
Dan's Dim Style
100
AcDbAlignedDimension
 13
1.311534625100339
 23
0.5019809587251598
 33
0.0
 14
1.311574689041638
 24
0.532032240570014
 34
0.0
 50
90.0
100
AcDbRotatedDimension
  0
CIRCLE
  5
9E4
102
{ACAD_REACTORS
330
9E7
102
}
330
1F
100
AcDbEntity
  8
0
100
AcDbCircle
 10
1.336574689041644
 20
0.5719809587251599
 30
0.0
 40
0.025
  0
DIMENSION
  5
9E5
102
{ACAD_XDICTIONARY
360
9E6
102
}
102
{ACAD_REACTORS
330
9E7
102
}
330
1F
100
AcDbEntity
  8
0
100
AcDbDimension
280
     0
  2
*D4
 10
1.360403154657751
 20
0.5644176111606204
 30
0.0
 11
1.019775864442626
 21
0.6444071774639843
 31
0.0
 70
   163
  1
Orientation Marker
 71
     5
 42
0.0499999999999996
 73
     0
 74
     0
 75
     0
  3
Dan's Dim Style
100
AcDbDiametricDimension
 15
1.312746223425538
 25
0.5795443062897002
 35
0.0
 40
0.0
1001
ACAD_DSTYLE_DIMRADIAL_EXTENSION
1070
   387
1070
     1
1070
   388
1040
0.0
1070
   390
1040
0.0
1001
ACAD
1000
DSTYLE
1002
{
1070
   288
1070
     1
1002
}
  0
HATCH
  5
A53
330
1F
100
AcDbEntity
  8
Text and Dimensions
100
AcDbHatch
 10
0.0
 20
0.0
 30
0.0
210
0.0
220
0.0
230
1.0
  2
ANSI31
 70
     0
 71
     0
 91
        1
 92
        1
 93
        8
 72
     1
 10
1.174288039845686
 20
0.8767345601554826
 11
1.173821085931301
 21
0.5019809587251598
 72
     1
 10
1.173821085931301
 20
0.5019809587251598
 11
1.268866356141646
 21
0.5019809587251598
 72
     1
 10
1.268866356141646
 20
0.5019809587251598
 11
1.269259132207468
 21
0.5619039480493555
 72
     1
 10
1.269259132207468
 20
0.5619039480493555
 11
1.404675798007463
 21
0.5619039480493555
 72
     1
 10
1.404675798007463
 20
0.5619039480493555
 11
1.404283021941641
 21
0.5019809587251598
 72
     1
 10
1.404283021941641
 20
0.5019809587251598
 11
1.49930128144915
 21
0.5019809587251598
 72
     1
 10
1.49930128144915
 20
0.5019809587251598
 11
1.49930128144915
 21
0.8767345601554826
 72
     1
 10
1.49930128144915
 20
0.8767345601554826
 11
1.174288039845686
 21
0.8767345601554826
 97
        0
 75
     1
 76
     1
 52
0.0
 41
0.09
 77
     0
 78
     1
 53
45.0
 43
0.0
 44
0.0
 45
-0.0079549512883487
 46
0.0079549512883487
 79
     0
 98
        1
 10
0.0
 20
0.0
1001
GradientColor1ACI
1070
     5
1001
GradientColor2ACI
1070
     2
1001
ACAD
1010
0.0
1020
0.0
1030
0.0
  0
DIMENSION
  5
A64
330
1F
100
AcDbEntity
  8
0
100
AcDbDimension
280
     0
  2
*D5
 10
1.317878378132041
 20
0.7220791020267355
 30
0.0
 11
1.548755609754549
 21
0.9749984383595693
 31
0.0
 70
   163
  1
Hatched Area\PIndicates Footprint of\PPart
 71
     5
 42
0.1463838026928628
 73
     0
 74
     0
 75
     0
  3
Dan's Dim Style
100
AcDbDiametricDimension
 15
1.386247883034466
 25
0.8515156829852116
 35
0.0
 40
0.0
1001
ACAD_DSTYLE_DIMRADIAL_EXTENSION
1070
   387
1070
     1
1070
   388
1040
0.0
1070
   390
1040
0.0
1001
ACAD
1000
DSTYLE
1002
{
1070
   288
1070
     1
1002
}
  0
CIRCLE
  5
E78
330
1F
100
AcDbEntity
  8
0
100
AcDbCircle
 10
1.201446968143248
 20
0.453347981922328
 30
0.0
 40
0.01
  0
CIRCLE
  5
E7A
330
1F
100
AcDbEntity
  8
0
100
AcDbCircle
 10
1.391504290241958
 20
1.013347981922216
 30
0.0
 40
0.01
  0
CIRCLE
  5
E7C
330
1F
100
AcDbEntity
  8
0
100
AcDbCircle
 10
1.04144696814328
 20
0.6133479819222961
 30
0.0
 40
0.01
  0
CIRCLE
  5
E7E
330
1F
100
AcDbEntity
  8
0
100
AcDbCircle
 10
1.04144696814328
 20
0.6933479819222802
 30
0.0
 40
0.01
  0
CIRCLE
  5
E82
330
1F
100
AcDbEntity
  8
0
100
AcDbCircle
 10
1.121446968143264
 20
1.013347981922216
 30
0.0
 40
0.01
  0
CIRCLE
  5
E83
330
1F
100
AcDbEntity
  8
0
100
AcDbCircle
 10
1.04144696814328
 20
1.013347981922216
 30
0.0
 40
0.01
  0
CIRCLE
  5
E84
330
1F
100
AcDbEntity
  8
0
100
AcDbCircle
 10
1.551504290241926
 20
0.453347981922328
 30
0.0
 40
0.01
  0
CIRCLE
  5
E85
330
1F
100
AcDbEntity
  8
0
100
AcDbCircle
 10
1.63150429024191
 20
0.453347981922328
 30
0.0
 40
0.01
  0
CIRCLE
  5
E8A
330
1F
100
AcDbEntity
  8
0
100
AcDbCircle
 10
1.63150429024191
 20
0.7733479819222643
 30
0.0
 40
0.01
  0
CIRCLE
  5
E8C
330
1F
100
AcDbEntity
  8
0
100
AcDbCircle
 10
1.63150429024191
 20
0.8533479819222483
 30
0.0
 40
0.01
  0
CIRCLE
  5
E8F
330
1F
100
AcDbEntity
  8
0
100
AcDbCircle
 10
1.471504290241942
 20
1.013347981922216
 30
0.0
 40
0.01
  0
CIRCLE
  5
E91
330
1F
100
AcDbEntity
  8
0
100
AcDbCircle
 10
1.281446968143232
 20
1.013347981922216
 30
0.0
 40
0.01
  0
CIRCLE
  5
E92
330
1F
100
AcDbEntity
  8
0
100
AcDbCircle
 10
1.63150429024191
 20
1.013347981922216
 30
0.0
 40
0.01
  0
CIRCLE
  5
E93
330
1F
100
AcDbEntity
  8
0
100
AcDbCircle
 10
1.551504290241926
 20
1.013347981922216
 30
0.0
 40
0.01
  0
CIRCLE
  5
E94
330
1F
100
AcDbEntity
  8
0
100
AcDbCircle
 10
1.63150429024191
 20
0.9333479819222324
 30
0.0
 40
0.01
  0
CIRCLE
  5
E98
330
1F
100
AcDbEntity
  8
0
100
AcDbCircle
 10
1.63150429024191
 20
0.6933479819222802
 30
0.0
 40
0.01
  0
CIRCLE
  5
E9A
330
1F
100
AcDbEntity
  8
0
100
AcDbCircle
 10
1.63150429024191
 20
0.6133479819222961
 30
0.0
 40
0.01
  0
CIRCLE
  5
E9C
330
1F
100
AcDbEntity
  8
0
100
AcDbCircle
 10
1.63150429024191
 20
0.533347981922312
 30
0.0
 40
0.01
  0
CIRCLE
  5
E9E
330
1F
100
AcDbEntity
  8
0
100
AcDbCircle
 10
1.471504290241942
 20
0.453347981922328
 30
0.0
 40
0.01
  0
CIRCLE
  5
EA0
330
1F
100
AcDbEntity
  8
0
100
AcDbCircle
 10
1.201446968143248
 20
1.013347981922216
 30
0.0
 40
0.01
  0
CIRCLE
  5
EA2
330
1F
100
AcDbEntity
  8
0
100
AcDbCircle
 10
1.04144696814328
 20
0.9333479819222324
 30
0.0
 40
0.01
  0
CIRCLE
  5
EA4
330
1F
100
AcDbEntity
  8
0
100
AcDbCircle
 10
1.04144696814328
 20
0.8533479819222483
 30
0.0
 40
0.01
  0
CIRCLE
  5
EA6
330
1F
100
AcDbEntity
  8
0
100
AcDbCircle
 10
1.04144696814328
 20
0.7733479819222643
 30
0.0
 40
0.01
  0
CIRCLE
  5
EAA
330
1F
100
AcDbEntity
  8
0
100
AcDbCircle
 10
1.04144696814328
 20
0.533347981922312
 30
0.0
 40
0.01
  0
CIRCLE
  5
EAC
330
1F
100
AcDbEntity
  8
0
100
AcDbCircle
 10
1.04144696814328
 20
0.453347981922328
 30
0.0
 40
0.01
  0
CIRCLE
  5
EAD
330
1F
100
AcDbEntity
  8
0
100
AcDbCircle
 10
1.121446968143264
 20
0.453347981922328
 30
0.0
 40
0.01
  0
CIRCLE
  5
EAF
330
1F
100
AcDbEntity
  8
0
100
AcDbCircle
 10
1.201446968143248
 20
0.453347981922328
 30
0.0
 40
0.01
  0
CIRCLE
  5
EB1
330
1F
100
AcDbEntity
  8
0
100
AcDbCircle
 10
1.391504290241958
 20
1.013347981922216
 30
0.0
 40
0.01
  0
CIRCLE
  5
EB3
330
1F
100
AcDbEntity
  8
0
100
AcDbCircle
 10
1.04144696814328
 20
0.6133479819222961
 30
0.0
 40
0.01
  0
CIRCLE
  5
EB5
330
1F
100
AcDbEntity
  8
0
100
AcDbCircle
 10
1.04144696814328
 20
0.6933479819222802
 30
0.0
 40
0.01
  0
CIRCLE
  5
EB9
330
1F
100
AcDbEntity
  8
0
100
AcDbCircle
 10
1.121446968143264
 20
1.013347981922216
 30
0.0
 40
0.01
  0
CIRCLE
  5
EBA
330
1F
100
AcDbEntity
  8
0
100
AcDbCircle
 10
1.04144696814328
 20
1.013347981922216
 30
0.0
 40
0.01
  0
CIRCLE
  5
EBB
330
1F
100
AcDbEntity
  8
0
100
AcDbCircle
 10
1.551504290241926
 20
0.453347981922328
 30
0.0
 40
0.01
  0
CIRCLE
  5
EBC
330
1F
100
AcDbEntity
  8
0
100
AcDbCircle
 10
1.63150429024191
 20
0.453347981922328
 30
0.0
 40
0.01
  0
CIRCLE
  5
EC1
330
1F
100
AcDbEntity
  8
0
100
AcDbCircle
 10
1.63150429024191
 20
0.7733479819222643
 30
0.0
 40
0.01
  0
CIRCLE
  5
EC3
330
1F
100
AcDbEntity
  8
0
100
AcDbCircle
 10
1.63150429024191
 20
0.8533479819222483
 30
0.0
 40
0.01
  0
CIRCLE
  5
EC6
330
1F
100
AcDbEntity
  8
0
100
AcDbCircle
 10
1.471504290241942
 20
1.013347981922216
 30
0.0
 40
0.01
  0
CIRCLE
  5
EC8
330
1F
100
AcDbEntity
  8
0
100
AcDbCircle
 10
1.281446968143232
 20
1.013347981922216
 30
0.0
 40
0.01
  0
CIRCLE
  5
EC9
330
1F
100
AcDbEntity
  8
0
100
AcDbCircle
 10
1.63150429024191
 20
1.013347981922216
 30
0.0
 40
0.01
  0
CIRCLE
  5
ECA
330
1F
100
AcDbEntity
  8
0
100
AcDbCircle
 10
1.551504290241926
 20
1.013347981922216
 30
0.0
 40
0.01
  0
CIRCLE
  5
ECB
330
1F
100
AcDbEntity
  8
0
100
AcDbCircle
 10
1.63150429024191
 20
0.9333479819222324
 30
0.0
 40
0.01
  0
CIRCLE
  5
ECF
330
1F
100
AcDbEntity
  8
0
100
AcDbCircle
 10
1.63150429024191
 20
0.6933479819222802
 30
0.0
 40
0.01
  0
CIRCLE
  5
ED1
330
1F
100
AcDbEntity
  8
0
100
AcDbCircle
 10
1.63150429024191
 20
0.6133479819222961
 30
0.0
 40
0.01
  0
CIRCLE
  5
ED3
330
1F
100
AcDbEntity
  8
0
100
AcDbCircle
 10
1.63150429024191
 20
0.533347981922312
 30
0.0
 40
0.01
  0
CIRCLE
  5
ED5
330
1F
100
AcDbEntity
  8
0
100
AcDbCircle
 10
1.471504290241942
 20
0.453347981922328
 30
0.0
 40
0.01
  0
CIRCLE
  5
ED7
330
1F
100
AcDbEntity
  8
0
100
AcDbCircle
 10
1.201446968143248
 20
1.013347981922216
 30
0.0
 40
0.01
  0
CIRCLE
  5
ED9
330
1F
100
AcDbEntity
  8
0
100
AcDbCircle
 10
1.04144696814328
 20
0.9333479819222324
 30
0.0
 40
0.01
  0
CIRCLE
  5
EDB
330
1F
100
AcDbEntity
  8
0
100
AcDbCircle
 10
1.04144696814328
 20
0.8533479819222483
 30
0.0
 40
0.01
  0
CIRCLE
  5
EDD
330
1F
100
AcDbEntity
  8
0
100
AcDbCircle
 10
1.04144696814328
 20
0.7733479819222643
 30
0.0
 40
0.01
  0
CIRCLE
  5
EE1
330
1F
100
AcDbEntity
  8
0
100
AcDbCircle
 10
1.04144696814328
 20
0.533347981922312
 30
0.0
 40
0.01
  0
CIRCLE
  5
EE3
330
1F
100
AcDbEntity
  8
0
100
AcDbCircle
 10
1.04144696814328
 20
0.453347981922328
 30
0.0
 40
0.01
  0
CIRCLE
  5
EE4
330
1F
100
AcDbEntity
  8
0
100
AcDbCircle
 10
1.121446968143264
 20
0.453347981922328
 30
0.0
 40
0.01
  0
CIRCLE
  5
EE8
330
1F
100
AcDbEntity
  8
0
100
AcDbCircle
 10
1.202038790610243
 20
0.4782018798823461
 30
0.0
 40
0.004
  0
CIRCLE
  5
EEB
330
1F
100
AcDbEntity
  8
0
100
AcDbCircle
 10
1.19203876313565
 20
0.4955223718386012
 30
0.0
 40
0.004
  0
CIRCLE
  5
EEC
330
1F
100
AcDbEntity
  8
0
100
AcDbCircle
 10
1.212038790610243
 20
0.495522387958035
 30
0.0
 40
0.004
  0
CIRCLE
  5
EED
330
1F
100
AcDbEntity
  8
0
100
AcDbCircle
 10
1.222038735661046
 20
0.4782018476434785
 30
0.0
 40
0.004
  0
CIRCLE
  5
EEE
330
1F
100
AcDbEntity
  8
0
100
AcDbCircle
 10
1.23203876313565
 20
0.4955223718386012
 30
0.0
 40
0.004
  0
CIRCLE
  5
EEF
330
1F
100
AcDbEntity
  8
0
100
AcDbCircle
 10
1.442038790610243
 20
0.4782018798823461
 30
0.0
 40
0.004
  0
CIRCLE
  5
EF0
330
1F
100
AcDbEntity
  8
0
100
AcDbCircle
 10
1.462038818084836
 20
0.4782018960017799
 30
0.0
 40
0.004
  0
CIRCLE
  5
EF1
330
1F
100
AcDbEntity
  8
0
100
AcDbCircle
 10
1.482038818084836
 20
0.4782018960017799
 30
0.0
 40
0.004
  0
CIRCLE
  5
EF3
330
1F
100
AcDbEntity
  8
0
100
AcDbCircle
 10
1.452038818084836
 20
0.4955224040774687
 30
0.0
 40
0.004
  0
CIRCLE
  5
EF4
330
1F
100
AcDbEntity
  8
0
100
AcDbCircle
 10
1.472038845559429
 20
0.4955224201969025
 30
0.0
 40
0.004
  0
CIRCLE
  5
EF5
330
1F
100
AcDbEntity
  8
0
100
AcDbCircle
 10
1.492038818084836
 20
0.4955224040774687
 30
0.0
 40
0.004
  0
CIRCLE
  5
EFA
330
1F
100
AcDbEntity
  8
0
100
AcDbCircle
 10
1.422038818084836
 20
0.5128429121531572
 30
0.0
 40
0.004
  0
CIRCLE
  5
EFB
330
1F
100
AcDbEntity
  8
0
100
AcDbCircle
 10
1.442038818084836
 20
0.5128429121531572
 30
0.0
 40
0.004
  0
CIRCLE
  5
EFC
330
1F
100
AcDbEntity
  8
0
100
AcDbCircle
 10
1.462038845559429
 20
0.5128429282725909
 30
0.0
 40
0.004
  0
CIRCLE
  5
EFD
330
1F
100
AcDbEntity
  8
0
100
AcDbCircle
 10
1.412038818084836
 20
0.530163420228846
 30
0.0
 40
0.004
  0
CIRCLE
  5
EFE
330
1F
100
AcDbEntity
  8
0
100
AcDbCircle
 10
1.432038845559429
 20
0.5301634363482798
 30
0.0
 40
0.004
  0
CIRCLE
  5
EFF
330
1F
100
AcDbEntity
  8
0
100
AcDbCircle
 10
1.452038818084836
 20
0.530163420228846
 30
0.0
 40
0.004
  0
CIRCLE
  5
F00
330
1F
100
AcDbEntity
  8
0
100
AcDbCircle
 10
1.472038845559429
 20
0.5301634363482798
 30
0.0
 40
0.004
  0
CIRCLE
  5
F01
330
1F
100
AcDbEntity
  8
0
100
AcDbCircle
 10
1.482038790610232
 20
0.5128428960337234
 30
0.0
 40
0.004
  0
CIRCLE
  5
F02
330
1F
100
AcDbEntity
  8
0
100
AcDbCircle
 10
1.492038818084836
 20
0.530163420228846
 30
0.0
 40
0.004
  0
CIRCLE
  5
F03
330
1F
100
AcDbEntity
  8
0
100
AcDbCircle
 10
1.182038790610243
 20
0.5128428960337234
 30
0.0
 40
0.004
  0
CIRCLE
  5
F04
330
1F
100
AcDbEntity
  8
0
100
AcDbCircle
 10
1.202038818084836
 20
0.5128429121531572
 30
0.0
 40
0.004
  0
CIRCLE
  5
F05
330
1F
100
AcDbEntity
  8
0
100
AcDbCircle
 10
1.222038818084836
 20
0.5128429121531572
 30
0.0
 40
0.004
  0
CIRCLE
  5
F06
330
1F
100
AcDbEntity
  8
0
100
AcDbCircle
 10
1.242038845559429
 20
0.5128429282725909
 30
0.0
 40
0.004
  0
CIRCLE
  5
F07
330
1F
100
AcDbEntity
  8
0
100
AcDbCircle
 10
1.192038818084836
 20
0.530163420228846
 30
0.0
 40
0.004
  0
CIRCLE
  5
F08
330
1F
100
AcDbEntity
  8
0
100
AcDbCircle
 10
1.212038845559429
 20
0.5301634363482798
 30
0.0
 40
0.004
  0
CIRCLE
  5
F09
330
1F
100
AcDbEntity
  8
0
100
AcDbCircle
 10
1.232038818084836
 20
0.530163420228846
 30
0.0
 40
0.004
  0
CIRCLE
  5
F0A
330
1F
100
AcDbEntity
  8
0
100
AcDbCircle
 10
1.252038845559429
 20
0.5301634363482798
 30
0.0
 40
0.004
  0
CIRCLE
  5
F0B
330
1F
100
AcDbEntity
  8
0
100
AcDbCircle
 10
1.262038790610232
 20
0.5128428960337234
 30
0.0
 40
0.004
  0
CIRCLE
  5
F0D
330
1F
100
AcDbEntity
  8
0
100
AcDbCircle
 10
1.182038790610243
 20
0.5474839121851011
 30
0.0
 40
0.004
  0
CIRCLE
  5
F0E
330
1F
100
AcDbEntity
  8
0
100
AcDbCircle
 10
1.202038818084836
 20
0.5474839283045349
 30
0.0
 40
0.004
  0
CIRCLE
  5
F0F
330
1F
100
AcDbEntity
  8
0
100
AcDbCircle
 10
1.222038818084836
 20
0.5474839283045349
 30
0.0
 40
0.004
  0
CIRCLE
  5
F10
330
1F
100
AcDbEntity
  8
0
100
AcDbCircle
 10
1.242038845559429
 20
0.5474839444239687
 30
0.0
 40
0.004
  0
CIRCLE
  5
F11
330
1F
100
AcDbEntity
  8
0
100
AcDbCircle
 10
1.192038818084836
 20
0.5648044363802237
 30
0.0
 40
0.004
  0
CIRCLE
  5
F12
330
1F
100
AcDbEntity
  8
0
100
AcDbCircle
 10
1.212038845559429
 20
0.5648044524996575
 30
0.0
 40
0.004
  0
CIRCLE
  5
F13
330
1F
100
AcDbEntity
  8
0
100
AcDbCircle
 10
1.232038818084836
 20
0.5648044363802237
 30
0.0
 40
0.004
  0
CIRCLE
  5
F14
330
1F
100
AcDbEntity
  8
0
100
AcDbCircle
 10
1.252038845559429
 20
0.5648044524996575
 30
0.0
 40
0.004
  0
CIRCLE
  5
F15
330
1F
100
AcDbEntity
  8
0
100
AcDbCircle
 10
1.262038790610232
 20
0.5474839121851011
 30
0.0
 40
0.004
  0
CIRCLE
  5
F18
330
1F
100
AcDbEntity
  8
0
100
AcDbCircle
 10
1.422038818084836
 20
0.5474839283045349
 30
0.0
 40
0.004
  0
CIRCLE
  5
F19
330
1F
100
AcDbEntity
  8
0
100
AcDbCircle
 10
1.442038818084836
 20
0.5474839283045349
 30
0.0
 40
0.004
  0
CIRCLE
  5
F1A
330
1F
100
AcDbEntity
  8
0
100
AcDbCircle
 10
1.462038845559429
 20
0.5474839444239687
 30
0.0
 40
0.004
  0
CIRCLE
  5
F1B
330
1F
100
AcDbEntity
  8
0
100
AcDbCircle
 10
1.412038818084836
 20
0.5648044363802237
 30
0.0
 40
0.004
  0
CIRCLE
  5
F1C
330
1F
100
AcDbEntity
  8
0
100
AcDbCircle
 10
1.432038845559429
 20
0.5648044524996575
 30
0.0
 40
0.004
  0
CIRCLE
  5
F1D
330
1F
100
AcDbEntity
  8
0
100
AcDbCircle
 10
1.452038818084836
 20
0.5648044363802237
 30
0.0
 40
0.004
  0
CIRCLE
  5
F1E
330
1F
100
AcDbEntity
  8
0
100
AcDbCircle
 10
1.472038845559429
 20
0.5648044524996575
 30
0.0
 40
0.004
  0
CIRCLE
  5
F1F
330
1F
100
AcDbEntity
  8
0
100
AcDbCircle
 10
1.482038790610232
 20
0.5474839121851011
 30
0.0
 40
0.004
  0
CIRCLE
  5
F20
330
1F
100
AcDbEntity
  8
0
100
AcDbCircle
 10
1.492038818084836
 20
0.5648044363802237
 30
0.0
 40
0.004
  0
CIRCLE
  5
F21
330
1F
100
AcDbEntity
  8
0
100
AcDbCircle
 10
1.182038790610243
 20
0.5821249283364788
 30
0.0
 40
0.004
  0
CIRCLE
  5
F22
330
1F
100
AcDbEntity
  8
0
100
AcDbCircle
 10
1.202038818084836
 20
0.5821249444559126
 30
0.0
 40
0.004
  0
CIRCLE
  5
F23
330
1F
100
AcDbEntity
  8
0
100
AcDbCircle
 10
1.222038818084836
 20
0.5821249444559126
 30
0.0
 40
0.004
  0
CIRCLE
  5
F24
330
1F
100
AcDbEntity
  8
0
100
AcDbCircle
 10
1.242038845559429
 20
0.5821249605753464
 30
0.0
 40
0.004
  0
CIRCLE
  5
F25
330
1F
100
AcDbEntity
  8
0
100
AcDbCircle
 10
1.192038818084836
 20
0.599445452531601
 30
0.0
 40
0.004
  0
CIRCLE
  5
F26
330
1F
100
AcDbEntity
  8
0
100
AcDbCircle
 10
1.212038845559429
 20
0.5994454686510348
 30
0.0
 40
0.004
  0
CIRCLE
  5
F27
330
1F
100
AcDbEntity
  8
0
100
AcDbCircle
 10
1.232038818084836
 20
0.599445452531601
 30
0.0
 40
0.004
  0
CIRCLE
  5
F28
330
1F
100
AcDbEntity
  8
0
100
AcDbCircle
 10
1.252038845559429
 20
0.5994454686510348
 30
0.0
 40
0.004
  0
CIRCLE
  5
F29
330
1F
100
AcDbEntity
  8
0
100
AcDbCircle
 10
1.262038790610232
 20
0.5821249283364788
 30
0.0
 40
0.004
  0
CIRCLE
  5
F2A
330
1F
100
AcDbEntity
  8
0
100
AcDbCircle
 10
1.272038818084836
 20
0.599445452531601
 30
0.0
 40
0.004
  0
CIRCLE
  5
F2B
330
1F
100
AcDbEntity
  8
0
100
AcDbCircle
 10
1.282038790610243
 20
0.5821249283364788
 30
0.0
 40
0.004
  0
CIRCLE
  5
F2C
330
1F
100
AcDbEntity
  8
0
100
AcDbCircle
 10
1.302038818084836
 20
0.5821249444559126
 30
0.0
 40
0.004
  0
CIRCLE
  5
F2D
330
1F
100
AcDbEntity
  8
0
100
AcDbCircle
 10
1.322038818084836
 20
0.5821249444559126
 30
0.0
 40
0.004
  0
CIRCLE
  5
F2E
330
1F
100
AcDbEntity
  8
0
100
AcDbCircle
 10
1.342038845559429
 20
0.5821249605753464
 30
0.0
 40
0.004
  0
CIRCLE
  5
F2F
330
1F
100
AcDbEntity
  8
0
100
AcDbCircle
 10
1.292038818084836
 20
0.599445452531601
 30
0.0
 40
0.004
  0
CIRCLE
  5
F30
330
1F
100
AcDbEntity
  8
0
100
AcDbCircle
 10
1.312038845559429
 20
0.5994454686510348
 30
0.0
 40
0.004
  0
CIRCLE
  5
F31
330
1F
100
AcDbEntity
  8
0
100
AcDbCircle
 10
1.332038818084836
 20
0.599445452531601
 30
0.0
 40
0.004
  0
CIRCLE
  5
F32
330
1F
100
AcDbEntity
  8
0
100
AcDbCircle
 10
1.352038845559429
 20
0.5994454686510348
 30
0.0
 40
0.004
  0
CIRCLE
  5
F33
330
1F
100
AcDbEntity
  8
0
100
AcDbCircle
 10
1.362038790610232
 20
0.5821249283364788
 30
0.0
 40
0.004
  0
CIRCLE
  5
F34
330
1F
100
AcDbEntity
  8
0
100
AcDbCircle
 10
1.372038818084836
 20
0.599445452531601
 30
0.0
 40
0.004
  0
CIRCLE
  5
F35
330
1F
100
AcDbEntity
  8
0
100
AcDbCircle
 10
1.382038790610243
 20
0.5821249283364788
 30
0.0
 40
0.004
  0
CIRCLE
  5
F36
330
1F
100
AcDbEntity
  8
0
100
AcDbCircle
 10
1.402038818084836
 20
0.5821249444559126
 30
0.0
 40
0.004
  0
CIRCLE
  5
F37
330
1F
100
AcDbEntity
  8
0
100
AcDbCircle
 10
1.422038818084836
 20
0.5821249444559126
 30
0.0
 40
0.004
  0
CIRCLE
  5
F38
330
1F
100
AcDbEntity
  8
0
100
AcDbCircle
 10
1.442038845559429
 20
0.5821249605753464
 30
0.0
 40
0.004
  0
CIRCLE
  5
F39
330
1F
100
AcDbEntity
  8
0
100
AcDbCircle
 10
1.392038818084836
 20
0.599445452531601
 30
0.0
 40
0.004
  0
CIRCLE
  5
F3A
330
1F
100
AcDbEntity
  8
0
100
AcDbCircle
 10
1.412038845559429
 20
0.5994454686510348
 30
0.0
 40
0.004
  0
CIRCLE
  5
F3B
330
1F
100
AcDbEntity
  8
0
100
AcDbCircle
 10
1.432038818084836
 20
0.599445452531601
 30
0.0
 40
0.004
  0
CIRCLE
  5
F3C
330
1F
100
AcDbEntity
  8
0
100
AcDbCircle
 10
1.452038845559429
 20
0.5994454686510348
 30
0.0
 40
0.004
  0
CIRCLE
  5
F3D
330
1F
100
AcDbEntity
  8
0
100
AcDbCircle
 10
1.462038790610232
 20
0.5821249283364788
 30
0.0
 40
0.004
  0
CIRCLE
  5
F3E
330
1F
100
AcDbEntity
  8
0
100
AcDbCircle
 10
1.472038818084836
 20
0.599445452531601
 30
0.0
 40
0.004
  0
CIRCLE
  5
F45
330
1F
100
AcDbEntity
  8
0
100
AcDbCircle
 10
1.482038735661035
 20
0.5821248960976112
 30
0.0
 40
0.004
  0
CIRCLE
  5
F46
330
1F
100
AcDbEntity
  8
0
100
AcDbCircle
 10
1.492038763135639
 20
0.5994454202927339
 30
0.0
 40
0.004
  0
CIRCLE
  5
F54
330
1F
100
AcDbEntity
  8
0
100
AcDbCircle
 10
1.182038790610243
 20
0.6167659444878565
 30
0.0
 40
0.004
  0
CIRCLE
  5
F55
330
1F
100
AcDbEntity
  8
0
100
AcDbCircle
 10
1.202038818084836
 20
0.6167659606072903
 30
0.0
 40
0.004
  0
CIRCLE
  5
F56
330
1F
100
AcDbEntity
  8
0
100
AcDbCircle
 10
1.222038818084836
 20
0.6167659606072903
 30
0.0
 40
0.004
  0
CIRCLE
  5
F57
330
1F
100
AcDbEntity
  8
0
100
AcDbCircle
 10
1.242038845559429
 20
0.6167659767267241
 30
0.0
 40
0.004
  0
CIRCLE
  5
F58
330
1F
100
AcDbEntity
  8
0
100
AcDbCircle
 10
1.192038818084836
 20
0.6340864686829791
 30
0.0
 40
0.004
  0
CIRCLE
  5
F59
330
1F
100
AcDbEntity
  8
0
100
AcDbCircle
 10
1.212038845559429
 20
0.6340864848024129
 30
0.0
 40
0.004
  0
CIRCLE
  5
F5A
330
1F
100
AcDbEntity
  8
0
100
AcDbCircle
 10
1.232038818084836
 20
0.6340864686829791
 30
0.0
 40
0.004
  0
CIRCLE
  5
F5B
330
1F
100
AcDbEntity
  8
0
100
AcDbCircle
 10
1.252038845559429
 20
0.6340864848024129
 30
0.0
 40
0.004
  0
CIRCLE
  5
F5C
330
1F
100
AcDbEntity
  8
0
100
AcDbCircle
 10
1.262038790610232
 20
0.6167659444878565
 30
0.0
 40
0.004
  0
CIRCLE
  5
F5D
330
1F
100
AcDbEntity
  8
0
100
AcDbCircle
 10
1.272038818084836
 20
0.6340864686829791
 30
0.0
 40
0.004
  0
CIRCLE
  5
F5E
330
1F
100
AcDbEntity
  8
0
100
AcDbCircle
 10
1.282038790610243
 20
0.6167659444878565
 30
0.0
 40
0.004
  0
CIRCLE
  5
F5F
330
1F
100
AcDbEntity
  8
0
100
AcDbCircle
 10
1.302038818084836
 20
0.6167659606072903
 30
0.0
 40
0.004
  0
CIRCLE
  5
F60
330
1F
100
AcDbEntity
  8
0
100
AcDbCircle
 10
1.322038818084836
 20
0.6167659606072903
 30
0.0
 40
0.004
  0
CIRCLE
  5
F61
330
1F
100
AcDbEntity
  8
0
100
AcDbCircle
 10
1.342038845559429
 20
0.6167659767267241
 30
0.0
 40
0.004
  0
CIRCLE
  5
F62
330
1F
100
AcDbEntity
  8
0
100
AcDbCircle
 10
1.292038818084836
 20
0.6340864686829791
 30
0.0
 40
0.004
  0
CIRCLE
  5
F63
330
1F
100
AcDbEntity
  8
0
100
AcDbCircle
 10
1.312038845559429
 20
0.6340864848024129
 30
0.0
 40
0.004
  0
CIRCLE
  5
F64
330
1F
100
AcDbEntity
  8
0
100
AcDbCircle
 10
1.332038818084836
 20
0.6340864686829791
 30
0.0
 40
0.004
  0
CIRCLE
  5
F65
330
1F
100
AcDbEntity
  8
0
100
AcDbCircle
 10
1.352038845559429
 20
0.6340864848024129
 30
0.0
 40
0.004
  0
CIRCLE
  5
F66
330
1F
100
AcDbEntity
  8
0
100
AcDbCircle
 10
1.362038790610232
 20
0.6167659444878565
 30
0.0
 40
0.004
  0
CIRCLE
  5
F67
330
1F
100
AcDbEntity
  8
0
100
AcDbCircle
 10
1.372038818084836
 20
0.6340864686829791
 30
0.0
 40
0.004
  0
CIRCLE
  5
F68
330
1F
100
AcDbEntity
  8
0
100
AcDbCircle
 10
1.382038790610243
 20
0.6167659444878565
 30
0.0
 40
0.004
  0
CIRCLE
  5
F69
330
1F
100
AcDbEntity
  8
0
100
AcDbCircle
 10
1.402038818084836
 20
0.6167659606072903
 30
0.0
 40
0.004
  0
CIRCLE
  5
F6A
330
1F
100
AcDbEntity
  8
0
100
AcDbCircle
 10
1.422038818084836
 20
0.6167659606072903
 30
0.0
 40
0.004
  0
CIRCLE
  5
F6B
330
1F
100
AcDbEntity
  8
0
100
AcDbCircle
 10
1.442038845559429
 20
0.6167659767267241
 30
0.0
 40
0.004
  0
CIRCLE
  5
F6C
330
1F
100
AcDbEntity
  8
0
100
AcDbCircle
 10
1.392038818084836
 20
0.6340864686829791
 30
0.0
 40
0.004
  0
CIRCLE
  5
F6D
330
1F
100
AcDbEntity
  8
0
100
AcDbCircle
 10
1.412038845559429
 20
0.6340864848024129
 30
0.0
 40
0.004
  0
CIRCLE
  5
F6E
330
1F
100
AcDbEntity
  8
0
100
AcDbCircle
 10
1.432038818084836
 20
0.6340864686829791
 30
0.0
 40
0.004
  0
CIRCLE
  5
F6F
330
1F
100
AcDbEntity
  8
0
100
AcDbCircle
 10
1.452038845559429
 20
0.6340864848024129
 30
0.0
 40
0.004
  0
CIRCLE
  5
F70
330
1F
100
AcDbEntity
  8
0
100
AcDbCircle
 10
1.462038790610232
 20
0.6167659444878565
 30
0.0
 40
0.004
  0
CIRCLE
  5
F71
330
1F
100
AcDbEntity
  8
0
100
AcDbCircle
 10
1.472038818084836
 20
0.6340864686829791
 30
0.0
 40
0.004
  0
CIRCLE
  5
F73
330
1F
100
AcDbEntity
  8
0
100
AcDbCircle
 10
1.482038735661035
 20
0.6167659122489889
 30
0.0
 40
0.004
  0
CIRCLE
  5
F74
330
1F
100
AcDbEntity
  8
0
100
AcDbCircle
 10
1.492038763135639
 20
0.6340864364441116
 30
0.0
 40
0.004
  0
CIRCLE
  5
F79
330
1F
100
AcDbEntity
  8
0
100
AcDbCircle
 10
1.182038790610243
 20
0.6514069606392338
 30
0.0
 40
0.004
  0
CIRCLE
  5
F7A
330
1F
100
AcDbEntity
  8
0
100
AcDbCircle
 10
1.202038818084836
 20
0.6514069767586676
 30
0.0
 40
0.004
  0
CIRCLE
  5
F7B
330
1F
100
AcDbEntity
  8
0
100
AcDbCircle
 10
1.222038818084836
 20
0.6514069767586676
 30
0.0
 40
0.004
  0
CIRCLE
  5
F7C
330
1F
100
AcDbEntity
  8
0
100
AcDbCircle
 10
1.242038845559429
 20
0.6514069928781013
 30
0.0
 40
0.004
  0
CIRCLE
  5
F7D
330
1F
100
AcDbEntity
  8
0
100
AcDbCircle
 10
1.192038818084836
 20
0.6687274848343564
 30
0.0
 40
0.004
  0
CIRCLE
  5
F7E
330
1F
100
AcDbEntity
  8
0
100
AcDbCircle
 10
1.212038845559429
 20
0.6687275009537902
 30
0.0
 40
0.004
  0
CIRCLE
  5
F7F
330
1F
100
AcDbEntity
  8
0
100
AcDbCircle
 10
1.232038818084836
 20
0.6687274848343564
 30
0.0
 40
0.004
  0
CIRCLE
  5
F80
330
1F
100
AcDbEntity
  8
0
100
AcDbCircle
 10
1.252038845559429
 20
0.6687275009537902
 30
0.0
 40
0.004
  0
CIRCLE
  5
F81
330
1F
100
AcDbEntity
  8
0
100
AcDbCircle
 10
1.262038790610232
 20
0.6514069606392338
 30
0.0
 40
0.004
  0
CIRCLE
  5
F82
330
1F
100
AcDbEntity
  8
0
100
AcDbCircle
 10
1.272038818084836
 20
0.6687274848343564
 30
0.0
 40
0.004
  0
CIRCLE
  5
F83
330
1F
100
AcDbEntity
  8
0
100
AcDbCircle
 10
1.282038790610243
 20
0.6514069606392338
 30
0.0
 40
0.004
  0
CIRCLE
  5
F84
330
1F
100
AcDbEntity
  8
0
100
AcDbCircle
 10
1.302038818084836
 20
0.6514069767586676
 30
0.0
 40
0.004
  0
CIRCLE
  5
F85
330
1F
100
AcDbEntity
  8
0
100
AcDbCircle
 10
1.322038818084836
 20
0.6514069767586676
 30
0.0
 40
0.004
  0
CIRCLE
  5
F86
330
1F
100
AcDbEntity
  8
0
100
AcDbCircle
 10
1.342038845559429
 20
0.6514069928781013
 30
0.0
 40
0.004
  0
CIRCLE
  5
F87
330
1F
100
AcDbEntity
  8
0
100
AcDbCircle
 10
1.292038818084836
 20
0.6687274848343564
 30
0.0
 40
0.004
  0
CIRCLE
  5
F88
330
1F
100
AcDbEntity
  8
0
100
AcDbCircle
 10
1.312038845559429
 20
0.6687275009537902
 30
0.0
 40
0.004
  0
CIRCLE
  5
F89
330
1F
100
AcDbEntity
  8
0
100
AcDbCircle
 10
1.332038818084836
 20
0.6687274848343564
 30
0.0
 40
0.004
  0
CIRCLE
  5
F8A
330
1F
100
AcDbEntity
  8
0
100
AcDbCircle
 10
1.352038845559429
 20
0.6687275009537902
 30
0.0
 40
0.004
  0
CIRCLE
  5
F8B
330
1F
100
AcDbEntity
  8
0
100
AcDbCircle
 10
1.362038790610232
 20
0.6514069606392338
 30
0.0
 40
0.004
  0
CIRCLE
  5
F8C
330
1F
100
AcDbEntity
  8
0
100
AcDbCircle
 10
1.372038818084836
 20
0.6687274848343564
 30
0.0
 40
0.004
  0
CIRCLE
  5
F8D
330
1F
100
AcDbEntity
  8
0
100
AcDbCircle
 10
1.382038790610243
 20
0.6514069606392338
 30
0.0
 40
0.004
  0
CIRCLE
  5
F8E
330
1F
100
AcDbEntity
  8
0
100
AcDbCircle
 10
1.402038818084836
 20
0.6514069767586676
 30
0.0
 40
0.004
  0
CIRCLE
  5
F8F
330
1F
100
AcDbEntity
  8
0
100
AcDbCircle
 10
1.422038818084836
 20
0.6514069767586676
 30
0.0
 40
0.004
  0
CIRCLE
  5
F90
330
1F
100
AcDbEntity
  8
0
100
AcDbCircle
 10
1.442038845559429
 20
0.6514069928781013
 30
0.0
 40
0.004
  0
CIRCLE
  5
F91
330
1F
100
AcDbEntity
  8
0
100
AcDbCircle
 10
1.392038818084836
 20
0.6687274848343564
 30
0.0
 40
0.004
  0
CIRCLE
  5
F92
330
1F
100
AcDbEntity
  8
0
100
AcDbCircle
 10
1.412038845559429
 20
0.6687275009537902
 30
0.0
 40
0.004
  0
CIRCLE
  5
F93
330
1F
100
AcDbEntity
  8
0
100
AcDbCircle
 10
1.432038818084836
 20
0.6687274848343564
 30
0.0
 40
0.004
  0
CIRCLE
  5
F94
330
1F
100
AcDbEntity
  8
0
100
AcDbCircle
 10
1.452038845559429
 20
0.6687275009537902
 30
0.0
 40
0.004
  0
CIRCLE
  5
F95
330
1F
100
AcDbEntity
  8
0
100
AcDbCircle
 10
1.462038790610232
 20
0.6514069606392338
 30
0.0
 40
0.004
  0
CIRCLE
  5
F96
330
1F
100
AcDbEntity
  8
0
100
AcDbCircle
 10
1.472038818084836
 20
0.6687274848343564
 30
0.0
 40
0.004
  0
CIRCLE
  5
F98
330
1F
100
AcDbEntity
  8
0
100
AcDbCircle
 10
1.482038735661035
 20
0.6514069284003666
 30
0.0
 40
0.004
  0
CIRCLE
  5
F99
330
1F
100
AcDbEntity
  8
0
100
AcDbCircle
 10
1.492038763135639
 20
0.6687274525954888
 30
0.0
 40
0.004
  0
CIRCLE
  5
F9F
330
1F
100
AcDbEntity
  8
0
100
AcDbCircle
 10
1.182038790610243
 20
0.6860479767906115
 30
0.0
 40
0.004
  0
CIRCLE
  5
FA0
330
1F
100
AcDbEntity
  8
0
100
AcDbCircle
 10
1.202038818084836
 20
0.6860479929100453
 30
0.0
 40
0.004
  0
CIRCLE
  5
FA1
330
1F
100
AcDbEntity
  8
0
100
AcDbCircle
 10
1.222038818084836
 20
0.6860479929100453
 30
0.0
 40
0.004
  0
CIRCLE
  5
FA2
330
1F
100
AcDbEntity
  8
0
100
AcDbCircle
 10
1.242038845559429
 20
0.6860480090294791
 30
0.0
 40
0.004
  0
CIRCLE
  5
FA3
330
1F
100
AcDbEntity
  8
0
100
AcDbCircle
 10
1.192038818084836
 20
0.7033685009857337
 30
0.0
 40
0.004
  0
CIRCLE
  5
FA4
330
1F
100
AcDbEntity
  8
0
100
AcDbCircle
 10
1.212038845559429
 20
0.7033685171051675
 30
0.0
 40
0.004
  0
CIRCLE
  5
FA5
330
1F
100
AcDbEntity
  8
0
100
AcDbCircle
 10
1.232038818084836
 20
0.7033685009857337
 30
0.0
 40
0.004
  0
CIRCLE
  5
FA6
330
1F
100
AcDbEntity
  8
0
100
AcDbCircle
 10
1.252038845559429
 20
0.7033685171051675
 30
0.0
 40
0.004
  0
CIRCLE
  5
FA7
330
1F
100
AcDbEntity
  8
0
100
AcDbCircle
 10
1.262038790610232
 20
0.6860479767906115
 30
0.0
 40
0.004
  0
CIRCLE
  5
FA8
330
1F
100
AcDbEntity
  8
0
100
AcDbCircle
 10
1.272038818084836
 20
0.7033685009857337
 30
0.0
 40
0.004
  0
CIRCLE
  5
FA9
330
1F
100
AcDbEntity
  8
0
100
AcDbCircle
 10
1.282038790610243
 20
0.6860479767906115
 30
0.0
 40
0.004
  0
CIRCLE
  5
FAA
330
1F
100
AcDbEntity
  8
0
100
AcDbCircle
 10
1.302038818084836
 20
0.6860479929100453
 30
0.0
 40
0.004
  0
CIRCLE
  5
FAB
330
1F
100
AcDbEntity
  8
0
100
AcDbCircle
 10
1.322038818084836
 20
0.6860479929100453
 30
0.0
 40
0.004
  0
CIRCLE
  5
FAC
330
1F
100
AcDbEntity
  8
0
100
AcDbCircle
 10
1.342038845559429
 20
0.6860480090294791
 30
0.0
 40
0.004
  0
CIRCLE
  5
FAD
330
1F
100
AcDbEntity
  8
0
100
AcDbCircle
 10
1.292038818084836
 20
0.7033685009857337
 30
0.0
 40
0.004
  0
CIRCLE
  5
FAE
330
1F
100
AcDbEntity
  8
0
100
AcDbCircle
 10
1.312038845559429
 20
0.7033685171051675
 30
0.0
 40
0.004
  0
CIRCLE
  5
FAF
330
1F
100
AcDbEntity
  8
0
100
AcDbCircle
 10
1.332038818084836
 20
0.7033685009857337
 30
0.0
 40
0.004
  0
CIRCLE
  5
FB0
330
1F
100
AcDbEntity
  8
0
100
AcDbCircle
 10
1.352038845559429
 20
0.7033685171051675
 30
0.0
 40
0.004
  0
CIRCLE
  5
FB1
330
1F
100
AcDbEntity
  8
0
100
AcDbCircle
 10
1.362038790610232
 20
0.6860479767906115
 30
0.0
 40
0.004
  0
CIRCLE
  5
FB2
330
1F
100
AcDbEntity
  8
0
100
AcDbCircle
 10
1.372038818084836
 20
0.7033685009857337
 30
0.0
 40
0.004
  0
CIRCLE
  5
FB3
330
1F
100
AcDbEntity
  8
0
100
AcDbCircle
 10
1.382038790610243
 20
0.6860479767906115
 30
0.0
 40
0.004
  0
CIRCLE
  5
FB4
330
1F
100
AcDbEntity
  8
0
100
AcDbCircle
 10
1.402038818084836
 20
0.6860479929100453
 30
0.0
 40
0.004
  0
CIRCLE
  5
FB5
330
1F
100
AcDbEntity
  8
0
100
AcDbCircle
 10
1.422038818084836
 20
0.6860479929100453
 30
0.0
 40
0.004
  0
CIRCLE
  5
FB6
330
1F
100
AcDbEntity
  8
0
100
AcDbCircle
 10
1.442038845559429
 20
0.6860480090294791
 30
0.0
 40
0.004
  0
CIRCLE
  5
FB7
330
1F
100
AcDbEntity
  8
0
100
AcDbCircle
 10
1.392038818084836
 20
0.7033685009857337
 30
0.0
 40
0.004
  0
CIRCLE
  5
FB8
330
1F
100
AcDbEntity
  8
0
100
AcDbCircle
 10
1.412038845559429
 20
0.7033685171051675
 30
0.0
 40
0.004
  0
CIRCLE
  5
FB9
330
1F
100
AcDbEntity
  8
0
100
AcDbCircle
 10
1.432038818084836
 20
0.7033685009857337
 30
0.0
 40
0.004
  0
CIRCLE
  5
FBA
330
1F
100
AcDbEntity
  8
0
100
AcDbCircle
 10
1.452038845559429
 20
0.7033685171051675
 30
0.0
 40
0.004
  0
CIRCLE
  5
FBB
330
1F
100
AcDbEntity
  8
0
100
AcDbCircle
 10
1.462038790610232
 20
0.6860479767906115
 30
0.0
 40
0.004
  0
CIRCLE
  5
FBC
330
1F
100
AcDbEntity
  8
0
100
AcDbCircle
 10
1.472038818084836
 20
0.7033685009857337
 30
0.0
 40
0.004
  0
CIRCLE
  5
FBE
330
1F
100
AcDbEntity
  8
0
100
AcDbCircle
 10
1.482038735661035
 20
0.6860479445517439
 30
0.0
 40
0.004
  0
CIRCLE
  5
FBF
330
1F
100
AcDbEntity
  8
0
100
AcDbCircle
 10
1.492038763135639
 20
0.7033684687468666
 30
0.0
 40
0.004
  0
CIRCLE
  5
FC5
330
1F
100
AcDbEntity
  8
0
100
AcDbCircle
 10
1.182038790610243
 20
0.7206889929419888
 30
0.0
 40
0.004
  0
CIRCLE
  5
FC6
330
1F
100
AcDbEntity
  8
0
100
AcDbCircle
 10
1.202038818084836
 20
0.7206890090614225
 30
0.0
 40
0.004
  0
CIRCLE
  5
FC7
330
1F
100
AcDbEntity
  8
0
100
AcDbCircle
 10
1.222038818084836
 20
0.7206890090614225
 30
0.0
 40
0.004
  0
CIRCLE
  5
FC8
330
1F
100
AcDbEntity
  8
0
100
AcDbCircle
 10
1.242038845559429
 20
0.7206890251808563
 30
0.0
 40
0.004
  0
CIRCLE
  5
FC9
330
1F
100
AcDbEntity
  8
0
100
AcDbCircle
 10
1.192038818084836
 20
0.7380095171371114
 30
0.0
 40
0.004
  0
CIRCLE
  5
FCA
330
1F
100
AcDbEntity
  8
0
100
AcDbCircle
 10
1.212038845559429
 20
0.7380095332565452
 30
0.0
 40
0.004
  0
CIRCLE
  5
FCB
330
1F
100
AcDbEntity
  8
0
100
AcDbCircle
 10
1.232038818084836
 20
0.7380095171371114
 30
0.0
 40
0.004
  0
CIRCLE
  5
FCC
330
1F
100
AcDbEntity
  8
0
100
AcDbCircle
 10
1.252038845559429
 20
0.7380095332565452
 30
0.0
 40
0.004
  0
CIRCLE
  5
FCD
330
1F
100
AcDbEntity
  8
0
100
AcDbCircle
 10
1.262038790610232
 20
0.7206889929419888
 30
0.0
 40
0.004
  0
CIRCLE
  5
FCE
330
1F
100
AcDbEntity
  8
0
100
AcDbCircle
 10
1.272038818084836
 20
0.7380095171371114
 30
0.0
 40
0.004
  0
CIRCLE
  5
FCF
330
1F
100
AcDbEntity
  8
0
100
AcDbCircle
 10
1.282038790610243
 20
0.7206889929419888
 30
0.0
 40
0.004
  0
CIRCLE
  5
FD0
330
1F
100
AcDbEntity
  8
0
100
AcDbCircle
 10
1.302038818084836
 20
0.7206890090614225
 30
0.0
 40
0.004
  0
CIRCLE
  5
FD1
330
1F
100
AcDbEntity
  8
0
100
AcDbCircle
 10
1.322038818084836
 20
0.7206890090614225
 30
0.0
 40
0.004
  0
CIRCLE
  5
FD2
330
1F
100
AcDbEntity
  8
0
100
AcDbCircle
 10
1.342038845559429
 20
0.7206890251808563
 30
0.0
 40
0.004
  0
CIRCLE
  5
FD3
330
1F
100
AcDbEntity
  8
0
100
AcDbCircle
 10
1.292038818084836
 20
0.7380095171371114
 30
0.0
 40
0.004
  0
CIRCLE
  5
FD4
330
1F
100
AcDbEntity
  8
0
100
AcDbCircle
 10
1.312038845559429
 20
0.7380095332565452
 30
0.0
 40
0.004
  0
CIRCLE
  5
FD5
330
1F
100
AcDbEntity
  8
0
100
AcDbCircle
 10
1.332038818084836
 20
0.7380095171371114
 30
0.0
 40
0.004
  0
CIRCLE
  5
FD6
330
1F
100
AcDbEntity
  8
0
100
AcDbCircle
 10
1.352038845559429
 20
0.7380095332565452
 30
0.0
 40
0.004
  0
CIRCLE
  5
FD7
330
1F
100
AcDbEntity
  8
0
100
AcDbCircle
 10
1.362038790610232
 20
0.7206889929419888
 30
0.0
 40
0.004
  0
CIRCLE
  5
FD8
330
1F
100
AcDbEntity
  8
0
100
AcDbCircle
 10
1.372038818084836
 20
0.7380095171371114
 30
0.0
 40
0.004
  0
CIRCLE
  5
FD9
330
1F
100
AcDbEntity
  8
0
100
AcDbCircle
 10
1.382038790610243
 20
0.7206889929419888
 30
0.0
 40
0.004
  0
CIRCLE
  5
FDA
330
1F
100
AcDbEntity
  8
0
100
AcDbCircle
 10
1.402038818084836
 20
0.7206890090614225
 30
0.0
 40
0.004
  0
CIRCLE
  5
FDB
330
1F
100
AcDbEntity
  8
0
100
AcDbCircle
 10
1.422038818084836
 20
0.7206890090614225
 30
0.0
 40
0.004
  0
CIRCLE
  5
FDC
330
1F
100
AcDbEntity
  8
0
100
AcDbCircle
 10
1.442038845559429
 20
0.7206890251808563
 30
0.0
 40
0.004
  0
CIRCLE
  5
FDD
330
1F
100
AcDbEntity
  8
0
100
AcDbCircle
 10
1.392038818084836
 20
0.7380095171371114
 30
0.0
 40
0.004
  0
CIRCLE
  5
FDE
330
1F
100
AcDbEntity
  8
0
100
AcDbCircle
 10
1.412038845559429
 20
0.7380095332565452
 30
0.0
 40
0.004
  0
CIRCLE
  5
FDF
330
1F
100
AcDbEntity
  8
0
100
AcDbCircle
 10
1.432038818084836
 20
0.7380095171371114
 30
0.0
 40
0.004
  0
CIRCLE
  5
FE0
330
1F
100
AcDbEntity
  8
0
100
AcDbCircle
 10
1.452038845559429
 20
0.7380095332565452
 30
0.0
 40
0.004
  0
CIRCLE
  5
FE1
330
1F
100
AcDbEntity
  8
0
100
AcDbCircle
 10
1.462038790610232
 20
0.7206889929419888
 30
0.0
 40
0.004
  0
CIRCLE
  5
FE2
330
1F
100
AcDbEntity
  8
0
100
AcDbCircle
 10
1.472038818084836
 20
0.7380095171371114
 30
0.0
 40
0.004
  0
CIRCLE
  5
FE4
330
1F
100
AcDbEntity
  8
0
100
AcDbCircle
 10
1.482038735661035
 20
0.7206889607031212
 30
0.0
 40
0.004
  0
CIRCLE
  5
FE5
330
1F
100
AcDbEntity
  8
0
100
AcDbCircle
 10
1.492038763135639
 20
0.7380094848982438
 30
0.0
 40
0.004
  0
CIRCLE
  5
FEB
330
1F
100
AcDbEntity
  8
0
100
AcDbCircle
 10
1.182038790610243
 20
0.7553300090933665
 30
0.0
 40
0.004
  0
CIRCLE
  5
FEC
330
1F
100
AcDbEntity
  8
0
100
AcDbCircle
 10
1.202038818084836
 20
0.7553300252128003
 30
0.0
 40
0.004
  0
CIRCLE
  5
FED
330
1F
100
AcDbEntity
  8
0
100
AcDbCircle
 10
1.222038818084836
 20
0.7553300252128003
 30
0.0
 40
0.004
  0
CIRCLE
  5
FEE
330
1F
100
AcDbEntity
  8
0
100
AcDbCircle
 10
1.242038845559429
 20
0.755330041332234
 30
0.0
 40
0.004
  0
CIRCLE
  5
FEF
330
1F
100
AcDbEntity
  8
0
100
AcDbCircle
 10
1.192038818084836
 20
0.7726505332884891
 30
0.0
 40
0.004
  0
CIRCLE
  5
FF0
330
1F
100
AcDbEntity
  8
0
100
AcDbCircle
 10
1.212038845559429
 20
0.7726505494079229
 30
0.0
 40
0.004
  0
CIRCLE
  5
FF1
330
1F
100
AcDbEntity
  8
0
100
AcDbCircle
 10
1.232038818084836
 20
0.7726505332884891
 30
0.0
 40
0.004
  0
CIRCLE
  5
FF2
330
1F
100
AcDbEntity
  8
0
100
AcDbCircle
 10
1.252038845559429
 20
0.7726505494079229
 30
0.0
 40
0.004
  0
CIRCLE
  5
FF3
330
1F
100
AcDbEntity
  8
0
100
AcDbCircle
 10
1.262038790610232
 20
0.7553300090933665
 30
0.0
 40
0.004
  0
CIRCLE
  5
FF4
330
1F
100
AcDbEntity
  8
0
100
AcDbCircle
 10
1.272038818084836
 20
0.7726505332884891
 30
0.0
 40
0.004
  0
CIRCLE
  5
FF5
330
1F
100
AcDbEntity
  8
0
100
AcDbCircle
 10
1.282038790610243
 20
0.7553300090933665
 30
0.0
 40
0.004
  0
CIRCLE
  5
FF6
330
1F
100
AcDbEntity
  8
0
100
AcDbCircle
 10
1.302038818084836
 20
0.7553300252128003
 30
0.0
 40
0.004
  0
CIRCLE
  5
FF7
330
1F
100
AcDbEntity
  8
0
100
AcDbCircle
 10
1.322038818084836
 20
0.7553300252128003
 30
0.0
 40
0.004
  0
CIRCLE
  5
FF8
330
1F
100
AcDbEntity
  8
0
100
AcDbCircle
 10
1.342038845559429
 20
0.755330041332234
 30
0.0
 40
0.004
  0
CIRCLE
  5
FF9
330
1F
100
AcDbEntity
  8
0
100
AcDbCircle
 10
1.292038818084836
 20
0.7726505332884891
 30
0.0
 40
0.004
  0
CIRCLE
  5
FFA
330
1F
100
AcDbEntity
  8
0
100
AcDbCircle
 10
1.312038845559429
 20
0.7726505494079229
 30
0.0
 40
0.004
  0
CIRCLE
  5
FFB
330
1F
100
AcDbEntity
  8
0
100
AcDbCircle
 10
1.332038818084836
 20
0.7726505332884891
 30
0.0
 40
0.004
  0
CIRCLE
  5
FFC
330
1F
100
AcDbEntity
  8
0
100
AcDbCircle
 10
1.352038845559429
 20
0.7726505494079229
 30
0.0
 40
0.004
  0
CIRCLE
  5
FFD
330
1F
100
AcDbEntity
  8
0
100
AcDbCircle
 10
1.362038790610232
 20
0.7553300090933665
 30
0.0
 40
0.004
  0
CIRCLE
  5
FFE
330
1F
100
AcDbEntity
  8
0
100
AcDbCircle
 10
1.372038818084836
 20
0.7726505332884891
 30
0.0
 40
0.004
  0
CIRCLE
  5
FFF
330
1F
100
AcDbEntity
  8
0
100
AcDbCircle
 10
1.382038790610243
 20
0.7553300090933665
 30
0.0
 40
0.004
  0
CIRCLE
  5
1000
330
1F
100
AcDbEntity
  8
0
100
AcDbCircle
 10
1.402038818084836
 20
0.7553300252128003
 30
0.0
 40
0.004
  0
CIRCLE
  5
1001
330
1F
100
AcDbEntity
  8
0
100
AcDbCircle
 10
1.422038818084836
 20
0.7553300252128003
 30
0.0
 40
0.004
  0
CIRCLE
  5
1002
330
1F
100
AcDbEntity
  8
0
100
AcDbCircle
 10
1.442038845559429
 20
0.755330041332234
 30
0.0
 40
0.004
  0
CIRCLE
  5
1003
330
1F
100
AcDbEntity
  8
0
100
AcDbCircle
 10
1.392038818084836
 20
0.7726505332884891
 30
0.0
 40
0.004
  0
CIRCLE
  5
1004
330
1F
100
AcDbEntity
  8
0
100
AcDbCircle
 10
1.412038845559429
 20
0.7726505494079229
 30
0.0
 40
0.004
  0
CIRCLE
  5
1005
330
1F
100
AcDbEntity
  8
0
100
AcDbCircle
 10
1.432038818084836
 20
0.7726505332884891
 30
0.0
 40
0.004
  0
CIRCLE
  5
1006
330
1F
100
AcDbEntity
  8
0
100
AcDbCircle
 10
1.452038845559429
 20
0.7726505494079229
 30
0.0
 40
0.004
  0
CIRCLE
  5
1007
330
1F
100
AcDbEntity
  8
0
100
AcDbCircle
 10
1.462038790610232
 20
0.7553300090933665
 30
0.0
 40
0.004
  0
CIRCLE
  5
1008
330
1F
100
AcDbEntity
  8
0
100
AcDbCircle
 10
1.472038818084836
 20
0.7726505332884891
 30
0.0
 40
0.004
  0
CIRCLE
  5
100A
330
1F
100
AcDbEntity
  8
0
100
AcDbCircle
 10
1.482038735661035
 20
0.7553299768544989
 30
0.0
 40
0.004
  0
CIRCLE
  5
100B
330
1F
100
AcDbEntity
  8
0
100
AcDbCircle
 10
1.492038763135639
 20
0.7726505010496215
 30
0.0
 40
0.004
  0
CIRCLE
  5
1011
330
1F
100
AcDbEntity
  8
0
100
AcDbCircle
 10
1.182038790610243
 20
0.7899710252447437
 30
0.0
 40
0.004
  0
CIRCLE
  5
1012
330
1F
100
AcDbEntity
  8
0
100
AcDbCircle
 10
1.202038818084836
 20
0.7899710413641775
 30
0.0
 40
0.004
  0
CIRCLE
  5
1013
330
1F
100
AcDbEntity
  8
0
100
AcDbCircle
 10
1.222038818084836
 20
0.7899710413641775
 30
0.0
 40
0.004
  0
CIRCLE
  5
1014
330
1F
100
AcDbEntity
  8
0
100
AcDbCircle
 10
1.242038845559429
 20
0.7899710574836113
 30
0.0
 40
0.004
  0
CIRCLE
  5
1015
330
1F
100
AcDbEntity
  8
0
100
AcDbCircle
 10
1.192038818084836
 20
0.8072915494398664
 30
0.0
 40
0.004
  0
CIRCLE
  5
1016
330
1F
100
AcDbEntity
  8
0
100
AcDbCircle
 10
1.212038845559429
 20
0.8072915655593002
 30
0.0
 40
0.004
  0
CIRCLE
  5
1017
330
1F
100
AcDbEntity
  8
0
100
AcDbCircle
 10
1.232038818084836
 20
0.8072915494398664
 30
0.0
 40
0.004
  0
CIRCLE
  5
1018
330
1F
100
AcDbEntity
  8
0
100
AcDbCircle
 10
1.252038845559429
 20
0.8072915655593002
 30
0.0
 40
0.004
  0
CIRCLE
  5
1019
330
1F
100
AcDbEntity
  8
0
100
AcDbCircle
 10
1.262038790610232
 20
0.7899710252447437
 30
0.0
 40
0.004
  0
CIRCLE
  5
101A
330
1F
100
AcDbEntity
  8
0
100
AcDbCircle
 10
1.272038818084836
 20
0.8072915494398664
 30
0.0
 40
0.004
  0
CIRCLE
  5
101B
330
1F
100
AcDbEntity
  8
0
100
AcDbCircle
 10
1.282038790610243
 20
0.7899710252447437
 30
0.0
 40
0.004
  0
CIRCLE
  5
101C
330
1F
100
AcDbEntity
  8
0
100
AcDbCircle
 10
1.302038818084836
 20
0.7899710413641775
 30
0.0
 40
0.004
  0
CIRCLE
  5
101D
330
1F
100
AcDbEntity
  8
0
100
AcDbCircle
 10
1.322038818084836
 20
0.7899710413641775
 30
0.0
 40
0.004
  0
CIRCLE
  5
101E
330
1F
100
AcDbEntity
  8
0
100
AcDbCircle
 10
1.342038845559429
 20
0.7899710574836113
 30
0.0
 40
0.004
  0
CIRCLE
  5
101F
330
1F
100
AcDbEntity
  8
0
100
AcDbCircle
 10
1.292038818084836
 20
0.8072915494398664
 30
0.0
 40
0.004
  0
CIRCLE
  5
1020
330
1F
100
AcDbEntity
  8
0
100
AcDbCircle
 10
1.312038845559429
 20
0.8072915655593002
 30
0.0
 40
0.004
  0
CIRCLE
  5
1021
330
1F
100
AcDbEntity
  8
0
100
AcDbCircle
 10
1.332038818084836
 20
0.8072915494398664
 30
0.0
 40
0.004
  0
CIRCLE
  5
1022
330
1F
100
AcDbEntity
  8
0
100
AcDbCircle
 10
1.352038845559429
 20
0.8072915655593002
 30
0.0
 40
0.004
  0
CIRCLE
  5
1023
330
1F
100
AcDbEntity
  8
0
100
AcDbCircle
 10
1.362038790610232
 20
0.7899710252447437
 30
0.0
 40
0.004
  0
CIRCLE
  5
1024
330
1F
100
AcDbEntity
  8
0
100
AcDbCircle
 10
1.372038818084836
 20
0.8072915494398664
 30
0.0
 40
0.004
  0
CIRCLE
  5
1025
330
1F
100
AcDbEntity
  8
0
100
AcDbCircle
 10
1.382038790610243
 20
0.7899710252447437
 30
0.0
 40
0.004
  0
CIRCLE
  5
1026
330
1F
100
AcDbEntity
  8
0
100
AcDbCircle
 10
1.402038818084836
 20
0.7899710413641775
 30
0.0
 40
0.004
  0
CIRCLE
  5
1027
330
1F
100
AcDbEntity
  8
0
100
AcDbCircle
 10
1.422038818084836
 20
0.7899710413641775
 30
0.0
 40
0.004
  0
CIRCLE
  5
1028
330
1F
100
AcDbEntity
  8
0
100
AcDbCircle
 10
1.442038845559429
 20
0.7899710574836113
 30
0.0
 40
0.004
  0
CIRCLE
  5
1029
330
1F
100
AcDbEntity
  8
0
100
AcDbCircle
 10
1.392038818084836
 20
0.8072915494398664
 30
0.0
 40
0.004
  0
CIRCLE
  5
102A
330
1F
100
AcDbEntity
  8
0
100
AcDbCircle
 10
1.412038845559429
 20
0.8072915655593002
 30
0.0
 40
0.004
  0
CIRCLE
  5
102B
330
1F
100
AcDbEntity
  8
0
100
AcDbCircle
 10
1.432038818084836
 20
0.8072915494398664
 30
0.0
 40
0.004
  0
CIRCLE
  5
102C
330
1F
100
AcDbEntity
  8
0
100
AcDbCircle
 10
1.452038845559429
 20
0.8072915655593002
 30
0.0
 40
0.004
  0
CIRCLE
  5
102D
330
1F
100
AcDbEntity
  8
0
100
AcDbCircle
 10
1.462038790610232
 20
0.7899710252447437
 30
0.0
 40
0.004
  0
CIRCLE
  5
102E
330
1F
100
AcDbEntity
  8
0
100
AcDbCircle
 10
1.472038818084836
 20
0.8072915494398664
 30
0.0
 40
0.004
  0
CIRCLE
  5
1030
330
1F
100
AcDbEntity
  8
0
100
AcDbCircle
 10
1.482038735661035
 20
0.7899709930058762
 30
0.0
 40
0.004
  0
CIRCLE
  5
1031
330
1F
100
AcDbEntity
  8
0
100
AcDbCircle
 10
1.492038763135639
 20
0.8072915172009988
 30
0.0
 40
0.004
  0
CIRCLE
  5
1037
330
1F
100
AcDbEntity
  8
0
100
AcDbCircle
 10
1.182038790610243
 20
0.8246120413961214
 30
0.0
 40
0.004
  0
CIRCLE
  5
1038
330
1F
100
AcDbEntity
  8
0
100
AcDbCircle
 10
1.202038818084836
 20
0.8246120575155552
 30
0.0
 40
0.004
  0
CIRCLE
  5
1039
330
1F
100
AcDbEntity
  8
0
100
AcDbCircle
 10
1.222038818084836
 20
0.8246120575155552
 30
0.0
 40
0.004
  0
CIRCLE
  5
103A
330
1F
100
AcDbEntity
  8
0
100
AcDbCircle
 10
1.242038845559429
 20
0.824612073634989
 30
0.0
 40
0.004
  0
CIRCLE
  5
103B
330
1F
100
AcDbEntity
  8
0
100
AcDbCircle
 10
1.262038790610232
 20
0.8246120413961214
 30
0.0
 40
0.004
  0
CIRCLE
  5
103C
330
1F
100
AcDbEntity
  8
0
100
AcDbCircle
 10
1.282038790610243
 20
0.8246120413961214
 30
0.0
 40
0.004
  0
CIRCLE
  5
103D
330
1F
100
AcDbEntity
  8
0
100
AcDbCircle
 10
1.302038818084836
 20
0.8246120575155552
 30
0.0
 40
0.004
  0
CIRCLE
  5
103E
330
1F
100
AcDbEntity
  8
0
100
AcDbCircle
 10
1.322038818084836
 20
0.8246120575155552
 30
0.0
 40
0.004
  0
CIRCLE
  5
103F
330
1F
100
AcDbEntity
  8
0
100
AcDbCircle
 10
1.342038845559429
 20
0.824612073634989
 30
0.0
 40
0.004
  0
CIRCLE
  5
1040
330
1F
100
AcDbEntity
  8
0
100
AcDbCircle
 10
1.362038790610232
 20
0.8246120413961214
 30
0.0
 40
0.004
  0
CIRCLE
  5
1041
330
1F
100
AcDbEntity
  8
0
100
AcDbCircle
 10
1.382038790610243
 20
0.8246120413961214
 30
0.0
 40
0.004
  0
CIRCLE
  5
1042
330
1F
100
AcDbEntity
  8
0
100
AcDbCircle
 10
1.402038818084836
 20
0.8246120575155552
 30
0.0
 40
0.004
  0
CIRCLE
  5
1043
330
1F
100
AcDbEntity
  8
0
100
AcDbCircle
 10
1.422038818084836
 20
0.8246120575155552
 30
0.0
 40
0.004
  0
CIRCLE
  5
1044
330
1F
100
AcDbEntity
  8
0
100
AcDbCircle
 10
1.442038845559429
 20
0.824612073634989
 30
0.0
 40
0.004
  0
CIRCLE
  5
1045
330
1F
100
AcDbEntity
  8
0
100
AcDbCircle
 10
1.462038790610232
 20
0.8246120413961214
 30
0.0
 40
0.004
  0
CIRCLE
  5
1047
330
1F
100
AcDbEntity
  8
0
100
AcDbCircle
 10
1.482038735661035
 20
0.8246120091572539
 30
0.0
 40
0.004
  0
CIRCLE
  5
104D
330
1F
100
AcDbEntity
  8
0
100
AcDbCircle
 10
1.182038790610243
 20
0.8592530575474992
 30
0.0
 40
0.004
  0
CIRCLE
  5
104E
330
1F
100
AcDbEntity
  8
0
100
AcDbCircle
 10
1.202038818084836
 20
0.8592530736669329
 30
0.0
 40
0.004
  0
CIRCLE
  5
104F
330
1F
100
AcDbEntity
  8
0
100
AcDbCircle
 10
1.222038818084836
 20
0.8592530736669329
 30
0.0
 40
0.004
  0
CIRCLE
  5
1050
330
1F
100
AcDbEntity
  8
0
100
AcDbCircle
 10
1.242038845559429
 20
0.8592530897863667
 30
0.0
 40
0.004
  0
CIRCLE
  5
1051
330
1F
100
AcDbEntity
  8
0
100
AcDbCircle
 10
1.192038818084836
 20
0.8765735817426218
 30
0.0
 40
0.004
  0
CIRCLE
  5
1052
330
1F
100
AcDbEntity
  8
0
100
AcDbCircle
 10
1.212038845559429
 20
0.8765735978620556
 30
0.0
 40
0.004
  0
CIRCLE
  5
1053
330
1F
100
AcDbEntity
  8
0
100
AcDbCircle
 10
1.232038818084836
 20
0.8765735817426218
 30
0.0
 40
0.004
  0
CIRCLE
  5
1054
330
1F
100
AcDbEntity
  8
0
100
AcDbCircle
 10
1.252038845559429
 20
0.8765735978620556
 30
0.0
 40
0.004
  0
CIRCLE
  5
1055
330
1F
100
AcDbEntity
  8
0
100
AcDbCircle
 10
1.262038790610232
 20
0.8592530575474992
 30
0.0
 40
0.004
  0
CIRCLE
  5
1056
330
1F
100
AcDbEntity
  8
0
100
AcDbCircle
 10
1.272038818084836
 20
0.8765735817426218
 30
0.0
 40
0.004
  0
CIRCLE
  5
1057
330
1F
100
AcDbEntity
  8
0
100
AcDbCircle
 10
1.282038790610243
 20
0.8592530575474992
 30
0.0
 40
0.004
  0
CIRCLE
  5
1058
330
1F
100
AcDbEntity
  8
0
100
AcDbCircle
 10
1.302038818084836
 20
0.8592530736669329
 30
0.0
 40
0.004
  0
CIRCLE
  5
1059
330
1F
100
AcDbEntity
  8
0
100
AcDbCircle
 10
1.322038818084836
 20
0.8592530736669329
 30
0.0
 40
0.004
  0
CIRCLE
  5
105A
330
1F
100
AcDbEntity
  8
0
100
AcDbCircle
 10
1.342038845559429
 20
0.8592530897863667
 30
0.0
 40
0.004
  0
CIRCLE
  5
105B
330
1F
100
AcDbEntity
  8
0
100
AcDbCircle
 10
1.292038818084836
 20
0.8765735817426218
 30
0.0
 40
0.004
  0
CIRCLE
  5
105C
330
1F
100
AcDbEntity
  8
0
100
AcDbCircle
 10
1.312038845559429
 20
0.8765735978620556
 30
0.0
 40
0.004
  0
CIRCLE
  5
105D
330
1F
100
AcDbEntity
  8
0
100
AcDbCircle
 10
1.332038818084836
 20
0.8765735817426218
 30
0.0
 40
0.004
  0
CIRCLE
  5
105E
330
1F
100
AcDbEntity
  8
0
100
AcDbCircle
 10
1.352038845559429
 20
0.8765735978620556
 30
0.0
 40
0.004
  0
CIRCLE
  5
105F
330
1F
100
AcDbEntity
  8
0
100
AcDbCircle
 10
1.362038790610232
 20
0.8592530575474992
 30
0.0
 40
0.004
  0
CIRCLE
  5
1060
330
1F
100
AcDbEntity
  8
0
100
AcDbCircle
 10
1.372038818084836
 20
0.8765735817426218
 30
0.0
 40
0.004
  0
CIRCLE
  5
1061
330
1F
100
AcDbEntity
  8
0
100
AcDbCircle
 10
1.382038790610243
 20
0.8592530575474992
 30
0.0
 40
0.004
  0
CIRCLE
  5
1062
330
1F
100
AcDbEntity
  8
0
100
AcDbCircle
 10
1.402038818084836
 20
0.8592530736669329
 30
0.0
 40
0.004
  0
CIRCLE
  5
1063
330
1F
100
AcDbEntity
  8
0
100
AcDbCircle
 10
1.422038818084836
 20
0.8592530736669329
 30
0.0
 40
0.004
  0
CIRCLE
  5
1064
330
1F
100
AcDbEntity
  8
0
100
AcDbCircle
 10
1.442038845559429
 20
0.8592530897863667
 30
0.0
 40
0.004
  0
CIRCLE
  5
1065
330
1F
100
AcDbEntity
  8
0
100
AcDbCircle
 10
1.392038818084836
 20
0.8765735817426218
 30
0.0
 40
0.004
  0
CIRCLE
  5
1066
330
1F
100
AcDbEntity
  8
0
100
AcDbCircle
 10
1.412038845559429
 20
0.8765735978620556
 30
0.0
 40
0.004
  0
CIRCLE
  5
1067
330
1F
100
AcDbEntity
  8
0
100
AcDbCircle
 10
1.432038818084836
 20
0.8765735817426218
 30
0.0
 40
0.004
  0
CIRCLE
  5
1068
330
1F
100
AcDbEntity
  8
0
100
AcDbCircle
 10
1.452038845559429
 20
0.8765735978620556
 30
0.0
 40
0.004
  0
CIRCLE
  5
1069
330
1F
100
AcDbEntity
  8
0
100
AcDbCircle
 10
1.462038790610232
 20
0.8592530575474992
 30
0.0
 40
0.004
  0
CIRCLE
  5
106A
330
1F
100
AcDbEntity
  8
0
100
AcDbCircle
 10
1.472038818084836
 20
0.8765735817426218
 30
0.0
 40
0.004
  0
CIRCLE
  5
106C
330
1F
100
AcDbEntity
  8
0
100
AcDbCircle
 10
1.482038735661035
 20
0.8592530253086316
 30
0.0
 40
0.004
  0
CIRCLE
  5
106D
330
1F
100
AcDbEntity
  8
0
100
AcDbCircle
 10
1.492038763135639
 20
0.8765735495037542
 30
0.0
 40
0.004
  0
CIRCLE
  5
1073
330
1F
100
AcDbEntity
  8
0
100
AcDbCircle
 10
1.182038790610243
 20
0.8938940736988763
 30
0.0
 40
0.004
  0
CIRCLE
  5
1074
330
1F
100
AcDbEntity
  8
0
100
AcDbCircle
 10
1.202038818084836
 20
0.8938940898183101
 30
0.0
 40
0.004
  0
CIRCLE
  5
1075
330
1F
100
AcDbEntity
  8
0
100
AcDbCircle
 10
1.222038818084836
 20
0.8938940898183101
 30
0.0
 40
0.004
  0
CIRCLE
  5
1076
330
1F
100
AcDbEntity
  8
0
100
AcDbCircle
 10
1.242038845559429
 20
0.8938941059377439
 30
0.0
 40
0.004
  0
CIRCLE
  5
1077
330
1F
100
AcDbEntity
  8
0
100
AcDbCircle
 10
1.192038818084836
 20
0.911214597893999
 30
0.0
 40
0.004
  0
CIRCLE
  5
1078
330
1F
100
AcDbEntity
  8
0
100
AcDbCircle
 10
1.212038845559429
 20
0.9112146140134328
 30
0.0
 40
0.004
  0
CIRCLE
  5
1079
330
1F
100
AcDbEntity
  8
0
100
AcDbCircle
 10
1.232038818084836
 20
0.911214597893999
 30
0.0
 40
0.004
  0
CIRCLE
  5
107A
330
1F
100
AcDbEntity
  8
0
100
AcDbCircle
 10
1.252038845559429
 20
0.9112146140134328
 30
0.0
 40
0.004
  0
CIRCLE
  5
107B
330
1F
100
AcDbEntity
  8
0
100
AcDbCircle
 10
1.262038790610232
 20
0.8938940736988763
 30
0.0
 40
0.004
  0
CIRCLE
  5
107C
330
1F
100
AcDbEntity
  8
0
100
AcDbCircle
 10
1.272038818084836
 20
0.911214597893999
 30
0.0
 40
0.004
  0
CIRCLE
  5
107D
330
1F
100
AcDbEntity
  8
0
100
AcDbCircle
 10
1.282038790610243
 20
0.8938940736988763
 30
0.0
 40
0.004
  0
CIRCLE
  5
107E
330
1F
100
AcDbEntity
  8
0
100
AcDbCircle
 10
1.302038818084836
 20
0.8938940898183101
 30
0.0
 40
0.004
  0
CIRCLE
  5
107F
330
1F
100
AcDbEntity
  8
0
100
AcDbCircle
 10
1.322038818084836
 20
0.8938940898183101
 30
0.0
 40
0.004
  0
CIRCLE
  5
1080
330
1F
100
AcDbEntity
  8
0
100
AcDbCircle
 10
1.342038845559429
 20
0.8938941059377439
 30
0.0
 40
0.004
  0
CIRCLE
  5
1081
330
1F
100
AcDbEntity
  8
0
100
AcDbCircle
 10
1.292038818084836
 20
0.911214597893999
 30
0.0
 40
0.004
  0
CIRCLE
  5
1082
330
1F
100
AcDbEntity
  8
0
100
AcDbCircle
 10
1.312038845559429
 20
0.9112146140134328
 30
0.0
 40
0.004
  0
CIRCLE
  5
1083
330
1F
100
AcDbEntity
  8
0
100
AcDbCircle
 10
1.332038818084836
 20
0.911214597893999
 30
0.0
 40
0.004
  0
CIRCLE
  5
1084
330
1F
100
AcDbEntity
  8
0
100
AcDbCircle
 10
1.352038845559429
 20
0.9112146140134328
 30
0.0
 40
0.004
  0
CIRCLE
  5
1085
330
1F
100
AcDbEntity
  8
0
100
AcDbCircle
 10
1.362038790610232
 20
0.8938940736988763
 30
0.0
 40
0.004
  0
CIRCLE
  5
1086
330
1F
100
AcDbEntity
  8
0
100
AcDbCircle
 10
1.372038818084836
 20
0.911214597893999
 30
0.0
 40
0.004
  0
CIRCLE
  5
1087
330
1F
100
AcDbEntity
  8
0
100
AcDbCircle
 10
1.382038790610243
 20
0.8938940736988763
 30
0.0
 40
0.004
  0
CIRCLE
  5
1088
330
1F
100
AcDbEntity
  8
0
100
AcDbCircle
 10
1.402038818084836
 20
0.8938940898183101
 30
0.0
 40
0.004
  0
CIRCLE
  5
1089
330
1F
100
AcDbEntity
  8
0
100
AcDbCircle
 10
1.422038818084836
 20
0.8938940898183101
 30
0.0
 40
0.004
  0
CIRCLE
  5
108A
330
1F
100
AcDbEntity
  8
0
100
AcDbCircle
 10
1.442038845559429
 20
0.8938941059377439
 30
0.0
 40
0.004
  0
CIRCLE
  5
108B
330
1F
100
AcDbEntity
  8
0
100
AcDbCircle
 10
1.392038818084836
 20
0.911214597893999
 30
0.0
 40
0.004
  0
CIRCLE
  5
108C
330
1F
100
AcDbEntity
  8
0
100
AcDbCircle
 10
1.412038845559429
 20
0.9112146140134328
 30
0.0
 40
0.004
  0
CIRCLE
  5
108D
330
1F
100
AcDbEntity
  8
0
100
AcDbCircle
 10
1.432038818084836
 20
0.911214597893999
 30
0.0
 40
0.004
  0
CIRCLE
  5
108E
330
1F
100
AcDbEntity
  8
0
100
AcDbCircle
 10
1.452038845559429
 20
0.9112146140134328
 30
0.0
 40
0.004
  0
CIRCLE
  5
108F
330
1F
100
AcDbEntity
  8
0
100
AcDbCircle
 10
1.462038790610232
 20
0.8938940736988763
 30
0.0
 40
0.004
  0
CIRCLE
  5
1090
330
1F
100
AcDbEntity
  8
0
100
AcDbCircle
 10
1.472038818084836
 20
0.911214597893999
 30
0.0
 40
0.004
  0
CIRCLE
  5
1092
330
1F
100
AcDbEntity
  8
0
100
AcDbCircle
 10
1.482038735661035
 20
0.8938940414600088
 30
0.0
 40
0.004
  0
CIRCLE
  5
1093
330
1F
100
AcDbEntity
  8
0
100
AcDbCircle
 10
1.492038763135639
 20
0.9112145656551314
 30
0.0
 40
0.004
  0
CIRCLE
  5
1099
330
1F
100
AcDbEntity
  8
0
100
AcDbCircle
 10
1.182038790610243
 20
0.9285350898502541
 30
0.0
 40
0.004
  0
CIRCLE
  5
109A
330
1F
100
AcDbEntity
  8
0
100
AcDbCircle
 10
1.202038818084836
 20
0.9285351059696878
 30
0.0
 40
0.004
  0
CIRCLE
  5
109B
330
1F
100
AcDbEntity
  8
0
100
AcDbCircle
 10
1.222038818084836
 20
0.9285351059696878
 30
0.0
 40
0.004
  0
CIRCLE
  5
109C
330
1F
100
AcDbEntity
  8
0
100
AcDbCircle
 10
1.242038845559429
 20
0.9285351220891216
 30
0.0
 40
0.004
  0
CIRCLE
  5
10A1
330
1F
100
AcDbEntity
  8
0
100
AcDbCircle
 10
1.262038790610232
 20
0.9285350898502541
 30
0.0
 40
0.004
  0
CIRCLE
  5
10A3
330
1F
100
AcDbEntity
  8
0
100
AcDbCircle
 10
1.282038790610243
 20
0.9285350898502541
 30
0.0
 40
0.004
  0
CIRCLE
  5
10A4
330
1F
100
AcDbEntity
  8
0
100
AcDbCircle
 10
1.302038818084836
 20
0.9285351059696878
 30
0.0
 40
0.004
  0
CIRCLE
  5
10A5
102
{ACAD_REACTORS
330
173C
102
}
330
1F
100
AcDbEntity
  8
0
100
AcDbCircle
 10
1.322038818084836
 20
0.9285351059696878
 30
0.0
 40
0.004
  0
CIRCLE
  5
10A6
330
1F
100
AcDbEntity
  8
0
100
AcDbCircle
 10
1.342038845559429
 20
0.9285351220891216
 30
0.0
 40
0.004
  0
CIRCLE
  5
10AB
330
1F
100
AcDbEntity
  8
0
100
AcDbCircle
 10
1.362038790610232
 20
0.9285350898502541
 30
0.0
 40
0.004
  0
CIRCLE
  5
10AD
330
1F
100
AcDbEntity
  8
0
100
AcDbCircle
 10
1.382038790610243
 20
0.9285350898502541
 30
0.0
 40
0.004
  0
CIRCLE
  5
10AE
330
1F
100
AcDbEntity
  8
0
100
AcDbCircle
 10
1.402038818084836
 20
0.9285351059696878
 30
0.0
 40
0.004
  0
CIRCLE
  5
10AF
330
1F
100
AcDbEntity
  8
0
100
AcDbCircle
 10
1.422038818084836
 20
0.9285351059696878
 30
0.0
 40
0.004
  0
CIRCLE
  5
10B0
330
1F
100
AcDbEntity
  8
0
100
AcDbCircle
 10
1.442038845559429
 20
0.9285351220891216
 30
0.0
 40
0.004
  0
CIRCLE
  5
10B5
330
1F
100
AcDbEntity
  8
0
100
AcDbCircle
 10
1.462038790610232
 20
0.9285350898502541
 30
0.0
 40
0.004
  0
CIRCLE
  5
10B8
330
1F
100
AcDbEntity
  8
0
100
AcDbCircle
 10
1.482038735661035
 20
0.9285350576113865
 30
0.0
 40
0.004
  0
CIRCLE
  5
10E7
330
1F
100
AcDbEntity
  8
0
100
AcDbCircle
 10
1.192090588838532
 20
0.8418428960154967
 30
0.0
 40
0.004
  0
CIRCLE
  5
10E8
330
1F
100
AcDbEntity
  8
0
100
AcDbCircle
 10
1.212090616313125
 20
0.8418429121349305
 30
0.0
 40
0.004
  0
CIRCLE
  5
10E9
330
1F
100
AcDbEntity
  8
0
100
AcDbCircle
 10
1.232090616313125
 20
0.8418429121349305
 30
0.0
 40
0.004
  0
CIRCLE
  5
10EA
330
1F
100
AcDbEntity
  8
0
100
AcDbCircle
 10
1.252090643787718
 20
0.8418429282543643
 30
0.0
 40
0.004
  0
CIRCLE
  5
10EB
330
1F
100
AcDbEntity
  8
0
100
AcDbCircle
 10
1.272090588838521
 20
0.8418428960154967
 30
0.0
 40
0.004
  0
CIRCLE
  5
10EC
330
1F
100
AcDbEntity
  8
0
100
AcDbCircle
 10
1.292090588838532
 20
0.8418428960154967
 30
0.0
 40
0.004
  0
CIRCLE
  5
10ED
330
1F
100
AcDbEntity
  8
0
100
AcDbCircle
 10
1.312090616313125
 20
0.8418429121349305
 30
0.0
 40
0.004
  0
CIRCLE
  5
10EE
330
1F
100
AcDbEntity
  8
0
100
AcDbCircle
 10
1.332090616313125
 20
0.8418429121349305
 30
0.0
 40
0.004
  0
CIRCLE
  5
10EF
330
1F
100
AcDbEntity
  8
0
100
AcDbCircle
 10
1.352090643787718
 20
0.8418429282543643
 30
0.0
 40
0.004
  0
CIRCLE
  5
10F0
330
1F
100
AcDbEntity
  8
0
100
AcDbCircle
 10
1.372090588838521
 20
0.8418428960154967
 30
0.0
 40
0.004
  0
CIRCLE
  5
10F1
330
1F
100
AcDbEntity
  8
0
100
AcDbCircle
 10
1.392090588838532
 20
0.8418428960154967
 30
0.0
 40
0.004
  0
CIRCLE
  5
10F2
330
1F
100
AcDbEntity
  8
0
100
AcDbCircle
 10
1.412090616313125
 20
0.8418429121349305
 30
0.0
 40
0.004
  0
CIRCLE
  5
10F3
330
1F
100
AcDbEntity
  8
0
100
AcDbCircle
 10
1.432090616313125
 20
0.8418429121349305
 30
0.0
 40
0.004
  0
CIRCLE
  5
10F4
330
1F
100
AcDbEntity
  8
0
100
AcDbCircle
 10
1.452090643787718
 20
0.8418429282543643
 30
0.0
 40
0.004
  0
CIRCLE
  5
10F5
330
1F
100
AcDbEntity
  8
0
100
AcDbCircle
 10
1.472090588838521
 20
0.8418428960154967
 30
0.0
 40
0.004
  0
CIRCLE
  5
10F6
330
1F
100
AcDbEntity
  8
0
100
AcDbCircle
 10
1.492090533889323
 20
0.8418428637766291
 30
0.0
 40
0.004
  0
CIRCLE
  5
10F8
330
1F
100
AcDbEntity
  8
0
100
AcDbCircle
 10
1.17209064378774
 20
0.8418429282543643
 30
0.0
 40
0.004
  0
DIMENSION
  5
1132
330
1F
100
AcDbEntity
  8
0
100
AcDbDimension
280
     0
  2
*D7
 10
1.361614752982948
 20
0.4109247570302399
 30
0.0
 11
1.456407224406298
 21
0.4109247570302399
 31
0.0
 70
   160
  1
50{\H1.0833x;Ω\PTransmission Line}
 71
     5
 42
0.0500801278826093
 73
     0
 74
     0
 75
     0
  3
Dan's Dim Style
100
AcDbAlignedDimension
 13
1.311534625100339
 23
0.504842883378157
 33
0.0
 14
1.361614752982948
 24
0.5048428960155219
 34
0.0
100
AcDbRotatedDimension
  0
HATCH
  5
1176
330
1F
100
AcDbEntity
  8
0
100
AcDbHatch
 10
0.0
 20
0.0
 30
0.0
210
0.0
220
0.0
230
1.0
  2
ANSI31
 70
     0
 71
     0
 91
        1
 92
        1
 93
        4
 72
     1
 10
1.311534625100339
 20
0.5019809587251598
 11
1.361614752982948
 21
0.5019809587251598
 72
     1
 10
1.361614752982948
 20
0.5019809587251598
 11
1.361614752982948
 21
0.532032240570014
 72
     1
 10
1.361614752982948
 20
0.532032240570014
 11
1.311534625100339
 21
0.532032240570014
 72
     1
 10
1.311534625100339
 20
0.532032240570014
 11
1.311534625100339
 21
0.5019809587251598
 97
        0
 75
     1
 76
     1
 52
0.0
 41
0.09
 77
     0
 78
     1
 53
45.0
 43
0.0
 44
0.0
 45
-0.0079549512883487
 46
0.0079549512883487
 79
     0
 98
        1
 10
0.0
 20
0.0
1001
GradientColor1ACI
1070
     5
1001
GradientColor2ACI
1070
     2
1001
ACAD
1010
0.0
1020
0.0
1030
0.0
  0
LWPOLYLINE
  5
11A0
102
{ACAD_REACTORS
330
14C0
102
}
330
1F
100
AcDbEntity
  8
0
100
AcDbPolyline
 90
        4
 70
     0
 43
0.0
 10
1.361534625100351
 20
0.5048428960155219
 10
1.36157468904165
 20
0.532032240570014
 10
1.311574689041638
 20
0.532032240570014
 10
1.311534625100339
 20
0.5019809587251598
  0
CIRCLE
  5
11CE
330
1F
100
AcDbEntity
  8
0
100
AcDbCircle
 10
1.422038790610243
 20
0.4782018798823461
 30
0.0
 40
0.004
  0
CIRCLE
  5
11CF
330
1F
100
AcDbEntity
  8
0
100
AcDbCircle
 10
1.412038818084836
 20
0.4955224040774687
 30
0.0
 40
0.004
  0
CIRCLE
  5
11D0
330
1F
100
AcDbEntity
  8
0
100
AcDbCircle
 10
1.432038790610243
 20
0.495522387958035
 30
0.0
 40
0.004
  0
CIRCLE
  5
11DD
330
1F
100
AcDbEntity
  8
0
100
AcDbCircle
 10
1.24203876313565
 20
0.4782018637629123
 30
0.0
 40
0.004
  0
CIRCLE
  5
11DE
330
1F
100
AcDbEntity
  8
0
100
AcDbCircle
 10
1.26203876313565
 20
0.4782018637629123
 30
0.0
 40
0.004
  0
CIRCLE
  5
11E0
330
1F
100
AcDbEntity
  8
0
100
AcDbCircle
 10
1.252038790610243
 20
0.495522387958035
 30
0.0
 40
0.004
  0
CIRCLE
  5
11E1
330
1F
100
AcDbEntity
  8
0
100
AcDbCircle
 10
1.27203876313565
 20
0.4955223718386012
 30
0.0
 40
0.004
  0
LINE
  5
11E3
330
1F
100
AcDbEntity
  8
0
100
AcDbLine
 10
1.311534625100339
 20
0.504842883378157
 30
0.0
 11
1.311534625100339
 21
0.2825788399093767
 31
0.0
  0
LINE
  5
11E4
330
1F
100
AcDbEntity
  8
0
100
AcDbLine
 10
1.361614752982948
 20
0.5048428960155219
 30
0.0
 11
1.361614752982948
 21
0.2825788399093767
 31
0.0
  0
SPLINE
  5
11EA
330
1F
100
AcDbEntity
  8
0
100
AcDbSpline
210
0.0
220
0.0
230
1.0
 70
  1064
 71
     3
 72
    27
 73
    23
 74
    21
 42
0.000000001
 43
0.0000000001
 44
0.0000000001
 40
0.0
 40
0.0
 40
0.0
 40
0.0
 40
0.1147053612844013
 40
0.2421671163515577
 40
0.3958080155102169
 40
0.5398054970042628
 40
0.6545897162839123
 40
0.9724562930036015
 40
1.009242703172828
 40
1.110909226575825
 40
1.172188117269342
 40
1.323244527460418
 40
1.447578514353318
 40
1.690898406846058
 40
1.867538755222176
 40
2.010817292956403
 40
2.135071956503602
 40
2.292140494019478
 40
2.463175720645871
 40
2.619630263830446
 40
2.787923440847304
 40
2.911326277162311
 40
2.911326277162311
 40
2.911326277162311
 40
2.911326277162311
 10
1.268866356141646
 20
0.2825788399093767
 30
0.0
 10
1.231189071054978
 20
0.2987289260951243
 30
0.0
 10
1.151644406540375
 20
0.3328251510373446
 30
0.0
 10
1.033308235537292
 20
0.2338780143590605
 30
0.0
 10
0.8676470186825333
 20
0.3555661518107588
 30
0.0
 10
0.9602775659955838
 20
0.4984690481763408
 30
0.0
 10
0.8584090118287376
 20
0.6753006379384967
 30
0.0
 10
0.8724220596862235
 20
0.8496544589772893
 30
0.0
 10
0.9390900988084126
 20
0.9847505506437924
 30
0.0
 10
0.9410220221437437
 20
1.062550940574397
 30
0.0
 10
1.045535134176581
 20
1.106227741998518
 30
0.0
 10
1.161881110109656
 20
1.109034419320494
 30
0.0
 10
1.314937090757092
 20
1.008828008498913
 30
0.0
 10
1.495795544015129
 20
1.061501258296993
 30
0.0
 10
1.708742077297559
 20
1.068955255871722
 30
0.0
 10
1.774480739063042
 20
0.8900209992876611
 30
0.0
 10
1.640668686054451
 20
0.7728401380980474
 30
0.0
 10
1.824634354780134
 20
0.6228623729277154
 30
0.0
 10
1.604363250890264
 20
0.511987740424789
 30
0.0
 10
1.756488046370589
 20
0.2885089859368963
 30
0.0
 10
1.525409948105274
 20
0.3276240636357386
 30
0.0
 10
1.440292291192632
 20
0.2959701282133697
 30
0.0
 10
1.404283021941641
 20
0.2825788399093767
 30
0.0
 11
1.268866356141646
 21
0.2825788399093767
 31
0.0
 11
1.157437090519465
 21
0.3097971916281423
 31
0.0
 11
1.035891567614598
 21
0.2714151011876495
 31
0.0
 11
0.9126087853414333
 21
0.3631041490029077
 31
0.0
 11
0.9346875438568531
 21
0.5053989243779924
 31
0.0
 11
0.900573503180297
 21
0.6149965941723679
 31
0.0
 11
0.9139312905595765
 21
0.9325823780352857
 31
0.0
 11
0.9282777112210283
 21
0.9664559693320953
 31
0.0
 11
0.9619122356571807
 21
1.062397622157163
 31
0.0
 11
1.015878623413129
 21
1.09142745917363
 31
0.0
 11
1.166930789392424
 21
1.092559807520281
 31
0.0
 11
1.281392494768375
 21
1.04400614340404
 31
0.0
 11
1.524407804572817
 21
1.056176980816879
 31
0.0
 11
1.698916250882348
 21
1.028816154055434
 31
0.0
 11
1.741757273004793
 21
0.8920923953345649
 31
0.0
 11
1.690624353806441
 21
0.7788464418197379
 31
0.0
 11
1.75419498478773
 21
0.6352174045256831
 31
0.0
 11
1.665748930240567
 21
0.4888263386023084
 31
0.0
 11
1.690861903716211
 21
0.3344004254714292
 31
0.0
 11
1.523995739123691
 21
0.3125308908488193
 31
0.0
 11
1.404283021941641
 21
0.2825788399093767
 31
0.0
  0
LINE
  5
11EB
330
1F
100
AcDbEntity
  8
0
100
AcDbLine
 10
1.268866356141646
 20
0.5072345626354976
 30
0.0
 11
1.268866356141646
 21
0.2825788399093767
 31
0.0
  0
LINE
  5
11EC
330
1F
100
AcDbEntity
  8
0
100
AcDbLine
 10
1.404283021941641
 20
0.5072345626354976
 30
0.0
 11
1.404283021941641
 21
0.2825788399093767
 31
0.0
  0
DIMENSION
  5
11FE
330
1F
100
AcDbEntity
  8
0
100
AcDbDimension
280
     0
  2
*D8
 10
1.185979429103055
 20
0.3538290076899635
 30
0.0
 11
1.021075848544592
 21
0.4029673181612971
 31
0.0
 70
   163
  1
Copper/Ground
 71
     5
 42
0.031
 73
     0
 74
     0
 75
     0
  3
Dan's Dim Style
100
AcDbDiametricDimension
 15
1.158866125590269
 25
0.368857938876963
 35
0.0
 40
0.0
1001
ACAD_DSTYLE_DIMRADIAL_EXTENSION
1070
   387
1070
     1
1070
   388
1040
0.0
1070
   390
1040
0.0
1001
ACAD
1000
DSTYLE
1002
{
1070
   288
1070
     1
1002
}
  0
LWPOLYLINE
  5
12B3
330
1F
100
AcDbEntity
  8
0
100
AcDbPolyline
 90
        4
 70
     1
 43
0.0
 10
1.174288039845686
 20
0.8767345601554826
 10
1.173821085931301
 20
0.5019809587251598
 10
1.49930128144915
 20
0.5019809587251598
 10
1.49930128144915
 20
0.8767345601554826
  0
SPLINE
  5
12EF
330
1F
100
AcDbEntity
  8
0
100
AcDbSpline
210
0.0
220
0.0
230
1.0
 70
  1064
 71
     3
 72
    10
 73
     6
 74
     4
 42
0.000000001
 43
0.0000000001
 44
0.0000000001
 40
0.0
 40
0.0
 40
0.0
 40
0.0
 40
0.0232945701075287
 40
0.0451028329430054
 40
0.0588372051546082
 40
0.0588372051546082
 40
0.0588372051546082
 40
0.0588372051546082
 10
1.311534625100339
 20
0.2825788399093767
 30
0.0
 10
1.318834952807925
 20
0.2893004500276801
 30
0.0
 10
1.332969811682957
 20
0.3023147987310233
 30
0.0
 10
1.344898055579452
 20
0.2741438622207334
 30
0.0
 10
1.356955514180496
 20
0.280227862656147
 30
0.0
 10
1.361614752982948
 20
0.2825788399093767
 30
0.0
 11
1.311534625100339
 21
0.2825788399093767
 31
0.0
 11
1.332104260318004
 21
0.2935116850791743
 31
0.0
 11
1.348361506988226
 21
0.2789754455859352
 31
0.0
 11
1.361614752982948
 21
0.2825788399093767
 31
0.0
  0
DIMENSION
  5
14A7
102
{ACAD_XDICTIONARY
360
14B5
102
}
102
{ACAD_REACTORS
330
14C0
102
}
330
1F
100
AcDbEntity
  8
0
100
AcDbDimension
280
     0
  2
*D10
 10
1.591582662414713
 20
0.5320322405700142
 30
0.0
 11
1.591582662414713
 21
0.5469680943096843
 31
0.0
 70
   160
 71
     5
 42
0.0298717074793414
 73
     0
 74
     0
 75
     0
  3
Dan's Dim Style
100
AcDbAlignedDimension
 13
1.404675798007463
 23
0.5619039480493555
 33
0.0
 14
1.36157468904165
 24
0.532032240570014
 34
0.0
 50
90.0
100
AcDbRotatedDimension
  0
CIRCLE
  5
158F
330
1F
100
AcDbEntity
  8
0
100
AcDbCircle
 10
1.142038900508627
 20
0.4782019443600812
 30
0.0
 40
0.004
  0
CIRCLE
  5
1590
330
1F
100
AcDbEntity
  8
0
100
AcDbCircle
 10
1.162038900508627
 20
0.4782019443600812
 30
0.0
 40
0.004
  0
CIRCLE
  5
1591
330
1F
100
AcDbEntity
  8
0
100
AcDbCircle
 10
1.132038900508627
 20
0.4955224524357701
 30
0.0
 40
0.004
  0
CIRCLE
  5
1592
330
1F
100
AcDbEntity
  8
0
100
AcDbCircle
 10
1.15203892798322
 20
0.4955224685552039
 30
0.0
 40
0.004
  0
CIRCLE
  5
1593
330
1F
100
AcDbEntity
  8
0
100
AcDbCircle
 10
1.172038900508627
 20
0.4955224524357701
 30
0.0
 40
0.004
  0
CIRCLE
  5
1594
330
1F
100
AcDbEntity
  8
0
100
AcDbCircle
 10
1.14203892798322
 20
0.5128429766308923
 30
0.0
 40
0.004
  0
CIRCLE
  5
1595
330
1F
100
AcDbEntity
  8
0
100
AcDbCircle
 10
1.132038900508627
 20
0.5301634685871474
 30
0.0
 40
0.004
  0
CIRCLE
  5
1596
330
1F
100
AcDbEntity
  8
0
100
AcDbCircle
 10
1.15203892798322
 20
0.5301634847065812
 30
0.0
 40
0.004
  0
CIRCLE
  5
1597
330
1F
100
AcDbEntity
  8
0
100
AcDbCircle
 10
1.162038873034022
 20
0.5128429443920247
 30
0.0
 40
0.004
  0
CIRCLE
  5
1598
330
1F
100
AcDbEntity
  8
0
100
AcDbCircle
 10
1.172038900508627
 20
0.5301634685871474
 30
0.0
 40
0.004
  0
CIRCLE
  5
1599
330
1F
100
AcDbEntity
  8
0
100
AcDbCircle
 10
1.14203892798322
 20
0.54748399278227
 30
0.0
 40
0.004
  0
CIRCLE
  5
159A
330
1F
100
AcDbEntity
  8
0
100
AcDbCircle
 10
1.132038900508627
 20
0.5648044847385251
 30
0.0
 40
0.004
  0
CIRCLE
  5
159B
330
1F
100
AcDbEntity
  8
0
100
AcDbCircle
 10
1.15203892798322
 20
0.5648045008579589
 30
0.0
 40
0.004
  0
CIRCLE
  5
159C
330
1F
100
AcDbEntity
  8
0
100
AcDbCircle
 10
1.162038873034022
 20
0.5474839605434024
 30
0.0
 40
0.004
  0
CIRCLE
  5
159D
330
1F
100
AcDbEntity
  8
0
100
AcDbCircle
 10
1.172038900508627
 20
0.5648044847385251
 30
0.0
 40
0.004
  0
CIRCLE
  5
159E
330
1F
100
AcDbEntity
  8
0
100
AcDbCircle
 10
1.13203892798322
 20
0.5994455170093361
 30
0.0
 40
0.004
  0
CIRCLE
  5
159F
330
1F
100
AcDbEntity
  8
0
100
AcDbCircle
 10
1.142038873034023
 20
0.5821249766947802
 30
0.0
 40
0.004
  0
CIRCLE
  5
15A0
330
1F
100
AcDbEntity
  8
0
100
AcDbCircle
 10
1.152038900508627
 20
0.5994455008899024
 30
0.0
 40
0.004
  0
CIRCLE
  5
15A1
330
1F
100
AcDbEntity
  8
0
100
AcDbCircle
 10
1.162038818084825
 20
0.5821249444559126
 30
0.0
 40
0.004
  0
CIRCLE
  5
15A2
330
1F
100
AcDbEntity
  8
0
100
AcDbCircle
 10
1.17203884555943
 20
0.5994454686510352
 30
0.0
 40
0.004
  0
CIRCLE
  5
15A3
330
1F
100
AcDbEntity
  8
0
100
AcDbCircle
 10
1.13203892798322
 20
0.6340865331607143
 30
0.0
 40
0.004
  0
CIRCLE
  5
15A4
330
1F
100
AcDbEntity
  8
0
100
AcDbCircle
 10
1.142038873034023
 20
0.6167659928461579
 30
0.0
 40
0.004
  0
CIRCLE
  5
15A5
330
1F
100
AcDbEntity
  8
0
100
AcDbCircle
 10
1.152038900508627
 20
0.6340865170412805
 30
0.0
 40
0.004
  0
CIRCLE
  5
15A6
330
1F
100
AcDbEntity
  8
0
100
AcDbCircle
 10
1.162038818084825
 20
0.6167659606072903
 30
0.0
 40
0.004
  0
CIRCLE
  5
15A7
330
1F
100
AcDbEntity
  8
0
100
AcDbCircle
 10
1.17203884555943
 20
0.6340864848024129
 30
0.0
 40
0.004
  0
CIRCLE
  5
15A8
330
1F
100
AcDbEntity
  8
0
100
AcDbCircle
 10
1.13203892798322
 20
0.6687275493120916
 30
0.0
 40
0.004
  0
CIRCLE
  5
15A9
330
1F
100
AcDbEntity
  8
0
100
AcDbCircle
 10
1.142038873034023
 20
0.6514070089975351
 30
0.0
 40
0.004
  0
CIRCLE
  5
15AA
330
1F
100
AcDbEntity
  8
0
100
AcDbCircle
 10
1.152038900508627
 20
0.6687275331926578
 30
0.0
 40
0.004
  0
CIRCLE
  5
15AB
330
1F
100
AcDbEntity
  8
0
100
AcDbCircle
 10
1.162038818084825
 20
0.651406976758668
 30
0.0
 40
0.004
  0
CIRCLE
  5
15AC
330
1F
100
AcDbEntity
  8
0
100
AcDbCircle
 10
1.17203884555943
 20
0.6687275009537902
 30
0.0
 40
0.004
  0
CIRCLE
  5
15AD
330
1F
100
AcDbEntity
  8
0
100
AcDbCircle
 10
1.13203892798322
 20
0.7033685654634688
 30
0.0
 40
0.004
  0
CIRCLE
  5
15AE
330
1F
100
AcDbEntity
  8
0
100
AcDbCircle
 10
1.142038873034023
 20
0.6860480251489128
 30
0.0
 40
0.004
  0
CIRCLE
  5
15AF
330
1F
100
AcDbEntity
  8
0
100
AcDbCircle
 10
1.152038900508627
 20
0.703368549344035
 30
0.0
 40
0.004
  0
CIRCLE
  5
15B0
330
1F
100
AcDbEntity
  8
0
100
AcDbCircle
 10
1.162038818084825
 20
0.6860479929100453
 30
0.0
 40
0.004
  0
CIRCLE
  5
15B1
330
1F
100
AcDbEntity
  8
0
100
AcDbCircle
 10
1.17203884555943
 20
0.7033685171051679
 30
0.0
 40
0.004
  0
CIRCLE
  5
15B2
330
1F
100
AcDbEntity
  8
0
100
AcDbCircle
 10
1.13203892798322
 20
0.7380095816148465
 30
0.0
 40
0.004
  0
CIRCLE
  5
15B3
330
1F
100
AcDbEntity
  8
0
100
AcDbCircle
 10
1.142038873034023
 20
0.7206890413002901
 30
0.0
 40
0.004
  0
CIRCLE
  5
15B4
330
1F
100
AcDbEntity
  8
0
100
AcDbCircle
 10
1.152038900508627
 20
0.7380095654954128
 30
0.0
 40
0.004
  0
CIRCLE
  5
15B5
330
1F
100
AcDbEntity
  8
0
100
AcDbCircle
 10
1.162038818084825
 20
0.7206890090614225
 30
0.0
 40
0.004
  0
CIRCLE
  5
15B6
330
1F
100
AcDbEntity
  8
0
100
AcDbCircle
 10
1.17203884555943
 20
0.7380095332565452
 30
0.0
 40
0.004
  0
CIRCLE
  5
15B7
330
1F
100
AcDbEntity
  8
0
100
AcDbCircle
 10
1.13203892798322
 20
0.7726505977662243
 30
0.0
 40
0.004
  0
CIRCLE
  5
15B8
330
1F
100
AcDbEntity
  8
0
100
AcDbCircle
 10
1.142038873034023
 20
0.7553300574516678
 30
0.0
 40
0.004
  0
CIRCLE
  5
15B9
330
1F
100
AcDbEntity
  8
0
100
AcDbCircle
 10
1.152038900508627
 20
0.7726505816467905
 30
0.0
 40
0.004
  0
CIRCLE
  5
15BA
330
1F
100
AcDbEntity
  8
0
100
AcDbCircle
 10
1.162038818084825
 20
0.7553300252128003
 30
0.0
 40
0.004
  0
CIRCLE
  5
15BB
330
1F
100
AcDbEntity
  8
0
100
AcDbCircle
 10
1.17203884555943
 20
0.7726505494079229
 30
0.0
 40
0.004
  0
CIRCLE
  5
15BC
330
1F
100
AcDbEntity
  8
0
100
AcDbCircle
 10
1.13203892798322
 20
0.8072916139176015
 30
0.0
 40
0.004
  0
CIRCLE
  5
15BD
330
1F
100
AcDbEntity
  8
0
100
AcDbCircle
 10
1.142038873034023
 20
0.7899710736030451
 30
0.0
 40
0.004
  0
CIRCLE
  5
15BE
330
1F
100
AcDbEntity
  8
0
100
AcDbCircle
 10
1.152038900508627
 20
0.8072915977981677
 30
0.0
 40
0.004
  0
CIRCLE
  5
15BF
330
1F
100
AcDbEntity
  8
0
100
AcDbCircle
 10
1.162038818084825
 20
0.7899710413641775
 30
0.0
 40
0.004
  0
CIRCLE
  5
15C0
330
1F
100
AcDbEntity
  8
0
100
AcDbCircle
 10
1.17203884555943
 20
0.8072915655593002
 30
0.0
 40
0.004
  0
CIRCLE
  5
15C1
330
1F
100
AcDbEntity
  8
0
100
AcDbCircle
 10
1.142038873034023
 20
0.8246120897544228
 30
0.0
 40
0.004
  0
CIRCLE
  5
15C2
330
1F
100
AcDbEntity
  8
0
100
AcDbCircle
 10
1.162038818084825
 20
0.8246120575155552
 30
0.0
 40
0.004
  0
CIRCLE
  5
15C5
330
1F
100
AcDbEntity
  8
0
100
AcDbCircle
 10
1.13203892798322
 20
0.876573646220357
 30
0.0
 40
0.004
  0
CIRCLE
  5
15C6
330
1F
100
AcDbEntity
  8
0
100
AcDbCircle
 10
1.142038873034023
 20
0.8592531059058005
 30
0.0
 40
0.004
  0
CIRCLE
  5
15C7
330
1F
100
AcDbEntity
  8
0
100
AcDbCircle
 10
1.152038900508627
 20
0.8765736301009232
 30
0.0
 40
0.004
  0
CIRCLE
  5
15C8
330
1F
100
AcDbEntity
  8
0
100
AcDbCircle
 10
1.162038818084825
 20
0.8592530736669329
 30
0.0
 40
0.004
  0
CIRCLE
  5
15C9
330
1F
100
AcDbEntity
  8
0
100
AcDbCircle
 10
1.17203884555943
 20
0.8765735978620556
 30
0.0
 40
0.004
  0
CIRCLE
  5
15CA
330
1F
100
AcDbEntity
  8
0
100
AcDbCircle
 10
1.13203892798322
 20
0.9112146623717341
 30
0.0
 40
0.004
  0
CIRCLE
  5
15CB
330
1F
100
AcDbEntity
  8
0
100
AcDbCircle
 10
1.142038873034023
 20
0.8938941220571777
 30
0.0
 40
0.004
  0
CIRCLE
  5
15CC
330
1F
100
AcDbEntity
  8
0
100
AcDbCircle
 10
1.152038900508627
 20
0.9112146462523003
 30
0.0
 40
0.004
  0
CIRCLE
  5
15CD
330
1F
100
AcDbEntity
  8
0
100
AcDbCircle
 10
1.162038818084825
 20
0.8938940898183101
 30
0.0
 40
0.004
  0
CIRCLE
  5
15CE
330
1F
100
AcDbEntity
  8
0
100
AcDbCircle
 10
1.17203884555943
 20
0.9112146140134328
 30
0.0
 40
0.004
  0
CIRCLE
  5
15CF
330
1F
100
AcDbEntity
  8
0
100
AcDbCircle
 10
1.142038873034023
 20
0.9285351382085554
 30
0.0
 40
0.004
  0
CIRCLE
  5
15D0
330
1F
100
AcDbEntity
  8
0
100
AcDbCircle
 10
1.162038818084825
 20
0.9285351059696878
 30
0.0
 40
0.004
  0
CIRCLE
  5
15D1
330
1F
100
AcDbEntity
  8
0
100
AcDbCircle
 10
1.132090726211509
 20
0.8418429766126656
 30
0.0
 40
0.004
  0
CIRCLE
  5
15D2
330
1F
100
AcDbEntity
  8
0
100
AcDbCircle
 10
1.152090671262312
 20
0.8418429443737981
 30
0.0
 40
0.004
  0
CIRCLE
  5
15D3
330
1F
100
AcDbEntity
  8
0
100
AcDbCircle
 10
1.172090616313114
 20
0.8418429121349305
 30
0.0
 40
0.004
  0
CIRCLE
  5
1630
330
1F
100
AcDbEntity
  8
0
100
AcDbCircle
 10
1.502038763135649
 20
0.4782018637629123
 30
0.0
 40
0.004
  0
CIRCLE
  5
1631
330
1F
100
AcDbEntity
  8
0
100
AcDbCircle
 10
1.522038790610242
 20
0.4782018798823461
 30
0.0
 40
0.004
  0
CIRCLE
  5
1632
330
1F
100
AcDbEntity
  8
0
100
AcDbCircle
 10
1.542038763135649
 20
0.4782018637629123
 30
0.0
 40
0.004
  0
CIRCLE
  5
1633
330
1F
100
AcDbEntity
  8
0
100
AcDbCircle
 10
1.512038790610242
 20
0.4955223879580345
 30
0.0
 40
0.004
  0
CIRCLE
  5
1634
330
1F
100
AcDbEntity
  8
0
100
AcDbCircle
 10
1.502038763135649
 20
0.5128428799142896
 30
0.0
 40
0.004
  0
CIRCLE
  5
1635
330
1F
100
AcDbEntity
  8
0
100
AcDbCircle
 10
1.522038790610242
 20
0.5128428960337234
 30
0.0
 40
0.004
  0
CIRCLE
  5
1636
330
1F
100
AcDbEntity
  8
0
100
AcDbCircle
 10
1.532038735661045
 20
0.4955223557191669
 30
0.0
 40
0.004
  0
CIRCLE
  5
1637
330
1F
100
AcDbEntity
  8
0
100
AcDbCircle
 10
1.542038763135649
 20
0.5128428799142896
 30
0.0
 40
0.004
  0
CIRCLE
  5
1638
330
1F
100
AcDbEntity
  8
0
100
AcDbCircle
 10
1.512038790610242
 20
0.5301634041094122
 30
0.0
 40
0.004
  0
CIRCLE
  5
1639
330
1F
100
AcDbEntity
  8
0
100
AcDbCircle
 10
1.502038763135649
 20
0.5474838960656673
 30
0.0
 40
0.004
  0
CIRCLE
  5
163A
330
1F
100
AcDbEntity
  8
0
100
AcDbCircle
 10
1.522038790610242
 20
0.5474839121851011
 30
0.0
 40
0.004
  0
CIRCLE
  5
163B
330
1F
100
AcDbEntity
  8
0
100
AcDbCircle
 10
1.532038735661045
 20
0.5301633718705446
 30
0.0
 40
0.004
  0
CIRCLE
  5
163C
330
1F
100
AcDbEntity
  8
0
100
AcDbCircle
 10
1.542038763135649
 20
0.5474838960656673
 30
0.0
 40
0.004
  0
CIRCLE
  5
163D
330
1F
100
AcDbEntity
  8
0
100
AcDbCircle
 10
1.502038790610242
 20
0.5821249283364783
 30
0.0
 40
0.004
  0
CIRCLE
  5
163E
330
1F
100
AcDbEntity
  8
0
100
AcDbCircle
 10
1.512038735661045
 20
0.5648043880219224
 30
0.0
 40
0.004
  0
CIRCLE
  5
163F
330
1F
100
AcDbEntity
  8
0
100
AcDbCircle
 10
1.522038763135649
 20
0.5821249122170446
 30
0.0
 40
0.004
  0
CIRCLE
  5
1640
330
1F
100
AcDbEntity
  8
0
100
AcDbCircle
 10
1.532038680711847
 20
0.5648043557830548
 30
0.0
 40
0.004
  0
CIRCLE
  5
1641
330
1F
100
AcDbEntity
  8
0
100
AcDbCircle
 10
1.542038708186452
 20
0.5821248799781774
 30
0.0
 40
0.004
  0
CIRCLE
  5
1642
330
1F
100
AcDbEntity
  8
0
100
AcDbCircle
 10
1.502038790610242
 20
0.6167659444878565
 30
0.0
 40
0.004
  0
CIRCLE
  5
1643
330
1F
100
AcDbEntity
  8
0
100
AcDbCircle
 10
1.512038735661045
 20
0.5994454041733001
 30
0.0
 40
0.004
  0
CIRCLE
  5
1644
330
1F
100
AcDbEntity
  8
0
100
AcDbCircle
 10
1.522038763135649
 20
0.6167659283684227
 30
0.0
 40
0.004
  0
CIRCLE
  5
1645
330
1F
100
AcDbEntity
  8
0
100
AcDbCircle
 10
1.532038680711847
 20
0.5994453719344325
 30
0.0
 40
0.004
  0
CIRCLE
  5
1646
330
1F
100
AcDbEntity
  8
0
100
AcDbCircle
 10
1.542038708186452
 20
0.6167658961295551
 30
0.0
 40
0.004
  0
CIRCLE
  5
1647
330
1F
100
AcDbEntity
  8
0
100
AcDbCircle
 10
1.502038790610242
 20
0.6514069606392338
 30
0.0
 40
0.004
  0
CIRCLE
  5
1648
330
1F
100
AcDbEntity
  8
0
100
AcDbCircle
 10
1.512038735661045
 20
0.6340864203246773
 30
0.0
 40
0.004
  0
CIRCLE
  5
1649
330
1F
100
AcDbEntity
  8
0
100
AcDbCircle
 10
1.522038763135649
 20
0.6514069445198
 30
0.0
 40
0.004
  0
CIRCLE
  5
164A
330
1F
100
AcDbEntity
  8
0
100
AcDbCircle
 10
1.532038680711847
 20
0.6340863880858102
 30
0.0
 40
0.004
  0
CIRCLE
  5
164B
330
1F
100
AcDbEntity
  8
0
100
AcDbCircle
 10
1.542038708186452
 20
0.6514069122809324
 30
0.0
 40
0.004
  0
CIRCLE
  5
164C
330
1F
100
AcDbEntity
  8
0
100
AcDbCircle
 10
1.502038790610242
 20
0.686047976790611
 30
0.0
 40
0.004
  0
CIRCLE
  5
164D
330
1F
100
AcDbEntity
  8
0
100
AcDbCircle
 10
1.512038735661045
 20
0.6687274364760551
 30
0.0
 40
0.004
  0
CIRCLE
  5
164E
330
1F
100
AcDbEntity
  8
0
100
AcDbCircle
 10
1.522038763135649
 20
0.6860479606711773
 30
0.0
 40
0.004
  0
CIRCLE
  5
164F
330
1F
100
AcDbEntity
  8
0
100
AcDbCircle
 10
1.532038680711847
 20
0.6687274042371875
 30
0.0
 40
0.004
  0
CIRCLE
  5
1650
330
1F
100
AcDbEntity
  8
0
100
AcDbCircle
 10
1.542038708186452
 20
0.6860479284323101
 30
0.0
 40
0.004
  0
CIRCLE
  5
1651
330
1F
100
AcDbEntity
  8
0
100
AcDbCircle
 10
1.502038790610242
 20
0.7206889929419888
 30
0.0
 40
0.004
  0
CIRCLE
  5
1652
330
1F
100
AcDbEntity
  8
0
100
AcDbCircle
 10
1.512038735661045
 20
0.7033684526274323
 30
0.0
 40
0.004
  0
CIRCLE
  5
1653
330
1F
100
AcDbEntity
  8
0
100
AcDbCircle
 10
1.522038763135649
 20
0.720688976822555
 30
0.0
 40
0.004
  0
CIRCLE
  5
1654
330
1F
100
AcDbEntity
  8
0
100
AcDbCircle
 10
1.532038680711847
 20
0.7033684203885647
 30
0.0
 40
0.004
  0
CIRCLE
  5
1655
330
1F
100
AcDbEntity
  8
0
100
AcDbCircle
 10
1.542038708186452
 20
0.7206889445836874
 30
0.0
 40
0.004
  0
CIRCLE
  5
1656
330
1F
100
AcDbEntity
  8
0
100
AcDbCircle
 10
1.502038790610242
 20
0.7553300090933665
 30
0.0
 40
0.004
  0
CIRCLE
  5
1657
330
1F
100
AcDbEntity
  8
0
100
AcDbCircle
 10
1.512038735661045
 20
0.73800946877881
 30
0.0
 40
0.004
  0
CIRCLE
  5
1658
330
1F
100
AcDbEntity
  8
0
100
AcDbCircle
 10
1.522038763135649
 20
0.7553299929739327
 30
0.0
 40
0.004
  0
CIRCLE
  5
1659
330
1F
100
AcDbEntity
  8
0
100
AcDbCircle
 10
1.532038680711847
 20
0.7380094365399425
 30
0.0
 40
0.004
  0
CIRCLE
  5
165A
330
1F
100
AcDbEntity
  8
0
100
AcDbCircle
 10
1.542038708186452
 20
0.7553299607350651
 30
0.0
 40
0.004
  0
CIRCLE
  5
165B
330
1F
100
AcDbEntity
  8
0
100
AcDbCircle
 10
1.502038790610242
 20
0.7899710252447437
 30
0.0
 40
0.004
  0
CIRCLE
  5
165C
330
1F
100
AcDbEntity
  8
0
100
AcDbCircle
 10
1.512038735661045
 20
0.7726504849301873
 30
0.0
 40
0.004
  0
CIRCLE
  5
165D
330
1F
100
AcDbEntity
  8
0
100
AcDbCircle
 10
1.522038763135649
 20
0.7899710091253099
 30
0.0
 40
0.004
  0
CIRCLE
  5
165E
330
1F
100
AcDbEntity
  8
0
100
AcDbCircle
 10
1.532038680711847
 20
0.7726504526913197
 30
0.0
 40
0.004
  0
CIRCLE
  5
165F
330
1F
100
AcDbEntity
  8
0
100
AcDbCircle
 10
1.542038708186452
 20
0.7899709768864424
 30
0.0
 40
0.004
  0
CIRCLE
  5
1660
330
1F
100
AcDbEntity
  8
0
100
AcDbCircle
 10
1.512038735661045
 20
0.807291501081565
 30
0.0
 40
0.004
  0
CIRCLE
  5
1661
330
1F
100
AcDbEntity
  8
0
100
AcDbCircle
 10
1.532038680711847
 20
0.8072914688426974
 30
0.0
 40
0.004
  0
CIRCLE
  5
1662
330
1F
100
AcDbEntity
  8
0
100
AcDbCircle
 10
1.502038790610242
 20
0.8592530575474992
 30
0.0
 40
0.004
  0
CIRCLE
  5
1663
330
1F
100
AcDbEntity
  8
0
100
AcDbCircle
 10
1.512038735661045
 20
0.8419325172329427
 30
0.0
 40
0.004
  0
CIRCLE
  5
1664
330
1F
100
AcDbEntity
  8
0
100
AcDbCircle
 10
1.522038763135649
 20
0.8592530414280654
 30
0.0
 40
0.004
  0
CIRCLE
  5
1665
330
1F
100
AcDbEntity
  8
0
100
AcDbCircle
 10
1.532038680711847
 20
0.8419324849940752
 30
0.0
 40
0.004
  0
CIRCLE
  5
1666
330
1F
100
AcDbEntity
  8
0
100
AcDbCircle
 10
1.542038708186452
 20
0.8592530091891978
 30
0.0
 40
0.004
  0
CIRCLE
  5
1667
330
1F
100
AcDbEntity
  8
0
100
AcDbCircle
 10
1.502038790610242
 20
0.8938940736988763
 30
0.0
 40
0.004
  0
CIRCLE
  5
1668
330
1F
100
AcDbEntity
  8
0
100
AcDbCircle
 10
1.512038735661045
 20
0.8765735333843199
 30
0.0
 40
0.004
  0
CIRCLE
  5
1669
330
1F
100
AcDbEntity
  8
0
100
AcDbCircle
 10
1.522038763135649
 20
0.8938940575794426
 30
0.0
 40
0.004
  0
CIRCLE
  5
166A
330
1F
100
AcDbEntity
  8
0
100
AcDbCircle
 10
1.532038680711847
 20
0.8765735011454523
 30
0.0
 40
0.004
  0
CIRCLE
  5
166B
330
1F
100
AcDbEntity
  8
0
100
AcDbCircle
 10
1.542038708186452
 20
0.893894025340575
 30
0.0
 40
0.004
  0
CIRCLE
  5
166C
330
1F
100
AcDbEntity
  8
0
100
AcDbCircle
 10
1.512038735661045
 20
0.9112145495356976
 30
0.0
 40
0.004
  0
CIRCLE
  5
166D
330
1F
100
AcDbEntity
  8
0
100
AcDbCircle
 10
1.532038680711847
 20
0.91121451729683
 30
0.0
 40
0.004
  0
CIRCLE
  5
166E
330
1F
100
AcDbEntity
  8
0
100
AcDbCircle
 10
1.502090588838531
 20
0.8245223879398078
 30
0.0
 40
0.004
  0
CIRCLE
  5
166F
330
1F
100
AcDbEntity
  8
0
100
AcDbCircle
 10
1.522090533889334
 20
0.8245223557009403
 30
0.0
 40
0.004
  0
CIRCLE
  5
1670
330
1F
100
AcDbEntity
  8
0
100
AcDbCircle
 10
1.542090478940136
 20
0.8245223234620727
 30
0.0
 40
0.004
  0
CIRCLE
  5
169B
330
1F
100
AcDbEntity
  8
0
100
AcDbCircle
 10
1.502038708186441
 20
0.9285350414919527
 30
0.0
 40
0.004
  0
CIRCLE
  5
169C
330
1F
100
AcDbEntity
  8
0
100
AcDbCircle
 10
1.522038680711847
 20
0.9285350253725189
 30
0.0
 40
0.004
  0
CIRCLE
  5
169D
330
1F
100
AcDbEntity
  8
0
100
AcDbCircle
 10
1.542038625762651
 20
0.9285349931336513
 30
0.0
 40
0.004
  0
CIRCLE
  5
16A6
330
1F
100
AcDbEntity
  8
0
100
AcDbCircle
 10
1.182038818084837
 20
0.4782018960017799
 30
0.0
 40
0.004
  0
LEADER
  5
1739
102
{ACAD_XDICTIONARY
360
173B
102
}
102
{ACAD_REACTORS
330
173C
102
}
330
1F
100
AcDbEntity
  8
0
100
AcDbLeader
  3
Dan's Dim Style
 73
     0
 40
0.0324092769440655
 41
0.1947094133697135
 76
     3
 10
1.322038818084836
 20
0.9325351059696879
 30
0.0
 10
1.26965896320185
 20
0.9656123334326034
 30
0.0
 10
1.210440188700331
 20
0.9656123334326034
 30
0.0
340
173A
  0
MTEXT
  5
173A
102
{ACAD_REACTORS
330
1739
102
}
330
1F
100
AcDbEntity
  8
0
100
AcDbMText
 10
1.202940188700331
 20
0.9656123334326034
 30
0.0
 40
0.012
 41
0.2102267267052941
 46
0.0
 71
     6
 72
     1
  1
\pxqc;Multiple Plated Thru Holes\PTo Ground
 73
     1
 44
1.0
  0
VIEWPORT
  5
127F
102
{ACAD_XDICTIONARY
360
1280
102
}
330
58
100
AcDbEntity
 67
     1
  8
0
100
AcDbViewport
 10
6.239049718148631
 20
4.913957326133431
 30
0.0
 40
26.05627506595727
 41
10.57010075561948
 68
     1
 69
     1
 12
6.239049718148631
 22
4.913957326133431
 13
0.0
 23
0.0
 14
0.5
 24
0.5
 15
0.5
 25
0.5
 16
0.0
 26
0.0
 36
1.0
 17
0.0
 27
0.0
 37
0.0
 42
50.0
 43
0.0
 44
0.0
 45
10.57010075561948
 50
0.0
 51
0.0
 72
  1000
 90
   819232
  1

281
     0
 71
     1
 74
     0
110
0.0
120
0.0
130
0.0
111
1.0
121
0.0
131
0.0
112
0.0
122
1.0
132
0.0
 79
     0
146
0.0
170
     0
 61
     5
348
9F
292
     1
282
     1
141
0.0
142
0.0
 63
   250
421
  3355443
  0
VIEWPORT
  5
1283
102
{ACAD_XDICTIONARY
360
1284
102
}
330
58
100
AcDbEntity
 67
     1
  8
0
100
AcDbViewport
 10
5.249999761581421
 20
3.999999761581421
 30
0.0
 40
8.399999618530275
 41
6.399999618530274
 68
     2
 69
     2
 12
1.315246604517156
 22
0.6874008343874021
 13
0.0
 23
0.0
 14
0.5
 24
0.5
 15
0.5
 25
0.5
 16
0.0
 26
0.0
 36
1.0
 17
0.0
 27
0.0
 37
0.0
 42
50.0
 43
0.0
 44
0.0
 45
0.8381558873140368
 50
0.0
 51
0.0
 72
  1000
 90
   819296
  1

281
     0
 71
     1
 74
     0
110
0.0
120
0.0
130
0.0
111
1.0
121
0.0
131
0.0
112
0.0
122
1.0
132
0.0
 79
     0
146
0.0
170
     0
 61
     5
348
9F
292
     1
282
     1
141
0.0
142
0.0
 63
   250
421
  3355443
  0
ENDSEC
  0
SECTION
  2
OBJECTS
  0
DICTIONARY
  5
C
330
0
100
AcDbDictionary
281
     1
  3
ACAD_CIP_PREVIOUS_PRODUCT_INFO
350
1A5
  3
ACAD_COLOR
350
73
  3
ACAD_DETAILVIEWSTYLE
350
1AB
  3
ACAD_GROUP
350
D
  3
ACAD_LAYOUT
350
1A
  3
ACAD_MATERIAL
350
72
  3
ACAD_MLEADERSTYLE
350
D7
  3
ACAD_MLINESTYLE
350
17
  3
ACAD_PLOTSETTINGS
350
19
  3
ACAD_PLOTSTYLENAME
350
E
  3
ACAD_SCALELIST
350
B6
  3
ACAD_SECTIONVIEWSTYLE
350
1A8
  3
ACAD_TABLESTYLE
350
86
  3
ACAD_VISUALSTYLE
350
99
  3
ACDB_RECOMPOSE_DATA
350
175B
  3
AcDbVariableDictionary
350
66
  3
AEC_PROPERTY_SET_DEFS
350
354
  0
DICTIONARY
  5
18E
330
2
100
AcDbDictionary
280
     1
281
     1
  3
ACAD_LAYERSTATES
360
18F
  0
DICTIONARY
  5
E6
330
10
100
AcDbDictionary
280
     1
281
     1
  0
DICTIONARY
  5
669
330
668
100
AcDbDictionary
280
     1
281
     1
  0
DICTIONARY
  5
12A2
330
12A1
100
AcDbDictionary
280
     1
281
     1
  0
DICTIONARY
  5
15D
330
1F
100
AcDbDictionary
280
     1
281
     1
  3
ACAD_SORTENTS
360
A50
  0
DICTIONARY
  5
67F
330
67C
100
AcDbDictionary
280
     1
281
     1
  3
ACAD_SORTENTS
360
680
  0
DICTIONARY
  5
111A
330
1111
100
AcDbDictionary
280
     1
281
     1
  3
ACAD_SORTENTS
360
111B
  0
DICTIONARY
  5
168E
330
1689
100
AcDbDictionary
280
     1
281
     1
  3
ACAD_SORTENTS
360
168F
  0
DICTIONARY
  5
9E6
330
9E5
100
AcDbDictionary
280
     1
281
     1
  3
ACAD_DIMASSOC
360
9E7
  0
DICTIONARY
  5
14B5
330
14A7
100
AcDbDictionary
280
     1
281
     1
  3
ACAD_DIMASSOC
360
14C0
  0
DICTIONARY
  5
173B
330
1739
100
AcDbDictionary
280
     1
281
     1
  3
ACAD_DIMASSOC
360
173C
  0
DICTIONARY
  5
1280
330
127F
100
AcDbDictionary
280
     1
281
     1
  3
ASDK_XREC_ANNOTATION_SCALE_INFO
360
1281
  0
DICTIONARY
  5
1284
330
1283
100
AcDbDictionary
280
     1
281
     1
  3
ASDK_XREC_ANNOTATION_SCALE_INFO
360
1285
  0
XRECORD
  5
1A5
102
{ACAD_REACTORS
330
C
102
}
330
C
100
AcDbXrecord
280
     1
300
ACD
300
2021
300

  0
DICTIONARY
  5
73
102
{ACAD_REACTORS
330
C
102
}
330
C
100
AcDbDictionary
281
     1
  0
DICTIONARY
  5
1AB
102
{ACAD_REACTORS
330
C
102
}
330
C
100
AcDbDictionary
281
     1
  3
Imperial24
350
1AC
  0
DICTIONARY
  5
D
102
{ACAD_REACTORS
330
C
102
}
330
C
100
AcDbDictionary
281
     1
  0
DICTIONARY
  5
1A
102
{ACAD_REACTORS
330
C
102
}
330
C
100
AcDbDictionary
281
     1
  3
Layout1
350
59
  3
Layout2
350
5E
  3
Model
350
22
  0
DICTIONARY
  5
72
102
{ACAD_REACTORS
330
C
102
}
330
C
100
AcDbDictionary
281
     1
  3
ByBlock
350
97
  3
ByLayer
350
96
  3
Global
350
98
  0
DICTIONARY
  5
D7
102
{ACAD_REACTORS
330
C
102
}
330
C
100
AcDbDictionary
281
     1
  3
Annotative
350
E5
  3
Standard
350
D8
  0
DICTIONARY
  5
17
102
{ACAD_REACTORS
330
C
102
}
330
C
100
AcDbDictionary
281
     1
  3
Standard
350
18
  0
DICTIONARY
  5
19
102
{ACAD_REACTORS
330
C
102
}
330
C
100
AcDbDictionary
281
     1
  0
ACDBDICTIONARYWDFLT
  5
E
102
{ACAD_REACTORS
330
C
102
}
330
C
100
AcDbDictionary
281
     1
  3
Normal
350
F
100
AcDbDictionaryWithDefault
340
F
  0
DICTIONARY
  5
B6
102
{ACAD_REACTORS
330
C
102
}
330
C
100
AcDbDictionary
281
     1
  3
A0
350
B7
  3
A1
350
124
  3
A2
350
125
  3
A3
350
126
  3
A4
350
127
  3
A5
350
128
  3
A6
350
129
  3
A7
350
12A
  3
A8
350
12B
  3
A9
350
12C
  3
B0
350
12D
  3
B1
350
12E
  3
B2
350
12F
  3
B3
350
130
  3
B4
350
131
  3
B5
350
132
  3
B6
350
133
  3
B7
350
134
  3
B8
350
135
  3
B9
350
136
  3
C0
350
137
  3
C1
350
138
  3
C2
350
139
  3
C3
350
13A
  3
C4
350
13B
  3
C5
350
13C
  3
C6
350
13D
  3
C7
350
13E
  3
C8
350
13F
  3
C9
350
140
  3
D0
350
141
  3
D1
350
142
  3
D2
350
143
  0
DICTIONARY
  5
1A8
102
{ACAD_REACTORS
330
C
102
}
330
C
100
AcDbDictionary
281
     1
  3
Imperial24
350
1AA
  0
DICTIONARY
  5
86
102
{ACAD_REACTORS
330
C
102
}
330
C
100
AcDbDictionary
281
     1
  3
Standard
350
87
  0
DICTIONARY
  5
99
102
{ACAD_REACTORS
330
C
102
}
330
C
100
AcDbDictionary
281
     1
  3
2dWireframe
350
9F
  3
Basic
350
9E
  3
Brighten
350
A5
  3
ColorChange
350
A9
  3
Conceptual
350
A2
  3
Dim
350
A4
  3
EdgeColorOff
350
175
  3
Facepattern
350
A8
  3
Flat
350
9A
  3
FlatWithEdges
350
9B
  3
Gouraud
350
9C
  3
GouraudWithEdges
350
9D
  3
Hidden
350
A1
  3
JitterOff
350
173
  3
Linepattern
350
A7
  3
OverhangOff
350
174
  3
Realistic
350
A3
  3
Shaded
350
182
  3
Shaded with edges
350
181
  3
Shades of Gray
350
17E
  3
Sketchy
350
17F
  3
Thicken
350
A6
  3
Wireframe
350
A0
  3
X-Ray
350
180
  0
XRECORD
  5
175B
102
{ACAD_REACTORS
330
C
102
}
330
C
100
AcDbXrecord
280
     1
 90
        1
330
87
  0
DICTIONARY
  5
66
102
{ACAD_REACTORS
330
C
102
}
330
C
100
AcDbDictionary
281
     1
  3
CANNOSCALE
350
F0
  3
CMLEADERSTYLE
350
EF
  3
CTABLESTYLE
350
89
  3
CVIEWDETAILSTYLE
350
1B7
  3
CVIEWSECTIONSTYLE
350
1B8
  3
DIMASSOC
350
67
  3
HIDETEXT
350
6B
  3
HPCOLOR
350
A52
  3
HPTRANSPARENCY
350
A51
  3
LAYEREVAL
350
14D
  3
LAYERNOTIFY
350
14E
  0
DICTIONARY
  5
354
102
{ACAD_REACTORS
330
C
102
}
330
C
100
AcDbDictionary
281
     1
  0
DICTIONARY
  5
18F
102
{ACAD_REACTORS
330
18E
102
}
330
18E
100
AcDbDictionary
281
     1
  0
SORTENTSTABLE
  5
A50
102
{ACAD_REACTORS
330
15D
102
}
330
15D
100
AcDbSortentsTable
330
1F
331
68B
  5
769
331
68C
  5
A53
331
7B1
  5
A64
331
9E4
  5
E74
331
9E5
  5
E78
331
A53
  5
7B1
331
A64
  5
E7A
331
E78
  5
E7C
331
E7A
  5
E7E
331
E7C
  5
E80
331
E7E
  5
E84
331
E82
  5
E85
331
E83
  5
E86
331
E84
  5
E87
331
E85
  5
E8C
331
E8A
  5
E8E
331
E8C
  5
E91
331
E8F
  5
E93
331
E91
  5
E94
331
E92
  5
E95
331
E93
  5
E96
331
E94
  5
E9A
331
E98
  5
E9C
331
E9A
  5
E9E
331
E9C
  5
EA0
331
E9E
  5
EA2
331
EA0
  5
EA4
331
EA2
  5
EA6
331
EA4
  5
EA8
331
EA6
  5
EAC
331
EAA
  5
EAF
331
EAC
  5
EB0
331
EAD
  5
EB1
331
EAF
  5
EB3
331
EB1
  5
EB5
331
EB3
  5
EB7
331
EB5
  5
EBB
331
EB9
  5
EBC
331
EBA
  5
EBD
331
EBB
  5
EBE
331
EBC
  5
EC3
331
EC1
  5
EC5
331
EC3
  5
EC8
331
EC6
  5
ECA
331
EC8
  5
ECB
331
EC9
  5
ECC
331
ECA
  5
ECD
331
ECB
  5
ED1
331
ECF
  5
ED3
331
ED1
  5
ED5
331
ED3
  5
ED7
331
ED5
  5
ED9
331
ED7
  5
EDB
331
ED9
  5
EDD
331
EDB
  5
EDF
331
EDD
  5
EE3
331
EE1
  5
EE8
331
EE3
  5
EEB
331
EE4
  5
EEC
331
EE8
  5
EED
331
EEB
  5
EEE
331
EEC
  5
EEF
331
EED
  5
EF0
331
EEE
  5
EF1
331
EEF
  5
EF3
331
EF0
  5
EF4
331
EF1
  5
EF5
331
EF3
  5
EFA
331
EF4
  5
EFB
331
EF5
  5
EFC
331
EFA
  5
EFD
331
EFB
  5
EFE
331
EFC
  5
EFF
331
EFD
  5
F00
331
EFE
  5
F01
331
EFF
  5
F02
331
F00
  5
F03
331
F01
  5
F04
331
F02
  5
F05
331
F03
  5
F06
331
F04
  5
F07
331
F05
  5
F08
331
F06
  5
F09
331
F07
  5
F0A
331
F08
  5
F0B
331
F09
  5
F0D
331
F0A
  5
F0E
331
F0B
  5
F0F
331
F0D
  5
F10
331
F0E
  5
F11
331
F0F
  5
F12
331
F10
  5
F13
331
F11
  5
F14
331
F12
  5
F15
331
F13
  5
F18
331
F14
  5
F19
331
F15
  5
F1A
331
F18
  5
F1B
331
F19
  5
F1C
331
F1A
  5
F1D
331
F1B
  5
F1E
331
F1C
  5
F1F
331
F1D
  5
F20
331
F1E
  5
F21
331
F1F
  5
F22
331
F20
  5
F23
331
F21
  5
F24
331
F22
  5
F25
331
F23
  5
F26
331
F24
  5
F27
331
F25
  5
F28
331
F26
  5
F29
331
F27
  5
F2A
331
F28
  5
F2B
331
F29
  5
F2C
331
F2A
  5
F2D
331
F2B
  5
F2E
331
F2C
  5
F2F
331
F2D
  5
F30
331
F2E
  5
F31
331
F2F
  5
F32
331
F30
  5
F33
331
F31
  5
F34
331
F32
  5
F35
331
F33
  5
F36
331
F34
  5
F37
331
F35
  5
F38
331
F36
  5
F39
331
F37
  5
F3A
331
F38
  5
F3B
331
F39
  5
F3C
331
F3A
  5
F3D
331
F3B
  5
F3E
331
F3C
  5
F45
331
F3D
  5
F46
331
F3E
  5
F54
331
F45
  5
F55
331
F46
  5
F56
331
F54
  5
F57
331
F55
  5
F58
331
F56
  5
F59
331
F57
  5
F5A
331
F58
  5
F5B
331
F59
  5
F5C
331
F5A
  5
F5D
331
F5B
  5
F5E
331
F5C
  5
F5F
331
F5D
  5
F60
331
F5E
  5
F61
331
F5F
  5
F62
331
F60
  5
F63
331
F61
  5
F64
331
F62
  5
F65
331
F63
  5
F66
331
F64
  5
F67
331
F65
  5
F68
331
F66
  5
F69
331
F67
  5
F6A
331
F68
  5
F6B
331
F69
  5
F6C
331
F6A
  5
F6D
331
F6B
  5
F6E
331
F6C
  5
F6F
331
F6D
  5
F70
331
F6E
  5
F71
331
F6F
  5
F73
331
F70
  5
F74
331
F71
  5
F79
331
F73
  5
F7A
331
F74
  5
F7B
331
F79
  5
F7C
331
F7A
  5
F7D
331
F7B
  5
F7E
331
F7C
  5
F7F
331
F7D
  5
F80
331
F7E
  5
F81
331
F7F
  5
F82
331
F80
  5
F83
331
F81
  5
F84
331
F82
  5
F85
331
F83
  5
F86
331
F84
  5
F87
331
F85
  5
F88
331
F86
  5
F89
331
F87
  5
F8A
331
F88
  5
F8B
331
F89
  5
F8C
331
F8A
  5
F8D
331
F8B
  5
F8E
331
F8C
  5
F8F
331
F8D
  5
F90
331
F8E
  5
F91
331
F8F
  5
F92
331
F90
  5
F93
331
F91
  5
F94
331
F92
  5
F95
331
F93
  5
F96
331
F94
  5
F98
331
F95
  5
F99
331
F96
  5
F9F
331
F98
  5
FA0
331
F99
  5
FA1
331
F9F
  5
FA2
331
FA0
  5
FA3
331
FA1
  5
FA4
331
FA2
  5
FA5
331
FA3
  5
FA6
331
FA4
  5
FA7
331
FA5
  5
FA8
331
FA6
  5
FA9
331
FA7
  5
FAA
331
FA8
  5
FAB
331
FA9
  5
FAC
331
FAA
  5
FAD
331
FAB
  5
FAE
331
FAC
  5
FAF
331
FAD
  5
FB0
331
FAE
  5
FB1
331
FAF
  5
FB2
331
FB0
  5
FB3
331
FB1
  5
FB4
331
FB2
  5
FB5
331
FB3
  5
FB6
331
FB4
  5
FB7
331
FB5
  5
FB8
331
FB6
  5
FB9
331
FB7
  5
FBA
331
FB8
  5
FBB
331
FB9
  5
FBC
331
FBA
  5
FBE
331
FBB
  5
FBF
331
FBC
  5
FC5
331
FBE
  5
FC6
331
FBF
  5
FC7
331
FC5
  5
FC8
331
FC6
  5
FC9
331
FC7
  5
FCA
331
FC8
  5
FCB
331
FC9
  5
FCC
331
FCA
  5
FCD
331
FCB
  5
FCE
331
FCC
  5
FCF
331
FCD
  5
FD0
331
FCE
  5
FD1
331
FCF
  5
FD2
331
FD0
  5
FD3
331
FD1
  5
FD4
331
FD2
  5
FD5
331
FD3
  5
FD6
331
FD4
  5
FD7
331
FD5
  5
FD8
331
FD6
  5
FD9
331
FD7
  5
FDA
331
FD8
  5
FDB
331
FD9
  5
FDC
331
FDA
  5
FDD
331
FDB
  5
FDE
331
FDC
  5
FDF
331
FDD
  5
FE0
331
FDE
  5
FE1
331
FDF
  5
FE2
331
FE0
  5
FE4
331
FE1
  5
FE5
331
FE2
  5
FEB
331
FE4
  5
FEC
331
FE5
  5
FED
331
FEB
  5
FEE
331
FEC
  5
FEF
331
FED
  5
FF0
331
FEE
  5
FF1
331
FEF
  5
FF2
331
FF0
  5
FF3
331
FF1
  5
FF4
331
FF2
  5
FF5
331
FF3
  5
FF6
331
FF4
  5
FF7
331
FF5
  5
FF8
331
FF6
  5
FF9
331
FF7
  5
FFA
331
FF8
  5
FFB
331
FF9
  5
FFC
331
FFA
  5
FFD
331
FFB
  5
FFE
331
FFC
  5
FFF
331
FFD
  5
1000
331
FFE
  5
1001
331
FFF
  5
1002
331
1000
  5
1003
331
1001
  5
1004
331
1002
  5
1005
331
1003
  5
1006
331
1004
  5
1007
331
1005
  5
1008
331
1006
  5
100A
331
1007
  5
100B
331
1008
  5
1011
331
100A
  5
1012
331
100B
  5
1013
331
1011
  5
1014
331
1012
  5
1015
331
1013
  5
1016
331
1014
  5
1017
331
1015
  5
1018
331
1016
  5
1019
331
1017
  5
101A
331
1018
  5
101B
331
1019
  5
101C
331
101A
  5
101D
331
101B
  5
101E
331
101C
  5
101F
331
101D
  5
1020
331
101E
  5
1021
331
101F
  5
1022
331
1020
  5
1023
331
1021
  5
1024
331
1022
  5
1025
331
1023
  5
1026
331
1024
  5
1027
331
1025
  5
1028
331
1026
  5
1029
331
1027
  5
102A
331
1028
  5
102B
331
1029
  5
102C
331
102A
  5
102D
331
102B
  5
102E
331
102C
  5
1030
331
102D
  5
1031
331
102E
  5
1037
331
1030
  5
1038
331
1031
  5
1039
331
1037
  5
103A
331
1038
  5
103B
331
1039
  5
103C
331
103A
  5
103D
331
103B
  5
103E
331
103C
  5
103F
331
103D
  5
1040
331
103E
  5
1041
331
103F
  5
1042
331
1040
  5
1043
331
1041
  5
1044
331
1042
  5
1045
331
1043
  5
1047
331
1044
  5
104D
331
1045
  5
104E
331
1047
  5
104F
331
104D
  5
1050
331
104E
  5
1051
331
104F
  5
1052
331
1050
  5
1053
331
1051
  5
1054
331
1052
  5
1055
331
1053
  5
1056
331
1054
  5
1057
331
1055
  5
1058
331
1056
  5
1059
331
1057
  5
105A
331
1058
  5
105B
331
1059
  5
105C
331
105A
  5
105D
331
105B
  5
105E
331
105C
  5
105F
331
105D
  5
1060
331
105E
  5
1061
331
105F
  5
1062
331
1060
  5
1063
331
1061
  5
1064
331
1062
  5
1065
331
1063
  5
1066
331
1064
  5
1067
331
1065
  5
1068
331
1066
  5
1069
331
1067
  5
106A
331
1068
  5
106C
331
1069
  5
106D
331
106A
  5
1073
331
106C
  5
1074
331
106D
  5
1075
331
1073
  5
1076
331
1074
  5
1077
331
1075
  5
1078
331
1076
  5
1079
331
1077
  5
107A
331
1078
  5
107B
331
1079
  5
107C
331
107A
  5
107D
331
107B
  5
107E
331
107C
  5
107F
331
107D
  5
1080
331
107E
  5
1081
331
107F
  5
1082
331
1080
  5
1083
331
1081
  5
1084
331
1082
  5
1085
331
1083
  5
1086
331
1084
  5
1087
331
1085
  5
1088
331
1086
  5
1089
331
1087
  5
108A
331
1088
  5
108B
331
1089
  5
108C
331
108A
  5
108D
331
108B
  5
108E
331
108C
  5
108F
331
108D
  5
1090
331
108E
  5
1092
331
108F
  5
1093
331
1090
  5
1099
331
1092
  5
109A
331
1093
  5
109B
331
1099
  5
109C
331
109A
  5
10A1
331
109B
  5
10A3
331
109C
  5
10A4
331
10A1
  5
10A5
331
10A3
  5
10A6
331
10A4
  5
10AB
331
10A5
  5
10AD
331
10A6
  5
10AE
331
10AB
  5
10AF
331
10AD
  5
10B0
331
10AE
  5
10B5
331
10AF
  5
10B8
331
10B0
  5
10E7
331
10B5
  5
10E8
331
10B8
  5
10E9
331
10E7
  5
10EA
331
10E8
  5
10EB
331
10E9
  5
10EC
331
10EA
  5
10ED
331
10EB
  5
10EE
331
10EC
  5
10EF
331
10ED
  5
10F0
331
10EE
  5
10F1
331
10EF
  5
10F2
331
10F0
  5
10F3
331
10F1
  5
10F4
331
10F2
  5
10F5
331
10F3
  5
10F6
331
10F4
  5
10F8
331
10F5
  5
1132
331
10F6
  5
1175
331
10F8
  5
1176
331
1132
  5
11A0
331
1176
  5
74D
331
11A0
  5
11CE
331
11CE
  5
11CF
331
11CF
  5
11D0
331
11D0
  5
11DD
331
11DD
  5
11DE
331
11DE
  5
11E0
331
11E0
  5
11E1
331
11E1
  5
11E3
331
11E3
  5
11E4
331
11E4
  5
11EA
331
11EA
  5
11EB
331
11EB
  5
11EC
331
11EC
  5
11FE
331
11FE
  5
121E
331
12B3
  5
12EF
331
12EF
  5
14A7
331
14A7
  5
158F
331
158F
  5
1590
331
1590
  5
1591
331
1591
  5
1592
331
1592
  5
1593
331
1593
  5
1594
331
1594
  5
1595
331
1595
  5
1596
331
1596
  5
1597
331
1597
  5
1598
331
1598
  5
1599
331
1599
  5
159A
331
159A
  5
159B
331
159B
  5
159C
331
159C
  5
159D
331
159D
  5
159E
331
159E
  5
159F
331
159F
  5
15A0
331
15A0
  5
15A1
331
15A1
  5
15A2
331
15A2
  5
15A3
331
15A3
  5
15A4
331
15A4
  5
15A5
331
15A5
  5
15A6
331
15A6
  5
15A7
331
15A7
  5
15A8
331
15A8
  5
15A9
331
15A9
  5
15AA
331
15AA
  5
15AB
331
15AB
  5
15AC
331
15AC
  5
15AD
331
15AD
  5
15AE
331
15AE
  5
15AF
331
15AF
  5
15B0
331
15B0
  5
15B1
331
15B1
  5
15B2
331
15B2
  5
15B3
331
15B3
  5
15B4
331
15B4
  5
15B5
331
15B5
  5
15B6
331
15B6
  5
15B7
331
15B7
  5
15B8
331
15B8
  5
15B9
331
15B9
  5
15BA
331
15BA
  5
15BB
331
15BB
  5
15BC
331
15BC
  5
15BD
331
15BD
  5
15BE
331
15BE
  5
15BF
331
15BF
  5
15C0
331
15C0
  5
15C1
331
15C1
  5
15C2
331
15C2
  5
15C5
331
15C5
  5
15C6
331
15C6
  5
15C7
331
15C7
  5
15C8
331
15C8
  5
15C9
331
15C9
  5
15CA
331
15CA
  5
15CB
331
15CB
  5
15CC
331
15CC
  5
15CD
331
15CD
  5
15CE
331
15CE
  5
15CF
331
15CF
  5
15D0
331
15D0
  5
15D1
331
15D1
  5
15D2
331
15D2
  5
15D3
331
15D3
  5
1630
331
1630
  5
1631
331
1631
  5
1632
331
1632
  5
1633
331
1633
  5
1634
331
1634
  5
1635
331
1635
  5
1636
331
1636
  5
1637
331
1637
  5
1638
331
1638
  5
1639
331
1639
  5
163A
331
163A
  5
163B
331
163B
  5
163C
331
163C
  5
163D
331
163D
  5
163E
331
163E
  5
163F
331
163F
  5
1640
331
1640
  5
1641
331
1641
  5
1642
331
1642
  5
1643
331
1643
  5
1644
331
1644
  5
1645
331
1645
  5
1646
331
1646
  5
1647
331
1647
  5
1648
331
1648
  5
1649
331
1649
  5
164A
331
164A
  5
164B
331
164B
  5
164C
331
164C
  5
164D
331
164D
  5
164E
331
164E
  5
164F
331
164F
  5
1650
331
1650
  5
1651
331
1651
  5
1652
331
1652
  5
1653
331
1653
  5
1654
331
1654
  5
1655
331
1655
  5
1656
331
1656
  5
1657
331
1657
  5
1658
331
1658
  5
1659
331
1659
  5
165A
331
165A
  5
165B
331
165B
  5
165C
331
165C
  5
165D
331
165D
  5
165E
331
165E
  5
165F
331
165F
  5
1660
331
1660
  5
1661
331
1661
  5
1662
331
1662
  5
1663
331
1663
  5
1664
331
1664
  5
1665
331
1665
  5
1666
331
1666
  5
1667
331
1667
  5
1668
331
1668
  5
1669
331
1669
  5
166A
331
166A
  5
166B
331
166B
  5
166C
331
166C
  5
166D
331
166D
  5
166E
331
166E
  5
166F
331
166F
  5
1670
331
1670
  5
169B
331
169B
  5
169C
331
169C
  5
169D
331
169D
  5
16A6
331
16A6
  5
1710
  0
SORTENTSTABLE
  5
680
102
{ACAD_REACTORS
330
67F
102
}
330
67F
100
AcDbSortentsTable
330
67C
  0
SORTENTSTABLE
  5
111B
102
{ACAD_REACTORS
330
111A
102
}
330
111A
100
AcDbSortentsTable
330
1111
  0
SORTENTSTABLE
  5
168F
102
{ACAD_REACTORS
330
168E
102
}
330
168E
100
AcDbSortentsTable
330
1689
  0
DIMASSOC
  5
9E7
102
{ACAD_REACTORS
330
9E6
102
}
330
9E6
100
AcDbDimAssoc
330
9E5
 90
        2
 70
     0
 71
     0
  1
AcDbOsnapPointRef
 72
     3
331
9E4
 73
     2
 91
        0
 40
0.0
 10
0.0
 20
0.0
 30
0.0
 75
     0
  0
DIMASSOC
  5
14C0
102
{ACAD_REACTORS
330
14B5
102
}
330
14B5
100
AcDbDimAssoc
330
14A7
 90
        3
 70
     0
 71
     0
  1
AcDbOsnapPointRef
 72
     1
331
68C
 73
     2
 91
        4
 40
1.0
 10
1.404675798007463
 20
0.5669039480493554
 30
0.0
 75
     0
  1
AcDbOsnapPointRef
 72
     1
331
11A0
 73
     2
 91
        1
 40
0.9999999999999998
 10
1.36157468904165
 20
0.532032240570014
 30
0.0
 75
     0
  0
DIMASSOC
  5
173C
102
{ACAD_REACTORS
330
173B
102
}
330
173B
100
AcDbDimAssoc
330
1739
 90
        1
 70
     0
 71
     0
  1
AcDbOsnapPointRef
 72
     5
331
10A5
 73
     2
 91
        0
 40
1.570796326794896
 10
0.0
 20
0.0
 30
0.0
 75
     0
  0
XRECORD
  5
1281
102
{ACAD_REACTORS
330
1280
102
}
330
1280
100
AcDbXrecord
280
     1
 90
        1
340
B7
  0
XRECORD
  5
1285
102
{ACAD_REACTORS
330
1284
102
}
330
1284
100
AcDbXrecord
280
     1
 90
        1
340
B7
  0
ACDBDETAILVIEWSTYLE
  5
1AC
102
{ACAD_REACTORS
330
1AB
102
}
330
1AB
100
AcDbModelDocViewStyle
 70
     0
  3
Imperial24
290
     0
300
Imperial24
 90
        0
100
AcDbDetailViewStyle
 70
     0
 71
     0
 90
        3
 71
     1
340
11
 62
   256
 40
0.24
340
0
 62
   256
 40
0.24
300

 40
0.36
280
     3
 71
     2
340
16
 90
       25
 62
   256
 71
     3
340
11
 62
   256
 40
0.24
 90
        1
 40
0.75
 90
        1
300
%<\AcVar ViewType \f "%tc1">% %<\AcVar ViewDetailId>%\PSCALE %<\AcVar ViewScale \f "%sn">%
 71
     4
340
16
 90
       25
 62
   256
340
16
 90
       25
 62
   256
280
     0
  0
LAYOUT
  5
59
102
{ACAD_REACTORS
330
1A
102
}
330
1A
100
AcDbPlotSettings
  1

  2
None
  4
Letter_(8.50_x_11.00_Inches)
  6

 40
6.349999904632568
 41
6.349999904632568
 42
6.350006103515625
 43
6.350006103515625
 44
215.8999938964844
 45
279.3999938964844
 46
0.0
 47
0.0
 48
0.0
 49
0.0
140
0.0
141
0.0
142
1.0
143
1.0
 70
   688
 72
     0
 73
     1
 74
     5
  7

 75
    16
147
1.0
 76
     0
 77
     2
 78
   300
148
0.0
149
0.0
100
AcDbLayout
  1
Layout1
 70
     1
 71
     1
 10
-0.2500002402958907
 20
-0.2499999962453767
 11
10.74999951940822
 21
8.249999763458733
 12
0.0
 22
0.0
 32
0.0
 14
1.049999952316284
 24
0.7999999523162842
 34
0.0
 15
9.449999570846559
 25
7.199999570846558
 35
0.0
146
0.0
 13
0.0
 23
0.0
 33
0.0
 16
1.0
 26
0.0
 36
0.0
 17
0.0
 27
1.0
 37
0.0
 76
     0
330
58
331
127F
1001
ACAD_PSEXT
1000
None
1000
None
1000
Not applicable
1000
The layout will not be plotted unless a new plotter configuration name is selected.
1070
     0
  0
LAYOUT
  5
5E
102
{ACAD_REACTORS
330
1A
102
}
330
1A
100
AcDbPlotSettings
  1

  2
None
  4

  6

 40
0.0
 41
0.0
 42
0.0
 43
0.0
 44
0.0
 45
0.0
 46
0.0
 47
0.0
 48
0.0
 49
0.0
140
0.0
141
0.0
142
1.0
143
1.0
 70
   688
 72
     0
 73
     0
 74
     5
  7

 75
    16
147
1.0
 76
     0
 77
     2
 78
   300
148
0.0
149
0.0
100
AcDbLayout
  1
Layout2
 70
     1
 71
     2
 10
0.0
 20
0.0
 11
12.0
 21
9.0
 12
0.0
 22
0.0
 32
0.0
 14
0.0
 24
0.0
 34
0.0
 15
0.0
 25
0.0
 35
0.0
146
0.0
 13
0.0
 23
0.0
 33
0.0
 16
1.0
 26
0.0
 36
0.0
 17
0.0
 27
1.0
 37
0.0
 76
     0
330
5D
  0
LAYOUT
  5
22
102
{ACAD_XDICTIONARY
360
194
102
}
102
{ACAD_REACTORS
330
1A
102
}
330
1A
100
AcDbPlotSettings
  1

  2
none_device
  4
ANSI_A_(8.50_x_11.00_Inches)
  6

 40
6.349999904632568
 41
19.04999923706055
 42
6.350006103515625
 43
19.04998779296875
 44
215.8999938964844
 45
279.3999938964844
 46
0.0
 47
0.0
 48
0.0
 49
0.0
140
0.0
141
0.0
142
1.0
143
2.584895464708373
 70
 11952
 72
     0
 73
     1
 74
     0
  7

 75
     0
147
0.3868628397755418
 76
     0
 77
     2
 78
   300
148
0.0
149
0.0
100
AcDbLayout
  1
Model
 70
     1
 71
     0
 10
0.0
 20
0.0
 11
12.0
 21
9.0
 12
0.0
 22
0.0
 32
0.0
 14
0.0
 24
0.0
 34
0.0
 15
0.0
 25
0.0
 35
0.0
146
0.0
 13
0.0
 23
0.0
 33
0.0
 16
1.0
 26
0.0
 36
0.0
 17
0.0
 27
1.0
 37
0.0
 76
     0
330
1F
331
94
  0
MATERIAL
  5
97
102
{ACAD_XDICTIONARY
360
188
102
}
102
{ACAD_REACTORS
330
72
102
}
330
72
100
AcDbMaterial
  1
ByBlock
 94
       63
  0
MATERIAL
  5
96
102
{ACAD_XDICTIONARY
360
186
102
}
102
{ACAD_REACTORS
330
72
102
}
330
72
100
AcDbMaterial
  1
ByLayer
 94
       63
  0
MATERIAL
  5
98
102
{ACAD_XDICTIONARY
360
110
102
}
102
{ACAD_REACTORS
330
72
102
}
330
72
100
AcDbMaterial
  1
Global
 43
0.0208000000566244
 43
0.0
 43
0.0
 43
0.0
 43
0.0
 43
0.0208000000566244
 43
0.0
 43
0.0
 43
0.0
 43
0.0
 43
1.0
 43
0.0
 43
0.0
 43
0.0
 43
0.0
 43
1.0
 49
0.0208000000566244
 49
0.0
 49
0.0
 49
0.0
 49
0.0
 49
0.0208000000566244
 49
0.0
 49
0.0
 49
0.0
 49
0.0
 49
1.0
 49
0.0
 49
0.0
 49
0.0
 49
0.0
 49
1.0
142
0.0208000000566244
142
0.0
142
0.0
142
0.0
142
0.0
142
0.0208000000566244
142
0.0
142
0.0
142
0.0
142
0.0
142
1.0
142
0.0
142
0.0
142
0.0
142
0.0
142
1.0
144
0.0208000000566244
144
0.0
144
0.0
144
0.0
144
0.0
144
0.0208000000566244
144
0.0
144
0.0
144
0.0
144
0.0
144
1.0
144
0.0
144
0.0
144
0.0
144
0.0
144
1.0
 94
       63
1001
ACAD
1070
    -1
1070
     3
1070
     0
1000

1071
        0
1070
     0
  0
MLEADERSTYLE
  5
E5
102
{ACAD_REACTORS
330
D7
102
}
330
D7
100
AcDbMLeaderStyle
179
     2
170
     2
171
     1
172
     0
 90
        2
 40
0.0
 41
0.0
173
     1
 91
-1056964608
340
14
 92
       -2
290
     1
 42
0.09
291
     1
 43
0.36
  3
Standard
 44
0.18
300

342
11
174
     1
178
     1
175
     1
176
     0
 93
-1056964608
 45
0.18
292
     0
297
     0
 46
0.18
 94
-1056964608
 47
1.0
 49
1.0
140
1.0
293
     1
141
0.0
294
     1
177
     0
142
1.0
295
     0
296
     1
143
0.125
271
     0
272
     9
273
     9
298
     0
  0
MLEADERSTYLE
  5
D8
102
{ACAD_REACTORS
330
D7
102
}
330
D7
100
AcDbMLeaderStyle
179
     2
170
     2
171
     1
172
     0
 90
        2
 40
0.0
 41
0.0
173
     1
 91
-1056964608
340
14
 92
       -2
290
     1
 42
0.09
291
     1
 43
0.36
  3
Standard
 44
0.18
300

342
11
174
     1
178
     1
175
     1
176
     0
 93
-1056964608
 45
0.18
292
     0
297
     0
 46
0.18
 94
-1056964608
 47
1.0
 49
1.0
140
1.0
293
     1
141
0.0
294
     1
177
     0
142
1.0
295
     0
296
     0
143
0.125
271
     0
272
     9
273
     9
298
     0
  0
MLINESTYLE
  5
18
102
{ACAD_REACTORS
330
17
102
}
330
17
100
AcDbMlineStyle
  2
STANDARD
 70
     0
  3

 62
   256
 51
90.0
 52
90.0
 71
     2
 49
0.5
 62
   256
  6
BYLAYER
 49
-0.5
 62
   256
  6
BYLAYER
  0
ACDBPLACEHOLDER
  5
F
102
{ACAD_REACTORS
330
E
102
}
330
E
  0
SCALE
  5
B7
102
{ACAD_REACTORS
330
B6
102
}
330
B6
100
AcDbScale
 70
     0
300
1:1
140
1.0
141
1.0
290
     1
  0
SCALE
  5
124
102
{ACAD_REACTORS
330
B6
102
}
330
B6
100
AcDbScale
 70
     0
300
1:2
140
1.0
141
2.0
290
     0
  0
SCALE
  5
125
102
{ACAD_REACTORS
330
B6
102
}
330
B6
100
AcDbScale
 70
     0
300
1:4
140
1.0
141
4.0
290
     0
  0
SCALE
  5
126
102
{ACAD_REACTORS
330
B6
102
}
330
B6
100
AcDbScale
 70
     0
300
1:5
140
1.0
141
5.0
290
     0
  0
SCALE
  5
127
102
{ACAD_REACTORS
330
B6
102
}
330
B6
100
AcDbScale
 70
     0
300
1:8
140
1.0
141
8.0
290
     0
  0
SCALE
  5
128
102
{ACAD_REACTORS
330
B6
102
}
330
B6
100
AcDbScale
 70
     0
300
1:10
140
1.0
141
10.0
290
     0
  0
SCALE
  5
129
102
{ACAD_REACTORS
330
B6
102
}
330
B6
100
AcDbScale
 70
     0
300
1:16
140
1.0
141
16.0
290
     0
  0
SCALE
  5
12A
102
{ACAD_REACTORS
330
B6
102
}
330
B6
100
AcDbScale
 70
     0
300
1:20
140
1.0
141
20.0
290
     0
  0
SCALE
  5
12B
102
{ACAD_REACTORS
330
B6
102
}
330
B6
100
AcDbScale
 70
     0
300
1:30
140
1.0
141
30.0
290
     0
  0
SCALE
  5
12C
102
{ACAD_REACTORS
330
B6
102
}
330
B6
100
AcDbScale
 70
     0
300
1:40
140
1.0
141
40.0
290
     0
  0
SCALE
  5
12D
102
{ACAD_REACTORS
330
B6
102
}
330
B6
100
AcDbScale
 70
     0
300
1:50
140
1.0
141
50.0
290
     0
  0
SCALE
  5
12E
102
{ACAD_REACTORS
330
B6
102
}
330
B6
100
AcDbScale
 70
     0
300
1:100
140
1.0
141
100.0
290
     0
  0
SCALE
  5
12F
102
{ACAD_REACTORS
330
B6
102
}
330
B6
100
AcDbScale
 70
     0
300
2:1
140
2.0
141
1.0
290
     0
  0
SCALE
  5
130
102
{ACAD_REACTORS
330
B6
102
}
330
B6
100
AcDbScale
 70
     0
300
4:1
140
4.0
141
1.0
290
     0
  0
SCALE
  5
131
102
{ACAD_REACTORS
330
B6
102
}
330
B6
100
AcDbScale
 70
     0
300
8:1
140
8.0
141
1.0
290
     0
  0
SCALE
  5
132
102
{ACAD_REACTORS
330
B6
102
}
330
B6
100
AcDbScale
 70
     0
300
10:1
140
10.0
141
1.0
290
     0
  0
SCALE
  5
133
102
{ACAD_REACTORS
330
B6
102
}
330
B6
100
AcDbScale
 70
     0
300
100:1
140
100.0
141
1.0
290
     0
  0
SCALE
  5
134
102
{ACAD_REACTORS
330
B6
102
}
330
B6
100
AcDbScale
 70
     0
300
1/128" = 1'-0"
140
0.0078125
141
12.0
290
     0
  0
SCALE
  5
135
102
{ACAD_REACTORS
330
B6
102
}
330
B6
100
AcDbScale
 70
     0
300
1/64" = 1'-0"
140
0.015625
141
12.0
290
     0
  0
SCALE
  5
136
102
{ACAD_REACTORS
330
B6
102
}
330
B6
100
AcDbScale
 70
     0
300
1/32" = 1'-0"
140
0.03125
141
12.0
290
     0
  0
SCALE
  5
137
102
{ACAD_REACTORS
330
B6
102
}
330
B6
100
AcDbScale
 70
     0
300
1/16" = 1'-0"
140
0.0625
141
12.0
290
     0
  0
SCALE
  5
138
102
{ACAD_REACTORS
330
B6
102
}
330
B6
100
AcDbScale
 70
     0
300
3/32" = 1'-0"
140
0.09375
141
12.0
290
     0
  0
SCALE
  5
139
102
{ACAD_REACTORS
330
B6
102
}
330
B6
100
AcDbScale
 70
     0
300
1/8" = 1'-0"
140
0.125
141
12.0
290
     0
  0
SCALE
  5
13A
102
{ACAD_REACTORS
330
B6
102
}
330
B6
100
AcDbScale
 70
     0
300
3/16" = 1'-0"
140
0.1875
141
12.0
290
     0
  0
SCALE
  5
13B
102
{ACAD_REACTORS
330
B6
102
}
330
B6
100
AcDbScale
 70
     0
300
1/4" = 1'-0"
140
0.25
141
12.0
290
     0
  0
SCALE
  5
13C
102
{ACAD_REACTORS
330
B6
102
}
330
B6
100
AcDbScale
 70
     0
300
3/8" = 1'-0"
140
0.375
141
12.0
290
     0
  0
SCALE
  5
13D
102
{ACAD_REACTORS
330
B6
102
}
330
B6
100
AcDbScale
 70
     0
300
1/2" = 1'-0"
140
0.5
141
12.0
290
     0
  0
SCALE
  5
13E
102
{ACAD_REACTORS
330
B6
102
}
330
B6
100
AcDbScale
 70
     0
300
3/4" = 1'-0"
140
0.75
141
12.0
290
     0
  0
SCALE
  5
13F
102
{ACAD_REACTORS
330
B6
102
}
330
B6
100
AcDbScale
 70
     0
300
1" = 1'-0"
140
1.0
141
12.0
290
     0
  0
SCALE
  5
140
102
{ACAD_REACTORS
330
B6
102
}
330
B6
100
AcDbScale
 70
     0
300
1-1/2" = 1'-0"
140
1.5
141
12.0
290
     0
  0
SCALE
  5
141
102
{ACAD_REACTORS
330
B6
102
}
330
B6
100
AcDbScale
 70
     0
300
3" = 1'-0"
140
3.0
141
12.0
290
     0
  0
SCALE
  5
142
102
{ACAD_REACTORS
330
B6
102
}
330
B6
100
AcDbScale
 70
     0
300
6" = 1'-0"
140
6.0
141
12.0
290
     0
  0
SCALE
  5
143
102
{ACAD_REACTORS
330
B6
102
}
330
B6
100
AcDbScale
 70
     0
300
1'-0" = 1'-0"
140
12.0
141
12.0
290
     0
  0
ACDBSECTIONVIEWSTYLE
  5
1AA
102
{ACAD_REACTORS
330
1A8
102
}
330
1A8
100
AcDbModelDocViewStyle
 70
     0
  3
Imperial24
290
     0
300
Imperial24
 90
        0
100
AcDbSectionViewStyle
 70
     0
 71
     0
 90
       78
 71
     1
340
11
 62
   256
 40
0.24
340
0
340
0
 62
   256
 40
0.24
300
I, O, Q, S, X, Z
 40
0.48
 90
        3
 40
0.18
 90
        1
 71
     2
340
16
 90
       25
 62
   256
340
16
 90
       50
 62
   256
 40
0.24
 40
0.0
 40
0.24
 71
     3
340
11
 62
   256
 40
0.24
 90
        1
 40
0.75
 90
        1
300
%<\AcVar ViewType \f "%tc1">% %<\AcVar ViewSectionStartId>%-%<\AcVar ViewSectionEndId>%\PSCALE %<\AcVar ViewScale \f "%sn">%
 71
     4
 62
   256
 62
   257
300
ANSI31
 40
1.0
 90
        0
290
     0
290
     0
 90
        6
 40
0.0
 40
1.570796326794896
 40
0.2617993877991494
 40
1.308996938995747
 40
-0.2617993877991494
 40
1.832595714594046
  0
TABLESTYLE
  5
87
102
{ACAD_XDICTIONARY
360
104
102
}
102
{ACAD_REACTORS
330
86
102
}
330
86
100
AcDbTableStyle
280
     0
  3
Standard
 70
     0
 71
     0
 40
0.06
 41
0.06
280
     0
281
     0
  7
Standard
140
0.18
170
     2
 62
     0
 63
     7
283
     0
 90
      512
 91
        0
  1

274
    -2
284
     1
 64
     0
275
    -2
285
     1
 65
     0
276
    -2
286
     1
 66
     0
277
    -2
287
     1
 67
     0
278
    -2
288
     1
 68
     0
279
    -2
289
     1
 69
     0
  7
Standard
140
0.25
170
     5
 62
     0
 63
     7
283
     0
 90
      512
 91
        0
  1

274
    -2
284
     1
 64
     0
275
    -2
285
     1
 65
     0
276
    -2
286
     1
 66
     0
277
    -2
287
     1
 67
     0
278
    -2
288
     1
 68
     0
279
    -2
289
     1
 69
     0
  7
Standard
140
0.18
170
     5
 62
     0
 63
     7
283
     0
 90
      512
 91
        0
  1

274
    -2
284
     1
 64
     0
275
    -2
285
     1
 65
     0
276
    -2
286
     1
 66
     0
277
    -2
287
     1
 67
     0
278
    -2
288
     1
 68
     0
279
    -2
289
     1
 69
     0
  0
VISUALSTYLE
  5
9F
102
{ACAD_REACTORS
330
99
102
}
330
99
100
AcDbVisualStyle
  2
2dWireframe
 70
     4
177
     3
291
     0
 70
    58
 90
        0
176
     1
 90
        2
176
     1
 90
        1
176
     1
 90
        0
176
     1
 40
0.6
176
     1
 40
30.0
176
     1
 62
     7
420
 16777215
176
     1
 90
        1
176
     1
 90
        4
176
     1
 62
     7
176
     1
 62
   257
176
     1
 90
        1
176
     1
 90
        1
176
     1
 40
1.0
176
     1
 90
        0
176
     1
 62
   257
176
     1
 40
1.0
176
     1
 90
        1
176
     1
 90
        6
176
     1
 90
        2
176
     1
 62
     7
176
     1
 90
        5
176
     1
 90
        0
176
     1
 90
        0
176
     1
290
     0
176
     1
 90
        1
176
     1
 40
0.0
176
     1
 90
        0
176
     1
290
     1
176
     1
290
     1
176
     1
290
     0
176
     1
290
     0
176
     1
290
     0
176
     1
290
     0
176
     1
290
     0
176
     1
290
     0
176
     1
290
     0
176
     1
 90
       50
176
     1
 40
0.0
176
     1
 40
1.0
176
     1
 90
        0
176
     1
 62
    18
420
        0
176
     1
 90
       50
176
     1
 90
        3
176
     1
 62
     5
420
      255
176
     1
290
     0
176
     1
 90
       50
176
     1
 90
       50
176
     1
 90
       50
176
     1
290
     0
176
     1
 90
       50
176
     1
 62
   256
176
     0
 40
1.0
176
     0
 90
        2
176
     1
  1
strokes_ogs.tif
176
     1
290
     0
176
     1
 40
1.0
176
     1
 40
1.0
176
     1
  0
VISUALSTYLE
  5
9E
102
{ACAD_REACTORS
330
99
102
}
330
99
100
AcDbVisualStyle
  2
Basic
 70
     7
177
     3
291
     1
 70
    58
 90
        1
176
     1
 90
        0
176
     1
 90
        1
176
     1
 90
        0
176
     1
 40
0.6
176
     1
 40
30.0
176
     1
 62
     7
420
 16777215
176
     1
 90
        0
176
     1
 90
        4
176
     1
 62
     7
176
     1
 62
   257
176
     1
 90
        1
176
     1
 90
        1
176
     1
 40
1.0
176
     1
 90
        8
176
     1
 62
     7
176
     1
 40
1.0
176
     1
 90
        1
176
     1
 90
        6
176
     1
 90
        2
176
     1
 62
     7
176
     1
 90
        5
176
     1
 90
        0
176
     1
 90
        0
176
     1
290
     0
176
     1
 90
        1
176
     1
 40
0.0
176
     1
 90
        0
176
     1
290
     0
176
     1
290
     1
176
     1
290
     1
176
     1
290
     0
176
     1
290
     0
176
     1
290
     0
176
     1
290
     0
176
     1
290
     0
176
     1
290
     0
176
     1
 90
       50
176
     1
 40
0.0
176
     1
 40
1.0
176
     1
 90
        0
176
     1
 62
    18
420
        0
176
     1
 90
       50
176
     1
 90
        3
176
     1
 62
     5
420
      255
176
     1
290
     0
176
     1
 90
       50
176
     1
 90
       50
176
     1
 90
       50
176
     1
290
     0
176
     1
 90
       50
176
     1
 62
   256
176
     0
 40
1.0
176
     0
 90
        2
176
     1
  1
strokes_ogs.tif
176
     1
290
     0
176
     1
 40
1.0
176
     1
 40
1.0
176
     1
  0
VISUALSTYLE
  5
A5
102
{ACAD_REACTORS
330
99
102
}
330
99
100
AcDbVisualStyle
  2
Brighten
 70
    12
177
     3
291
     1
 70
    58
 90
        2
176
     1
 90
        2
176
     1
 90
        1
176
     1
 90
        0
176
     1
 40
0.6
176
     1
 40
30.0
176
     1
 62
     7
420
 16777215
176
     1
 90
        1
176
     1
 90
        4
176
     1
 62
     7
176
     1
 62
   257
176
     1
 90
        1
176
     1
 90
        1
176
     1
 40
1.0
176
     1
 90
        8
176
     1
 62
     7
176
     1
 40
1.0
176
     1
 90
        1
176
     1
 90
        6
176
     1
 90
        2
176
     1
 62
     7
176
     1
 90
        5
176
     1
 90
        0
176
     1
 90
        0
176
     1
290
     0
176
     1
 90
        1
176
     1
 40
50.0
176
     1
 90
        0
176
     1
290
     0
176
     1
290
     1
176
     1
290
     1
176
     1
290
     0
176
     1
290
     0
176
     1
290
     0
176
     1
290
     0
176
     1
290
     0
176
     1
290
     0
176
     1
 90
       50
176
     1
 40
0.0
176
     1
 40
1.0
176
     1
 90
        0
176
     1
 62
    18
420
        0
176
     1
 90
       50
176
     1
 90
        3
176
     1
 62
     5
420
      255
176
     1
290
     0
176
     1
 90
       50
176
     1
 90
       50
176
     1
 90
       50
176
     1
290
     0
176
     1
 90
       50
176
     1
 62
   256
176
     0
 40
1.0
176
     0
 90
        2
176
     1
  1
strokes_ogs.tif
176
     1
290
     0
176
     1
 40
1.0
176
     1
 40
1.0
176
     1
  0
VISUALSTYLE
  5
A9
102
{ACAD_REACTORS
330
99
102
}
330
99
100
AcDbVisualStyle
  2
ColorChange
 70
    16
177
     3
291
     1
 70
    58
 90
        2
176
     1
 90
        2
176
     1
 90
        3
176
     1
 90
        0
176
     1
 40
0.6
176
     1
 40
30.0
176
     1
 62
     8
420
  8421504
176
     1
 90
        1
176
     1
 90
        4
176
     1
 62
     7
176
     1
 62
   257
176
     1
 90
        1
176
     1
 90
        1
176
     1
 40
1.0
176
     1
 90
        8
176
     1
 62
     8
420
  8421504
176
     1
 40
1.0
176
     1
 90
        1
176
     1
 90
        6
176
     1
 90
        2
176
     1
 62
     7
176
     1
 90
        5
176
     1
 90
        0
176
     1
 90
        0
176
     1
290
     0
176
     1
 90
        1
176
     1
 40
0.0
176
     1
 90
        0
176
     1
290
     0
176
     1
290
     1
176
     1
290
     1
176
     1
290
     0
176
     1
290
     0
176
     1
290
     0
176
     1
290
     0
176
     1
290
     0
176
     1
290
     0
176
     1
 90
       50
176
     1
 40
0.0
176
     1
 40
1.0
176
     1
 90
        0
176
     1
 62
    18
420
        0
176
     1
 90
       50
176
     1
 90
        3
176
     1
 62
     5
420
      255
176
     1
290
     0
176
     1
 90
       50
176
     1
 90
       50
176
     1
 90
       50
176
     1
290
     0
176
     1
 90
       50
176
     1
 62
   256
176
     0
 40
1.0
176
     0
 90
        2
176
     1
  1
strokes_ogs.tif
176
     1
290
     0
176
     1
 40
1.0
176
     1
 40
1.0
176
     1
  0
VISUALSTYLE
  5
A2
102
{ACAD_REACTORS
330
99
102
}
330
99
100
AcDbVisualStyle
  2
Conceptual
 70
     9
177
     3
291
     0
 70
    58
 90
        3
176
     1
 90
        2
176
     1
 90
        1
176
     1
 90
        0
176
     1
 40
0.6
176
     1
 40
30.0
176
     1
 62
     7
420
 16777215
176
     1
 90
        2
176
     1
 90
        2
176
     1
 62
     7
176
     1
 62
   257
176
     1
 90
        1
176
     1
 90
        1
176
     1
 40
40.0
176
     1
 90
        8
176
     1
 62
     7
176
     1
 40
1.0
176
     1
 90
        1
176
     1
 90
        6
176
     1
 90
        2
176
     1
 62
     7
176
     1
 90
        3
176
     1
 90
        0
176
     1
 90
        0
176
     1
290
     0
176
     1
 90
        1
176
     1
 40
0.0
176
     1
 90
        0
176
     1
290
     0
176
     1
290
     1
176
     1
290
     1
176
     1
290
     0
176
     1
290
     0
176
     1
290
     0
176
     1
290
     0
176
     1
290
     0
176
     1
290
     0
176
     1
 90
       50
176
     1
 40
0.0
176
     1
 40
1.0
176
     1
 90
        0
176
     1
 62
    18
420
        0
176
     1
 90
       50
176
     1
 90
        3
176
     1
 62
     5
420
      255
176
     1
290
     0
176
     1
 90
       50
176
     1
 90
       50
176
     1
 90
       50
176
     1
290
     0
176
     1
 90
       50
176
     1
 62
   256
176
     0
 40
1.0
176
     0
 90
        2
176
     1
  1
strokes_ogs.tif
176
     1
290
     0
176
     1
 40
1.0
176
     1
 40
1.0
176
     1
  0
VISUALSTYLE
  5
A4
102
{ACAD_REACTORS
330
99
102
}
330
99
100
AcDbVisualStyle
  2
Dim
 70
    11
177
     3
291
     1
 70
    58
 90
        2
176
     1
 90
        2
176
     1
 90
        1
176
     1
 90
        0
176
     1
 40
0.6
176
     1
 40
30.0
176
     1
 62
     7
420
 16777215
176
     1
 90
        1
176
     1
 90
        4
176
     1
 62
     7
176
     1
 62
   257
176
     1
 90
        1
176
     1
 90
        1
176
     1
 40
1.0
176
     1
 90
        8
176
     1
 62
     7
176
     1
 40
1.0
176
     1
 90
        1
176
     1
 90
        6
176
     1
 90
        2
176
     1
 62
     7
176
     1
 90
        5
176
     1
 90
        0
176
     1
 90
        0
176
     1
290
     0
176
     1
 90
        1
176
     1
 40
-50.0
176
     1
 90
        0
176
     1
290
     0
176
     1
290
     1
176
     1
290
     1
176
     1
290
     0
176
     1
290
     0
176
     1
290
     0
176
     1
290
     0
176
     1
290
     0
176
     1
290
     0
176
     1
 90
       50
176
     1
 40
0.0
176
     1
 40
1.0
176
     1
 90
        0
176
     1
 62
    18
420
        0
176
     1
 90
       50
176
     1
 90
        3
176
     1
 62
     5
420
      255
176
     1
290
     0
176
     1
 90
       50
176
     1
 90
       50
176
     1
 90
       50
176
     1
290
     0
176
     1
 90
       50
176
     1
 62
   256
176
     0
 40
1.0
176
     0
 90
        2
176
     1
  1
strokes_ogs.tif
176
     1
290
     0
176
     1
 40
1.0
176
     1
 40
1.0
176
     1
  0
VISUALSTYLE
  5
175
102
{ACAD_REACTORS
330
99
102
}
330
99
100
AcDbVisualStyle
  2
EdgeColorOff
 70
    22
177
     3
291
     1
 70
    58
 90
        2
176
     0
 90
        2
176
     0
 90
        0
176
     0
 90
        0
176
     0
 40
0.6
176
     0
 40
30.0
176
     0
 62
     7
420
 16777215
176
     0
 90
        1
176
     0
 90
        4
176
     0
 62
     7
176
     0
 62
   257
176
     0
 90
        1
176
     0
 90
        1
176
     0
 40
1.0
176
     0
 90
        8
176
     2
 62
     7
176
     0
 40
1.0
176
     0
 90
        1
176
     0
 90
        6
176
     0
 90
        2
176
     0
 62
     7
176
     0
 90
        5
176
     0
 90
        0
176
     0
 90
        0
176
     0
290
     0
176
     0
 90
        1
176
     0
 40
0.0
176
     0
 90
        0
176
     0
290
     0
176
     1
290
     1
176
     1
290
     1
176
     1
290
     0
176
     1
290
     0
176
     1
290
     0
176
     1
290
     0
176
     1
290
     0
176
     1
290
     0
176
     1
 90
       50
176
     1
 40
0.0
176
     1
 40
1.0
176
     1
 90
        0
176
     1
 62
    18
420
        0
176
     1
 90
       50
176
     1
 90
        3
176
     1
 62
     5
420
      255
176
     1
290
     0
176
     1
 90
       50
176
     1
 90
       50
176
     1
 90
       50
176
     1
290
     0
176
     1
 90
       50
176
     1
 62
   256
176
     0
 40
1.0
176
     0
 90
        2
176
     1
  1
strokes_ogs.tif
176
     1
290
     0
176
     1
 40
1.0
176
     1
 40
1.0
176
     1
  0
VISUALSTYLE
  5
A8
102
{ACAD_REACTORS
330
99
102
}
330
99
100
AcDbVisualStyle
  2
Facepattern
 70
    15
177
     3
291
     1
 70
    58
 90
        2
176
     1
 90
        2
176
     1
 90
        1
176
     1
 90
        0
176
     1
 40
0.6
176
     1
 40
30.0
176
     1
 62
     7
420
 16777215
176
     1
 90
        1
176
     1
 90
        4
176
     1
 62
     7
176
     1
 62
   257
176
     1
 90
        1
176
     1
 90
        1
176
     1
 40
1.0
176
     1
 90
        8
176
     1
 62
     7
176
     1
 40
1.0
176
     1
 90
        1
176
     1
 90
        6
176
     1
 90
        2
176
     1
 62
     7
176
     1
 90
        5
176
     1
 90
        0
176
     1
 90
        0
176
     1
290
     0
176
     1
 90
        1
176
     1
 40
0.0
176
     1
 90
        0
176
     1
290
     0
176
     1
290
     1
176
     1
290
     1
176
     1
290
     0
176
     1
290
     0
176
     1
290
     0
176
     1
290
     0
176
     1
290
     0
176
     1
290
     0
176
     1
 90
       50
176
     1
 40
0.0
176
     1
 40
1.0
176
     1
 90
        0
176
     1
 62
    18
420
        0
176
     1
 90
       50
176
     1
 90
        3
176
     1
 62
     5
420
      255
176
     1
290
     0
176
     1
 90
       50
176
     1
 90
       50
176
     1
 90
       50
176
     1
290
     0
176
     1
 90
       50
176
     1
 62
   256
176
     0
 40
1.0
176
     0
 90
        2
176
     1
  1
strokes_ogs.tif
176
     1
290
     0
176
     1
 40
1.0
176
     1
 40
1.0
176
     1
  0
VISUALSTYLE
  5
9A
102
{ACAD_REACTORS
330
99
102
}
330
99
100
AcDbVisualStyle
  2
Flat
 70
     0
177
     3
291
     1
 70
    58
 90
        2
176
     1
 90
        1
176
     1
 90
        1
176
     1
 90
        2
176
     1
 40
0.6
176
     1
 40
30.0
176
     1
 62
     7
420
 16777215
176
     1
 90
        0
176
     1
 90
        0
176
     1
 62
     7
176
     1
 62
   257
176
     1
 90
        1
176
     1
 90
        1
176
     1
 40
1.0
176
     1
 90
        8
176
     1
 62
     7
176
     1
 40
1.0
176
     1
 90
        1
176
     1
 90
        6
176
     1
 90
        2
176
     1
 62
     7
176
     1
 90
        5
176
     1
 90
        0
176
     1
 90
        0
176
     1
290
     0
176
     1
 90
       13
176
     1
 40
0.0
176
     1
 90
        0
176
     1
290
     0
176
     1
290
     1
176
     1
290
     1
176
     1
290
     0
176
     1
290
     0
176
     1
290
     0
176
     1
290
     0
176
     1
290
     0
176
     1
290
     0
176
     1
 90
       50
176
     1
 40
0.0
176
     1
 40
1.0
176
     1
 90
        0
176
     1
 62
    18
420
        0
176
     1
 90
       50
176
     1
 90
        3
176
     1
 62
     5
420
      255
176
     1
290
     0
176
     1
 90
       50
176
     1
 90
       50
176
     1
 90
       50
176
     1
290
     0
176
     1
 90
       50
176
     1
 62
   256
176
     0
 40
1.0
176
     0
 90
        2
176
     1
  1
strokes_ogs.tif
176
     1
290
     0
176
     1
 40
1.0
176
     1
 40
1.0
176
     1
  0
VISUALSTYLE
  5
9B
102
{ACAD_REACTORS
330
99
102
}
330
99
100
AcDbVisualStyle
  2
FlatWithEdges
 70
     1
177
     3
291
     1
 70
    58
 90
        2
176
     1
 90
        1
176
     1
 90
        1
176
     1
 90
        2
176
     1
 40
0.6
176
     1
 40
30.0
176
     1
 62
     7
420
 16777215
176
     1
 90
        1
176
     1
 90
        0
176
     1
 62
     7
176
     1
 62
   257
176
     1
 90
        1
176
     1
 90
        1
176
     1
 40
1.0
176
     1
 90
        0
176
     1
 62
   257
176
     1
 40
1.0
176
     1
 90
        1
176
     1
 90
        6
176
     1
 90
        2
176
     1
 62
     7
176
     1
 90
        5
176
     1
 90
        0
176
     1
 90
        0
176
     1
290
     0
176
     1
 90
       13
176
     1
 40
0.0
176
     1
 90
        0
176
     1
290
     0
176
     1
290
     1
176
     1
290
     1
176
     1
290
     0
176
     1
290
     0
176
     1
290
     0
176
     1
290
     0
176
     1
290
     0
176
     1
290
     0
176
     1
 90
       50
176
     1
 40
0.0
176
     1
 40
1.0
176
     1
 90
        0
176
     1
 62
    18
420
        0
176
     1
 90
       50
176
     1
 90
        3
176
     1
 62
     5
420
      255
176
     1
290
     0
176
     1
 90
       50
176
     1
 90
       50
176
     1
 90
       50
176
     1
290
     0
176
     1
 90
       50
176
     1
 62
   256
176
     0
 40
1.0
176
     0
 90
        2
176
     1
  1
strokes_ogs.tif
176
     1
290
     0
176
     1
 40
1.0
176
     1
 40
1.0
176
     1
  0
VISUALSTYLE
  5
9C
102
{ACAD_REACTORS
330
99
102
}
330
99
100
AcDbVisualStyle
  2
Gouraud
 70
     2
177
     3
291
     1
 70
    58
 90
        2
176
     1
 90
        2
176
     1
 90
        1
176
     1
 90
        2
176
     1
 40
0.6
176
     1
 40
30.0
176
     1
 62
     7
420
 16777215
176
     1
 90
        0
176
     1
 90
        0
176
     1
 62
     7
176
     1
 62
   257
176
     1
 90
        1
176
     1
 90
        1
176
     1
 40
1.0
176
     1
 90
        0
176
     1
 62
     7
176
     1
 40
1.0
176
     1
 90
        1
176
     1
 90
        6
176
     1
 90
        2
176
     1
 62
     7
176
     1
 90
        5
176
     1
 90
        0
176
     1
 90
        0
176
     1
290
     0
176
     1
 90
       13
176
     1
 40
0.0
176
     1
 90
        0
176
     1
290
     0
176
     1
290
     1
176
     1
290
     1
176
     1
290
     0
176
     1
290
     0
176
     1
290
     0
176
     1
290
     0
176
     1
290
     0
176
     1
290
     0
176
     1
 90
       50
176
     1
 40
0.0
176
     1
 40
1.0
176
     1
 90
        0
176
     1
 62
    18
420
        0
176
     1
 90
       50
176
     1
 90
        3
176
     1
 62
     5
420
      255
176
     1
290
     0
176
     1
 90
       50
176
     1
 90
       50
176
     1
 90
       50
176
     1
290
     0
176
     1
 90
       50
176
     1
 62
   256
176
     0
 40
1.0
176
     0
 90
        2
176
     1
  1
strokes_ogs.tif
176
     1
290
     0
176
     1
 40
1.0
176
     1
 40
1.0
176
     1
  0
VISUALSTYLE
  5
9D
102
{ACAD_REACTORS
330
99
102
}
330
99
100
AcDbVisualStyle
  2
GouraudWithEdges
 70
     3
177
     3
291
     1
 70
    58
 90
        2
176
     1
 90
        2
176
     1
 90
        1
176
     1
 90
        2
176
     1
 40
0.6
176
     1
 40
30.0
176
     1
 62
     7
420
 16777215
176
     1
 90
        1
176
     1
 90
        0
176
     1
 62
     7
176
     1
 62
   257
176
     1
 90
        1
176
     1
 90
        1
176
     1
 40
1.0
176
     1
 90
        0
176
     1
 62
   257
176
     1
 40
1.0
176
     1
 90
        1
176
     1
 90
        6
176
     1
 90
        2
176
     1
 62
     7
176
     1
 90
        5
176
     1
 90
        0
176
     1
 90
        0
176
     1
290
     0
176
     1
 90
       13
176
     1
 40
0.0
176
     1
 90
        0
176
     1
290
     0
176
     1
290
     1
176
     1
290
     1
176
     1
290
     0
176
     1
290
     0
176
     1
290
     0
176
     1
290
     0
176
     1
290
     0
176
     1
290
     0
176
     1
 90
       50
176
     1
 40
0.0
176
     1
 40
1.0
176
     1
 90
        0
176
     1
 62
    18
420
        0
176
     1
 90
       50
176
     1
 90
        3
176
     1
 62
     5
420
      255
176
     1
290
     0
176
     1
 90
       50
176
     1
 90
       50
176
     1
 90
       50
176
     1
290
     0
176
     1
 90
       50
176
     1
 62
   256
176
     0
 40
1.0
176
     0
 90
        2
176
     1
  1
strokes_ogs.tif
176
     1
290
     0
176
     1
 40
1.0
176
     1
 40
1.0
176
     1
  0
VISUALSTYLE
  5
A1
102
{ACAD_REACTORS
330
99
102
}
330
99
100
AcDbVisualStyle
  2
Hidden
 70
     6
177
     3
291
     0
 70
    58
 90
        1
176
     1
 90
        2
176
     1
 90
        2
176
     1
 90
        0
176
     1
 40
0.6
176
     1
 40
30.0
176
     1
 62
     7
420
 16777215
176
     1
 90
        2
176
     1
 90
        2
176
     1
 62
     7
176
     1
 62
   257
176
     1
 90
        2
176
     1
 90
        1
176
     1
 40
40.0
176
     1
 90
        0
176
     1
 62
   257
176
     1
 40
1.0
176
     1
 90
        1
176
     1
 90
        6
176
     1
 90
        2
176
     1
 62
     7
176
     1
 90
        3
176
     1
 90
        0
176
     1
 90
        0
176
     1
290
     0
176
     1
 90
        1
176
     1
 40
0.0
176
     1
 90
        0
176
     1
290
     0
176
     1
290
     1
176
     1
290
     1
176
     1
290
     0
176
     1
290
     0
176
     1
290
     0
176
     1
290
     0
176
     1
290
     0
176
     1
290
     0
176
     1
 90
       50
176
     1
 40
0.0
176
     1
 40
1.0
176
     1
 90
        0
176
     1
 62
    18
420
        0
176
     1
 90
       50
176
     1
 90
        3
176
     1
 62
     5
420
      255
176
     1
290
     0
176
     1
 90
       50
176
     1
 90
       50
176
     1
 90
       50
176
     1
290
     0
176
     1
 90
       50
176
     1
 62
   256
176
     0
 40
1.0
176
     0
 90
        2
176
     1
  1
strokes_ogs.tif
176
     1
290
     0
176
     1
 40
1.0
176
     1
 40
1.0
176
     1
  0
VISUALSTYLE
  5
173
102
{ACAD_REACTORS
330
99
102
}
330
99
100
AcDbVisualStyle
  2
JitterOff
 70
    20
177
     3
291
     1
 70
    58
 90
        2
176
     0
 90
        2
176
     0
 90
        0
176
     0
 90
        0
176
     0
 40
0.6
176
     0
 40
30.0
176
     0
 62
     7
420
 16777215
176
     0
 90
        1
176
     0
 90
        4
176
     0
 62
     7
176
     0
 62
   257
176
     0
 90
        1
176
     0
 90
        1
176
     0
 40
1.0
176
     0
 90
       10
176
     2
 62
     7
176
     0
 40
1.0
176
     0
 90
        1
176
     0
 90
        6
176
     0
 90
        2
176
     0
 62
     7
176
     0
 90
        5
176
     0
 90
        0
176
     0
 90
        0
176
     0
290
     0
176
     0
 90
        1
176
     0
 40
0.0
176
     0
 90
        0
176
     0
290
     0
176
     1
290
     1
176
     1
290
     1
176
     1
290
     0
176
     1
290
     0
176
     1
290
     0
176
     1
290
     0
176
     1
290
     0
176
     1
290
     0
176
     1
 90
       50
176
     1
 40
0.0
176
     1
 40
1.0
176
     1
 90
        0
176
     1
 62
    18
420
        0
176
     1
 90
       50
176
     1
 90
        3
176
     1
 62
     5
420
      255
176
     1
290
     0
176
     1
 90
       50
176
     1
 90
       50
176
     1
 90
       50
176
     1
290
     0
176
     1
 90
       50
176
     1
 62
   256
176
     0
 40
1.0
176
     0
 90
        2
176
     1
  1
strokes_ogs.tif
176
     1
290
     0
176
     1
 40
1.0
176
     1
 40
1.0
176
     1
  0
VISUALSTYLE
  5
A7
102
{ACAD_REACTORS
330
99
102
}
330
99
100
AcDbVisualStyle
  2
Linepattern
 70
    14
177
     3
291
     1
 70
    58
 90
        2
176
     1
 90
        2
176
     1
 90
        1
176
     1
 90
        0
176
     1
 40
0.6
176
     1
 40
30.0
176
     1
 62
     7
420
 16777215
176
     1
 90
        1
176
     1
 90
        4
176
     1
 62
     7
176
     1
 62
   257
176
     1
 90
        7
176
     1
 90
        7
176
     1
 40
1.0
176
     1
 90
        8
176
     1
 62
     7
176
     1
 40
1.0
176
     1
 90
        1
176
     1
 90
        6
176
     1
 90
        2
176
     1
 62
     7
176
     1
 90
        5
176
     1
 90
        0
176
     1
 90
        0
176
     1
290
     0
176
     1
 90
        1
176
     1
 40
0.0
176
     1
 90
        0
176
     1
290
     0
176
     1
290
     1
176
     1
290
     1
176
     1
290
     0
176
     1
290
     0
176
     1
290
     0
176
     1
290
     0
176
     1
290
     0
176
     1
290
     0
176
     1
 90
       50
176
     1
 40
0.0
176
     1
 40
1.0
176
     1
 90
        0
176
     1
 62
    18
420
        0
176
     1
 90
       50
176
     1
 90
        3
176
     1
 62
     5
420
      255
176
     1
290
     0
176
     1
 90
       50
176
     1
 90
       50
176
     1
 90
       50
176
     1
290
     0
176
     1
 90
       50
176
     1
 62
   256
176
     0
 40
1.0
176
     0
 90
        2
176
     1
  1
strokes_ogs.tif
176
     1
290
     0
176
     1
 40
1.0
176
     1
 40
1.0
176
     1
  0
VISUALSTYLE
  5
174
102
{ACAD_REACTORS
330
99
102
}
330
99
100
AcDbVisualStyle
  2
OverhangOff
 70
    21
177
     3
291
     1
 70
    58
 90
        2
176
     0
 90
        2
176
     0
 90
        0
176
     0
 90
        0
176
     0
 40
0.6
176
     0
 40
30.0
176
     0
 62
     7
420
 16777215
176
     0
 90
        1
176
     0
 90
        4
176
     0
 62
     7
176
     0
 62
   257
176
     0
 90
        1
176
     0
 90
        1
176
     0
 40
1.0
176
     0
 90
        9
176
     2
 62
     7
176
     0
 40
1.0
176
     0
 90
        1
176
     0
 90
        6
176
     0
 90
        2
176
     0
 62
     7
176
     0
 90
        5
176
     0
 90
        0
176
     0
 90
        0
176
     0
290
     0
176
     0
 90
        1
176
     0
 40
0.0
176
     0
 90
        0
176
     0
290
     0
176
     1
290
     1
176
     1
290
     1
176
     1
290
     0
176
     1
290
     0
176
     1
290
     0
176
     1
290
     0
176
     1
290
     0
176
     1
290
     0
176
     1
 90
       50
176
     1
 40
0.0
176
     1
 40
1.0
176
     1
 90
        0
176
     1
 62
    18
420
        0
176
     1
 90
       50
176
     1
 90
        3
176
     1
 62
     5
420
      255
176
     1
290
     0
176
     1
 90
       50
176
     1
 90
       50
176
     1
 90
       50
176
     1
290
     0
176
     1
 90
       50
176
     1
 62
   256
176
     0
 40
1.0
176
     0
 90
        2
176
     1
  1
strokes_ogs.tif
176
     1
290
     0
176
     1
 40
1.0
176
     1
 40
1.0
176
     1
  0
VISUALSTYLE
  5
A3
102
{ACAD_REACTORS
330
99
102
}
330
99
100
AcDbVisualStyle
  2
Realistic
 70
     8
177
     3
291
     0
 70
    58
 90
        2
176
     1
 90
        3
176
     1
 90
        0
176
     1
 90
        2
176
     1
 40
0.6
176
     1
 40
30.0
176
     1
 62
     7
420
 16777215
176
     1
 90
        0
176
     1
 90
        0
176
     1
 62
     7
176
     1
 62
   257
176
     1
 90
        1
176
     1
 90
        1
176
     1
 40
1.0
176
     1
 90
        8
176
     1
 62
   257
176
     1
 40
1.0
176
     1
 90
        1
176
     1
 90
        6
176
     1
 90
        2
176
     1
 62
     7
176
     1
 90
        3
176
     1
 90
        0
176
     1
 90
        0
176
     1
290
     0
176
     1
 90
       13
176
     1
 40
0.0
176
     1
 90
        0
176
     1
290
     0
176
     1
290
     1
176
     1
290
     1
176
     1
290
     0
176
     1
290
     0
176
     1
290
     0
176
     1
290
     0
176
     1
290
     0
176
     1
290
     0
176
     1
 90
       50
176
     1
 40
0.0
176
     1
 40
1.0
176
     1
 90
        0
176
     1
 62
    18
420
        0
176
     1
 90
       50
176
     1
 90
        3
176
     1
 62
     5
420
      255
176
     1
290
     0
176
     1
 90
       50
176
     1
 90
       50
176
     1
 90
       50
176
     1
290
     0
176
     1
 90
       50
176
     1
 62
   256
176
     0
 40
1.0
176
     0
 90
        2
176
     1
  1
strokes_ogs.tif
176
     1
290
     0
176
     1
 40
1.0
176
     1
 40
1.0
176
     1
  0
VISUALSTYLE
  5
182
102
{ACAD_REACTORS
330
99
102
}
330
99
100
AcDbVisualStyle
  2
Shaded
 70
    27
177
     3
291
     0
 70
    58
 90
        2
176
     1
 90
        2
176
     1
 90
        1
176
     1
 90
        2
176
     1
 40
0.6
176
     1
 40
30.0
176
     1
 62
     7
420
 16777215
176
     1
 90
        0
176
     1
 90
        4
176
     1
 62
     7
176
     1
 62
   257
176
     1
 90
        1
176
     1
 90
        1
176
     1
 40
1.0
176
     1
 90
        8
176
     1
 62
   257
176
     1
 40
1.0
176
     1
 90
        1
176
     1
 90
        6
176
     1
 90
        2
176
     1
 62
     8
420
  7895160
176
     1
 90
        3
176
     1
 90
        0
176
     1
 90
        0
176
     1
290
     0
176
     1
 90
        5
176
     1
 40
0.0
176
     1
 90
        0
176
     1
290
     0
176
     1
290
     1
176
     1
290
     1
176
     1
290
     0
176
     1
290
     0
176
     1
290
     0
176
     1
290
     0
176
     1
290
     0
176
     1
290
     0
176
     1
 90
       50
176
     1
 40
0.0
176
     1
 40
1.0
176
     1
 90
        0
176
     1
 62
    18
420
        0
176
     1
 90
       50
176
     1
 90
        3
176
     1
 62
     5
420
      255
176
     1
290
     0
176
     1
 90
       50
176
     1
 90
       50
176
     1
 90
       50
176
     1
290
     0
176
     1
 90
       50
176
     1
 62
   256
176
     0
 40
1.0
176
     0
 90
        2
176
     1
  1
strokes_ogs.tif
176
     1
290
     0
176
     1
 40
1.0
176
     1
 40
1.0
176
     1
  0
VISUALSTYLE
  5
181
102
{ACAD_REACTORS
330
99
102
}
330
99
100
AcDbVisualStyle
  2
Shaded with edges
 70
    26
177
     3
291
     0
 70
    58
 90
        2
176
     1
 90
        2
176
     1
 90
        1
176
     1
 90
        2
176
     1
 40
0.6
176
     1
 40
30.0
176
     1
 62
     7
420
 16777215
176
     1
 90
        1
176
     1
 90
        2
176
     1
 62
     7
176
     1
 62
   257
176
     1
 90
        2
176
     1
 90
        1
176
     1
 40
1.0
176
     1
 90
        8
176
     1
 62
   257
176
     1
 40
1.0
176
     1
 90
        1
176
     1
 90
        6
176
     1
 90
        2
176
     1
 62
     7
176
     1
 90
        3
176
     1
 90
        0
176
     1
 90
        0
176
     1
290
     0
176
     1
 90
        5
176
     1
 40
0.0
176
     1
 90
        0
176
     1
290
     0
176
     1
290
     1
176
     1
290
     1
176
     1
290
     0
176
     1
290
     0
176
     1
290
     0
176
     1
290
     0
176
     1
290
     0
176
     1
290
     0
176
     1
 90
       50
176
     1
 40
0.0
176
     1
 40
1.0
176
     1
 90
        0
176
     1
 62
    18
420
        0
176
     1
 90
       50
176
     1
 90
        3
176
     1
 62
     5
420
      255
176
     1
290
     0
176
     1
 90
       50
176
     1
 90
       50
176
     1
 90
       50
176
     1
290
     0
176
     1
 90
       50
176
     1
 62
   256
176
     0
 40
1.0
176
     0
 90
        2
176
     1
  1
strokes_ogs.tif
176
     1
290
     0
176
     1
 40
1.0
176
     1
 40
1.0
176
     1
  0
VISUALSTYLE
  5
17E
102
{ACAD_REACTORS
330
99
102
}
330
99
100
AcDbVisualStyle
  2
Shades of Gray
 70
    23
177
     3
291
     0
 70
    58
 90
        2
176
     1
 90
        2
176
     1
 90
        3
176
     1
 90
        0
176
     1
 40
0.6
176
     1
 40
30.0
176
     1
 62
     7
420
 16777215
176
     1
 90
        2
176
     1
 90
        2
176
     1
 62
     7
176
     1
 62
     7
176
     1
 90
        1
176
     1
 90
        1
176
     1
 40
40.0
176
     1
 90
        8
176
     1
 62
     7
176
     1
 40
1.0
176
     1
 90
        1
176
     1
 90
        6
176
     1
 90
        2
176
     1
 62
     7
176
     1
 90
        3
176
     1
 90
        0
176
     1
 90
        0
176
     1
290
     0
176
     1
 90
        1
176
     1
 40
0.0
176
     1
 90
        0
176
     1
290
     0
176
     1
290
     1
176
     1
290
     1
176
     1
290
     0
176
     1
290
     0
176
     1
290
     0
176
     1
290
     0
176
     1
290
     0
176
     1
290
     0
176
     1
 90
       50
176
     1
 40
0.0
176
     1
 40
1.0
176
     1
 90
        0
176
     1
 62
    18
420
        0
176
     1
 90
       50
176
     1
 90
        3
176
     1
 62
     5
420
      255
176
     1
290
     0
176
     1
 90
       50
176
     1
 90
       50
176
     1
 90
       50
176
     1
290
     0
176
     1
 90
       50
176
     1
 62
   256
176
     0
 40
1.0
176
     0
 90
        2
176
     1
  1
strokes_ogs.tif
176
     1
290
     0
176
     1
 40
1.0
176
     1
 40
1.0
176
     1
  0
VISUALSTYLE
  5
17F
102
{ACAD_REACTORS
330
99
102
}
330
99
100
AcDbVisualStyle
  2
Sketchy
 70
    24
177
     3
291
     0
 70
    58
 90
        1
176
     1
 90
        2
176
     1
 90
        2
176
     1
 90
        0
176
     1
 40
0.6
176
     1
 40
30.0
176
     1
 62
     7
420
 16777215
176
     1
 90
        2
176
     1
 90
        2
176
     1
 62
     7
176
     1
 62
     7
176
     1
 90
        1
176
     1
 90
        1
176
     1
 40
40.0
176
     1
 90
       11
176
     1
 62
     7
176
     1
 40
1.0
176
     1
 90
        1
176
     1
 90
        6
176
     1
 90
        2
176
     1
 62
     7
176
     1
 90
        6
176
     1
 90
        0
176
     1
 90
        0
176
     1
290
     0
176
     1
 90
        1
176
     1
 40
0.0
176
     1
 90
        0
176
     1
290
     0
176
     1
290
     1
176
     1
290
     1
176
     1
290
     0
176
     1
290
     0
176
     1
290
     0
176
     1
290
     0
176
     1
290
     0
176
     1
290
     0
176
     1
 90
       50
176
     1
 40
0.0
176
     1
 40
1.0
176
     1
 90
        0
176
     1
 62
    18
420
        0
176
     1
 90
       50
176
     1
 90
        3
176
     1
 62
     5
420
      255
176
     1
290
     0
176
     1
 90
       50
176
     1
 90
       50
176
     1
 90
       50
176
     1
290
     0
176
     1
 90
       50
176
     1
 62
   256
176
     0
 40
1.0
176
     0
 90
        2
176
     1
  1
strokes_ogs.tif
176
     1
290
     0
176
     1
 40
1.0
176
     1
 40
1.0
176
     1
  0
VISUALSTYLE
  5
A6
102
{ACAD_REACTORS
330
99
102
}
330
99
100
AcDbVisualStyle
  2
Thicken
 70
    13
177
     3
291
     1
 70
    58
 90
        2
176
     1
 90
        2
176
     1
 90
        1
176
     1
 90
        0
176
     1
 40
0.6
176
     1
 40
30.0
176
     1
 62
     7
420
 16777215
176
     1
 90
        1
176
     1
 90
        4
176
     1
 62
     7
176
     1
 62
   257
176
     1
 90
        1
176
     1
 90
        1
176
     1
 40
1.0
176
     1
 90
       12
176
     1
 62
     7
176
     1
 40
1.0
176
     1
 90
        1
176
     1
 90
        6
176
     1
 90
        2
176
     1
 62
     7
176
     1
 90
        5
176
     1
 90
        0
176
     1
 90
        0
176
     1
290
     0
176
     1
 90
        1
176
     1
 40
0.0
176
     1
 90
        0
176
     1
290
     0
176
     1
290
     1
176
     1
290
     1
176
     1
290
     0
176
     1
290
     0
176
     1
290
     0
176
     1
290
     0
176
     1
290
     0
176
     1
290
     0
176
     1
 90
       50
176
     1
 40
0.0
176
     1
 40
1.0
176
     1
 90
        0
176
     1
 62
    18
420
        0
176
     1
 90
       50
176
     1
 90
        3
176
     1
 62
     5
420
      255
176
     1
290
     0
176
     1
 90
       50
176
     1
 90
       50
176
     1
 90
       50
176
     1
290
     0
176
     1
 90
       50
176
     1
 62
   256
176
     0
 40
1.0
176
     0
 90
        2
176
     1
  1
strokes_ogs.tif
176
     1
290
     0
176
     1
 40
1.0
176
     1
 40
1.0
176
     1
  0
VISUALSTYLE
  5
A0
102
{ACAD_REACTORS
330
99
102
}
330
99
100
AcDbVisualStyle
  2
Wireframe
 70
     5
177
     3
291
     0
 70
    58
 90
        0
176
     1
 90
        2
176
     1
 90
        0
176
     1
 90
        0
176
     1
 40
0.6
176
     1
 40
30.0
176
     1
 62
     7
420
 16777215
176
     1
 90
        1
176
     1
 90
        4
176
     1
 62
     7
176
     1
 62
   257
176
     1
 90
        1
176
     1
 90
        1
176
     1
 40
1.0
176
     1
 90
        0
176
     1
 62
   257
176
     1
 40
1.0
176
     1
 90
        1
176
     1
 90
        6
176
     1
 90
        2
176
     1
 62
     7
176
     1
 90
        3
176
     1
 90
        0
176
     1
 90
        0
176
     1
290
     0
176
     1
 90
        1
176
     1
 40
0.0
176
     1
 90
        0
176
     1
290
     0
176
     1
290
     1
176
     1
290
     1
176
     1
290
     0
176
     1
290
     0
176
     1
290
     0
176
     1
290
     0
176
     1
290
     0
176
     1
290
     0
176
     1
 90
       50
176
     1
 40
0.0
176
     1
 40
1.0
176
     1
 90
        0
176
     1
 62
    18
420
        0
176
     1
 90
       50
176
     1
 90
        3
176
     1
 62
     5
420
      255
176
     1
290
     0
176
     1
 90
       50
176
     1
 90
       50
176
     1
 90
       50
176
     1
290
     0
176
     1
 90
       50
176
     1
 62
   256
176
     0
 40
1.0
176
     0
 90
        2
176
     1
  1
strokes_ogs.tif
176
     1
290
     0
176
     1
 40
1.0
176
     1
 40
1.0
176
     1
  0
VISUALSTYLE
  5
180
102
{ACAD_REACTORS
330
99
102
}
330
99
100
AcDbVisualStyle
  2
X-Ray
 70
    25
177
     3
291
     0
 70
    58
 90
        2
176
     1
 90
        2
176
     1
 90
        1
176
     1
 90
        1
176
     1
 40
0.5
176
     1
 40
30.0
176
     1
 62
     7
420
 16777215
176
     1
 90
        1
176
     1
 90
        0
176
     1
 62
     7
176
     1
 62
   257
176
     1
 90
        1
176
     1
 90
        1
176
     1
 40
1.0
176
     1
 90
        8
176
     1
 62
     7
176
     1
 40
1.0
176
     1
 90
        1
176
     1
 90
        6
176
     1
 90
        2
176
     1
 62
     7
176
     1
 90
        3
176
     1
 90
        0
176
     1
 90
        0
176
     1
290
     0
176
     1
 90
       13
176
     1
 40
0.0
176
     1
 90
        0
176
     1
290
     0
176
     1
290
     1
176
     1
290
     1
176
     1
290
     0
176
     1
290
     0
176
     1
290
     0
176
     1
290
     0
176
     1
290
     0
176
     1
290
     0
176
     1
 90
       50
176
     1
 40
0.0
176
     1
 40
1.0
176
     1
 90
        0
176
     1
 62
    18
420
        0
176
     1
 90
       50
176
     1
 90
        3
176
     1
 62
     5
420
      255
176
     1
290
     0
176
     1
 90
       50
176
     1
 90
       50
176
     1
 90
       50
176
     1
290
     0
176
     1
 90
       50
176
     1
 62
   256
176
     0
 40
1.0
176
     0
 90
        2
176
     1
  1
strokes_ogs.tif
176
     1
290
     0
176
     1
 40
1.0
176
     1
 40
1.0
176
     1
  0
DICTIONARYVAR
  5
F0
102
{ACAD_REACTORS
330
66
102
}
330
66
100
DictionaryVariables
280
     0
  1
1:1
  0
DICTIONARYVAR
  5
EF
102
{ACAD_REACTORS
330
66
102
}
330
66
100
DictionaryVariables
280
     0
  1
STANDARD
  0
DICTIONARYVAR
  5
89
102
{ACAD_REACTORS
330
66
102
}
330
66
100
DictionaryVariables
280
     0
  1
STANDARD
  0
DICTIONARYVAR
  5
1B7
102
{ACAD_REACTORS
330
66
102
}
330
66
100
DictionaryVariables
280
     0
  1
Imperial24
  0
DICTIONARYVAR
  5
1B8
102
{ACAD_REACTORS
330
66
102
}
330
66
100
DictionaryVariables
280
     0
  1
Imperial24
  0
DICTIONARYVAR
  5
67
102
{ACAD_REACTORS
330
66
102
}
330
66
100
DictionaryVariables
280
     0
  1
2
  0
DICTIONARYVAR
  5
6B
102
{ACAD_REACTORS
330
66
102
}
330
66
100
DictionaryVariables
280
     0
  1
1
  0
DICTIONARYVAR
  5
A52
102
{ACAD_REACTORS
330
66
102
}
330
66
100
DictionaryVariables
280
     0
  1
BYLAYER
  0
DICTIONARYVAR
  5
A51
102
{ACAD_REACTORS
330
66
102
}
330
66
100
DictionaryVariables
280
     0
  1
ByLayer
  0
DICTIONARYVAR
  5
14D
102
{ACAD_REACTORS
330
66
102
}
330
66
100
DictionaryVariables
280
     0
  1
0
  0
DICTIONARYVAR
  5
14E
102
{ACAD_REACTORS
330
66
102
}
330
66
100
DictionaryVariables
280
     0
  1
0
  0
DICTIONARY
  5
194
330
22
100
AcDbDictionary
280
     1
281
     1
  0
DICTIONARY
  5
188
330
97
100
AcDbDictionary
280
     1
281
     1
  3
FBXASSET
360
189
  0
DICTIONARY
  5
186
330
96
100
AcDbDictionary
280
     1
281
     1
  3
FBXASSET
360
187
  0
DICTIONARY
  5
110
330
98
100
AcDbDictionary
280
     1
281
     1
  3
BUMPTILE
360
112
  3
DIFFUSETILE
360
111
  3
FBXASSET
360
18A
  3
OPACITYTILE
360
113
  3
REFLECTIONTILE
360
114
  0
DICTIONARY
  5
104
330
87
100
AcDbDictionary
280
     1
281
     1
  3
ACAD_ROUNDTRIP_2008_TABLESTYLE_CELLSTYLEMAP
360
175A
  0
XRECORD
  5
189
102
{ACAD_REACTORS
330
188
102
}
330
188
100
AcDbXrecord
280
     1
 70
     1
 90
429727718
  1
508B35C9-AEE7-456F-BE74-D52651303AC6
310
504B03040A0000080000B670623B3DEE336E79000000790000001B0000006175746F6465736B2D64657369676E2D7061636B6167652E786D6C3C3F786D6C2076657273696F6E3D22312E302220656E636F64696E673D227574662D3822203F3E3C666F726D6174733E3C666F726D61743E687474703A2F2F736368656D612E
310
6175746F6465736B2E636F6D2F64657369676E2D7061636B6167652F323030393C2F666F726D61743E3C2F666F726D6174733E504B0304140006080800B670623BD486FD9CA0000000F4000000130000005B436F6E74656E745F54797065735D2E786D6C7D8EC10E82300C865F65E91D8A1E8C310C0EEA1BF002731658846E
310
D98AC1B77784ABF1D8FE5FBFBF75BBCE937A534CCEB38643598122B6FEE978D0B0485F9C41B54DDD7D022595594E1A469170414C76A4D9A4D207E29CF43ECE46F218070CC6BECC4078ACAA135ACF422C856C0E68EA1BF5669944DDD7BCDE7B1F8E415D77AECB980613C2E4AC91FC167A2B244592486606FC29C8FD7F045B9A
310
EF7053A7E60B504B0304140006080800B670623B28ED286BEB0000007C01000008000000636F72652E786D6C8D90416EC3201045AF82665B6183218D6D61A254764FD00B204C5C94182C03558F5F9C3852BBEB6A467FFE9B197D71FA9E6FE8CBACC17AD7012D0820E3B41FAD9B3A48F1826B40272956EFE32F1B20A766D3C1
310
268314D3EAD3B24BDABB685CCCAAF3A3D94515828980F42D371D04FD696655A814B3235C8B45E9AB9A4C419F5D8653B2237A1CB163DE672FD6AC209BF3C08E0D1B30EB19C3FC9D72FCC6EB231EFA33EDE96BDD341517E5064B11EDFCBCAF57A3A2194156843498524CAA0FCA5B7268F9E185D42D21A2DCEC7FA0B48CFF8492
310
759155FBBB0F2C80A4F991FB408A72CB22977B50B96EB9C91F504B0304140006080800B670623B55019EA25F0000007C00000007000000636E782E786D6C4DCB3B0E80201045D1AD90E915ED2CF8AC45050C11660C8261F98AB1B07AC9C97D42D718D865D3E909258CFD00CCE24AC6E326A164D74DC0B4128928FF32603847
310
2BA13128B1252AC747C6BAB984FC68F0B87FE8960A5C09FE86CFB69FBA01504B0304140006080800B670623B7BC41AC871010000D40300000C0000006662782F636F72652E786D6CC553ED6E8320147D15C2DF4501B56B6D90A64BBB27D80B50A5CE54C120983EFEAE1F4DD7A56BBA5FF3879273EEE59E7310BE393735EA95
310
ED2AA333CC428A91D2B9292A5D66D8BB63B0C26823B835C67D2BC348CB46657880B1E0A535BE9DA1DC68A7B403549B42CDA0EC3AE530CA6B5864B8CB3F552343E91D5474A7B095F949962A6421D0502778E72C0840D390E18DC5F170E664C205F7BE2A66B62A605A75AC94C522DDEEE3651AEF837817C741F2CE92E02D592D
310
83FD6ECB76EC7595A651C2C9D02CB8AB9A8BBADC2AE954814544691A3016D0E883256BBA58278B17BA5A53CAC9507ED3E4DBE2C9265F691747B3DCA9ADC382819091F8E1162272A8933DE82182932144F88C09DF060D8140C84E1EEA8B8F1340BDCA9DB1093085F157AA97B557309586747CD0EF0B4EA64E983A6E0EAEEFCE
310
889E9EF17847386AA94B30211D2C0FDE0D3AF9A4610EAD5536E8DD1969631B593F67E381C33F5157F17725E5A636F6BF1491F980C8FC7B90E13E8A2F504B0304140006080800B670623B70102A487D0000009D0000000B0000006662782F636E782E786D6C4DCCD10A83201886E15B91FFDC95A5C30335ACCDFB886521330D
310
A76397BF1A1DECE883878F57749FD5A3B74D2F17830472A901D9F088930B8B849267CC01754AA418F3DF0D5018572BE160506249B16C274D761E8BCFBB7A179E27F65CB39A0F14D396184C9921B81F34C3ACA1B4B99ABB6E6F062A25AA5F69DF23ACBE504B0304140006080800B670623B3610CA3329010000120200003100
310
00006662782F42384135303843342D343331462D343546312D424341352D3532343432364645413344462F636F72652E786D6C8D515B6EC32010BC0AE22B55850D0E446E848992B43E412FE000495162B07854397EA176A4F62F3F2C9A9D991D58BEBB8F37F0AD7D30CE76905418026DA553C65E3A98E219B510EC04F7CEC5
310
3F3408EC30EA0E16180A7EF12E4D0B249D8DDAC68C5AA7F4020E21E80881BCE54B0783FCD2E3500D296646B856D320AFC34557A4CAEDCC133C449F0380794839A138B47B86DB2345744D7A44594FD0E1B867883594369BFE63BF7EEF793D0B054FC9A8456E548E63CE46FB674D8A58F068C6477CE9F510B582A2C1F80D1182
310
70F349E816B32D65AFB8DD62CCEB42FF274A937A52948C8DEB66893BCB021484D7734370E5D2E9F608A3EF93F3119479ABA0E50B14B8C298119A43CCC4FCFCECB8A18B6388CEE7EF5D5D4F994BD86CBBA182D76543B9FCAE2FD7B24DF103504B0304140006080800B670623B1B8617914E0100003303000030000000666278
310
2F42384135303843342D343331462D343546312D424341352D3532343432364645413344462F636E782E786D6CD593C16EC32010447F0571AD6CE3D489D20813A9877E410FBD62D82434182CC055F3F75D1292E692438FBD206B7698593D61BEFD1E2DF982108D773D6D6B460938E5B571FB9ECE6957AD29D90A1EBC4F7736
310
4A9C1CA1A759A682EF839FA72269D8C9D92654AD71C72206887E0E0A22CAF926B15E498B01E0AA19451807D01A34B919F16B070157417138917400F2F6FA41FCF0092A45DEE414C19BDC21783E4BD39D891265658C3D8DEA00A3ACE59CBC8678ACB54CB26EEB6BD7839D7E9348BE70AD9C8321B9BCA7F9A4A26C542347DEE0
310
50F09802D22BA6749A800A394DD62899107273365E3C82CFC6A55557BC06C10774B7ABE7AEC3B0F34CF06446280E154026D0542C187BA9DAB6628BF7B6DBB0E5A65B3EB1F58631DE64BBE083F7B65CC218087E22CABB042E51D1F2268F1FE12B3EA24D40D63E9CFE00120194D60B9D5BC67FE6D39CDF37E20AF817881F504B
310
0304140006080800B670623BBFEF2E3B690500003C100000340000006662782F42384135303843342D343331462D343546312D424341352D3532343432364645413344462F6F626A656374732E786D6CAD575D739B3814FD2B0CFB0C98D84E931D4227B6938EA793B6534F3BFB90198F0099B001899144EAECAFDF231018B0
310
D37A3FFC609090EEE7B94757C1FB7D915B2F54C88CB31BDB7727B64559CC938CA53776A576CE956DBD0F03C1B9EA2DB32D460A7A63EB693B0C52C1ABD24C257447AA5C8D66EF177F5832A68CDA569C13296F6C193FD182B8A4523CA1F2D94D88226EBADBBBBEDB2C1C8A4D05299F46424B222853B014F30C52ACC6287F389C
310
D85E1878FA7B18E87FB36AFAF62AAFF667A83F635211161F291B8999FAB3D5DDC5FCDA99CF6653677679E13B8BFBC5CAF1DF4D27CBCBE5F2FAF6EE1A8AA51290642C117467871F101B91C581D77CEA2C36869F3229E68CD1B8F61F1ED6361B89092D294B90C78C4A68EB793D190E7D1D9BDEE7A91E1B95FDE9F3BCEAEFE809
310
6A6D6F9F7D4B79F4275C90E7A04248AA51D5C4C738DAE06F72885AC4796EBE65D22A88A22223B995679120E2D50EB1542F098381188D4EA111AE3DB043FF20AF6F2B4AE3D7D83D65E5AECA730D4D3BAC91BD05FEA992B565D95F549CD6069B90AB2A63EACA38A45E4B6A87D781574F86817E4C2FCCC72690D62E2729520E37
310
9BAF234797BAF6D62B3BFC781FED37BA1E4F2B2F052FA9501A3E80569BB8F6A9A364D4FA67654E6F803383981F82F21591FF84F23D9882BC896C3FDBCF8C162508933B2E0AE4C69DD43F6BD2BE38DDDBF10BF86CB4FA784D37F3AF16075E67EC9030DECA1FC0A55373F5DFF3378C591FA9BDF485C10B0A8C8BA909E5262639
310
A8E72163488806A595734C81CB77D1DE0ED7604A303B76913CEC0272F412782FF88EFF4636D8AA56DF7B322474C4B767303F625997056C7B032C473C592B36CEBD15F3F9FF5233B7ABCDC74D257624A60F8658567497B14CE1EC3C80B76FD02011038F9EE9EB0F2E12387A9C844D3F09855125116D1D731DF8B43D2CF4E0A0
310
79A020C6BE946BCE0B7EA1E1219331CD73C228AF5A2DDD31A4B1DA918CE91350854D40A71723140BFA92E94E62B0626016CEFA5864A50E5977E8753CEDBEE1CBB7F52780D20E17AF0BA0F5F9B02A3AD07DCC732EB6D1EBB661421BE0C39E21BABF0FE16D22EA6929407C8DE596724C88B749B6DB5512BC7B228ADFD7CB7EA6
310
3A22397E690BA8D5D8D4E40CEC8CDA23C2C0B7D5898640101CEC9C6D331CE328CB93CAFBBAC70A642DF70DF95155945B52F08AA973C23469FD69ADEF84F7BB18F983A8F8C90E37F5D35980B2139A1C523540813E824EF83448CF7C72B598CE97D7CEEDDDDD3B6736BFBC771677EF66CE6A7E7139F7A793E9EDF2B2B3A8B624
310
0CDA13AA5F8388264EC4A0129909F3B7F5A16CEDF08128E97D680ACA4B9BE7B7B58BB638F0B00700EF36AE8B32A705658A68F83EE897FC2B41573190D1CCAF0B92D233A47CFEB019D9809933F67DD1A5467F8CF69AD9A5AE859342D45355448C64F968A371DC2D596ADC6E43D93D1B466F877A64E2893E54F23C4B40388995
310
525E5005DA3983ED45412510D3EFCA13737B3863F74BD30F2A12E5B4B5E489A025CE25500DB855B11ACE5BBFA185D35DD48D8DC3CE7DC69F2944DB42AA6F6CF09BCA622ADD08C7A36E7C6AE18000BAB08E040135C2D21C9D75B3A91B77BB746C403F38018DFE6EC939DD92F16B40BC05294B9CDA035AAD6D330AE27FE4786B
310
8E45145EA34A75BE1C263A676A35A8ACC6297337400BF16C54EF515F3F77CB77EB3583889C754FFA29081AA98E2222ADEF05DA3E63D2EDEA8B8756C05A7FB6CABC4A91CBF325398202CC952E70A008A830324BA200D5E5EF8F5F04C75DB4B0EE3340E071C98B823333B83577596BF3849B69F2085AA0FAFA212F26BEFF5877
310
FDE622B28D88A42E49E43326DA82D31E8CB006401E1DA726059ECEC168F97A6599036306A135688F9AD2E61A6EA178F4CD51974A9F2CCB9F36FE5EBD14601068D9C3BF01504B0304140006080000B670623B000000000000000000000000350000006662782F42384135303843342D343331462D343546312D424341352D35
310
32343432364645413344462F76657274696365732E62696E504B0304140006080800B670623BF270F1330600000004000000360000006662782F42384135303843342D343331462D343546312D424341352D3532343432364645413344462F747269616E676C65732E62696E636660600000504B0304140006080000B67062
310
3B000000000000000000000000370000006662782F42384135303843342D343331462D343546312D424341352D3532343432364645413344462F617474726962757465732E62696E504B0304140006080800B670623B08DA0BD19000000041010000360000006662782F42384135303843342D343331462D343546312D4243
310
41352D3532343432364645413344462F6469726563746F72792E786D6C858F410AC3201045AF22B36F53E9A60B35CBEEBAE80D244E44489C6234F4F835464A48035D0DF398FF9F8AF63D0E6CC63039F212F8F9020C7D47C6792B21C5FE7403D62A1188E2E60C98D7234A5830286103A55745067B9D86B8A3CF9C7F90C11DE6
310
07FB144396D7B6A82D282E9A152AD114D5EF2CB866EEE831B8EEA07A7BB5A8D7D61A2BAAEB7FD5F70921FF497D00504B0304140006080800B670623B3B4606F3FE000000A00100003B0000006662782F42384135303843342D343331462D343546312D424341352D3532343432364645413344462F7265736F75726365732F
310
636F72652E786D6C8D504B6E833010BD0A9A6D65B08134808CA354A427E8052C332156828DFCA97AFC9A40A576D7CDCCE87D344F8F9FBEE647F689CE6B6B7A6039850C8DB2A336530F315C4903D94970676DF82583CCC8197B5861107C72362E3BA4AC096842428D1D7107A5F71820538F74F4E0D50D6799CB1892C2DFF345
310
AABB9C306779A2934E701F5C0A906D4FD609C2A1B7D129F4BCD858C163D4E3AED163FAA9AF1A1D88F67CA98E6D35906AA82A52BFB39ABCD5CD915C86331BD86BD3B665CD8BD52C78D0F34F46E550061C419494B6843142CB0F5677F4D0D58717DA7494F26295FF31C565FCA7296A13AA728FBBD93C0896823C09C18BB5AFB4
310
9E65A6BD762BBE01504B010214000A0000080000B670623B3DEE336E79000000790000001B00000000000000000000000000000000006175746F6465736B2D64657369676E2D7061636B6167652E786D6C504B01021400140006080800B670623BD486FD9CA0000000F40000001300000000000000000000000000B2000000
310
5B436F6E74656E745F54797065735D2E786D6C504B01021400140006080800B670623B28ED286BEB0000007C010000080000000000000000000000000083010000636F72652E786D6C504B01021400140006080800B670623B55019EA25F0000007C000000070000000000000000000000000094020000636E782E786D6C50
310
4B01021400140006080800B670623B7BC41AC871010000D40300000C00000000000000000000000000180300006662782F636F72652E786D6C504B01021400140006080800B670623B70102A487D0000009D0000000B00000000000000000000000000B30400006662782F636E782E786D6C504B01021400140006080800B6
310
70623B3610CA3329010000120200003100000000000000000000000000590500006662782F42384135303843342D343331462D343546312D424341352D3532343432364645413344462F636F72652E786D6C504B01021400140006080800B670623B1B8617914E010000330300003000000000000000000000000000D10600
310
006662782F42384135303843342D343331462D343546312D424341352D3532343432364645413344462F636E782E786D6C504B01021400140006080800B670623BBFEF2E3B690500003C10000034000000000000000000000000006D0800006662782F42384135303843342D343331462D343546312D424341352D35323434
310
32364645413344462F6F626A656374732E786D6C504B01021400140006080000B670623B0000000000000000000000003500000000000000000000000000280E00006662782F42384135303843342D343331462D343546312D424341352D3532343432364645413344462F76657274696365732E62696E504B010214001400
310
06080800B670623BF270F133060000000400000036000000000000000000000000007B0E00006662782F42384135303843342D343331462D343546312D424341352D3532343432364645413344462F747269616E676C65732E62696E504B01021400140006080000B670623B00000000000000000000000037000000000000
310
00000000000000D50E00006662782F42384135303843342D343331462D343546312D424341352D3532343432364645413344462F617474726962757465732E62696E504B01021400140006080800B670623B08DA0BD1900000004101000036000000000000000000000000002A0F00006662782F42384135303843342D3433
310
31462D343546312D424341352D3532343432364645413344462F6469726563746F72792E786D6C504B01021400140006080800B670623B3B4606F3FE000000A00100003B000000000000000000000000000E1000006662782F42384135303843342D343331462D343546312D424341352D3532343432364645413344462F72
310
65736F75726365732F636F72652E786D6C504B0506000000000E000E0080040000651100000000
  0
XRECORD
  5
187
102
{ACAD_REACTORS
330
186
102
}
330
186
100
AcDbXrecord
280
     1
 70
     1
 90
429727718
  1
887D55A9-D0DD-414E-B741-A7DCD4DA2B4C
310
504B03040A0000080000B670623B3DEE336E79000000790000001B0000006175746F6465736B2D64657369676E2D7061636B6167652E786D6C3C3F786D6C2076657273696F6E3D22312E302220656E636F64696E673D227574662D3822203F3E3C666F726D6174733E3C666F726D61743E687474703A2F2F736368656D612E
310
6175746F6465736B2E636F6D2F64657369676E2D7061636B6167652F323030393C2F666F726D61743E3C2F666F726D6174733E504B0304140006080800B670623BD486FD9CA0000000F4000000130000005B436F6E74656E745F54797065735D2E786D6C7D8EC10E82300C865F65E91D8A1E8C310C0EEA1BF002731658846E
310
D98AC1B77784ABF1D8FE5FBFBF75BBCE937A534CCEB38643598122B6FEE978D0B0485F9C41B54DDD7D022595594E1A469170414C76A4D9A4D207E29CF43ECE46F218070CC6BECC4078ACAA135ACF422C856C0E68EA1BF5669944DDD7BCDE7B1F8E415D77AECB980613C2E4AC91FC167A2B244592486606FC29C8FD7F045B9A
310
EF7053A7E60B504B0304140006080800B670623BBC1638F5EC0000007C01000008000000636F72652E786D6C8D90416EC3201045AF82665B61836BE2D8C24471DB9CA01740401C94182C03558F5F9C3852BBEB6A467FFE9B197D7EF89E6EE8CB2CC17AD7032D0820E394D7D68D3DA478C67B4007C117EFE32F1B202727D3C3
310
2A83E0E3E2D3BC49CABB685CCCAAF3DA6CA20CC14440EA969B1E82BA98491632C5EC08D76296EA2A4753D06797E194AC468F2356E77DF66CCD02825543D50CACC62D39ED70FDC68EB8FD68F6F8787A6784342D1DDA1D2F5758F068A7E77DB518198D065111D2624A31A93E69DD11D6D5EC85EC3B4278B9DAFF4069D6FF8492
310
75F1B5DADE7D600104CD8FDC0782976B16B9DC83CA75CD4DFC00504B0304140006080800B670623B55019EA25F0000007C00000007000000636E782E786D6C4DCB3B0E80201045D1AD90E915ED2CF8AC45050C11660C8261F98AB1B07AC9C97D42D718D865D3E909258CFD00CCE24AC6E326A164D74DC0B4128928FF326038
310
472BA13128B1252AC747C6BAB984FC68F0B87FE8960A5C09FE86CFB69FBA01504B0304140006080800B670623B3586FFB671010000D40300000C0000006662782F636F72652E786D6CC553ED6E8320147D15C2DF4541A76D6D90A6DDD627D80B50A4CE54C120983EFEAE1F4DD7A55BBA5FF3879273EEE59E7310B6393735EA
310
95ED2AA3731C851423A5A5292A5DE6D8BB63B0C268C39935C67D29C3488B46E578803167A535BE9D2169B453DA01AA4DA16650749D7218C91A1639EEE4876A4428BC838AEE14B6429E44A9C228041AEA38EB9C0501681A32BC313F1ECE8C4C3867DE57C5CC56054CAB8E95B298A7F12E5EEED224C8E87E11242FE936C8DE96
310
AB60BB7F4D295D66D12E5B30323473E6AAE6A24E5A259C2A308F29CD82280A68FC1E256B9AAE93F489AED694323294DF34F9B678B0C957DA3DC7B3DCA9ADC33C022123F1CD2D44E450277AD04338234388F01913BE0D1A0281909D38D4171F27807A259DB1093085F157AA17B557309586747CD0CF0B46A64E983A6E0EAEEF
310
CE881F9EF1FB8E70D44297604238581EBC1B74B249C31C5AAB6CD0BB33D2C636A27ECCC62F0EFF445DC5DF95244D6DEC7F2922F30191F9F720C37DE49F504B0304140006080800B670623B4220A0FF7D0000009D0000000B0000006662782F636E782E786D6C4DCCD10A83201886E15B91FFDCE542CB0335D0EC3E6259C84A
310
C3E9D8E5AF46073BFAE0E1E315DD675BD1DBA5978F41C2FD4600B9F088930F8B849267CC01754AA418F3DF0D50183727E164506249B1EC174D6E1ECB9A0F5D7D785E68DB8151CD286E5A5363CA6B8A39E90D36D40E96B086F55A43A544F52B1D7B86D517504B0304140006080800B670623B2FA3FEDE290100001202000031
310
0000006662782F45374635344235342D363743322D343832342D383044432D4334454645303536354442422F636F72652E786D6C8D515B6EC32010BC0AE22B55850D2E386E848994D7097A0117488A1283C5A3CAF10BB523B57FF961D1ECCCECC0F2ED7DBC816FED8371B687A4C210682B9D32F6D2C314CFA883602BB8772E
310
FEA141608751F7B0C050F08B77695A20E96CD43666D43AA5177008414708E42D5F7A18E4971E876A483133C2B59A06791D2EBA22556E679EE021FA1C00CC43CA09C5717D6274C7286AD7FB06D1AEA1A8C3873DDAD3E3E98859CB0EBB1DAF67A1E02919B5C88DCA71CCD968FFAC49110B1ECDF8882FBD1EA256503418BF2342
310
106E3E08DD60B6A1EC15771B8C795DE8FF4469524F8A92B1F1AD59E2CEB20005E1F5DC105CB9F4797B84D1F7C9F908CABC55D0F2050A5C61CC1AD2F27A26E6E767C7962E8E213A9FBF7775FDCC5CC266DB960A5E970DE5F2BBBE5CCB36C50F504B0304140006080800B670623B1B8617914E01000033030000300000006662
310
782F45374635344235342D363743322D343832342D383044432D4334454645303536354442422F636E782E786D6CD593C16EC32010447F0571AD6CE3D489D20813A9877E410FBD62D82434182CC055F3F75D1292E692438FBD206B7698593D61BEFD1E2DF982108D773D6D6B460938E5B571FB9ECE6957AD29D90A1EBC4F77
310
364A9C1CA1A759A682EF839FA72269D8C9D92654AD71C72206887E0E0A22CAF926B15E498B01E0AA19451807D01A34B919F16B070157417138917400F2F6FA41FCF0092A45DEE414C19BDC21783E4BD39D891265658C3D8DEA00A3ACE59CBC8678ACB54CB26EEB6BD7839D7E9348BE70AD9C8321B9BCA7F9A4A26C542347DE
310
E050F09802D22BA6749A800A394DD62899107273365E3C82CFC6A55557BC06C10774B7ABE7AEC3B0F34CF06446280E154026D0542C187BA9DAB6628BF7B6DBB0E5A65B3EB1F58631DE64BBE083F7B65CC218087E22CABB042E51D1F2268F1FE12B3EA24D40D63E9CFE00120194D60B9D5BC67FE6D39CDF37E20AF817881F50
310
4B0304140006080800B670623B29652116630500003C100000340000006662782F45374635344235342D363743322D343832342D383044432D4334454645303536354442422F6F626A656374732E786D6CAD575D739B3814FD2B0CFB0C989834C90EA1639B24E3E9A6EDD4D3CE3E64C623834CD8006224913AFDF57B040203
310
B65BEF871F0C12D2FD3CF7E8CA7FBFCB33E3957291B2E2D674ED8969D02262715A24B76625B7D6B569BC0F7CCE98EC2D338D82E4F4D654D366E0279C55A59E8AE99654991CCDDECFFF3444440B6A1A514684B83545F44C7362934AB2988A173B2692D8C97667BB76B3702836E1A47C1E092D09A78584A5982F20C5688C7287
310
C389E904BEA3BE07BEFAD7ABA6A75739B53F43FD69212429A20365233153D70BEF2E2E6FAC4BCF9B5ADEBB0BD79ADFCF43CBBD9A4E16EF168B9BD9DD0D140BC921495BC2E9D60C1E101B9E46BED37CEA2CD6861F3329624541A3DA7F7858DBAC25C6B4A4458C3CA654405BCFEBC970E8AAD8F43E4FD558ABEC4F9FE7557F47
310
4F506B7BFBEC5BCA367FC105710E2AB8A00A554D7CB4A30DFE26FBA86D18CBF4B75418399194A72433B274C3097F33032C554B027F2046A1932B842B0FCCC0DDCBEBDB8AD2F835768F59B9ADB24C41D30C6A64AF817F2A456D59FA83F2E3DA60137255A585BCD60EC9B7929AC18DEFD49381AF1ED30BFDB109A4B1CD488294
310
C3CDE6EBC8D185AABD6568061FEE37BB95AAC7E3CA4BCE4ACAA5820FA0D526AE7DAA2869B5EE5999531BE0CC20E6FBA07C41E43FA27CF7A6206F3CDD793B4F6B919C1462CB788EDCD893FA674CDA17AB7B3B7C019F8D561FAEE966FED562DFE98C1D12C6A9FC015C2A35D7FF3D7FC398F591DA4B5FE0BFA2C0189FEA50AE22
310
92817A1ED3020951A03432862970F976B33383259812CC8E5D240BBA801CBCF8CE2BBEE3BF910DB6AAD5F79E05123AE2DB33981FB1ACCB02B69D00CB014FD68AB573A7627EF9BFD4CC2C5C7D58557C4B22FAA88925A4DBB44825CECE3D78FB060D1231F0E885BE7D673C86A3874958F593906B5502D1563157814FDAC3420D
310
F69A070A22EC4B98E23CFF171A1E5311D12C23056555ABA53B8614563B92D17D02AAB009E8F46284624E5F53D5490C560CCCC2591FF1B45421EB0EBD8EA7ED13BE7C5D7E0428CD60FEF60779EB13E6664FF711CB185F6FDED60D139A001FF60CD1FD6D086F1D51474901E26B2CB794A343BC8ED3EDB612E0DD2351FCB65CF4
310
33D511C9E14B5B40ADC6A6263DB0336A8F700DDF56271A024E70B0B3629DE21847591E55DED73D56206AB927E46FAABC5C939C55853C274C93D69FD6FA4E78BF8B11DF898C9ECD60553FAD39283BA6F18984AA23E8884F83F45C5F5F859797B31B2B9C84A1E5B9DE9D35BFF25C6B76152E422F9C5DCC3D847F5801ED09D5AF
310
41441327A25FF15487F9EB725FB666F048A4701E9A827292E6F97569A32DF61DEC01C0BB8DCBBCCC684E0B49147C1FD54BF685A0AB18C868E6973949E819523E3DAC463660E68C7D9F55A9D1EFA3BD7A76A16AE1A810F95CE59B82A4D968A376DC2E8B44BBDD86B27B368CDE0ED548C7137DA860591A83706223A12CA712B4
310
7306DBF39C0A20A6DF95C7FAF670C6EED7A61F946493D1D6926782963813403548A78AE470DEF80D2D9CEAA26E4D1C76F60BFE74219A06527D6B82DF641A51616F703CAAC6A7160E08A00BEB4810A0274592A1B36E3675E36E978A0DE80727A0D6DF2D39A75BD27E0D8837276589537B40ABB56D5A41F48F1C6FCD3188C4EB
310
A6929D2FFB89CE995A4D00AE813BDD032DC48B56BD437DFDDC2DD7AED70C2272D63DE9A72068A45A92F0A4BE17A8A06B9366E16707AD80B1FC649459952097E74BB23805982B55E0401150A165964402AA8BDF9F3E7386BB686EDCA780C0D382E5392BF460A6EFB2C6EA1937D3F809B440D5F5435C4C5CF7A9EEFAF54564BD
310
2182DA24162F98680B4E7930C21A0079709CEAEB99A372305ABE0C0D7D6078105A83F6A0296DAEE1068A47DD1C55A9F4C9B2FC69E3EFD44B81028E963DF81B504B0304140006080000B670623B000000000000000000000000350000006662782F45374635344235342D363743322D343832342D383044432D433445464530
310
3536354442422F76657274696365732E62696E504B0304140006080800B670623BF270F1330600000004000000360000006662782F45374635344235342D363743322D343832342D383044432D4334454645303536354442422F747269616E676C65732E62696E636660600000504B0304140006080000B670623B00000000
310
0000000000000000370000006662782F45374635344235342D363743322D343832342D383044432D4334454645303536354442422F617474726962757465732E62696E504B0304140006080800B670623B08DA0BD19000000041010000360000006662782F45374635344235342D363743322D343832342D383044432D4334
310
454645303536354442422F6469726563746F72792E786D6C858F410AC3201045AF22B36F53E9A60B35CBEEBAE80D244E44489C6234F4F835464A48035D0DF398FF9F8AF63D0E6CC63039F212F8F9020C7D47C6792B21C5FE7403D62A1188E2E60C98D7234A5830286103A55745067B9D86B8A3CF9C7F90C11DE607FB144396
310
D7B6A82D282E9A152AD114D5EF2CB866EEE831B8EEA07A7BB5A8D7D61A2BAAEB7FD5F70921FF497D00504B0304140006080800B670623B6378F24DFF000000A00100003B0000006662782F45374635344235342D363743322D343832342D383044432D4334454645303536354442422F7265736F75726365732F636F72652E
310
786D6C8D504B6E833010BD0A9A6D65B0094E42641C85B639412F6099496225D8C89FAAC7AF09546A77DDCC8CDE47F3F4C4F16B7C149FE88371B603565228D06A37187BED20C50BD9437194C23B177FC9A0B06AC40E6618A4B87A97A615D2CE46B431A3D60DB8822A048C50E8473E3A08FA86A32A558A5911EEE5A4F45D5DB1
310
6465A6B34E8A107D0E502C4FE609D26370C96B0CA25A58295232C3AA3143FE692E063D485EF7F5AEE71BD2D2F39634AFFC44DAF7DD9E9CCE6F9CD25DCBFA762BAAD92C4534E34F46ED51451C40D694B6843142EB0FD61C283F34FC85EE0F948A6A96FF31A569F8A729191B37F51A77B105902C0779125254735F793DCBCC7B
310
EE567E03504B010214000A0000080000B670623B3DEE336E79000000790000001B00000000000000000000000000000000006175746F6465736B2D64657369676E2D7061636B6167652E786D6C504B01021400140006080800B670623BD486FD9CA0000000F40000001300000000000000000000000000B20000005B436F6E
310
74656E745F54797065735D2E786D6C504B01021400140006080800B670623BBC1638F5EC0000007C010000080000000000000000000000000083010000636F72652E786D6C504B01021400140006080800B670623B55019EA25F0000007C000000070000000000000000000000000095020000636E782E786D6C504B010214
310
00140006080800B670623B3586FFB671010000D40300000C00000000000000000000000000190300006662782F636F72652E786D6C504B01021400140006080800B670623B4220A0FF7D0000009D0000000B00000000000000000000000000B40400006662782F636E782E786D6C504B01021400140006080800B670623B2F
310
A3FEDE290100001202000031000000000000000000000000005A0500006662782F45374635344235342D363743322D343832342D383044432D4334454645303536354442422F636F72652E786D6C504B01021400140006080800B670623B1B8617914E010000330300003000000000000000000000000000D2060000666278
310
2F45374635344235342D363743322D343832342D383044432D4334454645303536354442422F636E782E786D6C504B01021400140006080800B670623B29652116630500003C10000034000000000000000000000000006E0800006662782F45374635344235342D363743322D343832342D383044432D4334454645303536
310
354442422F6F626A656374732E786D6C504B01021400140006080000B670623B0000000000000000000000003500000000000000000000000000230E00006662782F45374635344235342D363743322D343832342D383044432D4334454645303536354442422F76657274696365732E62696E504B01021400140006080800
310
B670623BF270F13306000000040000003600000000000000000000000000760E00006662782F45374635344235342D363743322D343832342D383044432D4334454645303536354442422F747269616E676C65732E62696E504B01021400140006080000B670623B0000000000000000000000003700000000000000000000
310
000000D00E00006662782F45374635344235342D363743322D343832342D383044432D4334454645303536354442422F617474726962757465732E62696E504B01021400140006080800B670623B08DA0BD190000000410100003600000000000000000000000000250F00006662782F45374635344235342D363743322D34
310
3832342D383044432D4334454645303536354442422F6469726563746F72792E786D6C504B01021400140006080800B670623B6378F24DFF000000A00100003B00000000000000000000000000091000006662782F45374635344235342D363743322D343832342D383044432D4334454645303536354442422F7265736F75
310
726365732F636F72652E786D6C504B0506000000000E000E0080040000611100000000
  0
XRECORD
  5
112
102
{ACAD_REACTORS
330
110
102
}
330
110
100
AcDbXrecord
280
     1
270
     1
271
     1
  0
XRECORD
  5
111
102
{ACAD_REACTORS
330
110
102
}
330
110
100
AcDbXrecord
280
     1
270
     1
271
     1
  0
XRECORD
  5
18A
102
{ACAD_REACTORS
330
110
102
}
330
110
100
AcDbXrecord
280
     1
 70
     0
 90
1778669749
  1
9BF507EE-FAF7-4A99-A33D-4EE51894BC40
310
504B03040A0000080000B670623B3DEE336E79000000790000001B0000006175746F6465736B2D64657369676E2D7061636B6167652E786D6C3C3F786D6C2076657273696F6E3D22312E302220656E636F64696E673D227574662D3822203F3E3C666F726D6174733E3C666F726D61743E687474703A2F2F736368656D612E
310
6175746F6465736B2E636F6D2F64657369676E2D7061636B6167652F323030393C2F666F726D61743E3C2F666F726D6174733E504B0304140006080800B670623BD486FD9CA0000000F4000000130000005B436F6E74656E745F54797065735D2E786D6C7D8EC10E82300C865F65E91D8A1E8C310C0EEA1BF002731658846E
310
D98AC1B77784ABF1D8FE5FBFBF75BBCE937A534CCEB38643598122B6FEE978D0B0485F9C41B54DDD7D022595594E1A469170414C76A4D9A4D207E29CF43ECE46F218070CC6BECC4078ACAA135ACF422C856C0E68EA1BF5669944DDD7BCDE7B1F8E415D77AECB980613C2E4AC91FC167A2B244592486606FC29C8FD7F045B9A
310
EF7053A7E60B504B0304140006080800B670623BCA089DFFEC0000007C01000008000000636F72652E786D6C8D90416E83301045AF62CDB632D8402020E32882F604BD80653BC44AB011B6AB1EBF262152BBEB6A467FFE9B197D76FA9EEFE84BAFDE38DB03CD08206DA553C64E3DC470C1474027CE56E7C22F1B202B66DDC3
310
260367D3EAE2B24BD2D9A06D48AA754AEFA2F05E0740F29E9A1EBCBCEA59642286E4F0B76C11F226269DD15797E0188D42CF2346A57DE662F40ABCAEC77628C6120F654571D50C04B7F5B9C1E3997CD4F550BE3745C3F20DE62C98F9755FAE5A04AD801784B498524C8A4F5A75E4D055873772EC0861F966FF03C545FD138A
310
C686B2D8DF7D621E384D8F3C069CE55B16A93C824A75CB8DFF00504B0304140006080800B670623B55019EA25F0000007C00000007000000636E782E786D6C4DCB3B0E80201045D1AD90E915ED2CF8AC45050C11660C8261F98AB1B07AC9C97D42D718D865D3E909258CFD00CCE24AC6E326A164D74DC0B4128928FF326038
310
472BA13128B1252AC747C6BAB984FC68F0B87FE8960A5C09FE86CFB69FBA01504B0304140006080800B670623B68FC0B7272010000D40300000C0000006662782F636F72652E786D6CC5535B6E833010BC8AE5DF0A6C1E8124328E22D29EA01770C0A128602363A31CBFCB234A53A555FA553EC09AD9F5CE8C31DB5DDA060D
310
D2F4B556190E7C8A9154852E6B5565D8D993B7C668C799D1DA7E29C3488956667884316795D1AE5BA0422B2B950554E9522EA0E87B69312A1A5864B82F3E642B7CE12C54F467BF13C55954D20F7CA0A18EB3DE1A1080E621E31BF3D3F1C2C88C73E65C5D2E6C5DC2B4FA544B8379921C36797888BC3C8A032F4E73EA6D927D
310
EA1DF6F42D49F2E8350D5346C666CE6CDD5ED515460A2B4BCC434A375E1078347C0FE22D5D6DE3D50B5D6F2965642CBF6B725DF96493AB958DC245EEDCD6631E809089F8E61622B2A81703E8219C913144F84C09DF070D8140C8561C9BAB8F3340832CAC363130A576376A108D933095FA747AD0CF0B46E64E983A6D0EAE1F
310
CE089F9EF1FB8E70D44255604258581E9D1D75B259C3125A278D37D80B52DAB4A279CEC62F0EFF44DDC43F9454E8469BFF5244960322CBEF41C6FBC83F01504B0304140006080800B670623B0F71DDB67E0000009D0000000B0000006662782F636E782E786D6C4DCCD10A83201886E15B91FFDCA54DB73F502386BB8F5816
310
32D3703976F9ABD1C18E3E78F87855FB990379BBFCF2296AE02706C4C5471A7C9C349475A408A4352AA7B4FEDD80C47E761A7606A3A69CCA72D0E0C6BE8475D3E0E3F3409428EA6B27A84079A782899AA2EC1A7AE3ECCC2FD858CB2D544655BFD2B67BD87C01504B0304140006080800B670623BE134B4FB28010000120200
310
00310000006662782F38353834323741342D343835462D343034322D383541392D4331303331363839454531452F636F72652E786D6C8D515B6EC32010BC0AE22B55850D0EA424C24451959EA0172086A42831583CAA1CBF503B52FB971F16CDCECC0EACD8DFC71BF836215AEF7A481A0C817183D7D65D7A98D3197108F652
310
04EFD31F1A044E8DA6871586525C82CFD3020DDE25E352419DD76601558C264130DCCAA58771F832A36A544E8511AFCDA486ABBA988634A55D7852C4144A00300FA927949C71DABD1D28A29C7D208A6987383B6CD13BC16BB2E1DBE3911C453B0BA5C8D9EA456E758963CFD684674DAA588A64C747FC2118958C86B2C3788B
310
0841B8FB247487D98EB257CC77188BB6D2FF89F2A49F1465EBD2BA5BE2CEB2082511EDDC9042FB7CBA3DC298FBE4430275DE2A9AE1054ADC60CC08E3A29D89E5F9C5714317C7987C28DFBBBA9E0A97B0D97643A568EB864AF95D5FA9759BF207504B0304140006080800B670623B1B8617914E010000330300003000000066
310
62782F38353834323741342D343835462D343034322D383541392D4331303331363839454531452F636E782E786D6CD593C16EC32010447F0571AD6CE3D489D20813A9877E410FBD62D82434182CC055F3F75D1292E692438FBD206B7698593D61BEFD1E2DF982108D773D6D6B460938E5B571FB9ECE6957AD29D90A1EBC4F
310
77364A9C1CA1A759A682EF839FA72269D8C9D92654AD71C72206887E0E0A22CAF926B15E498B01E0AA19451807D01A34B919F16B070157417138917400F2F6FA41FCF0092A45DEE414C19BDC21783E4BD39D891265658C3D8DEA00A3ACE59CBC8678ACB54CB26EEB6BD7839D7E9348BE70AD9C8321B9BCA7F9A4A26C542347
310
DEE050F09802D22BA6749A800A394DD62899107273365E3C82CFC6A55557BC06C10774B7ABE7AEC3B0F34CF06446280E154026D0542C187BA9DAB6628BF7B6DBB0E5A65B3EB1F58631DE64BBE083F7B65CC218087E22CABB042E51D1F2268F1FE12B3EA24D40D63E9CFE00120194D60B9D5BC67FE6D39CDF37E20AF817881F
310
504B0304140006080800B670623B5933D422630500003B100000340000006662782F38353834323741342D343835462D343034322D383541392D4331303331363839454531452F6F626A656374732E786D6CAD575B6FA33814FE2B887D0642934E9B156594264D158D3A534DD4D13E548A0C38942D60649B4EBABF7E3F8321
310
40924EF6928780CDF1B97EE762EFF32E4B8D37CA45C2F21BD3B547A641F39045491EDF98A5DC5AD7A6F1D9F73863B243661A39C9E88DA9B64DDF8B392B0BBD15D12D295339D85DDEFE618890E6D434C2940871638AF08566C426A5641115AF764424B1E3EDCE76ED9AB0CF36E6A47819302D08A7B984A6D8CFC1C5A89572FB
310
CB91E9F89EA3BEFB9EFAD754E3D3544E654F5F7E920B49F2F040D880CDD89D2CEE2E2EA7D6E56432B6269F2E5CEB7679BBB0DCABF168FE693E9FCEEEA6102C240727AD09A75BD3BF876F78127A4EFDA9D5582B7E4CA590E5390D2BFB6161A5B3E618D182E611E2985001691DAB47FDA5AB7CD3F93C566B2DB2BB7D9E55DD13
310
1D468DEECDB3AB290BFE8409E21C54704115AA6AFF68436BFC8DF65E0B184BF5B74418199194272435D224E084BF9B3E481589EFF5D828747285706581E9BB7B7E5D5D911ABFC6EE312DB7659A2A689A7E85EC0DF04FA5A8344BFEA2FCB834E8845895492EAFB541F2BDA0A63FF59C6AD3F7D4637CA13FD68E34B629891172
310
98597F1D183A57B9B75A98FE9765B05BAB7C3C2EBCE0ACA05C2AF8005A4DE09AA7F29216EB9E15397500C6F47CBE77CA7778FE2BD277AF0AE2C693DD6437D1522427B9D8329E2136F6A8FA19A3E6C56ADF0E5F50CF06D48734EDCEBF22F69C56D97EC138153F804B85E6FABFC7AFEFB32E523BE1F3BD372418E363EDCA7548
310
52949E8724474014288D94610BB57C1BEC4C7F854A89CA8E5324F55B871CBC78CE1BBEE3BFE68D6A5589EF3C730474506FCFA8FCF0659516D0ED04580EEA6425581B77CAE797FF4BCECC16EB2FEB926F49481F746159D06D922712BD730FDEAE42BD40F42C7AA5EF3F198F60E86110D6DD20645A9480B795CF95E3E3A659A8
310
C55E724F408873315335CFFB8584874484344D494E59D94869DB90C26A5B64F49C802CAC1D3ABE18A098D3B7444D123D8A9E5AE8F5214F0AE5B2B6E9B575DA3E61CBD3EA2B4009FA940524DD1305FB6A1FB294F14DF0BEA90BA109ECE1481FDC3FFAE8D60E75141700BE82725371B4873751B2DD960265F788137FACE6DD40
310
B575E4F0A5C99F46629D92131467A41EE11ABD8D4CCC039CA0AFB37C93A08B232B8F0AEFCA1E0A1015DF13FC83322B362463652ECF71D3A8B1A7D1BE65DE1D62C44F22C317D35F574FEB16153BA2D13E543D10A80E74C4A65E78A6B7CBCBD1D5DD9DB59C2DAFACC96C3AB566E3F1C29ADCDD5DBAD7D3C9ED7C822ED74F80A6
310
41755310DE4443F44A9E68373FADF6596BFA0F440AE7BECE2727AE9F4F2B1B53B1E7E00CF0DD1E5C65454A339A4BA2D0FBA05ED2EF0443458F47BDBFCA484CCFE0F2ED7E3DD0013B679C7B5499467F0ECEEADDB9CA85A34CE44B99053949D2C1416DB85DE4B136BB7165FBAC0B7AB3542BED4F8CA182A549847A1319316519
310
95A83A67147B9E5101C47487F2485F1ECE38FD568F839204296D3479219888530154036E6528FBFBC66F98E0D4107563A2D7D9AFF8D389681A08F58D89F22693900A3B407754734FC51C10C010D6D640809EE4718AC1BA3ED4AEDB53CA37283F68805A7E4B72CEB0A4EDEAD5DD8C14059A76AFAA56BA6901E13F32BC51C720
310
12AF41295B5BF61BAD3195181FB506E6B40F4C10AF5AF40EF9F5B159AE5DD1F43C72D635E94310D45C2D49785C5D0B94D3B54AB3C5A38349C0587D338AB48C11CBF339599C02CCA54A70A008A8D03C0B2201D5F9EFCF8F9CE12A9A19CB0410789EB32C63B95ECCF455D658BFE0621A3DA32C5075FB101723D77DAE867E7D0F
310
D90444509B44E2151B4DC2290B065803200FBAA9BE9D392A0603F2D5C2D00D6302A615680F66D2FA166E2079D4C551A54AB758161FCEFD4E450A14704CECFEDF504B0304140006080000B670623B000000000000000000000000350000006662782F38353834323741342D343835462D343034322D383541392D4331303331
310
363839454531452F76657274696365732E62696E504B0304140006080800B670623BF270F1330600000004000000360000006662782F38353834323741342D343835462D343034322D383541392D4331303331363839454531452F747269616E676C65732E62696E636660600000504B0304140006080000B670623B000000
310
000000000000000000370000006662782F38353834323741342D343835462D343034322D383541392D4331303331363839454531452F617474726962757465732E62696E504B0304140006080800B670623B08DA0BD19000000041010000360000006662782F38353834323741342D343835462D343034322D383541392D43
310
31303331363839454531452F6469726563746F72792E786D6C858F410AC3201045AF22B36F53E9A60B35CBEEBAE80D244E44489C6234F4F835464A48035D0DF398FF9F8AF63D0E6CC63039F212F8F9020C7D47C6792B21C5FE7403D62A1188E2E60C98D7234A5830286103A55745067B9D86B8A3CF9C7F90C11DE607FB1443
310
96D7B6A82D282E9A152AD114D5EF2CB866EEE831B8EEA07A7BB5A8D7D61A2BAAEB7FD5F70921FF497D00504B0304140006080800B670623BD9A3B367FE000000A00100003B0000006662782F38353834323741342D343835462D343034322D383541392D4331303331363839454531452F7265736F75726365732F636F7265
310
2E786D6C8D504B6E833010BD0A9A6D65B01D0201194711694FD00B586642AD043BF2A7EAF16B122AB5BB6E6646EFA3797AE2F8B5DC8A4FF4C1383B002B291468B59B8C9D0748F1420E501CA5F0CEC55F3228AC5A708015062966EFD27D83B4B3116DCCA875136EA00A012314FA968F0182FEC045952AC5AC08D7F2AEF455CD
310
58B232D3592745883E07289E4FD609D26370C96B0CA27AB252A464A64D63A6FCD35C0C7A904D73EE467EE664DCD58CD4ED4849D79C5A723ED1B7A61977AF2D6F45B59AA58866F9C9A83DAA8813484E6947182394BFB3BAA7FBBEDEBFD0434FA9A856F91F53BA4FFF342563E38E6F719FB60092E5200F428A6AED2BAF479979
310
AFDDCA6F504B010214000A0000080000B670623B3DEE336E79000000790000001B00000000000000000000000000000000006175746F6465736B2D64657369676E2D7061636B6167652E786D6C504B01021400140006080800B670623BD486FD9CA0000000F40000001300000000000000000000000000B20000005B436F6E
310
74656E745F54797065735D2E786D6C504B01021400140006080800B670623BCA089DFFEC0000007C010000080000000000000000000000000083010000636F72652E786D6C504B01021400140006080800B670623B55019EA25F0000007C000000070000000000000000000000000095020000636E782E786D6C504B010214
310
00140006080800B670623B68FC0B7272010000D40300000C00000000000000000000000000190300006662782F636F72652E786D6C504B01021400140006080800B670623B0F71DDB67E0000009D0000000B00000000000000000000000000B50400006662782F636E782E786D6C504B01021400140006080800B670623BE1
310
34B4FB280100001202000031000000000000000000000000005C0500006662782F38353834323741342D343835462D343034322D383541392D4331303331363839454531452F636F72652E786D6C504B01021400140006080800B670623B1B8617914E010000330300003000000000000000000000000000D3060000666278
310
2F38353834323741342D343835462D343034322D383541392D4331303331363839454531452F636E782E786D6C504B01021400140006080800B670623B5933D422630500003B10000034000000000000000000000000006F0800006662782F38353834323741342D343835462D343034322D383541392D4331303331363839
310
454531452F6F626A656374732E786D6C504B01021400140006080000B670623B0000000000000000000000003500000000000000000000000000240E00006662782F38353834323741342D343835462D343034322D383541392D4331303331363839454531452F76657274696365732E62696E504B01021400140006080800
310
B670623BF270F13306000000040000003600000000000000000000000000770E00006662782F38353834323741342D343835462D343034322D383541392D4331303331363839454531452F747269616E676C65732E62696E504B01021400140006080000B670623B0000000000000000000000003700000000000000000000
310
000000D10E00006662782F38353834323741342D343835462D343034322D383541392D4331303331363839454531452F617474726962757465732E62696E504B01021400140006080800B670623B08DA0BD190000000410100003600000000000000000000000000260F00006662782F38353834323741342D343835462D34
310
3034322D383541392D4331303331363839454531452F6469726563746F72792E786D6C504B01021400140006080800B670623BD9A3B367FE000000A00100003B000000000000000000000000000A1000006662782F38353834323741342D343835462D343034322D383541392D4331303331363839454531452F7265736F75
310
726365732F636F72652E786D6C504B0506000000000E000E0080040000611100000000
  0
XRECORD
  5
113
102
{ACAD_REACTORS
330
110
102
}
330
110
100
AcDbXrecord
280
     1
270
     1
271
     1
  0
XRECORD
  5
114
102
{ACAD_REACTORS
330
110
102
}
330
110
100
AcDbXrecord
280
     1
270
     1
271
     1
  0
CELLSTYLEMAP
  5
175A
102
{ACAD_REACTORS
330
104
102
}
330
104
100
AcDbCellStyleMap
 90
        3
300
CELLSTYLE
  1
TABLEFORMAT_BEGIN
 90
        5
170
     1
 91
        0
 92
    32768
 62
   257
 93
        1
300
CONTENTFORMAT
  1
CONTENTFORMAT_BEGIN
 90
        0
 91
        0
 92
      512
 93
        0
300

 40
0.0
140
1.0
 94
        5
 62
     0
340
11
144
0.25
309
CONTENTFORMAT_END
171
     1
301
MARGIN
  1
CELLMARGIN_BEGIN
 40
0.06
 40
0.06
 40
0.06
 40
0.06
 40
0.18
 40
0.18
309
CELLMARGIN_END
 94
        6
 95
        1
302
GRIDFORMAT
  1
GRIDFORMAT_BEGIN
 90
        0
 91
        1
 62
     0
 92
       -2
340
0
 93
        0
 40
0.045
309
GRIDFORMAT_END
 95
        2
302
GRIDFORMAT
  1
GRIDFORMAT_BEGIN
 90
        0
 91
        1
 62
     0
 92
       -2
340
0
 93
        0
 40
0.045
309
GRIDFORMAT_END
 95
        4
302
GRIDFORMAT
  1
GRIDFORMAT_BEGIN
 90
        0
 91
        1
 62
     0
 92
       -2
340
0
 93
        0
 40
0.045
309
GRIDFORMAT_END
 95
        8
302
GRIDFORMAT
  1
GRIDFORMAT_BEGIN
 90
        0
 91
        1
 62
     0
 92
       -2
340
0
 93
        0
 40
0.045
309
GRIDFORMAT_END
 95
       16
302
GRIDFORMAT
  1
GRIDFORMAT_BEGIN
 90
        0
 91
        1
 62
     0
 92
       -2
340
0
 93
        0
 40
0.045
309
GRIDFORMAT_END
 95
       32
302
GRIDFORMAT
  1
GRIDFORMAT_BEGIN
 90
        0
 91
        1
 62
     0
 92
       -2
340
0
 93
        0
 40
0.045
309
GRIDFORMAT_END
309
TABLEFORMAT_END
  1
CELLSTYLE_BEGIN
 90
        1
 91
        1
300
_TITLE
309
CELLSTYLE_END
300
CELLSTYLE
  1
TABLEFORMAT_BEGIN
 90
        5
170
     1
 91
        0
 92
        0
 62
   257
 93
        1
300
CONTENTFORMAT
  1
CONTENTFORMAT_BEGIN
 90
        0
 91
        0
 92
      512
 93
        0
300

 40
0.0
140
1.0
 94
        5
 62
     0
340
11
144
0.18
309
CONTENTFORMAT_END
171
     1
301
MARGIN
  1
CELLMARGIN_BEGIN
 40
0.06
 40
0.06
 40
0.06
 40
0.06
 40
0.18
 40
0.18
309
CELLMARGIN_END
 94
        6
 95
        1
302
GRIDFORMAT
  1
GRIDFORMAT_BEGIN
 90
        0
 91
        1
 62
     0
 92
       -2
340
0
 93
        0
 40
0.045
309
GRIDFORMAT_END
 95
        2
302
GRIDFORMAT
  1
GRIDFORMAT_BEGIN
 90
        0
 91
        1
 62
     0
 92
       -2
340
0
 93
        0
 40
0.045
309
GRIDFORMAT_END
 95
        4
302
GRIDFORMAT
  1
GRIDFORMAT_BEGIN
 90
        0
 91
        1
 62
     0
 92
       -2
340
0
 93
        0
 40
0.045
309
GRIDFORMAT_END
 95
        8
302
GRIDFORMAT
  1
GRIDFORMAT_BEGIN
 90
        0
 91
        1
 62
     0
 92
       -2
340
0
 93
        0
 40
0.045
309
GRIDFORMAT_END
 95
       16
302
GRIDFORMAT
  1
GRIDFORMAT_BEGIN
 90
        0
 91
        1
 62
     0
 92
       -2
340
0
 93
        0
 40
0.045
309
GRIDFORMAT_END
 95
       32
302
GRIDFORMAT
  1
GRIDFORMAT_BEGIN
 90
        0
 91
        1
 62
     0
 92
       -2
340
0
 93
        0
 40
0.045
309
GRIDFORMAT_END
309
TABLEFORMAT_END
  1
CELLSTYLE_BEGIN
 90
        2
 91
        1
300
_HEADER
309
CELLSTYLE_END
300
CELLSTYLE
  1
TABLEFORMAT_BEGIN
 90
        5
170
     1
 91
        0
 92
        0
 62
   257
 93
        1
300
CONTENTFORMAT
  1
CONTENTFORMAT_BEGIN
 90
        0
 91
        0
 92
      512
 93
        0
300

 40
0.0
140
1.0
 94
        2
 62
     0
340
11
144
0.18
309
CONTENTFORMAT_END
171
     1
301
MARGIN
  1
CELLMARGIN_BEGIN
 40
0.06
 40
0.06
 40
0.06
 40
0.06
 40
0.18
 40
0.18
309
CELLMARGIN_END
 94
        6
 95
        1
302
GRIDFORMAT
  1
GRIDFORMAT_BEGIN
 90
        0
 91
        1
 62
     0
 92
       -2
340
0
 93
        0
 40
0.045
309
GRIDFORMAT_END
 95
        2
302
GRIDFORMAT
  1
GRIDFORMAT_BEGIN
 90
        0
 91
        1
 62
     0
 92
       -2
340
0
 93
        0
 40
0.045
309
GRIDFORMAT_END
 95
        4
302
GRIDFORMAT
  1
GRIDFORMAT_BEGIN
 90
        0
 91
        1
 62
     0
 92
       -2
340
0
 93
        0
 40
0.045
309
GRIDFORMAT_END
 95
        8
302
GRIDFORMAT
  1
GRIDFORMAT_BEGIN
 90
        0
 91
        1
 62
     0
 92
       -2
340
0
 93
        0
 40
0.045
309
GRIDFORMAT_END
 95
       16
302
GRIDFORMAT
  1
GRIDFORMAT_BEGIN
 90
        0
 91
        1
 62
     0
 92
       -2
340
0
 93
        0
 40
0.045
309
GRIDFORMAT_END
 95
       32
302
GRIDFORMAT
  1
GRIDFORMAT_BEGIN
 90
        0
 91
        1
 62
     0
 92
       -2
340
0
 93
        0
 40
0.045
309
GRIDFORMAT_END
309
TABLEFORMAT_END
  1
CELLSTYLE_BEGIN
 90
        3
 91
        2
300
_DATA
309
CELLSTYLE_END
  0
ENDSEC
  0
SECTION
  2
ACDSDATA
 70
     2
 71
     8
  0
ACDSSCHEMA
 90
        0
  1
AcDb_Thumbnail_Schema
  2
AcDbDs::ID
280
    10
 91
        8
  2
Thumbnail_Data
280
    15
 91
        0
101
ACDSRECORD
 95
        0
 90
        1
  2
AcDbDs::TreatedAsObjectData
280
     1
291
     1
101
ACDSRECORD
 95
        0
 90
        2
  2
AcDbDs::Legacy
280
     1
291
     1
101
ACDSRECORD
  1
AcDbDs::ID
 90
        3
  2
AcDs:Indexable
280
     1
291
     1
101
ACDSRECORD
  1
AcDbDs::ID
 90
        4
  2
AcDbDs::HandleAttribute
280
     7
282
     1
  0
ACDSSCHEMA
 90
        1
  1
AcDbDs::TreatedAsObjectDataSchema
  2
AcDbDs::TreatedAsObjectData
280
     1
 91
        0
  0
ACDSSCHEMA
 90
        2
  1
AcDbDs::LegacySchema
  2
AcDbDs::Legacy
280
     1
 91
        0
  0
ACDSSCHEMA
 90
        3
  1
AcDbDs::IndexedPropertySchema
  2
AcDs:Indexable
280
     1
 91
        0
  0
ACDSSCHEMA
 90
        4
  1
AcDbDs::HandleAttributeSchema
  2
AcDbDs::HandleAttribute
280
     7
 91
        1
284
     1
  0
ACDSRECORD
 90
        0
  2
AcDbDs::ID
280
    10
320
59
  2
Thumbnail_Data
280
    15
 94
     2825
310
89504E470D0A1A0A0000000D4948445200000100000000C608030000000A6AAE4900000300504C5445FFFFFFFFFFFFFFFFFF0000000000000000000000000000000000000000000000000000330000660000990000CC0000FF0033000033330033660033990033CC0033FF0066000066330066660066990066CC0066FF0099
310
000099330099660099990099CC0099FF00CC0000CC3300CC6600CC9900CCCC00CCFF00FF0000FF3300FF6600FF9900FFCC00FFFF3300003300333300663300993300CC3300FF3333003333333333663333993333CC3333FF3366003366333366663366993366CC3366FF3399003399333399663399993399CC3399FF33CC00
310
33CC3333CC6633CC9933CCCC33CCFF33FF0033FF3333FF6633FF9933FFCC33FFFF6600006600336600666600996600CC6600FF6633006633336633666633996633CC6633FF6666006666336666666666996666CC6666FF6699006699336699666699996699CC6699FF66CC0066CC3366CC6666CC9966CCCC66CCFF66FF0066
310
FF3366FF6666FF9966FFCC66FFFF9900009900339900669900999900CC9900FF9933009933339933669933999933CC9933FF9966009966339966669966999966CC9966FF9999009999339999669999999999CC9999FF99CC0099CC3399CC6699CC9999CCCC99CCFF99FF0099FF3399FF6699FF9999FFCC99FFFFCC0000CC00
310
33CC0066CC0099CC00CCCC00FFCC3300CC3333CC3366CC3399CC33CCCC33FFCC6600CC6633CC6666CC6699CC66CCCC66FFCC9900CC9933CC9966CC9999CC99CCCC99FFCCCC00CCCC33CCCC66CCCC99CCCCCCCCCCFFCCFF00CCFF33CCFF66CCFF99CCFFCCCCFFFFFF0000FF0033FF0066FF0099FF00CCFF00FFFF3300FF3333
310
FF3366FF3399FF33CCFF33FFFF6600FF6633FF6666FF6699FF66CCFF66FFFF9900FF9933FF9966FF9999FF99CCFF99FFFFCC00FFCC33FFCC66FFCC99FFCCCCFFCCFFFFFF00FFFF33FFFF66FFFF99FFFFCCFFFFFF0000000D0D0D1A1A1A2828283535354343435050505D5D5D6B6B6B787878868686939393A1A1A1AEAEAEBB
310
BBBBC9C9C9D6D6D6E4E4E4F1F1F1FFFFFF000000000000000000000000000000000000000000000000000000000000AD4AB4E4000007AC4944415478DAED9D5992E42A0C45B5FF65DEEF5E44C7EB57956690840458E034EE88AA724E9D1C6B1606FAF3F2835E7D1C0007C0017000FC3B00FCFBF1AA9F1980A30207C0CB8ED7
310
ABC00170001C2F70BCC0F102C7061C0007C0F102C70B1C2F706CC0012003C0F38F41004EACF97FA97E83D02BDD6D04E11BBD48E50500F441AE8310A302A6E1AD411001C03C327C2700D0243D792800DFA0C211DC6E04DD03EAB28776FF1E0DA0EF8A02CEA1F783BC5B05708B6426D77CF47FBF1940BF466B51AA5DC281C702
310
A8AEB25BBB6D08B606D071C9DDDFE15E23B847168D9D00E457D27EC63D647EB7263EF7AA00EA07D075C63DE478F73E00D64880F63D6F05B051210DDF0AC01A02A3EF3B0E1AC18D00745EC26F02807815809EAE75A66FA68FB47FD5A702E8F82C7C1700B704C403007901D87180EE0630C108DABA497D591C8C559107035011
310
803A001062550034084041F0600053CA199DB5E8580092C68133679F5FC99FB8EA62C58304FE4D7A2EB90780EACAE0FF7F20147FFEFE02F720FBA6B912306C043D7579590278B1A0A6048CDB8051008EF11BC69D3D02FE6593018CAA80B56CAD4B37AB19605FB61900B3ADF74B00E80912E0686D796D00443C0F9580861768
310
2B805909228DE07D1200EA9580C85CE0BE521066BFF51E157009402BB56D65D156231808C0337EFC067C49C8579EB14F240430D0075F0C208BEF71D9F9E2EC678CD9F88B973D154092DEE072F13FE6BE3CFBF9998DDB6A0443CBE28E2A47EADF90B93AED8C3805D193A14800D0DD3E2F01A044BA493FCBC300533A1CDA1A03
310
7924E093E1255A8DCC1480043C8A0D58DA1C75D940C10BA43291FF294486B3D3F6200082174864BDB286452C68F202C1F3037C5343192FC0A97B06E4F206262F80CEE76E30824A32A4864255FC43D7AF7632140CC0DDE32ABD0035AD61AE0E2D09E8928E0115F06AC055E713E21F06C8F5BCC106EC0C80B7FB55FCC3BD2C55
310
830121DF48026A33F7B9EC92FD33E5027B03C89C6069F7F5F8E7A30E0D04E133459D12C084F545A6CBC53F74B9828617C0DE00B23820BFF46AFC93464BBA04C44F9676357CCB82EF35D22CFEC91C42F67C331708078096C41BBD402AF9A943289EE7BD40F2C85E00F46C50348192FD336583D80A40DB0B80F702C4A9C3965E
310
C06B03E5EAA716FF3009C43301545E802D8BB2F18F391BC4CE2A20B9B63C20CC42E43C3EDA2F17F0C6417954C3E4BD94F980323E3254841E21014CE89BEA815C2DB75484100A602017600B017CFC9316C4869460A75C40C87BD9F8A7D517780C00361BCCADA114FF58B3C1F0AA70573DA0D108917B87C6DE2036059089BC5C
310
0B55E68818BBC3DB00B06783452E2055CB6D9DA1DE493ED30168BD41C1D109F521BD2ACCDE76B9851194BAC375DE4B42C4539D19A7CAC601E8EC0C698D6075EEC03D93A416F506F946C8950AF24E72B7394218F102ACE467625FA60CFB4D95ED92002E1BAC6D635736180EA06B8E90DA0866DC9EA3373810B5CC9F2324E502
310
49D0CF25C4CC739E5C601D80F68D7D7236A84F99F17B011F80492AA0CCEF2C6E07121B217C6CD8E1057CE58B495365750948A37D69221C9704747A811500DA5FE95710A0CC8CE102A36CA2DCBE12608670C9FF6798DC9F7985CC33F65023A8D51FC464A8E5FF2A6FA81644CC4B0804DF300182D61841DBFF516A44C5C60808
310
2BBD0039BAF57963042DFF7745837A6364F9ADB35DF70D5ED37EA44952B537047DC57D834C15B81073C91B62280E8CBF77586D8CE466AE92F53A0874DD3011BC8082EFDE61A93D8ED23C3643E17DD611B2EAA5D61E47D13464F3A5DC0BCC0270E30A129A17A84A0168544A4B2F00EFBA0DAB01C8059124152AA341CD0B60D2
310
D70C0220B6C7E76E18B0663D4153BB52B96526D391246F88698F8F1B4163BF562C88E4634E94596E8F4B32B00880E9FF15DBE38ACE88ED710140F474793DF7802201F97D428AD110DAE3098064A668F86C71BDFC00DE0630318EE8CF32B798DA806455B28533454D12D07393B8CB0B004667B47A4D51BE3D8EE49A5E116FF2
310
80390E185CFDFD9E2535F34B45557B3CF102897A645E406C8CE0690098F6F8C7BB515E054CBC80D21881530657A8002B01D55490C44B523A3E78B2C13D0110CDDCA24B8D04B705708938C435D4AA7081099C1A8BE8ACDE61C2908368CBE6B000B457CF0410150A4BEB088900C8B38ED00300882B4991A202E695A416AB80B9
310
65BDA30484016819C91A80FF5376CC065B671600EDCF5A0B00A46483AD330300C367AD3582A0274BC0DD25B137D8800D002C0D850777D93A003400F6CDD6D601185C54B209C0B625C3E8869001DDE17B012CAC08A95305ED00CA77850198A702DA3C519F04F46C4FB22B00AE7E790B807565718B0AB437D1782E80D13D4197
310
03183582F6B5B57167204443ADF32037882D01C40542EA9C8E370020A203E04E00846700C06600C60B2278B604BC1EC097548468E51CA15D00ACAA08EDD018690BC0B6FB0E4FAA0A63ED149901021E0043FB98DE0BC05293E3BFAE0D40DF7EBD712AD036C1C5A8AB95401500C3430F01E0DA6E231D56BB284A738EDB01C87B
310
5EABF716267388801CC0BCC1C70090AEB4C97A03D544C8C9BB58DD6C04F9E1DABD5325F1D337F18A01908C01D3AFE15A1578FE3106E07B8F03E0ED008C46F000382A70001C0007C0318207C0518103E00038008E113C00BE5A05B2BDAF5FF1F3A8C00170001C0007C07F00FEBCFC783D80BF6125E2DC77A5FFA10000000049
310
454E44AE4260827B3D80BF31D300EF90070C8C0000000049454E44AE426082
  0
ACDSRECORD
 90
        0
  2
AcDbDs::ID
280
    10
320
22
  2
Thumbnail_Data
280
    15
 94
     1983
310
89504E470D0A1A0A0000000D494844520000010000000065080300000095E2CD0900000300504C5445000000FFFFFF0000000000000000000000000000000000000000000000000000000000330000660000990000CC0000FF0033000033330033660033990033CC0033FF0066000066330066660066990066CC0066FF0099
310
000099330099660099990099CC0099FF00CC0000CC3300CC6600CC9900CCCC00CCFF00FF0000FF3300FF6600FF9900FFCC00FFFF3300003300333300663300993300CC3300FF3333003333333333663333993333CC3333FF3366003366333366663366993366CC3366FF3399003399333399663399993399CC3399FF33CC00
310
33CC3333CC6633CC9933CCCC33CCFF33FF0033FF3333FF6633FF9933FFCC33FFFF6600006600336600666600996600CC6600FF6633006633336633666633996633CC6633FF6666006666336666666666996666CC6666FF6699006699336699666699996699CC6699FF66CC0066CC3366CC6666CC9966CCCC66CCFF66FF0066
310
FF3366FF6666FF9966FFCC66FFFF9900009900339900669900999900CC9900FF9933009933339933669933999933CC9933FF9966009966339966669966999966CC9966FF9999009999339999669999999999CC9999FF99CC0099CC3399CC6699CC9999CCCC99CCFF99FF0099FF3399FF6699FF9999FFCC99FFFFCC0000CC00
310
33CC0066CC0099CC00CCCC00FFCC3300CC3333CC3366CC3399CC33CCCC33FFCC6600CC6633CC6666CC6699CC66CCCC66FFCC9900CC9933CC9966CC9999CC99CCCC99FFCCCC00CCCC33CCCC66CCCC99CCCCCCCCCCFFCCFF00CCFF33CCFF66CCFF99CCFFCCCCFFFFFF0000FF0033FF0066FF0099FF00CCFF00FFFF3300FF3333
310
FF3366FF3399FF33CCFF33FFFF6600FF6633FF6666FF6699FF66CCFF66FFFF9900FF9933FF9966FF9999FF99CCFF99FFFFCC00FFCC33FFCC66FFCC99FFCCCCFFCCFFFFFF00FFFF33FFFF66FFFF99FFFFCCFFFFFF0000000D0D0D1A1A1A2828283535354343435050505D5D5D6B6B6B787878868686939393A1A1A1AEAEAEBB
310
BBBBC9C9C9D6D6D6E4E4E4F1F1F1FFFFFF0000000000000000000000000000000000000000000000000000000000003AE5ACE9000003D04944415478DAE55DDB72AC300CF3FFFFAFDE4F67CA257164272C4B4F14E8CC96A12C831545911D48CD9EDFF0B3D93B37600FFEDC7B57F4EFE54218E94B20C8A27C0304BD10C721D0
310
EC3403F7DC3905FBA629A0B8A11261B442185CE2375C9B7FA5E3A8005046FEA5AE351B00E72D93BD3A1E72B83D04B5F80DF11EAA70C8617626C47AC0B7192081C0176E11C5A6A703CF02303F059EBEC1E92900D28A598B268DCFBFA30F400605E8179500F071254DCF20C0401A04290948B9DF6ABCA903802442FC3A9AE303
310
5B86531C477D0E074A0800785BB88778EE03FCF8EF07F38CAA0CC096FC5DF814640092BFF0364EF6FF97D378C805DD61800C00793D63BCED9D060801607FC000E11E10BA43E2FD96EC016D94FED361A0960CE56E17760EFBE7AFD307780294752088F680A6EA55DB1EF3F15BD5FC6097819604D4B52C27F30D036A48C2CBE8
310
0E0256B4B2D5CDCD0EE92542B0D1613016FF7C18842C01BC1142CB0390C448BB14D01D06F321D1204600EBF600F3035D19BC0D68C0ECD5B0E719A00C804562CF4C11D700E801D016443E62C0761995823875829906A0A301FBFE720CB0342522FE77310D60C950798E612911BCC380157D006D7BAB5D819A11789E01C2C9A0
310
D700BB5410590200D7BA9F96C4C44AA2E03EA0A7FF5E03444A62A911BAC30037C5286A8488D3A3FADF2B8A4E8CC05045E8AE064C6D06066B827DFD87E8E4E8784DF00E0326A640771CB450FF730D50A1C09EB38D3ABE0F19307D1FA04FB9D1DA5FBD3FAA01A6AB822F6140E603120DB0411FA0E48588131C6BFBC4096AA503
310
2417E8FA00E4B980DAFC70C6000C326091A2C8050F586A80D8E440771CA89E0068485FFEDAE28754FC968E5D0D033644ACF8299F18261784EC0B23EDC4C8F0036332FD3FAE0AF0A2A8FBC24851540E00143AD64E8CF8DEED0CF121122A3343ED4DEE427E6F3BE706CD34191068C076C2B15B367BF9DAA89DE7EA2170503BD0
310
80E291389E0C013A03400E00D78092017C6244EAB5E1E0463FEEFA7223400480197D5BA818206A0D606F8CE8F400A43EA0F8340740FE9094F2021AA892A1CAEB5600A46F8C2CB082887B6FB001C0E0CFD107205B40A10520FC0E200A4067090D0A40B88486A40DFA22030CEA12108C0D0D00F7AF2C0C40B6C002168B3F0200
310
7A73A264C81F5934A34E00FA00982E00C1EA0995471A586B449A01B141BE0000A435802F97716114902D894610BC0F0023D9CDCB00B8C9008995D4C6FDDC9A003C68855500C073008878413C0500164B873A005C5E876E7A04E8A428AD07C82F450F3E35E0F629008B2C3C8EDE731DC5CCD751EFC352CBAE97B10499CDDEEC
310
49BEA40EC160677EED3FE09862FB070DA2F53CA7555FDC0000000049454E44AE426082A3D1FA630000000049454E44AE42608285C47B22AE05009F14386A6BBE14003846CD4A03128AC193FD7BF680AD06015002205705E06FA2C18F0780771B94F7E604A56075FCE08A9E0A86284B2307001CF58E95F401F741406E4EB0AE
310
A1FB3E303C5C5795444C00F84C8F9CC07CBC28FA5A191400B4D6DBD6BAD900D514A3DB08A9879ABF70323BA7EF1A24E402A338597FC77718E307945CD81CAF6C77920000000049454E44AE426082
  0
ENDSEC
  0
EOF
