  0
SECTION
  2
HEADER
  9
$ACADVER
  1
AC1027
  9
$ACADMAINTVER
 70
   105
  9
$DWGCODEPAGE
  3
ANSI_1252
  9
$LASTSAVEDBY
  1
hjones
  9
$REQUIREDVERSIONS
160
                 0
  9
$INSBASE
 10
0.0
 20
0.0
 30
0.0
  9
$EXTMIN
 10
0.7448730756818236
 20
0.8436126928352898
 30
-0.0015258207003583
  9
$EXTMAX
 10
2.411132829276766
 20
1.363403332377089
 30
0.0000000349246037
  9
$LIMMIN
 10
0.0
 20
0.0
  9
$LIMMAX
 10
12.0
 20
9.0
  9
$ORTHOMODE
 70
     0
  9
$REGENMODE
 70
     1
  9
$FILLMODE
 70
     1
  9
$QTEXTMODE
 70
     0
  9
$MIRRTEXT
 70
     0
  9
$LTSCALE
 40
1.0
  9
$ATTMODE
 70
     1
  9
$TEXTSIZE
 40
0.2
  9
$TRACEWID
 40
0.05
  9
$TEXTSTYLE
  7
Standard
  9
$CLAYER
  8
0
  9
$CELTYPE
  6
ByLayer
  9
$CECOLOR
 62
   256
  9
$CELTSCALE
 40
1.0
  9
$DISPSILH
 70
     0
  9
$DIMSCALE
 40
1.0
  9
$DIMASZ
 40
0.012
  9
$DIMEXO
 40
0.0075
  9
$DIMDLI
 40
0.38
  9
$DIMRND
 40
0.0
  9
$DIMDLE
 40
0.0
  9
$DIMEXE
 40
0.005
  9
$DIMTP
 40
0.0
  9
$DIMTM
 40
0.0
  9
$DIMTXT
 40
0.012
  9
$DIMCEN
 40
0.0
  9
$DIMTSZ
 40
0.0
  9
$DIMTOL
 70
     0
  9
$DIMLIM
 70
     0
  9
$DIMTIH
 70
     1
  9
$DIMTOH
 70
     1
  9
$DIMSE1
 70
     0
  9
$DIMSE2
 70
     0
  9
$DIMTAD
 70
     0
  9
$DIMZIN
 70
     0
  9
$DIMBLK
  1

  9
$DIMASO
 70
     1
  9
$DIMSHO
 70
     1
  9
$DIMPOST
  1

  9
$DIMAPOST
  1

  9
$DIMALT
 70
     0
  9
$DIMALTD
 70
     2
  9
$DIMALTF
 40
25.4
  9
$DIMLFAC
 40
1.0
  9
$DIMTOFL
 70
     0
  9
$DIMTVP
 40
0.0
  9
$DIMTIX
 70
     0
  9
$DIMSOXD
 70
     0
  9
$DIMSAH
 70
     0
  9
$DIMBLK1
  1

  9
$DIMBLK2
  1

  9
$DIMSTYLE
  2
Dan's Dim Style
  9
$DIMCLRD
 70
     0
  9
$DIMCLRE
 70
     0
  9
$DIMCLRT
 70
     0
  9
$DIMTFAC
 40
1.0
  9
$DIMGAP
 40
0.0075
  9
$DIMJUST
 70
     0
  9
$DIMSD1
 70
     0
  9
$DIMSD2
 70
     0
  9
$DIMTOLJ
 70
     1
  9
$DIMTZIN
 70
     0
  9
$DIMALTZ
 70
     0
  9
$DIMALTTZ
 70
     0
  9
$DIMUPT
 70
     0
  9
$DIMDEC
 70
     3
  9
$DIMTDEC
 70
     3
  9
$DIMALTU
 70
     2
  9
$DIMALTTD
 70
     2
  9
$DIMTXSTY
  7
Standard
  9
$DIMAUNIT
 70
     0
  9
$DIMADEC
 70
     0
  9
$DIMALTRND
 40
0.0
  9
$DIMAZIN
 70
     0
  9
$DIMDSEP
 70
    46
  9
$DIMATFIT
 70
     3
  9
$DIMFRAC
 70
     0
  9
$DIMLDRBLK
  1

  9
$DIMLUNIT
 70
     2
  9
$DIMLWD
 70
    -2
  9
$DIMLWE
 70
    -2
  9
$DIMTMOVE
 70
     0
  9
$DIMFXL
 40
1.0
  9
$DIMFXLON
 70
     0
  9
$DIMJOGANG
 40
0.7853981633974483
  9
$DIMTFILL
 70
     0
  9
$DIMTFILLCLR
 70
     0
  9
$DIMARCSYM
 70
     0
  9
$DIMLTYPE
  6

  9
$DIMLTEX1
  6

  9
$DIMLTEX2
  6

  9
$DIMTXTDIRECTION
 70
     0
  9
$LUNITS
 70
     2
  9
$LUPREC
 70
     4
  9
$SKETCHINC
 40
0.1
  9
$FILLETRAD
 40
0.0
  9
$AUNITS
 70
     0
  9
$AUPREC
 70
     0
  9
$MENU
  1
.
  9
$ELEVATION
 40
0.0
  9
$PELEVATION
 40
0.0
  9
$THICKNESS
 40
0.0
  9
$LIMCHECK
 70
     0
  9
$CHAMFERA
 40
0.0
  9
$CHAMFERB
 40
0.0
  9
$CHAMFERC
 40
0.0
  9
$CHAMFERD
 40
0.0
  9
$SKPOLY
 70
     0
  9
$TDCREATE
 40
2458921.434491632
  9
$TDUCREATE
 40
2458921.601158298
  9
$TDUPDATE
 40
2458941.694503611
  9
$TDUUPDATE
 40
2458941.861170278
  9
$TDINDWG
 40
1.5012913426
  9
$TDUSRTIMER
 40
1.5012912384
  9
$USRTIMER
 70
     1
  9
$ANGBASE
 50
0.0
  9
$ANGDIR
 70
     0
  9
$PDMODE
 70
     0
  9
$PDSIZE
 40
0.0
  9
$PLINEWID
 40
0.0
  9
$SPLFRAME
 70
     0
  9
$SPLINETYPE
 70
     6
  9
$SPLINESEGS
 70
     8
  9
$HANDSEED
  5
BE1
  9
$SURFTAB1
 70
     6
  9
$SURFTAB2
 70
     6
  9
$SURFTYPE
 70
     6
  9
$SURFU
 70
     6
  9
$SURFV
 70
     6
  9
$UCSBASE
  2

  9
$UCSNAME
  2

  9
$UCSORG
 10
0.0
 20
0.0
 30
0.0
  9
$UCSXDIR
 10
1.0
 20
0.0
 30
0.0
  9
$UCSYDIR
 10
0.0
 20
1.0
 30
0.0
  9
$UCSORTHOREF
  2

  9
$UCSORTHOVIEW
 70
     0
  9
$UCSORGTOP
 10
0.0
 20
0.0
 30
0.0
  9
$UCSORGBOTTOM
 10
0.0
 20
0.0
 30
0.0
  9
$UCSORGLEFT
 10
0.0
 20
0.0
 30
0.0
  9
$UCSORGRIGHT
 10
0.0
 20
0.0
 30
0.0
  9
$UCSORGFRONT
 10
0.0
 20
0.0
 30
0.0
  9
$UCSORGBACK
 10
0.0
 20
0.0
 30
0.0
  9
$PUCSBASE
  2

  9
$PUCSNAME
  2

  9
$PUCSORG
 10
0.0
 20
0.0
 30
0.0
  9
$PUCSXDIR
 10
1.0
 20
0.0
 30
0.0
  9
$PUCSYDIR
 10
0.0
 20
1.0
 30
0.0
  9
$PUCSORTHOREF
  2

  9
$PUCSORTHOVIEW
 70
     0
  9
$PUCSORGTOP
 10
0.0
 20
0.0
 30
0.0
  9
$PUCSORGBOTTOM
 10
0.0
 20
0.0
 30
0.0
  9
$PUCSORGLEFT
 10
0.0
 20
0.0
 30
0.0
  9
$PUCSORGRIGHT
 10
0.0
 20
0.0
 30
0.0
  9
$PUCSORGFRONT
 10
0.0
 20
0.0
 30
0.0
  9
$PUCSORGBACK
 10
0.0
 20
0.0
 30
0.0
  9
$USERI1
 70
     0
  9
$USERI2
 70
     0
  9
$USERI3
 70
     0
  9
$USERI4
 70
     0
  9
$USERI5
 70
     0
  9
$USERR1
 40
0.0
  9
$USERR2
 40
0.0
  9
$USERR3
 40
0.0
  9
$USERR4
 40
0.0
  9
$USERR5
 40
0.0
  9
$WORLDVIEW
 70
     1
  9
$SHADEDGE
 70
     3
  9
$SHADEDIF
 70
    70
  9
$TILEMODE
 70
     1
  9
$MAXACTVP
 70
    64
  9
$PINSBASE
 10
0.0
 20
0.0
 30
0.0
  9
$PLIMCHECK
 70
     0
  9
$PEXTMIN
 10
-0.0013107832021433
 20
-0.0002874472219894
 30
0.0
  9
$PEXTMAX
 10
10.49456036194649
 20
8.005460457203398
 30
0.0
  9
$PLIMMIN
 10
-0.2500002402958907
 20
-0.2499999962453767
  9
$PLIMMAX
 10
10.74999951940822
 20
8.249999763458733
  9
$UNITMODE
 70
     0
  9
$VISRETAIN
 70
     1
  9
$PLINEGEN
 70
     0
  9
$PSLTSCALE
 70
     1
  9
$TREEDEPTH
 70
  3020
  9
$CMLSTYLE
  2
Standard
  9
$CMLJUST
 70
     0
  9
$CMLSCALE
 40
1.0
  9
$PROXYGRAPHICS
 70
     1
  9
$MEASUREMENT
 70
     0
  9
$CELWEIGHT
370
    -1
  9
$ENDCAPS
280
     0
  9
$JOINSTYLE
280
     0
  9
$LWDISPLAY
290
     0
  9
$INSUNITS
 70
     1
  9
$HYPERLINKBASE
  1

  9
$STYLESHEET
  1

  9
$XEDIT
290
     1
  9
$CEPSNTYPE
380
     0
  9
$PSTYLEMODE
290
     1
  9
$FINGERPRINTGUID
  2
{D75D51E1-EEE4-4973-9B17-9B98C1CEA7F1}
  9
$VERSIONGUID
  2
{356D6FB4-6270-4B5C-A817-9CAF0F6F81D9}
  9
$EXTNAMES
290
     1
  9
$PSVPSCALE
 40
0.0
  9
$OLESTARTUP
290
     0
  9
$SORTENTS
280
   127
  9
$INDEXCTL
280
     0
  9
$HIDETEXT
280
     1
  9
$XCLIPFRAME
280
     2
  9
$HALOGAP
280
     0
  9
$OBSCOLOR
 70
   257
  9
$OBSLTYPE
280
     0
  9
$INTERSECTIONDISPLAY
280
     0
  9
$INTERSECTIONCOLOR
 70
   257
  9
$DIMASSOC
280
     2
  9
$PROJECTNAME
  1

  9
$CAMERADISPLAY
290
     0
  9
$LENSLENGTH
 40
50.0
  9
$CAMERAHEIGHT
 40
0.0
  9
$STEPSPERSEC
 40
2.0
  9
$STEPSIZE
 40
6.0
  9
$3DDWFPREC
 40
2.0
  9
$PSOLWIDTH
 40
0.25
  9
$PSOLHEIGHT
 40
4.0
  9
$LOFTANG1
 40
1.570796326794896
  9
$LOFTANG2
 40
1.570796326794896
  9
$LOFTMAG1
 40
0.0
  9
$LOFTMAG2
 40
0.0
  9
$LOFTPARAM
 70
     7
  9
$LOFTNORMALS
280
     1
  9
$LATITUDE
 40
37.795
  9
$LONGITUDE
 40
-122.394
  9
$NORTHDIRECTION
 40
0.0
  9
$TIMEZONE
 70
 -8000
  9
$LIGHTGLYPHDISPLAY
280
     1
  9
$TILEMODELIGHTSYNCH
280
     1
  9
$CMATERIAL
347
96
  9
$SOLIDHIST
280
     0
  9
$SHOWHIST
280
     1
  9
$DWFFRAME
280
     2
  9
$DGNFRAME
280
     0
  9
$REALWORLDSCALE
290
     1
  9
$INTERFERECOLOR
 62
     1
  9
$INTERFEREOBJVS
345
A3
  9
$INTERFEREVPVS
346
A0
  9
$CSHADOW
280
     0
  9
$SHADOWPLANELOCATION
 40
0.0
  0
ENDSEC
  0
SECTION
  2
CLASSES
  0
CLASS
  1
ACDBDICTIONARYWDFLT
  2
AcDbDictionaryWithDefault
  3
ObjectDBX Classes
 90
        0
 91
        1
280
     0
281
     0
  0
CLASS
  1
DICTIONARYVAR
  2
AcDbDictionaryVar
  3
ObjectDBX Classes
 90
        0
 91
       11
280
     0
281
     0
  0
CLASS
  1
TABLESTYLE
  2
AcDbTableStyle
  3
ObjectDBX Classes
 90
     4095
 91
        1
280
     0
281
     0
  0
CLASS
  1
MATERIAL
  2
AcDbMaterial
  3
ObjectDBX Classes
 90
     1153
 91
        3
280
     0
281
     0
  0
CLASS
  1
VISUALSTYLE
  2
AcDbVisualStyle
  3
ObjectDBX Classes
 90
     4095
 91
       24
280
     0
281
     0
  0
CLASS
  1
SCALE
  2
AcDbScale
  3
ObjectDBX Classes
 90
     1153
 91
       33
280
     0
281
     0
  0
CLASS
  1
MLEADERSTYLE
  2
AcDbMLeaderStyle
  3
ACDB_MLEADERSTYLE_CLASS
 90
     4095
 91
        2
280
     0
281
     0
  0
CLASS
  1
CELLSTYLEMAP
  2
AcDbCellStyleMap
  3
ObjectDBX Classes
 90
     1152
 91
        1
280
     0
281
     0
  0
CLASS
  1
EXACXREFPANELOBJECT
  2
ExAcXREFPanelObject
  3
EXAC_ESW
 90
     1025
 91
        0
280
     0
281
     0
  0
CLASS
  1
NPOCOLLECTION
  2
AcDbImpNonPersistentObjectsCollection
  3
ObjectDBX Classes
 90
     1153
 91
        0
280
     0
281
     0
  0
CLASS
  1
LAYER_INDEX
  2
AcDbLayerIndex
  3
ObjectDBX Classes
 90
        0
 91
        0
280
     0
281
     0
  0
CLASS
  1
SPATIAL_INDEX
  2
AcDbSpatialIndex
  3
ObjectDBX Classes
 90
        0
 91
        0
280
     0
281
     0
  0
CLASS
  1
IDBUFFER
  2
AcDbIdBuffer
  3
ObjectDBX Classes
 90
        0
 91
        0
280
     0
281
     0
  0
CLASS
  1
ACDBSECTIONVIEWSTYLE
  2
AcDbSectionViewStyle
  3
ObjectDBX Classes
 90
     1025
 91
        1
280
     0
281
     0
  0
CLASS
  1
ACDBDETAILVIEWSTYLE
  2
AcDbDetailViewStyle
  3
ObjectDBX Classes
 90
     1025
 91
        1
280
     0
281
     0
  0
CLASS
  1
SORTENTSTABLE
  2
AcDbSortentsTable
  3
ObjectDBX Classes
 90
        0
 91
        1
280
     0
281
     0
  0
CLASS
  1
DIMASSOC
  2
AcDbDimAssoc
  3
"AcDbDimAssoc|Product Desc:     AcDim ARX App For Dimension|Company:          Autodesk, Inc.|WEB Address:      www.autodesk.com"
 90
        0
 91
       11
280
     0
281
     0
  0
ENDSEC
  0
SECTION
  2
TABLES
  0
TABLE
  2
VPORT
  5
8
330
0
100
AcDbSymbolTable
 70
     1
  0
VPORT
  5
94
330
8
100
AcDbSymbolTableRecord
100
AcDbViewportTableRecord
  2
*Active
 70
     0
 10
0.0
 20
0.0
 11
1.0
 21
1.0
 12
0.9548243622461173
 22
1.089608089143489
 13
0.0
 23
0.0
 14
0.5
 24
0.5
 15
0.5
 25
0.5
 16
0.0
 26
0.0
 36
1.0
 17
0.0
 27
0.0
 37
0.0
 40
0.7256902944333206
 41
2.300877893056664
 42
50.0
 43
0.0
 44
0.0
 50
0.0
 51
0.0
 71
     0
 72
  1000
 73
     1
 74
     3
 75
     0
 76
     0
 77
     0
 78
     0
281
     0
 65
     1
110
0.0
120
0.0
130
0.0
111
1.0
121
0.0
131
0.0
112
0.0
122
1.0
132
0.0
 79
     0
146
0.0
348
9F
 60
     3
 61
     5
292
     1
282
     1
141
0.0
142
0.0
 63
   250
421
  3355443
1001
ACAD_NAV_VCDISPLAY
1070
     3
  0
ENDTAB
  0
TABLE
  2
LTYPE
  5
5
330
0
100
AcDbSymbolTable
 70
     1
  0
LTYPE
  5
14
330
5
100
AcDbSymbolTableRecord
100
AcDbLinetypeTableRecord
  2
ByBlock
 70
     0
  3

 72
    65
 73
     0
 40
0.0
  0
LTYPE
  5
15
330
5
100
AcDbSymbolTableRecord
100
AcDbLinetypeTableRecord
  2
ByLayer
 70
     0
  3

 72
    65
 73
     0
 40
0.0
  0
LTYPE
  5
16
330
5
100
AcDbSymbolTableRecord
100
AcDbLinetypeTableRecord
  2
Continuous
 70
     0
  3
Solid line
 72
    65
 73
     0
 40
0.0
  0
ENDTAB
  0
TABLE
  2
LAYER
  5
2
102
{ACAD_XDICTIONARY
360
18E
102
}
330
0
100
AcDbSymbolTable
 70
    16
  0
LAYER
  5
10
102
{ACAD_XDICTIONARY
360
E6
102
}
330
2
100
AcDbSymbolTableRecord
100
AcDbLayerTableRecord
  2
0
 70
     0
 62
     7
  6
Continuous
370
    -3
390
F
347
98
348
0
  0
LAYER
  5
1E9
102
{ACAD_XDICTIONARY
360
1EA
102
}
330
2
100
AcDbSymbolTableRecord
100
AcDbLayerTableRecord
  2
DIMENSIONS
 70
     0
 62
     2
  6
Continuous
370
    -3
390
F
347
98
348
0
1001
AcAecLayerStandard
1000

1000

  0
LAYER
  5
1EB
330
2
100
AcDbSymbolTableRecord
100
AcDbLayerTableRecord
  2
M1_S
 70
     0
 62
   200
  6
Continuous
370
    -3
390
F
347
98
348
0
1001
AcAecLayerStandard
1000

1000

1001
AcCmTransparency
1071
        0
  0
LAYER
  5
1EC
102
{ACAD_XDICTIONARY
360
1ED
102
}
330
2
100
AcDbSymbolTableRecord
100
AcDbLayerTableRecord
  2
M1-M3_NPTH
 70
     0
 62
    92
  6
Continuous
370
    -3
390
F
347
98
348
0
  0
LAYER
  5
1EE
102
{ACAD_XDICTIONARY
360
1EF
102
}
330
2
100
AcDbSymbolTableRecord
100
AcDbLayerTableRecord
  2
M1_P
 70
     0
 62
     5
  6
Continuous
370
    -3
390
F
347
98
348
0
  0
LAYER
  5
1F0
102
{ACAD_XDICTIONARY
360
1F1
102
}
330
2
100
AcDbSymbolTableRecord
100
AcDbLayerTableRecord
  2
M2_P
 70
     0
 62
     4
  6
Continuous
370
    -3
390
F
347
98
348
0
1001
AcAecLayerStandard
1000

1000

  0
LAYER
  5
1F2
102
{ACAD_XDICTIONARY
360
1F3
102
}
330
2
100
AcDbSymbolTableRecord
100
AcDbLayerTableRecord
  2
M1-M3_PTH
 70
     0
 62
     6
  6
Continuous
370
    -3
390
F
347
98
348
0
  0
LAYER
  5
1F4
102
{ACAD_XDICTIONARY
360
1F5
102
}
330
2
100
AcDbSymbolTableRecord
100
AcDbLayerTableRecord
  2
M3_P
 70
     0
 62
   200
  6
Continuous
370
    -3
390
F
347
98
348
0
1001
AcAecLayerStandard
1000

1000

  0
LAYER
  5
1F6
330
2
100
AcDbSymbolTableRecord
100
AcDbLayerTableRecord
  2
M1_SM
 70
     0
 62
     7
  6
Continuous
370
    -3
390
F
347
98
348
0
1001
AcAecLayerStandard
1000

1000

1001
AcCmTransparency
1071
        0
  0
LAYER
  5
1F7
330
2
100
AcDbSymbolTableRecord
100
AcDbLayerTableRecord
  2
M1 No Gerb
 70
     0
 62
   101
  6
Continuous
370
    -3
390
F
347
98
348
0
1001
AcAecLayerStandard
1000

1000

1001
AcCmTransparency
1071
        0
  0
LAYER
  5
3CD
102
{ACAD_XDICTIONARY
360
3CE
102
}
330
2
100
AcDbSymbolTableRecord
100
AcDbLayerTableRecord
  2
M_01_1_P
 70
     0
 62
   -42
  6
Continuous
370
    -3
390
F
347
98
348
0
  0
LAYER
  5
3CF
102
{ACAD_XDICTIONARY
360
3D0
102
}
330
2
100
AcDbSymbolTableRecord
100
AcDbLayerTableRecord
  2
M_02_1_P
 70
     0
 62
   140
  6
Continuous
370
    -3
390
F
347
98
348
0
  0
LAYER
  5
3D1
330
2
100
AcDbSymbolTableRecord
100
AcDbLayerTableRecord
  2
B_R1_P
 70
     0
 62
   -70
  6
Continuous
370
    -3
390
F
347
98
348
0
1001
AcAecLayerStandard
1000

1000

  0
LAYER
  5
3D2
102
{ACAD_XDICTIONARY
360
3D3
102
}
330
2
100
AcDbSymbolTableRecord
100
AcDbLayerTableRecord
  2
D_All_1_P
 70
     0
 62
    40
  6
Continuous
370
    -3
390
F
347
98
348
0
  0
LAYER
  5
3D4
102
{ACAD_XDICTIONARY
360
3D5
102
}
330
2
100
AcDbSymbolTableRecord
100
AcDbLayerTableRecord
  2
V_04_1_P
 70
     0
 62
   -80
  6
Continuous
370
    -3
390
F
347
98
348
0
  0
LAYER
  5
5A0
330
2
100
AcDbSymbolTableRecord
100
AcDbLayerTableRecord
  2
Defpoints
 70
     0
 62
     7
  6
Continuous
290
     0
370
    -3
390
F
347
98
348
0
  0
ENDTAB
  0
TABLE
  2
STYLE
  5
3
330
0
100
AcDbSymbolTable
 70
     5
  0
STYLE
  5
11
330
3
100
AcDbSymbolTableRecord
100
AcDbTextStyleTableRecord
  2
Standard
 70
     0
 40
0.0
 41
1.0
 50
0.0
 71
     0
 42
0.2
  3
arial.ttf
  4

1001
ACAD
1000
Arial
1071
       34
  0
STYLE
  5
DC
330
3
100
AcDbSymbolTableRecord
100
AcDbTextStyleTableRecord
  2
Annotative
 70
     0
 40
0.0
 41
1.0
 50
0.0
 71
     0
 42
0.2
  3
arial.ttf
  4

1001
AcadAnnotative
1000
AnnotativeData
1002
{
1070
     1
1070
     1
1002
}
1001
ACAD
1000
Arial
1071
       34
  0
STYLE
  5
1F8
330
3
100
AcDbSymbolTableRecord
100
AcDbTextStyleTableRecord
  2
RomanS
 70
     0
 40
0.0
 41
1.0
 50
0.0
 71
     0
 42
0.2
  3
arial.ttf
  4

1001
ACAD
1000
Arial
1071
       34
  0
STYLE
  5
1F9
330
3
100
AcDbSymbolTableRecord
100
AcDbTextStyleTableRecord
  2
Arial
 70
     0
 40
0.0
 41
1.0
 50
0.0
 71
     0
 42
0.18
  3
arial.ttf
  4

1001
ACAD
1000
Arial
1071
       34
  0
STYLE
  5
1FA
330
3
100
AcDbSymbolTableRecord
100
AcDbTextStyleTableRecord
  2
Board
 70
     0
 40
0.0
 41
1.0
 50
0.0
 71
     0
 42
0.2
  3
arial.ttf
  4

1001
ACAD
1000
Arial
1071
       34
  0
ENDTAB
  0
TABLE
  2
VIEW
  5
6
330
0
100
AcDbSymbolTable
 70
     5
  0
ENDTAB
  0
TABLE
  2
UCS
  5
7
330
0
100
AcDbSymbolTable
 70
     0
  0
ENDTAB
  0
TABLE
  2
APPID
  5
9
330
0
100
AcDbSymbolTable
 70
    17
  0
APPID
  5
12
330
9
100
AcDbSymbolTableRecord
100
AcDbRegAppTableRecord
  2
ACAD
 70
     0
  0
APPID
  5
DD
330
9
100
AcDbSymbolTableRecord
100
AcDbRegAppTableRecord
  2
AcadAnnoPO
 70
     0
  0
APPID
  5
DE
330
9
100
AcDbSymbolTableRecord
100
AcDbRegAppTableRecord
  2
AcadAnnotative
 70
     0
  0
APPID
  5
DF
330
9
100
AcDbSymbolTableRecord
100
AcDbRegAppTableRecord
  2
ACAD_DSTYLE_DIMJAG
 70
     0
  0
APPID
  5
E0
330
9
100
AcDbSymbolTableRecord
100
AcDbRegAppTableRecord
  2
ACAD_DSTYLE_DIMTALN
 70
     0
  0
APPID
  5
107
330
9
100
AcDbSymbolTableRecord
100
AcDbRegAppTableRecord
  2
ACAD_MLEADERVER
 70
     0
  0
APPID
  5
1A6
330
9
100
AcDbSymbolTableRecord
100
AcDbRegAppTableRecord
  2
ACAD_NAV_VCDISPLAY
 70
     0
  0
APPID
  5
1FD
330
9
100
AcDbSymbolTableRecord
100
AcDbRegAppTableRecord
  2
AcAecLayerStandard
 70
     0
  0
APPID
  5
1FE
330
9
100
AcDbSymbolTableRecord
100
AcDbRegAppTableRecord
  2
AcCmTransparency
 70
     0
  0
APPID
  5
1FF
330
9
100
AcDbSymbolTableRecord
100
AcDbRegAppTableRecord
  2
ACAD_PSEXT
 70
     0
  0
APPID
  5
200
330
9
100
AcDbSymbolTableRecord
100
AcDbRegAppTableRecord
  2
ACAD_DSTYLE_DIMJOGGED_JOGANGLE_SYMBOL
 70
     0
  0
APPID
  5
3F6
330
9
100
AcDbSymbolTableRecord
100
AcDbRegAppTableRecord
  2
ACAD_EXEMPT_FROM_CAD_STANDARDS
 70
     0
  0
APPID
  5
606
330
9
100
AcDbSymbolTableRecord
100
AcDbRegAppTableRecord
  2
ACAD_DSTYLE_DIMBREAK
 70
     0
  0
APPID
  5
791
330
9
100
AcDbSymbolTableRecord
100
AcDbRegAppTableRecord
  2
AcadAnnoMonitorAlertIconDisabled
 70
     0
  0
APPID
  5
9BC
330
9
100
AcDbSymbolTableRecord
100
AcDbRegAppTableRecord
  2
GradientColor1ACI
 70
     0
  0
APPID
  5
9BD
330
9
100
AcDbSymbolTableRecord
100
AcDbRegAppTableRecord
  2
GradientColor2ACI
 70
     0
  0
APPID
  5
9D4
330
9
100
AcDbSymbolTableRecord
100
AcDbRegAppTableRecord
  2
ACAD_DSTYLE_DIMRADIAL_EXTENSION
 70
     0
  0
ENDTAB
  0
TABLE
  2
DIMSTYLE
  5
A
330
0
100
AcDbSymbolTable
 70
     5
100
AcDbDimStyleTable
 71
     3
340
E1
340
605
340
27
  0
DIMSTYLE
105
27
330
A
100
AcDbSymbolTableRecord
100
AcDbDimStyleTableRecord
  2
Standard
 70
     0
340
11
  0
DIMSTYLE
105
E1
330
A
100
AcDbSymbolTableRecord
100
AcDbDimStyleTableRecord
  2
Annotative
 70
     0
 40
0.0
340
11
1001
AcadAnnotative
1000
AnnotativeData
1002
{
1070
     1
1070
     1
1002
}
1001
ACAD_DSTYLE_DIMJAG
1070
   388
1040
1.5
1001
ACAD_DSTYLE_DIMTALN
1070
   392
1070
     0
  0
DIMSTYLE
105
1FB
330
A
100
AcDbSymbolTableRecord
100
AcDbDimStyleTableRecord
  2
PRC_No_Tol
 70
     0
  3
\X
 44
0.06
 49
0.18
 78
     4
140
0.12
146
0.71
147
0.06
271
     3
272
     3
284
     4
340
1F8
1001
ACAD_DSTYLE_DIMJOGGED_JOGANGLE_SYMBOL
1070
   384
1040
0.7853981633974483
1001
ACAD_DSTYLE_DIMJAG
1070
   388
1040
1.5
1001
ACAD_DSTYLE_DIMTALN
1070
   392
1070
     0
  0
DIMSTYLE
105
1FC
330
A
100
AcDbSymbolTableRecord
100
AcDbDimStyleTableRecord
  2
PRC
 70
     0
  3
\X
 44
0.06
 47
0.002
 48
0.002
 49
0.18
 71
     1
 78
     4
140
0.12
146
0.71
147
0.06
271
     3
272
     3
284
     4
340
1F8
1001
ACAD_DSTYLE_DIMJOGGED_JOGANGLE_SYMBOL
1070
   384
1040
0.7853981633974483
1001
ACAD_DSTYLE_DIMJAG
1070
   388
1040
1.5
1001
ACAD_DSTYLE_DIMTALN
1070
   392
1070
     0
  0
DIMSTYLE
105
605
102
{ACAD_REACTORS
330
68C
330
6BC
330
725
330
73F
330
759
330
9D5
330
A1D
330
A3B
330
A89
102
}
330
A
100
AcDbSymbolTableRecord
100
AcDbDimStyleTableRecord
  2
Dan's Dim Style
 70
     0
 41
0.012
 42
0.0075
 44
0.005
140
0.012
141
0.0
147
0.0075
271
     3
272
     3
340
11
1001
ACAD_DSTYLE_DIMBREAK
1070
   391
1040
0.125
1001
ACAD_DSTYLE_DIMJAG
1070
   388
1040
1.5
1001
ACAD_DSTYLE_DIMTALN
1070
   392
1070
     0
  0
ENDTAB
  0
TABLE
  2
BLOCK_RECORD
  5
1
330
0
100
AcDbSymbolTable
 70
    15
  0
BLOCK_RECORD
  5
1F
102
{ACAD_XDICTIONARY
360
15D
102
}
330
1
100
AcDbSymbolTableRecord
100
AcDbBlockTableRecord
  2
*Model_Space
340
22
 70
     0
280
     1
281
     0
  0
BLOCK_RECORD
  5
58
330
1
100
AcDbSymbolTableRecord
100
AcDbBlockTableRecord
  2
*Paper_Space
340
59
 70
     0
280
     1
281
     0
  0
BLOCK_RECORD
  5
5D
330
1
100
AcDbSymbolTableRecord
100
AcDbBlockTableRecord
  2
*Paper_Space0
340
5E
 70
     0
280
     1
281
     0
  0
BLOCK_RECORD
  5
68D
330
1
100
AcDbSymbolTableRecord
100
AcDbBlockTableRecord
  2
*D1
340
0
 70
     0
280
     1
281
     0
  0
BLOCK_RECORD
  5
6BD
330
1
100
AcDbSymbolTableRecord
100
AcDbBlockTableRecord
  2
*D2
340
0
 70
     0
280
     1
281
     0
  0
BLOCK_RECORD
  5
726
330
1
100
AcDbSymbolTableRecord
100
AcDbBlockTableRecord
  2
*D3
340
0
 70
     0
280
     1
281
     0
  0
BLOCK_RECORD
  5
740
330
1
100
AcDbSymbolTableRecord
100
AcDbBlockTableRecord
  2
*D4
340
0
 70
     0
280
     1
281
     0
  0
BLOCK_RECORD
  5
75A
330
1
100
AcDbSymbolTableRecord
100
AcDbBlockTableRecord
  2
*D5
340
0
 70
     0
280
     1
281
     0
  0
BLOCK_RECORD
  5
8D1
330
1
100
AcDbSymbolTableRecord
100
AcDbBlockTableRecord
  2
*D6
340
0
 70
     0
280
     1
281
     0
  0
BLOCK_RECORD
  5
8DE
330
1
100
AcDbSymbolTableRecord
100
AcDbBlockTableRecord
  2
*D7
340
0
 70
     0
280
     1
281
     0
  0
BLOCK_RECORD
  5
8EB
330
1
100
AcDbSymbolTableRecord
100
AcDbBlockTableRecord
  2
*D8
340
0
 70
     0
280
     1
281
     0
  0
BLOCK_RECORD
  5
8F8
330
1
100
AcDbSymbolTableRecord
100
AcDbBlockTableRecord
  2
*D9
340
0
 70
     0
280
     1
281
     0
  0
BLOCK_RECORD
  5
905
330
1
100
AcDbSymbolTableRecord
100
AcDbBlockTableRecord
  2
*D10
340
0
 70
     0
280
     1
281
     0
  0
BLOCK_RECORD
  5
9D6
330
1
100
AcDbSymbolTableRecord
100
AcDbBlockTableRecord
  2
*D11
340
0
 70
     0
280
     1
281
     0
  0
BLOCK_RECORD
  5
A1E
330
1
100
AcDbSymbolTableRecord
100
AcDbBlockTableRecord
  2
*D12
340
0
 70
     0
280
     1
281
     0
  0
BLOCK_RECORD
  5
A3C
330
1
100
AcDbSymbolTableRecord
100
AcDbBlockTableRecord
  2
*D13
340
0
 70
     0
280
     1
281
     0
  0
BLOCK_RECORD
  5
A8A
330
1
100
AcDbSymbolTableRecord
100
AcDbBlockTableRecord
  2
*D14
340
0
 70
     0
280
     1
281
     0
  0
ENDTAB
  0
ENDSEC
  0
SECTION
  2
BLOCKS
  0
BLOCK
  5
20
330
1F
100
AcDbEntity
  8
0
100
AcDbBlockBegin
  2
*Model_Space
 70
     0
 10
0.0
 20
0.0
 30
0.0
  3
*Model_Space
  1

  0
ENDBLK
  5
21
330
1F
100
AcDbEntity
  8
0
100
AcDbBlockEnd
  0
BLOCK
  5
5A
330
58
100
AcDbEntity
 67
     1
  8
0
100
AcDbBlockBegin
  2
*Paper_Space
 70
     0
 10
0.0
 20
0.0
 30
0.0
  3
*Paper_Space
  1

  0
ENDBLK
  5
5B
330
58
100
AcDbEntity
 67
     1
  8
0
100
AcDbBlockEnd
  0
BLOCK
  5
5F
330
5D
100
AcDbEntity
 67
     1
  8
0
100
AcDbBlockBegin
  2
*Paper_Space0
 70
     0
 10
0.0
 20
0.0
 30
0.0
  3
*Paper_Space0
  1

  0
VIEWPORT
  5
932
102
{ACAD_XDICTIONARY
360
933
102
}
330
5D
100
AcDbEntity
 67
     1
  8
0
100
AcDbViewport
 10
4.623274792984165
 20
4.240559303057148
 30
0.0
 40
18.23229518455861
 41
9.034585363305023
 68
     0
 69
     0
 12
4.623274792984165
 22
4.240559303057148
 13
0.0
 23
0.0
 14
0.5
 24
0.5
 15
0.5
 25
0.5
 16
0.0
 26
0.0
 36
1.0
 17
0.0
 27
0.0
 37
0.0
 42
50.0
 43
0.0
 44
0.0
 45
9.034585363305023
 50
0.0
 51
0.0
 72
  1000
 90
   819232
  1

281
     0
 71
     1
 74
     0
110
0.0
120
0.0
130
0.0
111
1.0
121
0.0
131
0.0
112
0.0
122
1.0
132
0.0
 79
     0
146
0.0
170
     0
 61
     5
348
9F
292
     1
282
     1
141
0.0
142
0.0
 63
   250
421
  3355443
  0
VIEWPORT
  5
936
102
{ACAD_XDICTIONARY
360
937
102
}
330
5D
100
AcDbEntity
 67
     1
  8
M1_P
100
AcDbViewport
 10
5.249999761581421
 20
3.999999761581421
 30
0.0
 40
8.399999618530275
 41
6.399999618530274
 68
     0
 69
     0
 12
2.146241951693278
 22
1.1202670695109
 13
0.0
 23
0.0
 14
0.5
 24
0.5
 15
0.5
 25
0.5
 16
0.0
 26
0.0
 36
1.0
 17
0.0
 27
0.0
 37
0.0
 42
50.0
 43
0.0
 44
0.0
 45
0.3704064353744791
 50
0.0
 51
0.0
 72
  1000
 90
   819296
  1

281
     0
 71
     1
 74
     0
110
0.0
120
0.0
130
0.0
111
1.0
121
0.0
131
0.0
112
0.0
122
1.0
132
0.0
 79
     0
146
0.0
170
     0
 61
     5
348
9F
292
     1
282
     1
141
0.0
142
0.0
 63
   250
421
  3355443
  0
ENDBLK
  5
60
330
5D
100
AcDbEntity
 67
     1
  8
0
100
AcDbBlockEnd
  0
BLOCK
  5
68E
330
68D
100
AcDbEntity
  8
0
100
AcDbBlockBegin
  2
*D1
 70
     1
 10
0.0
 20
0.0
 30
0.0
  3
*D1
  1

  0
LINE
  5
9CA
330
68D
100
AcDbEntity
  8
0
 62
     0
440
 16777216
370
    -2
100
AcDbLine
 10
0.9975000177037212
 20
1.045000542771646
 30
0.0
 11
1.083241427550198
 21
1.045000542771646
 31
0.0
  0
LINE
  5
9CB
330
68D
100
AcDbEntity
  8
0
 62
     0
440
 16777216
370
    -2
100
AcDbLine
 10
0.9975000177037212
 20
1.069999398002295
 30
0.0
 11
1.083241427550198
 21
1.069999398002295
 31
0.0
  0
LINE
  5
9CC
330
68D
100
AcDbEntity
  8
0
 62
     0
440
 16777216
370
    -2
100
AcDbLine
 10
1.078241427550198
 20
1.033000542771646
 30
0.0
 11
1.078241427550198
 21
1.021000542771646
 31
0.0
  0
LINE
  5
9CD
330
68D
100
AcDbEntity
  8
0
 62
     0
440
 16777216
370
    -2
100
AcDbLine
 10
1.078241427550198
 20
1.081999398002295
 30
0.0
 11
1.078241427550198
 21
1.093999398002295
 31
0.0
  0
SOLID
  5
9CE
330
68D
100
AcDbEntity
  8
0
 62
     0
440
 16777216
100
AcDbTrace
 10
1.076241427550198
 20
1.033000542771646
 30
0.0
 11
1.080241427550198
 21
1.033000542771646
 31
0.0
 12
1.078241427550198
 22
1.045000542771646
 32
0.0
 13
1.078241427550198
 23
1.045000542771646
 33
0.0
  0
SOLID
  5
9CF
330
68D
100
AcDbEntity
  8
0
 62
     0
440
 16777216
100
AcDbTrace
 10
1.076241427550198
 20
1.081999398002295
 30
0.0
 11
1.080241427550198
 21
1.081999398002295
 31
0.0
 12
1.078241427550198
 22
1.069999398002295
 32
0.0
 13
1.078241427550198
 23
1.069999398002295
 33
0.0
  0
MTEXT
  5
9D0
330
68D
100
AcDbEntity
  8
0
 62
     0
440
 16777216
100
AcDbMText
 10
1.078241427550198
 20
1.05749997038697
 30
0.0
 40
0.012
 41
0.0
 46
0.0
 71
     5
 72
     1
  1
\A1;0.025
 73
     1
 44
1.0
  0
POINT
  5
9D1
330
68D
100
AcDbEntity
  8
Defpoints
 62
     0
440
 16777216
100
AcDbPoint
 10
0.9900000177037213
 20
1.045000542771646
 30
0.0
  0
POINT
  5
9D2
330
68D
100
AcDbEntity
  8
Defpoints
 62
     0
440
 16777216
100
AcDbPoint
 10
0.9900000177037213
 20
1.069999398002295
 30
0.0
  0
POINT
  5
9D3
330
68D
100
AcDbEntity
  8
Defpoints
 62
     0
440
 16777216
100
AcDbPoint
 10
1.078241427550198
 20
1.069999398002295
 30
0.0
  0
ENDBLK
  5
68F
330
68D
100
AcDbEntity
  8
0
100
AcDbBlockEnd
  0
BLOCK
  5
6BE
330
6BD
100
AcDbEntity
  8
0
100
AcDbBlockBegin
  2
*D2
 70
     1
 10
0.0
 20
0.0
 30
0.0
  3
*D2
  1

  0
LINE
  5
801
330
6BD
100
AcDbEntity
  8
0
 62
     0
440
 16777216
370
    -2
100
AcDbLine
 10
0.94000001770371
 20
1.037500542771646
 30
0.0
 11
0.94000001770371
 21
0.9851650455673819
 31
0.0
  0
LINE
  5
802
330
6BD
100
AcDbEntity
  8
0
 62
     0
440
 16777216
370
    -2
100
AcDbLine
 10
0.9900000177037213
 20
1.037500542771646
 30
0.0
 11
0.9900000177037213
 21
0.9851650455673819
 31
0.0
  0
LINE
  5
803
330
6BD
100
AcDbEntity
  8
0
 62
     0
440
 16777216
370
    -2
100
AcDbLine
 10
0.95200001770371
 20
0.990165045567382
 30
0.0
 11
0.9780000177037212
 21
0.990165045567382
 31
0.0
  0
LINE
  5
804
330
6BD
100
AcDbEntity
  8
0
 62
     0
440
 16777216
370
    -2
100
AcDbLine
 10
0.9900000177037213
 20
0.990165045567382
 30
0.0
 11
1.016651558054107
 21
0.990165045567382
 31
0.0
  0
SOLID
  5
805
330
6BD
100
AcDbEntity
  8
0
 62
     0
440
 16777216
100
AcDbTrace
 10
0.95200001770371
 20
0.992165045567382
 30
0.0
 11
0.95200001770371
 21
0.988165045567382
 31
0.0
 12
0.94000001770371
 22
0.990165045567382
 32
0.0
 13
0.94000001770371
 23
0.990165045567382
 33
0.0
  0
SOLID
  5
806
330
6BD
100
AcDbEntity
  8
0
 62
     0
440
 16777216
100
AcDbTrace
 10
0.9780000177037212
 20
0.992165045567382
 30
0.0
 11
0.9780000177037212
 21
0.988165045567382
 31
0.0
 12
0.9900000177037213
 22
0.990165045567382
 32
0.0
 13
0.9900000177037213
 23
0.990165045567382
 33
0.0
  0
MTEXT
  5
807
330
6BD
100
AcDbEntity
  8
0
 62
     0
440
 16777216
100
AcDbMText
 10
1.044378024629823
 20
0.990165045567382
 30
0.0
 40
0.012
 41
0.0
 46
0.0
 71
     5
 72
     1
  1
\A1;0.050
 73
     1
 44
1.0
  0
POINT
  5
808
330
6BD
100
AcDbEntity
  8
Defpoints
 62
     0
440
 16777216
100
AcDbPoint
 10
0.94000001770371
 20
1.045000542771646
 30
0.0
  0
POINT
  5
809
330
6BD
100
AcDbEntity
  8
Defpoints
 62
     0
440
 16777216
100
AcDbPoint
 10
0.9900000177037213
 20
1.045000542771646
 30
0.0
  0
POINT
  5
80A
330
6BD
100
AcDbEntity
  8
Defpoints
 62
     0
440
 16777216
100
AcDbPoint
 10
0.9900000177037213
 20
0.990165045567382
 30
0.0
  0
ENDBLK
  5
6BF
330
6BD
100
AcDbEntity
  8
0
100
AcDbBlockEnd
  0
BLOCK
  5
727
330
726
100
AcDbEntity
  8
0
100
AcDbBlockBegin
  2
*D3
 70
     1
 10
0.0
 20
0.0
 30
0.0
  3
*D3
  1

  0
LINE
  5
9C0
330
726
100
AcDbEntity
  8
0
 62
     0
440
 16777216
370
    -2
100
AcDbLine
 10
0.9575000177037157
 20
1.069999398002295
 30
0.0
 11
0.8513362659899808
 21
1.069999398002295
 31
0.0
  0
LINE
  5
9C1
330
726
100
AcDbEntity
  8
0
 62
     0
440
 16777216
370
    -2
100
AcDbLine
 10
0.9575000177037157
 20
1.104999398002433
 30
0.0
 11
0.8513362659899808
 21
1.104999398002433
 31
0.0
  0
LINE
  5
9C2
330
726
100
AcDbEntity
  8
0
 62
     0
440
 16777216
370
    -2
100
AcDbLine
 10
0.8563362659899809
 20
1.057999398002295
 30
0.0
 11
0.8563362659899809
 21
1.045999398002295
 31
0.0
  0
LINE
  5
9C3
330
726
100
AcDbEntity
  8
0
 62
     0
440
 16777216
370
    -2
100
AcDbLine
 10
0.8563362659899809
 20
1.116999398002433
 30
0.0
 11
0.8563362659899809
 21
1.128999398002433
 31
0.0
  0
SOLID
  5
9C4
330
726
100
AcDbEntity
  8
0
 62
     0
440
 16777216
100
AcDbTrace
 10
0.8543362659899809
 20
1.057999398002295
 30
0.0
 11
0.8583362659899808
 21
1.057999398002295
 31
0.0
 12
0.8563362659899809
 22
1.069999398002295
 32
0.0
 13
0.8563362659899809
 23
1.069999398002295
 33
0.0
  0
SOLID
  5
9C5
330
726
100
AcDbEntity
  8
0
 62
     0
440
 16777216
100
AcDbTrace
 10
0.8543362659899809
 20
1.116999398002433
 30
0.0
 11
0.8583362659899808
 21
1.116999398002433
 31
0.0
 12
0.8563362659899809
 22
1.104999398002433
 32
0.0
 13
0.8563362659899809
 23
1.104999398002433
 33
0.0
  0
MTEXT
  5
9C6
330
726
100
AcDbEntity
  8
0
 62
     0
440
 16777216
100
AcDbMText
 10
0.8563362659899807
 20
1.087499398002364
 30
0.0
 40
0.012
 41
0.0
 46
0.0
 71
     5
 72
     1
  1
\A1;0.035
 73
     1
 44
1.0
  0
POINT
  5
9C7
330
726
100
AcDbEntity
  8
Defpoints
 62
     0
440
 16777216
100
AcDbPoint
 10
0.9650000177037156
 20
1.069999398002295
 30
0.0
  0
POINT
  5
9C8
330
726
100
AcDbEntity
  8
Defpoints
 62
     0
440
 16777216
100
AcDbPoint
 10
0.9650000177037156
 20
1.104999398002433
 30
0.0
  0
POINT
  5
9C9
330
726
100
AcDbEntity
  8
Defpoints
 62
     0
440
 16777216
100
AcDbPoint
 10
0.8563362659899809
 20
1.104999398002433
 30
0.0
  0
ENDBLK
  5
728
330
726
100
AcDbEntity
  8
0
100
AcDbBlockEnd
  0
BLOCK
  5
741
330
740
100
AcDbEntity
  8
0
100
AcDbBlockBegin
  2
*D4
 70
     1
 10
0.0
 20
0.0
 30
0.0
  3
*D4
  1

  0
LINE
  5
74E
330
740
100
AcDbEntity
  8
0
 62
     0
440
 16777216
370
    -2
100
AcDbLine
 10
0.94000001770371
 20
1.037500542771646
 30
0.0
 11
0.94000001770371
 21
0.9966298859150411
 31
0.0
  0
LINE
  5
74F
330
740
100
AcDbEntity
  8
0
 62
     0
440
 16777216
370
    -2
100
AcDbLine
 10
0.9099999877662002
 20
1.037507206391016
 30
0.0
 11
0.9099999877662002
 21
0.9966298859150411
 31
0.0
  0
LINE
  5
750
330
740
100
AcDbEntity
  8
0
 62
     0
440
 16777216
370
    -2
100
AcDbLine
 10
0.95200001770371
 20
1.001629885915041
 30
0.0
 11
0.96400001770371
 21
1.001629885915041
 31
0.0
  0
LINE
  5
751
330
740
100
AcDbEntity
  8
0
 62
     0
440
 16777216
370
    -2
100
AcDbLine
 10
0.8979999877662001
 20
1.001629885915041
 30
0.0
 11
0.8859999877662001
 21
1.001629885915041
 31
0.0
  0
SOLID
  5
752
330
740
100
AcDbEntity
  8
0
 62
     0
440
 16777216
100
AcDbTrace
 10
0.95200001770371
 20
1.003629885915041
 30
0.0
 11
0.95200001770371
 21
0.9996298859150412
 31
0.0
 12
0.94000001770371
 22
1.001629885915041
 32
0.0
 13
0.94000001770371
 23
1.001629885915041
 33
0.0
  0
SOLID
  5
753
330
740
100
AcDbEntity
  8
0
 62
     0
440
 16777216
100
AcDbTrace
 10
0.8979999877662001
 20
1.003629885915041
 30
0.0
 11
0.8979999877662001
 21
0.9996298859150412
 31
0.0
 12
0.9099999877662002
 22
1.001629885915041
 32
0.0
 13
0.9099999877662002
 23
1.001629885915041
 33
0.0
  0
MTEXT
  5
754
330
740
100
AcDbEntity
  8
0
 62
     0
440
 16777216
100
AcDbMText
 10
0.8582735211904839
 20
1.001629885915041
 30
0.0
 40
0.012
 41
0.0
 46
0.0
 71
     5
 72
     1
  1
\A1;0.030
 73
     1
 44
1.0
  0
POINT
  5
755
330
740
100
AcDbEntity
  8
Defpoints
 62
     0
440
 16777216
100
AcDbPoint
 10
0.94000001770371
 20
1.045000542771646
 30
0.0
  0
POINT
  5
756
330
740
100
AcDbEntity
  8
Defpoints
 62
     0
440
 16777216
100
AcDbPoint
 10
0.9099999877662002
 20
1.045007206391016
 30
0.0
  0
POINT
  5
757
330
740
100
AcDbEntity
  8
Defpoints
 62
     0
440
 16777216
100
AcDbPoint
 10
0.9099999877662002
 20
1.001629885915041
 30
0.0
  0
ENDBLK
  5
742
330
740
100
AcDbEntity
  8
0
100
AcDbBlockEnd
  0
BLOCK
  5
75B
330
75A
100
AcDbEntity
  8
0
100
AcDbBlockBegin
  2
*D5
 70
     1
 10
0.0
 20
0.0
 30
0.0
  3
*D5
  1

  0
LINE
  5
80B
330
75A
100
AcDbEntity
  8
0
 62
     0
440
 16777216
370
    -2
100
AcDbLine
 10
0.9400000177037098
 20
1.037507206391016
 30
0.0
 11
0.9400000177037098
 21
0.9631643974883361
 31
0.0
  0
LINE
  5
80C
330
75A
100
AcDbEntity
  8
0
 62
     0
440
 16777216
370
    -2
100
AcDbLine
 10
0.9900000177037213
 20
1.037507206391016
 30
0.0
 11
0.9900000177037213
 21
0.9631643974883361
 31
0.0
  0
LINE
  5
80D
330
75A
100
AcDbEntity
  8
0
 62
     0
440
 16777216
370
    -2
100
AcDbLine
 10
0.9520000177037099
 20
0.9681643974883362
 30
0.0
 11
0.9780000177037212
 21
0.9681643974883362
 31
0.0
  0
LINE
  5
80E
330
75A
100
AcDbEntity
  8
0
 62
     0
440
 16777216
370
    -2
100
AcDbLine
 10
0.9900000177037213
 20
0.9681643974883362
 30
0.0
 11
1.009227234856966
 21
0.9681643974883362
 31
0.0
  0
SOLID
  5
80F
330
75A
100
AcDbEntity
  8
0
 62
     0
440
 16777216
100
AcDbTrace
 10
0.9520000177037099
 20
0.9701643974883362
 30
0.0
 11
0.9520000177037099
 21
0.9661643974883363
 31
0.0
 12
0.9400000177037098
 22
0.9681643974883362
 32
0.0
 13
0.9400000177037098
 23
0.9681643974883362
 33
0.0
  0
SOLID
  5
810
330
75A
100
AcDbEntity
  8
0
 62
     0
440
 16777216
100
AcDbTrace
 10
0.9780000177037212
 20
0.9701643974883362
 30
0.0
 11
0.9780000177037212
 21
0.9661643974883363
 31
0.0
 12
0.9900000177037213
 22
0.9681643974883362
 32
0.0
 13
0.9900000177037213
 23
0.9681643974883362
 33
0.0
  0
MTEXT
  5
811
330
75A
100
AcDbEntity
  8
0
 62
     0
440
 16777216
100
AcDbMText
 10
1.089816732128453
 20
0.9681643974883362
 30
0.0
 40
0.012
 41
0.0
 46
0.0
 71
     5
 72
     1
  1
\A1;50{\H1.0833x;Ω\PTransmission Line}
 73
     1
 44
1.0
  0
POINT
  5
812
330
75A
100
AcDbEntity
  8
Defpoints
 62
     0
440
 16777216
100
AcDbPoint
 10
0.9400000177037098
 20
1.045007206391016
 30
0.0
  0
POINT
  5
813
330
75A
100
AcDbEntity
  8
Defpoints
 62
     0
440
 16777216
100
AcDbPoint
 10
0.9900000177037213
 20
1.045007206391016
 30
0.0
  0
POINT
  5
814
330
75A
100
AcDbEntity
  8
Defpoints
 62
     0
440
 16777216
100
AcDbPoint
 10
0.9900000177037213
 20
0.9681643974883362
 30
0.0
  0
ENDBLK
  5
75C
330
75A
100
AcDbEntity
  8
0
100
AcDbBlockEnd
  0
BLOCK
  5
8D2
330
8D1
100
AcDbEntity
  8
0
100
AcDbBlockBegin
  2
*D6
 70
     1
 10
0.0
 20
0.0
 30
0.0
  3
*D6
  1

  0
LINE
  5
8D4
330
8D1
100
AcDbEntity
  8
0
 62
     0
440
 16777216
370
    -2
100
AcDbLine
 10
2.181658851065001
 20
1.045000542771646
 30
0.0
 11
2.267400260911478
 21
1.045000542771646
 31
0.0
  0
LINE
  5
8D5
330
8D1
100
AcDbEntity
  8
0
 62
     0
440
 16777216
370
    -2
100
AcDbLine
 10
2.181658851065001
 20
1.069999398002295
 30
0.0
 11
2.267400260911478
 21
1.069999398002295
 31
0.0
  0
LINE
  5
8D6
330
8D1
100
AcDbEntity
  8
0
 62
     0
440
 16777216
370
    -2
100
AcDbLine
 10
2.262400260911479
 20
1.033000542771646
 30
0.0
 11
2.262400260911479
 21
1.021000542771646
 31
0.0
  0
LINE
  5
8D7
330
8D1
100
AcDbEntity
  8
0
 62
     0
440
 16777216
370
    -2
100
AcDbLine
 10
2.262400260911479
 20
1.081999398002295
 30
0.0
 11
2.262400260911479
 21
1.093999398002295
 31
0.0
  0
SOLID
  5
8D8
330
8D1
100
AcDbEntity
  8
0
 62
     0
440
 16777216
100
AcDbTrace
 10
2.260400260911479
 20
1.033000542771646
 30
0.0
 11
2.264400260911478
 21
1.033000542771646
 31
0.0
 12
2.262400260911479
 22
1.045000542771646
 32
0.0
 13
2.262400260911479
 23
1.045000542771646
 33
0.0
  0
SOLID
  5
8D9
330
8D1
100
AcDbEntity
  8
0
 62
     0
440
 16777216
100
AcDbTrace
 10
2.260400260911479
 20
1.081999398002295
 30
0.0
 11
2.264400260911478
 21
1.081999398002295
 31
0.0
 12
2.262400260911479
 22
1.069999398002295
 32
0.0
 13
2.262400260911479
 23
1.069999398002295
 33
0.0
  0
MTEXT
  5
8DA
330
8D1
100
AcDbEntity
  8
0
 62
     0
440
 16777216
100
AcDbMText
 10
2.262400260911478
 20
1.05749997038697
 30
0.0
 40
0.012
 41
0.0
 46
0.0
 71
     5
 72
     1
  1
\A1;0.025
 73
     1
 44
1.0
  0
POINT
  5
8DB
330
8D1
100
AcDbEntity
  8
Defpoints
 62
     0
440
 16777216
100
AcDbPoint
 10
2.174158851065001
 20
1.045000542771646
 30
0.0
  0
POINT
  5
8DC
330
8D1
100
AcDbEntity
  8
Defpoints
 62
     0
440
 16777216
100
AcDbPoint
 10
2.174158851065001
 20
1.069999398002295
 30
0.0
  0
POINT
  5
8DD
330
8D1
100
AcDbEntity
  8
Defpoints
 62
     0
440
 16777216
100
AcDbPoint
 10
2.262400260911479
 20
1.069999398002295
 30
0.0
  0
ENDBLK
  5
8D3
330
8D1
100
AcDbEntity
  8
0
100
AcDbBlockEnd
  0
BLOCK
  5
8DF
330
8DE
100
AcDbEntity
  8
0
100
AcDbBlockBegin
  2
*D7
 70
     1
 10
0.0
 20
0.0
 30
0.0
  3
*D7
  1

  0
LINE
  5
91D
330
8DE
100
AcDbEntity
  8
0
 62
     0
440
 16777216
370
    -2
100
AcDbLine
 10
2.12415885106499
 20
1.037500542771646
 30
0.0
 11
2.12415885106499
 21
0.9966298859150411
 31
0.0
  0
LINE
  5
91E
330
8DE
100
AcDbEntity
  8
0
 62
     0
440
 16777216
370
    -2
100
AcDbLine
 10
2.09415882112748
 20
1.037507206391016
 30
0.0
 11
2.09415882112748
 21
0.9966298859150411
 31
0.0
  0
LINE
  5
91F
330
8DE
100
AcDbEntity
  8
0
 62
     0
440
 16777216
370
    -2
100
AcDbLine
 10
2.13615885106499
 20
1.001629885915041
 30
0.0
 11
2.14815885106499
 21
1.001629885915041
 31
0.0
  0
LINE
  5
920
330
8DE
100
AcDbEntity
  8
0
 62
     0
440
 16777216
370
    -2
100
AcDbLine
 10
2.08215882112748
 20
1.001629885915041
 30
0.0
 11
2.07015882112748
 21
1.001629885915041
 31
0.0
  0
SOLID
  5
921
330
8DE
100
AcDbEntity
  8
0
 62
     0
440
 16777216
100
AcDbTrace
 10
2.13615885106499
 20
1.003629885915041
 30
0.0
 11
2.13615885106499
 21
0.9996298859150412
 31
0.0
 12
2.12415885106499
 22
1.001629885915041
 32
0.0
 13
2.12415885106499
 23
1.001629885915041
 33
0.0
  0
SOLID
  5
922
330
8DE
100
AcDbEntity
  8
0
 62
     0
440
 16777216
100
AcDbTrace
 10
2.08215882112748
 20
1.003629885915041
 30
0.0
 11
2.08215882112748
 21
0.9996298859150412
 31
0.0
 12
2.09415882112748
 22
1.001629885915041
 32
0.0
 13
2.09415882112748
 23
1.001629885915041
 33
0.0
  0
MTEXT
  5
923
330
8DE
100
AcDbEntity
  8
0
 62
     0
440
 16777216
100
AcDbMText
 10
2.042432354551764
 20
1.001629885915041
 30
0.0
 40
0.012
 41
0.0
 46
0.0
 71
     5
 72
     1
  1
\A1;0.030
 73
     1
 44
1.0
  0
POINT
  5
924
330
8DE
100
AcDbEntity
  8
Defpoints
 62
     0
440
 16777216
100
AcDbPoint
 10
2.12415885106499
 20
1.045000542771646
 30
0.0
  0
POINT
  5
925
330
8DE
100
AcDbEntity
  8
Defpoints
 62
     0
440
 16777216
100
AcDbPoint
 10
2.09415882112748
 20
1.045007206391016
 30
0.0
  0
POINT
  5
926
330
8DE
100
AcDbEntity
  8
Defpoints
 62
     0
440
 16777216
100
AcDbPoint
 10
2.09415882112748
 20
1.001629885915041
 30
0.0
  0
ENDBLK
  5
8E0
330
8DE
100
AcDbEntity
  8
0
100
AcDbBlockEnd
  0
BLOCK
  5
8EC
330
8EB
100
AcDbEntity
  8
0
100
AcDbBlockBegin
  2
*D8
 70
     1
 10
0.0
 20
0.0
 30
0.0
  3
*D8
  1

  0
LINE
  5
962
330
8EB
100
AcDbEntity
  8
0
 62
     0
440
 16777216
370
    -2
100
AcDbLine
 10
2.12415885106499
 20
1.037507206391016
 30
0.0
 11
2.12415885106499
 21
0.9631643974883361
 31
0.0
  0
LINE
  5
963
330
8EB
100
AcDbEntity
  8
0
 62
     0
440
 16777216
370
    -2
100
AcDbLine
 10
2.174158851065001
 20
1.037507206391016
 30
0.0
 11
2.174158851065001
 21
0.9631643974883361
 31
0.0
  0
LINE
  5
964
330
8EB
100
AcDbEntity
  8
0
 62
     0
440
 16777216
370
    -2
100
AcDbLine
 10
2.13615885106499
 20
0.9681643974883362
 30
0.0
 11
2.162158851065001
 21
0.9681643974883362
 31
0.0
  0
LINE
  5
965
330
8EB
100
AcDbEntity
  8
0
 62
     0
440
 16777216
370
    -2
100
AcDbLine
 10
2.174158851065001
 20
0.9681643974883362
 30
0.0
 11
2.193386068218246
 21
0.9681643974883362
 31
0.0
  0
SOLID
  5
966
330
8EB
100
AcDbEntity
  8
0
 62
     0
440
 16777216
100
AcDbTrace
 10
2.13615885106499
 20
0.9701643974883362
 30
0.0
 11
2.13615885106499
 21
0.9661643974883363
 31
0.0
 12
2.12415885106499
 22
0.9681643974883362
 32
0.0
 13
2.12415885106499
 23
0.9681643974883362
 33
0.0
  0
SOLID
  5
967
330
8EB
100
AcDbEntity
  8
0
 62
     0
440
 16777216
100
AcDbTrace
 10
2.162158851065001
 20
0.9701643974883362
 30
0.0
 11
2.162158851065001
 21
0.9661643974883363
 31
0.0
 12
2.174158851065001
 22
0.9681643974883362
 32
0.0
 13
2.174158851065001
 23
0.9681643974883362
 33
0.0
  0
MTEXT
  5
968
330
8EB
100
AcDbEntity
  8
0
 62
     0
440
 16777216
100
AcDbMText
 10
2.273975565489733
 20
0.9681643974883362
 30
0.0
 40
0.012
 41
0.0
 46
0.0
 71
     5
 72
     1
  1
\A1;50{\H1.0833x;Ω\PTransmission Line}
 73
     1
 44
1.0
  0
POINT
  5
969
330
8EB
100
AcDbEntity
  8
Defpoints
 62
     0
440
 16777216
100
AcDbPoint
 10
2.12415885106499
 20
1.045007206391016
 30
0.0
  0
POINT
  5
96A
330
8EB
100
AcDbEntity
  8
Defpoints
 62
     0
440
 16777216
100
AcDbPoint
 10
2.174158851065001
 20
1.045007206391016
 30
0.0
  0
POINT
  5
96B
330
8EB
100
AcDbEntity
  8
Defpoints
 62
     0
440
 16777216
100
AcDbPoint
 10
2.174158851065001
 20
0.9681643974883362
 30
0.0
  0
ENDBLK
  5
8ED
330
8EB
100
AcDbEntity
  8
0
100
AcDbBlockEnd
  0
BLOCK
  5
8F9
330
8F8
100
AcDbEntity
  8
0
100
AcDbBlockBegin
  2
*D9
 70
     1
 10
0.0
 20
0.0
 30
0.0
  3
*D9
  1

  0
LINE
  5
8FB
330
8F8
100
AcDbEntity
  8
0
 62
     0
440
 16777216
370
    -2
100
AcDbLine
 10
2.12415885106499
 20
1.037500542771646
 30
0.0
 11
2.12415885106499
 21
0.9851650455673819
 31
0.0
  0
LINE
  5
8FC
330
8F8
100
AcDbEntity
  8
0
 62
     0
440
 16777216
370
    -2
100
AcDbLine
 10
2.174158851065001
 20
1.037500542771646
 30
0.0
 11
2.174158851065001
 21
0.9851650455673819
 31
0.0
  0
LINE
  5
8FD
330
8F8
100
AcDbEntity
  8
0
 62
     0
440
 16777216
370
    -2
100
AcDbLine
 10
2.13615885106499
 20
0.990165045567382
 30
0.0
 11
2.162158851065001
 21
0.990165045567382
 31
0.0
  0
LINE
  5
8FE
330
8F8
100
AcDbEntity
  8
0
 62
     0
440
 16777216
370
    -2
100
AcDbLine
 10
2.174158851065001
 20
0.990165045567382
 30
0.0
 11
2.200810391415387
 21
0.990165045567382
 31
0.0
  0
SOLID
  5
8FF
330
8F8
100
AcDbEntity
  8
0
 62
     0
440
 16777216
100
AcDbTrace
 10
2.13615885106499
 20
0.992165045567382
 30
0.0
 11
2.13615885106499
 21
0.988165045567382
 31
0.0
 12
2.12415885106499
 22
0.990165045567382
 32
0.0
 13
2.12415885106499
 23
0.990165045567382
 33
0.0
  0
SOLID
  5
900
330
8F8
100
AcDbEntity
  8
0
 62
     0
440
 16777216
100
AcDbTrace
 10
2.162158851065001
 20
0.992165045567382
 30
0.0
 11
2.162158851065001
 21
0.988165045567382
 31
0.0
 12
2.174158851065001
 22
0.990165045567382
 32
0.0
 13
2.174158851065001
 23
0.990165045567382
 33
0.0
  0
MTEXT
  5
901
330
8F8
100
AcDbEntity
  8
0
 62
     0
440
 16777216
100
AcDbMText
 10
2.228536857991104
 20
0.990165045567382
 30
0.0
 40
0.012
 41
0.0
 46
0.0
 71
     5
 72
     1
  1
\A1;0.050
 73
     1
 44
1.0
  0
POINT
  5
902
330
8F8
100
AcDbEntity
  8
Defpoints
 62
     0
440
 16777216
100
AcDbPoint
 10
2.12415885106499
 20
1.045000542771646
 30
0.0
  0
POINT
  5
903
330
8F8
100
AcDbEntity
  8
Defpoints
 62
     0
440
 16777216
100
AcDbPoint
 10
2.174158851065001
 20
1.045000542771646
 30
0.0
  0
POINT
  5
904
330
8F8
100
AcDbEntity
  8
Defpoints
 62
     0
440
 16777216
100
AcDbPoint
 10
2.174158851065001
 20
0.990165045567382
 30
0.0
  0
ENDBLK
  5
8FA
330
8F8
100
AcDbEntity
  8
0
100
AcDbBlockEnd
  0
BLOCK
  5
906
330
905
100
AcDbEntity
  8
0
100
AcDbBlockBegin
  2
*D10
 70
     1
 10
0.0
 20
0.0
 30
0.0
  3
*D10
  1

  0
LINE
  5
908
330
905
100
AcDbEntity
  8
0
 62
     0
440
 16777216
370
    -2
100
AcDbLine
 10
2.141658851064996
 20
1.069999398002295
 30
0.0
 11
2.035495099351261
 21
1.069999398002295
 31
0.0
  0
LINE
  5
909
330
905
100
AcDbEntity
  8
0
 62
     0
440
 16777216
370
    -2
100
AcDbLine
 10
2.141658851064996
 20
1.104999398002433
 30
0.0
 11
2.035495099351261
 21
1.104999398002433
 31
0.0
  0
LINE
  5
90A
330
905
100
AcDbEntity
  8
0
 62
     0
440
 16777216
370
    -2
100
AcDbLine
 10
2.040495099351261
 20
1.057999398002295
 30
0.0
 11
2.040495099351261
 21
1.045999398002295
 31
0.0
  0
LINE
  5
90B
330
905
100
AcDbEntity
  8
0
 62
     0
440
 16777216
370
    -2
100
AcDbLine
 10
2.040495099351261
 20
1.116999398002433
 30
0.0
 11
2.040495099351261
 21
1.128999398002433
 31
0.0
  0
SOLID
  5
90C
330
905
100
AcDbEntity
  8
0
 62
     0
440
 16777216
100
AcDbTrace
 10
2.038495099351261
 20
1.057999398002295
 30
0.0
 11
2.042495099351261
 21
1.057999398002295
 31
0.0
 12
2.040495099351261
 22
1.069999398002295
 32
0.0
 13
2.040495099351261
 23
1.069999398002295
 33
0.0
  0
SOLID
  5
90D
330
905
100
AcDbEntity
  8
0
 62
     0
440
 16777216
100
AcDbTrace
 10
2.038495099351261
 20
1.116999398002433
 30
0.0
 11
2.042495099351261
 21
1.116999398002433
 31
0.0
 12
2.040495099351261
 22
1.104999398002433
 32
0.0
 13
2.040495099351261
 23
1.104999398002433
 33
0.0
  0
MTEXT
  5
90E
330
905
100
AcDbEntity
  8
0
 62
     0
440
 16777216
100
AcDbMText
 10
2.04049509935126
 20
1.087499398002364
 30
0.0
 40
0.012
 41
0.0
 46
0.0
 71
     5
 72
     1
  1
\A1;0.035
 73
     1
 44
1.0
  0
POINT
  5
90F
330
905
100
AcDbEntity
  8
Defpoints
 62
     0
440
 16777216
100
AcDbPoint
 10
2.149158851064996
 20
1.069999398002295
 30
0.0
  0
POINT
  5
910
330
905
100
AcDbEntity
  8
Defpoints
 62
     0
440
 16777216
100
AcDbPoint
 10
2.149158851064996
 20
1.104999398002433
 30
0.0
  0
POINT
  5
911
330
905
100
AcDbEntity
  8
Defpoints
 62
     0
440
 16777216
100
AcDbPoint
 10
2.040495099351261
 20
1.104999398002433
 30
0.0
  0
ENDBLK
  5
907
330
905
100
AcDbEntity
  8
0
100
AcDbBlockEnd
  0
BLOCK
  5
9D7
330
9D6
100
AcDbEntity
  8
0
100
AcDbBlockBegin
  2
*D11
 70
     1
 10
0.0
 20
0.0
 30
0.0
  3
*D11
  1

  0
LINE
  5
A0E
330
9D6
100
AcDbEntity
  8
0
 62
     0
440
 16777216
370
    -2
100
AcDbLine
 10
1.037806394918149
 20
1.138439326833412
 30
0.0
 11
1.025806394918149
 21
1.138439326833412
 31
0.0
  0
LINE
  5
A0F
330
9D6
100
AcDbEntity
  8
0
 62
     0
440
 16777216
370
    -2
100
AcDbLine
 10
1.025806394918149
 20
1.138439326833412
 30
0.0
 11
0.9796121133507082
 21
1.086445876677171
 31
0.0
  0
MTEXT
  5
A10
330
9D6
100
AcDbEntity
  8
0
 62
     0
440
 16777216
100
AcDbMText
 10
1.114425085231928
 20
1.138439326833411
 30
0.0
 40
0.012
 41
0.0
 46
0.0
 71
     5
 72
     1
  1
\A1;Orientation Marker
 73
     1
 44
1.0
  0
SOLID
  5
A11
330
9D6
100
AcDbEntity
  8
0
 62
     0
440
 16777216
100
AcDbTrace
 10
0.9781169789257194
 20
1.087774249008715
 30
0.0
 11
0.9811072477756969
 21
1.085117504345626
 31
0.0
 12
0.9716418793614394
 22
1.077475070127238
 32
0.0
 13
0.9716418793614394
 23
1.077475070127238
 33
0.0
  0
POINT
  5
A12
330
9D6
100
AcDbEntity
  8
Defpoints
 62
     0
440
 16777216
100
AcDbPoint
 10
0.9716418793614394
 20
1.077475070127238
 30
0.0
  0
POINT
  5
A13
330
9D6
100
AcDbEntity
  8
Defpoints
 62
     0
440
 16777216
100
AcDbPoint
 10
0.9583581560459915
 20
1.062523725877351
 30
0.0
  0
ENDBLK
  5
9D8
330
9D6
100
AcDbEntity
  8
0
100
AcDbBlockEnd
  0
BLOCK
  5
A1F
330
A1E
100
AcDbEntity
  8
0
100
AcDbBlockBegin
  2
*D12
 70
     1
 10
0.0
 20
0.0
 30
0.0
  3
*D12
  1

  0
LINE
  5
AE1
330
A1E
100
AcDbEntity
  8
0
 62
     0
440
 16777216
370
    -2
100
AcDbLine
 10
1.041269411725225
 20
1.308486882443241
 30
0.0
 11
1.029269411725224
 21
1.308486882443241
 31
0.0
  0
LINE
  5
AE2
330
A1E
100
AcDbEntity
  8
0
 62
     0
440
 16777216
370
    -2
100
AcDbLine
 10
1.029269411725224
 20
1.308486882443241
 30
0.0
 11
1.003402833264221
 21
1.241492896777979
 31
0.0
  0
MTEXT
  5
AE3
330
A1E
100
AcDbEntity
  8
0
 62
     0
440
 16777216
100
AcDbMText
 10
1.146124118410082
 20
1.308486882443241
 30
0.0
 40
0.012
 41
0.0
 46
0.0
 71
     5
 72
     1
  1
\A1;Multiple Plated Thru Holes\PTo Ground
 73
     1
 44
1.0
  0
SOLID
  5
AE4
330
A1E
100
AcDbEntity
  8
0
 62
     0
440
 16777216
100
AcDbTrace
 10
1.001537073560655
 20
1.242213272186047
 30
0.0
 11
1.005268592967787
 21
1.240772521369912
 31
0.0
 12
0.9990805808158167
 22
1.230298338556581
 32
0.0
 13
0.9990805808158167
 23
1.230298338556581
 33
0.0
  0
POINT
  5
AE5
330
A1E
100
AcDbEntity
  8
Defpoints
 62
     0
440
 16777216
100
AcDbPoint
 10
0.9990805808158167
 20
1.230298338556581
 30
0.0
  0
POINT
  5
AE6
330
A1E
100
AcDbEntity
  8
Defpoints
 62
     0
440
 16777216
100
AcDbPoint
 10
0.9969194545916144
 20
1.224701059445882
 30
0.0
  0
ENDBLK
  5
A20
330
A1E
100
AcDbEntity
  8
0
100
AcDbBlockEnd
  0
BLOCK
  5
A3D
330
A3C
100
AcDbEntity
  8
0
100
AcDbBlockBegin
  2
*D13
 70
     1
 10
0.0
 20
0.0
 30
0.0
  3
*D13
  1

  0
LINE
  5
AD5
330
A3C
100
AcDbEntity
  8
0
 62
     0
440
 16777216
370
    -2
100
AcDbLine
 10
0.8873700667080694
 20
1.290662353388084
 30
0.0
 11
0.8993700667080704
 21
1.290662353388084
 31
0.0
  0
LINE
  5
AD6
330
A3C
100
AcDbEntity
  8
0
 62
     0
440
 16777216
370
    -2
100
AcDbLine
 10
0.8993700667080704
 20
1.290662353388084
 30
0.0
 11
0.9208706345925243
 21
1.249043138618558
 31
0.0
  0
MTEXT
  5
AD7
330
A3C
100
AcDbEntity
  8
0
 62
     0
440
 16777216
100
AcDbMText
 10
0.8296436001323533
 20
1.290662353388084
 30
0.0
 40
0.012
 41
0.0
 46
0.0
 71
     5
 72
     1
  1
\A1;Hatched Area\PIndicates\PFootprint of\PPart
 73
     1
 44
1.0
  0
SOLID
  5
AD8
330
A3C
100
AcDbEntity
  8
0
 62
     0
440
 16777216
100
AcDbTrace
 10
0.9226475332929123
 20
1.249961087968229
 30
0.0
 11
0.9190937358921367
 21
1.248125189268888
 31
0.0
 12
0.9263783306905473
 22
1.238381746416232
 32
0.0
 13
0.9263783306905473
 23
1.238381746416232
 33
0.0
  0
POINT
  5
AD9
330
A3C
100
AcDbEntity
  8
Defpoints
 62
     0
440
 16777216
100
AcDbPoint
 10
0.9263783306905473
 20
1.238381746416232
 30
0.0
  0
POINT
  5
ADA
330
A3C
100
AcDbEntity
  8
Defpoints
 62
     0
440
 16777216
100
AcDbPoint
 10
0.9376217047168823
 20
1.21661765158623
 30
0.0
  0
ENDBLK
  5
A3E
330
A3C
100
AcDbEntity
  8
0
100
AcDbBlockEnd
  0
BLOCK
  5
A8B
330
A8A
100
AcDbEntity
  8
0
100
AcDbBlockBegin
  2
*D14
 70
     1
 10
0.0
 20
0.0
 30
0.0
  3
*D14
  1

  0
LINE
  5
B19
330
A8A
100
AcDbEntity
  8
0
 62
     0
440
 16777216
370
    -2
100
AcDbLine
 10
0.8484327685436145
 20
0.8517671937757535
 30
0.0
 11
0.8364327685436117
 21
0.8517671937757535
 31
0.0
  0
LINE
  5
B1A
330
A8A
100
AcDbEntity
  8
0
 62
     0
440
 16777216
370
    -2
100
AcDbLine
 10
0.8364327685436117
 20
0.8517671937757535
 30
0.0
 11
0.7850922255355975
 21
0.9567443596265146
 31
0.0
  0
MTEXT
  5
B1B
330
A8A
100
AcDbEntity
  8
0
 62
     0
440
 16777216
100
AcDbMText
 10
0.9126872023771753
 20
0.8517671937757533
 30
0.0
 40
0.012
 41
0.0
 46
0.0
 71
     5
 72
     1
  1
\A1;Copper/Ground
 73
     1
 44
1.0
  0
SOLID
  5
B1C
330
A8A
100
AcDbEntity
  8
0
 62
     0
440
 16777216
100
AcDbTrace
 10
0.7868888701649331
 20
0.9576230336706744
 30
0.0
 11
0.7832955809062621
 21
0.9558656855823549
 31
0.0
 12
0.7798201812706389
 22
0.9675242274025276
 32
0.0
 13
0.7798201812706389
 23
0.9675242274025276
 33
0.0
  0
POINT
  5
B1D
330
A8A
100
AcDbEntity
  8
Defpoints
 62
     0
440
 16777216
100
AcDbPoint
 10
0.7798201812706389
 20
0.9675242274025276
 30
0.0
  0
POINT
  5
B1E
330
A8A
100
AcDbEntity
  8
Defpoints
 62
     0
440
 16777216
100
AcDbPoint
 10
0.7715747059894258
 20
0.9843839366186763
 30
0.0
  0
ENDBLK
  5
A8C
330
A8A
100
AcDbEntity
  8
0
100
AcDbBlockEnd
  0
ENDSEC
  0
SECTION
  2
ENTITIES
  0
CIRCLE
  5
309
330
1F
100
AcDbEntity
  8
0
100
AcDbCircle
 10
0.7606033311841714
 20
1.105379328549872
 30
0.0
 40
0.0155
  0
CIRCLE
  5
33C
330
1F
100
AcDbEntity
  8
0
100
AcDbCircle
 10
1.160603331184034
 20
1.105379328549872
 30
0.0
 40
0.0155
  0
CIRCLE
  5
364
330
1F
100
AcDbEntity
  8
0
100
AcDbCircle
 10
1.064999999999997
 20
1.347605682954508
 30
0.0
 40
0.0155
  0
CIRCLE
  5
369
330
1F
100
AcDbEntity
  8
0
100
AcDbCircle
 10
0.8650000000000659
 20
1.347605682954508
 30
0.0
 40
0.0155
  0
CIRCLE
  5
36B
330
1F
100
AcDbEntity
  8
0
100
AcDbCircle
 10
0.7650000000001001
 20
1.247605682954514
 30
0.0
 40
0.0155
  0
CIRCLE
  5
36C
330
1F
100
AcDbEntity
  8
0
100
AcDbCircle
 10
0.7650000000001001
 20
1.347605682954508
 30
0.0
 40
0.0155
  0
CIRCLE
  5
36E
330
1F
100
AcDbEntity
  8
0
100
AcDbCircle
 10
1.164999999999963
 20
1.247605682954514
 30
0.0
 40
0.0155
  0
CIRCLE
  5
36F
330
1F
100
AcDbEntity
  8
0
100
AcDbCircle
 10
1.164999999999963
 20
1.347605682954508
 30
0.0
 40
0.0155
  0
LWPOLYLINE
  5
3E9
330
1F
100
AcDbEntity
  8
0
100
AcDbPolyline
 90
        4
 70
     1
 43
0.0
 10
0.9150000430396705
 20
1.245000542771634
 10
1.015000043039693
 20
1.245000542771634
 10
1.015000043039693
 20
1.045000542771646
 10
0.9150000430396705
 20
1.045000542771646
  0
LWPOLYLINE
  5
3EB
330
1F
100
AcDbEntity
  8
B_R1_P
  6
Continuous
100
AcDbPolyline
 90
        4
 70
     1
 43
0.0
 10
2.406664657134702
 20
1.038518669082217
 10
2.321664657134723
 20
1.038518669082217
 10
2.321663021791228
 20
1.163914284083576
 10
2.406663021791208
 20
1.163914284083576
  0
LWPOLYLINE
  5
3EC
330
1F
100
AcDbEntity
  8
V_04_1_P
100
AcDbPolyline
 90
        3
 70
     0
 43
0.0
 10
2.370162910252891
 20
0.9946912081799226
 42
-0.9999999999999998
 10
2.370162910252891
 20
0.9876912081799268
 10
2.35816291025309
 20
0.9876912081799268
  0
LWPOLYLINE
  5
3ED
330
1F
100
AcDbEntity
  8
V_04_1_P
100
AcDbPolyline
 90
        3
 70
     0
 43
0.0
 10
2.35816291025309
 20
0.9876912276923285
 42
-0.9999999999999998
 10
2.35816291025309
 20
0.9946912276923306
 10
2.370162910252891
 20
0.9946912276923306
  0
LWPOLYLINE
  5
3EE
330
1F
100
AcDbEntity
  8
M_01_1_P
100
AcDbPolyline
 90
        4
 70
     1
 43
0.0
 10
2.410663025331975
 20
1.16169082914587
 10
2.317663025331957
 20
1.16169082914587
 10
2.317663025331957
 20
1.176691418602148
 10
2.410663025331975
 20
1.176691418602148
  0
LWPOLYLINE
  5
3EF
330
1F
100
AcDbEntity
  8
V_04_1_P
100
AcDbPolyline
 90
        3
 70
     0
 43
0.0
 10
2.378163007767331
 20
1.165691148386412
 42
-0.9999999999999998
 10
2.378163007767331
 20
1.172691148386415
 10
2.390163007767133
 20
1.172691148386415
  0
LWPOLYLINE
  5
3F0
330
1F
100
AcDbEntity
  8
V_04_1_P
100
AcDbPolyline
 90
        3
 70
     0
 43
0.0
 10
2.390163007767133
 20
1.172691128874006
 42
-1.0
 10
2.390163007767133
 20
1.165691128874011
 10
2.378163007767331
 20
1.165691128874011
  0
LWPOLYLINE
  5
3F1
330
1F
100
AcDbEntity
  8
V_04_1_P
100
AcDbPolyline
 90
        3
 70
     0
 43
0.0
 10
2.338163011911651
 20
1.165691148386412
 42
-0.9999999999999994
 10
2.338163011911651
 20
1.172691148386415
 10
2.350163011911452
 20
1.172691148386415
  0
LWPOLYLINE
  5
3F2
330
1F
100
AcDbEntity
  8
V_04_1_P
100
AcDbPolyline
 90
        3
 70
     0
 43
0.0
 10
2.350163011911452
 20
1.172691128874006
 42
-0.9999999999999996
 10
2.350163011911452
 20
1.165691128874011
 10
2.338163011911651
 20
1.165691128874011
  0
LWPOLYLINE
  5
3F4
330
1F
100
AcDbEntity
  8
M_01_1_P
100
AcDbPolyline
 90
       22
 70
     0
 43
0.0
 10
2.344162851307733
 20
0.9816914186021627
 10
2.31916302533195
 20
0.9816914186021627
 10
2.319163025331865
 20
1.02069141860215
 10
2.364163007628197
 20
1.02069141860215
 10
2.364163007628228
 20
1.006690810366967
 10
2.389163025331972
 20
1.006690872743237
 10
2.389163025331972
 20
0.9961912179361327
 10
2.399163025331963
 20
0.9961912179361384
 10
2.399163025331963
 20
1.016690810366969
 10
2.378682657311505
 20
1.016690810366969
 10
2.378682657311505
 20
1.030691418602119
 10
2.317663025331957
 20
1.030691418602112
 10
2.317663025315956
 20
1.041690816604538
 10
2.410663025315974
 20
1.041690816604538
 10
2.410663025331975
 20
1.030691418602112
 10
2.404932660852173
 20
1.030691418602148
 10
2.404932660852173
 20
1.02069141860215
 10
2.409163025331954
 20
1.02069141860215
 10
2.409163025331954
 20
0.9861912179361475
 10
2.389163025331972
 20
0.9861912179361475
 10
2.389163025331972
 20
0.9816914747429329
 10
2.344162851307733
 20
0.9816913624652933
  0
CIRCLE
  5
40C
102
{ACAD_REACTORS
330
B8A
102
}
330
1F
100
AcDbEntity
  8
0
100
AcDbCircle
 10
0.9320000177037156
 20
1.227499699001232
 30
0.0
 40
0.003
  0
CIRCLE
  5
411
102
{ACAD_REACTORS
330
B8A
102
}
330
1F
100
AcDbEntity
  8
0
100
AcDbCircle
 10
0.9540000177037157
 20
1.227499699001232
 30
0.0
 40
0.003
  0
CIRCLE
  5
412
102
{ACAD_REACTORS
330
B8A
102
}
330
1F
100
AcDbEntity
  8
0
100
AcDbCircle
 10
0.9760000177037156
 20
1.227499699001232
 30
0.0
 40
0.003
  0
CIRCLE
  5
413
102
{ACAD_REACTORS
330
A2E
330
B8A
102
}
330
1F
100
AcDbEntity
  8
0
100
AcDbCircle
 10
0.9980000177037156
 20
1.227499699001232
 30
0.0
 40
0.003
  0
CIRCLE
  5
416
102
{ACAD_REACTORS
330
B8A
102
}
330
1F
100
AcDbEntity
  8
0
100
AcDbCircle
 10
0.9320000177037156
 20
1.205499699001232
 30
0.0
 40
0.003
  0
CIRCLE
  5
41A
102
{ACAD_REACTORS
330
B8A
102
}
330
1F
100
AcDbEntity
  8
0
100
AcDbCircle
 10
0.9540000177037157
 20
1.205499699001232
 30
0.0
 40
0.003
  0
CIRCLE
  5
41B
102
{ACAD_REACTORS
330
B8A
102
}
330
1F
100
AcDbEntity
  8
0
100
AcDbCircle
 10
0.9760000177037156
 20
1.205499699001232
 30
0.0
 40
0.003
  0
CIRCLE
  5
41C
102
{ACAD_REACTORS
330
B8A
102
}
330
1F
100
AcDbEntity
  8
0
100
AcDbCircle
 10
0.9980000177037156
 20
1.205499699001232
 30
0.0
 40
0.003
  0
CIRCLE
  5
424
102
{ACAD_REACTORS
330
B8A
102
}
330
1F
100
AcDbEntity
  8
0
100
AcDbCircle
 10
0.9320000177037156
 20
1.183499699001232
 30
0.0
 40
0.003
  0
CIRCLE
  5
428
102
{ACAD_REACTORS
330
B8A
102
}
330
1F
100
AcDbEntity
  8
0
100
AcDbCircle
 10
0.9540000177037157
 20
1.183499699001232
 30
0.0
 40
0.003
  0
CIRCLE
  5
429
102
{ACAD_REACTORS
330
B8A
102
}
330
1F
100
AcDbEntity
  8
0
100
AcDbCircle
 10
0.9760000177037156
 20
1.183499699001232
 30
0.0
 40
0.003
  0
CIRCLE
  5
42A
102
{ACAD_REACTORS
330
B8A
102
}
330
1F
100
AcDbEntity
  8
0
100
AcDbCircle
 10
0.9980000177037156
 20
1.183499699001232
 30
0.0
 40
0.003
  0
CIRCLE
  5
42B
102
{ACAD_REACTORS
330
B8A
102
}
330
1F
100
AcDbEntity
  8
0
100
AcDbCircle
 10
0.9320000177037156
 20
1.161499699001232
 30
0.0
 40
0.003
  0
CIRCLE
  5
42F
102
{ACAD_REACTORS
330
B8A
102
}
330
1F
100
AcDbEntity
  8
0
100
AcDbCircle
 10
0.9540000177037157
 20
1.161499699001232
 30
0.0
 40
0.003
  0
CIRCLE
  5
430
102
{ACAD_REACTORS
330
B8A
102
}
330
1F
100
AcDbEntity
  8
0
100
AcDbCircle
 10
0.9760000177037156
 20
1.161499699001232
 30
0.0
 40
0.003
  0
CIRCLE
  5
431
102
{ACAD_REACTORS
330
B8A
102
}
330
1F
100
AcDbEntity
  8
0
100
AcDbCircle
 10
0.9980000177037156
 20
1.161499699001232
 30
0.0
 40
0.003
  0
CIRCLE
  5
432
102
{ACAD_REACTORS
330
B8A
102
}
330
1F
100
AcDbEntity
  8
0
100
AcDbCircle
 10
0.9320000177037156
 20
1.139499699001232
 30
0.0
 40
0.003
  0
CIRCLE
  5
436
102
{ACAD_REACTORS
330
B8A
102
}
330
1F
100
AcDbEntity
  8
0
100
AcDbCircle
 10
0.9540000177037157
 20
1.139499699001232
 30
0.0
 40
0.003
  0
CIRCLE
  5
437
102
{ACAD_REACTORS
330
B8A
102
}
330
1F
100
AcDbEntity
  8
0
100
AcDbCircle
 10
0.9760000177037156
 20
1.139499699001232
 30
0.0
 40
0.003
  0
CIRCLE
  5
438
102
{ACAD_REACTORS
330
B8A
102
}
330
1F
100
AcDbEntity
  8
0
100
AcDbCircle
 10
0.9980000177037156
 20
1.139499699001232
 30
0.0
 40
0.003
  0
CIRCLE
  5
439
102
{ACAD_REACTORS
330
B8A
102
}
330
1F
100
AcDbEntity
  8
0
100
AcDbCircle
 10
0.9320000177037156
 20
1.117499699001232
 30
0.0
 40
0.003
  0
CIRCLE
  5
43D
102
{ACAD_REACTORS
330
B8A
102
}
330
1F
100
AcDbEntity
  8
0
100
AcDbCircle
 10
0.9540000177037157
 20
1.117499699001232
 30
0.0
 40
0.003
  0
CIRCLE
  5
43E
102
{ACAD_REACTORS
330
B8A
102
}
330
1F
100
AcDbEntity
  8
0
100
AcDbCircle
 10
0.9760000177037156
 20
1.117499699001232
 30
0.0
 40
0.003
  0
CIRCLE
  5
43F
102
{ACAD_REACTORS
330
B8A
102
}
330
1F
100
AcDbEntity
  8
0
100
AcDbCircle
 10
0.9980000177037156
 20
1.117499699001232
 30
0.0
 40
0.003
  0
CIRCLE
  5
444
330
1F
100
AcDbEntity
  8
0
100
AcDbCircle
 10
0.9320000177037156
 20
1.253000542771634
 30
0.0
 40
0.003
  0
CIRCLE
  5
446
330
1F
100
AcDbEntity
  8
0
100
AcDbCircle
 10
0.9540000177037157
 20
1.253000542771634
 30
0.0
 40
0.003
  0
CIRCLE
  5
448
330
1F
100
AcDbEntity
  8
0
100
AcDbCircle
 10
0.9760000177037156
 20
1.253000542771634
 30
0.0
 40
0.003
  0
CIRCLE
  5
44A
330
1F
100
AcDbEntity
  8
0
100
AcDbCircle
 10
0.9980000177037156
 20
1.253000542771634
 30
0.0
 40
0.003
  0
CIRCLE
  5
452
330
1F
100
AcDbEntity
  8
0
100
AcDbCircle
 10
0.9070000177037156
 20
1.227499699001232
 30
0.0
 40
0.003
  0
CIRCLE
  5
453
330
1F
100
AcDbEntity
  8
0
100
AcDbCircle
 10
0.9070000177037156
 20
1.205499699001232
 30
0.0
 40
0.003
  0
CIRCLE
  5
454
330
1F
100
AcDbEntity
  8
0
100
AcDbCircle
 10
0.9070000177037156
 20
1.183499699001232
 30
0.0
 40
0.003
  0
CIRCLE
  5
455
330
1F
100
AcDbEntity
  8
0
100
AcDbCircle
 10
0.9070000177037156
 20
1.161499699001232
 30
0.0
 40
0.003
  0
CIRCLE
  5
456
330
1F
100
AcDbEntity
  8
0
100
AcDbCircle
 10
0.9070000177037156
 20
1.139499699001232
 30
0.0
 40
0.003
  0
CIRCLE
  5
457
330
1F
100
AcDbEntity
  8
0
100
AcDbCircle
 10
0.9070000177037156
 20
1.117499699001232
 30
0.0
 40
0.003
  0
CIRCLE
  5
459
330
1F
100
AcDbEntity
  8
0
100
AcDbCircle
 10
1.023000043039693
 20
1.227499699001232
 30
0.0
 40
0.003
  0
CIRCLE
  5
45A
330
1F
100
AcDbEntity
  8
0
100
AcDbCircle
 10
1.023000043039693
 20
1.205499699001232
 30
0.0
 40
0.003
  0
CIRCLE
  5
45B
330
1F
100
AcDbEntity
  8
0
100
AcDbCircle
 10
1.023000043039693
 20
1.183499699001232
 30
0.0
 40
0.003
  0
CIRCLE
  5
45C
330
1F
100
AcDbEntity
  8
0
100
AcDbCircle
 10
1.023000043039693
 20
1.161499699001232
 30
0.0
 40
0.003
  0
CIRCLE
  5
45D
330
1F
100
AcDbEntity
  8
0
100
AcDbCircle
 10
1.023000043039693
 20
1.139499699001232
 30
0.0
 40
0.003
  0
CIRCLE
  5
45E
330
1F
100
AcDbEntity
  8
0
100
AcDbCircle
 10
1.023000043039693
 20
1.117499699001232
 30
0.0
 40
0.003
  0
CIRCLE
  5
461
330
1F
100
AcDbEntity
  8
0
100
AcDbCircle
 10
0.9070000177037156
 20
1.253000542771634
 30
0.0
 40
0.003
  0
CIRCLE
  5
464
330
1F
100
AcDbEntity
  8
0
100
AcDbCircle
 10
1.023000043039693
 20
1.252499699001232
 30
0.0
 40
0.003
  0
CIRCLE
  5
466
330
1F
100
AcDbEntity
  8
0
100
AcDbCircle
 10
0.9210000177037155
 20
1.272053101654892
 30
0.0
 40
0.003
  0
CIRCLE
  5
468
330
1F
100
AcDbEntity
  8
0
100
AcDbCircle
 10
0.9430000177037156
 20
1.272053101654892
 30
0.0
 40
0.003
  0
CIRCLE
  5
46A
330
1F
100
AcDbEntity
  8
0
100
AcDbCircle
 10
0.9650000177037156
 20
1.272053101654892
 30
0.0
 40
0.003
  0
CIRCLE
  5
46C
330
1F
100
AcDbEntity
  8
0
100
AcDbCircle
 10
0.9870000177037157
 20
1.272053101654892
 30
0.0
 40
0.003
  0
CIRCLE
  5
46E
330
1F
100
AcDbEntity
  8
0
100
AcDbCircle
 10
1.009000017703715
 20
1.272053101654892
 30
0.0
 40
0.003
  0
CIRCLE
  5
470
330
1F
100
AcDbEntity
  8
0
100
AcDbCircle
 10
1.033937528646942
 20
1.271443979780042
 30
0.0
 40
0.003
  0
CIRCLE
  5
471
330
1F
100
AcDbEntity
  8
0
100
AcDbCircle
 10
0.8960000177037155
 20
1.272053101654892
 30
0.0
 40
0.003
  0
CIRCLE
  5
473
330
1F
100
AcDbEntity
  8
0
100
AcDbCircle
 10
1.04205260192295
 20
1.238499699001232
 30
0.0
 40
0.003
  0
CIRCLE
  5
475
330
1F
100
AcDbEntity
  8
0
100
AcDbCircle
 10
1.04205260192295
 20
1.216499699001232
 30
0.0
 40
0.003
  0
CIRCLE
  5
477
330
1F
100
AcDbEntity
  8
0
100
AcDbCircle
 10
1.04205260192295
 20
1.194499699001232
 30
0.0
 40
0.003
  0
CIRCLE
  5
479
330
1F
100
AcDbEntity
  8
0
100
AcDbCircle
 10
1.04205260192295
 20
1.172499699001232
 30
0.0
 40
0.003
  0
CIRCLE
  5
47B
330
1F
100
AcDbEntity
  8
0
100
AcDbCircle
 10
1.04205260192295
 20
1.150499699001232
 30
0.0
 40
0.003
  0
CIRCLE
  5
47D
330
1F
100
AcDbEntity
  8
0
100
AcDbCircle
 10
1.04205260192295
 20
1.128499699001232
 30
0.0
 40
0.003
  0
CIRCLE
  5
47E
330
1F
100
AcDbEntity
  8
0
100
AcDbCircle
 10
0.8879480412352062
 20
1.238492664498276
 30
0.0
 40
0.003
  0
CIRCLE
  5
47F
330
1F
100
AcDbEntity
  8
0
100
AcDbCircle
 10
0.8879501310978065
 20
1.216492664597538
 30
0.0
 40
0.003
  0
CIRCLE
  5
480
330
1F
100
AcDbEntity
  8
0
100
AcDbCircle
 10
0.8879522209604065
 20
1.1944926646968
 30
0.0
 40
0.003
  0
CIRCLE
  5
481
330
1F
100
AcDbEntity
  8
0
100
AcDbCircle
 10
0.8879543108230068
 20
1.172492664796062
 30
0.0
 40
0.003
  0
CIRCLE
  5
482
330
1F
100
AcDbEntity
  8
0
100
AcDbCircle
 10
0.8879564006856069
 20
1.150492664895324
 30
0.0
 40
0.003
  0
CIRCLE
  5
483
330
1F
100
AcDbEntity
  8
0
100
AcDbCircle
 10
0.8879584905482072
 20
1.128492664994586
 30
0.0
 40
0.003
  0
CIRCLE
  5
4EF
330
1F
100
AcDbEntity
  8
0
100
AcDbCircle
 10
0.8769584905482073
 20
1.261046067648246
 30
0.0
 40
0.003
  0
CIRCLE
  5
4F6
330
1F
100
AcDbEntity
  8
0
100
AcDbCircle
 10
1.027999985837078
 20
1.095514188717846
 30
0.0
 40
0.003
  0
CIRCLE
  5
4F7
330
1F
100
AcDbEntity
  8
0
100
AcDbCircle
 10
1.047041512992586
 20
1.0845071547112
 30
0.0
 40
0.003
  0
CIRCLE
  5
4F8
330
1F
100
AcDbEntity
  8
0
100
AcDbCircle
 10
1.027999985837078
 20
1.073514188717846
 30
0.0
 40
0.003
  0
CIRCLE
  5
4F9
330
1F
100
AcDbEntity
  8
0
100
AcDbCircle
 10
1.047041512992586
 20
1.0625071547112
 30
0.0
 40
0.003
  0
CIRCLE
  5
4FA
330
1F
100
AcDbEntity
  8
0
100
AcDbCircle
 10
1.027999985837078
 20
1.051514188717846
 30
0.0
 40
0.003
  0
CIRCLE
  5
4FB
330
1F
100
AcDbEntity
  8
0
100
AcDbCircle
 10
1.047041512992586
 20
1.0405071547112
 30
0.0
 40
0.003
  0
CIRCLE
  5
4FC
330
1F
100
AcDbEntity
  8
0
100
AcDbCircle
 10
1.027999985837078
 20
1.029514188717846
 30
0.0
 40
0.003
  0
CIRCLE
  5
4FD
330
1F
100
AcDbEntity
  8
0
100
AcDbCircle
 10
1.047041512992586
 20
1.0185071547112
 30
0.0
 40
0.003
  0
CIRCLE
  5
4FE
330
1F
100
AcDbEntity
  8
0
100
AcDbCircle
 10
1.047041512992586
 20
1.1065071547112
 30
0.0
 40
0.003
  0
CIRCLE
  5
505
330
1F
100
AcDbEntity
  8
0
100
AcDbCircle
 10
1.053041544859224
 20
1.261046067648246
 30
0.0
 40
0.003
  0
CIRCLE
  5
52A
330
1F
100
AcDbEntity
  8
0
100
AcDbCircle
 10
0.9020000495703525
 20
1.095514188717846
 30
0.0
 40
0.003
  0
CIRCLE
  5
52B
330
1F
100
AcDbEntity
  8
0
100
AcDbCircle
 10
0.8829585224148443
 20
1.0845071547112
 30
0.0
 40
0.003
  0
CIRCLE
  5
52C
330
1F
100
AcDbEntity
  8
0
100
AcDbCircle
 10
0.9020000495703525
 20
1.073514188717846
 30
0.0
 40
0.003
  0
CIRCLE
  5
52D
330
1F
100
AcDbEntity
  8
0
100
AcDbCircle
 10
0.8829585224148443
 20
1.0625071547112
 30
0.0
 40
0.003
  0
CIRCLE
  5
52E
330
1F
100
AcDbEntity
  8
0
100
AcDbCircle
 10
0.9020000495703525
 20
1.051514188717846
 30
0.0
 40
0.003
  0
CIRCLE
  5
52F
330
1F
100
AcDbEntity
  8
0
100
AcDbCircle
 10
0.8829585224148443
 20
1.0405071547112
 30
0.0
 40
0.003
  0
CIRCLE
  5
530
330
1F
100
AcDbEntity
  8
0
100
AcDbCircle
 10
0.9020000495703525
 20
1.029514188717846
 30
0.0
 40
0.003
  0
CIRCLE
  5
531
330
1F
100
AcDbEntity
  8
0
100
AcDbCircle
 10
0.8829585224148443
 20
1.0185071547112
 30
0.0
 40
0.003
  0
CIRCLE
  5
532
330
1F
100
AcDbEntity
  8
0
100
AcDbCircle
 10
0.8829585224148443
 20
1.1065071547112
 30
0.0
 40
0.003
  0
LINE
  5
548
330
1F
100
AcDbEntity
  8
0
100
AcDbLine
 10
0.94500000000005
 20
1.045000000000044
 30
0.0
 11
0.94000001770371
 21
1.045000542771646
 31
0.0
  0
LINE
  5
549
102
{ACAD_REACTORS
330
6D5
330
772
102
}
330
1F
100
AcDbEntity
  8
0
100
AcDbLine
 10
0.94000001770371
 20
1.045000542771646
 30
0.0
 11
0.94000001770371
 21
1.069999398002295
 31
0.0
  0
LINE
  5
54A
102
{ACAD_REACTORS
330
73E
102
}
330
1F
100
AcDbEntity
  8
0
100
AcDbLine
 10
0.94000001770371
 20
1.069999398002295
 30
0.0
 11
0.9900000177037213
 21
1.069999398002295
 31
0.0
  0
LINE
  5
54B
102
{ACAD_REACTORS
330
6A7
330
772
102
}
330
1F
100
AcDbEntity
  8
0
100
AcDbLine
 10
0.9900000177037213
 20
1.069999398002295
 30
0.0
 11
0.9900000177037213
 21
1.045000542771646
 31
0.0
  0
LINE
  5
54C
102
{ACAD_REACTORS
330
6A7
102
}
330
1F
100
AcDbEntity
  8
0
100
AcDbLine
 10
0.9900000177037213
 20
1.045000542771646
 30
0.0
 11
0.9850000000589904
 21
1.04500000000005
 31
0.0
  0
LINE
  5
54D
330
1F
100
AcDbEntity
  8
0
100
AcDbLine
 10
0.9850000000589904
 20
1.04500000000005
 30
0.0
 11
0.985000000024755
 21
0.8832649143879153
 31
0.0
  0
LINE
  5
557
330
1F
100
AcDbEntity
  8
0
100
AcDbLine
 10
0.94500000000005
 20
0.8832625406484662
 30
0.0
 11
0.94500000000005
 21
1.045000000000044
 31
0.0
  0
LINE
  5
56D
330
1F
100
AcDbEntity
  8
0
100
AcDbLine
 10
0.915007513159988
 20
0.8877884924283968
 30
0.0
 11
0.9149999858370852
 21
1.044999999997169
 31
0.0
  0
CIRCLE
  5
575
330
1F
100
AcDbEntity
  8
0
100
AcDbCircle
 10
0.8400000000001
 20
1.176551779584313
 30
0.0
 40
0.0155
  0
CIRCLE
  5
576
330
1F
100
AcDbEntity
  8
0
100
AcDbCircle
 10
1.090000035407331
 20
1.176551779584313
 30
0.0
 40
0.0155
  0
CIRCLE
  5
579
330
1F
100
AcDbEntity
  8
0
100
AcDbCircle
 10
0.9650000000000318
 20
1.317605682954508
 30
0.0
 40
0.0155
  0
LWPOLYLINE
  5
68B
102
{ACAD_REACTORS
330
758
102
}
330
1F
100
AcDbEntity
  8
0
100
AcDbPolyline
 90
        8
 70
     0
 43
0.0
 10
0.9150000000000204
 20
1.045000000000044
 10
0.9099999859400853
 20
1.044998985108029
 10
0.9099999859400853
 20
1.044998985108029
 10
0.9100133184363611
 20
1.105022714731465
 10
1.019999985837078
 20
1.105022714731465
 10
1.019999985837078
 20
1.045000000000044
 10
1.014986686654197
 20
1.045000000000044
 10
1.014986686654229
 20
0.8877932794540676
  0
DIMENSION
  5
68C
102
{ACAD_XDICTIONARY
360
69B
102
}
102
{ACAD_REACTORS
330
6A7
102
}
330
1F
100
AcDbEntity
  8
0
100
AcDbDimension
280
     0
  2
*D1
 10
1.078241427550198
 20
1.069999398002295
 30
0.0
 11
1.078241427550198
 21
1.05749997038697
 31
0.0
 70
   160
 71
     5
 42
0.0249988552306491
 73
     0
 74
     0
 75
     0
  3
Dan's Dim Style
100
AcDbAlignedDimension
 13
0.9900000177037213
 23
1.045000542771646
 33
0.0
 14
0.9900000177037213
 24
1.069999398002295
 34
0.0
 50
90.0
100
AcDbRotatedDimension
  0
DIMENSION
  5
6BC
102
{ACAD_XDICTIONARY
360
6CA
102
}
102
{ACAD_REACTORS
330
6D5
102
}
330
1F
100
AcDbEntity
  8
0
100
AcDbDimension
280
     0
  2
*D2
 10
0.9900000177037213
 20
0.990165045567382
 30
0.0
 11
1.044378024629823
 21
0.990165045567382
 31
0.0
 70
   160
 71
     5
 42
0.0500000000000114
 73
     0
 74
     0
 75
     0
  3
Dan's Dim Style
100
AcDbAlignedDimension
 13
0.94000001770371
 23
1.045000542771646
 33
0.0
 14
0.9900000177037213
 24
1.045000542771646
 34
0.0
100
AcDbRotatedDimension
  0
DIMENSION
  5
725
102
{ACAD_XDICTIONARY
360
733
102
}
102
{ACAD_REACTORS
330
73E
102
}
330
1F
100
AcDbEntity
  8
0
100
AcDbDimension
280
     0
  2
*D3
 10
0.8563362659899809
 20
1.104999398002433
 30
0.0
 11
0.8563362659899807
 21
1.087499398002364
 31
0.0
 70
    32
 71
     5
 42
0.0350000000001387
 73
     0
 74
     0
 75
     0
  3
Dan's Dim Style
100
AcDbAlignedDimension
 13
0.9650000177037156
 23
1.069999398002295
 33
0.0
 14
0.9650000177037156
 24
1.104999398002433
 34
0.0
 50
90.0
100
AcDbRotatedDimension
  0
DIMENSION
  5
73F
102
{ACAD_XDICTIONARY
360
74D
102
}
102
{ACAD_REACTORS
330
758
102
}
330
1F
100
AcDbEntity
  8
0
100
AcDbDimension
280
     0
  2
*D4
 10
0.9099999877662002
 20
1.001629885915041
 30
0.0
 11
0.8582735211904839
 21
1.001629885915041
 31
0.0
 70
    32
 71
     5
 42
0.0300000299375098
 73
     0
 74
     0
 75
     0
  3
Dan's Dim Style
100
AcDbAlignedDimension
 13
0.94000001770371
 23
1.045000542771646
 33
0.0
 14
0.9099999877662002
 24
1.045007206391016
 34
0.0
100
AcDbRotatedDimension
  0
DIMENSION
  5
759
102
{ACAD_XDICTIONARY
360
767
102
}
102
{ACAD_REACTORS
330
772
102
}
330
1F
100
AcDbEntity
  8
0
100
AcDbDimension
280
     0
  2
*D5
 10
0.9900000177037213
 20
0.9681643974883362
 30
0.0
 11
1.089816732128453
 21
0.9681643974883362
 31
0.0
 70
   160
  1
50{\H1.0833x;Ω\PTransmission Line}
 71
     5
 42
0.0500000000000115
 73
     0
 74
     0
 75
     0
  3
Dan's Dim Style
100
AcDbAlignedDimension
 13
0.9400000177037098
 23
1.045007206391016
 33
0.0
 14
0.9900000177037213
 24
1.045007206391016
 34
0.0
100
AcDbRotatedDimension
  0
HATCH
  5
9BE
330
1F
100
AcDbEntity
  8
0
100
AcDbHatch
 10
0.0
 20
0.0
 30
0.0
210
0.0
220
0.0
230
1.0
  2
ANSI31
 70
     0
 71
     0
 91
       26
 92
        7
 72
     0
 73
     1
 93
        4
 10
1.015000043039693
 20
1.245000542771634
 10
0.9150000430396705
 20
1.245000542771634
 10
0.9150000430396705
 20
1.105022714731465
 10
1.015000043039693
 20
1.105022714731465
 97
        0
 92
       22
 72
     1
 73
     1
 93
        2
 10
0.9730000177037156
 20
1.227499699001232
 42
-1.0
 10
0.9790000177037157
 20
1.227499699001232
 42
-1.0
 97
        0
 92
       22
 72
     1
 73
     1
 93
        2
 10
0.9790000177037157
 20
1.205499699001232
 42
-1.0
 10
0.9730000177037156
 20
1.205499699001232
 42
-1.0
 97
        0
 92
       22
 72
     1
 73
     1
 93
        2
 10
0.9510000177037156
 20
1.227499699001232
 42
-1.0
 10
0.9570000177037156
 20
1.227499699001232
 42
-1.0
 97
        0
 92
       22
 72
     1
 73
     1
 93
        2
 10
0.9570000177037156
 20
1.205499699001232
 42
-1.0
 10
0.9510000177037156
 20
1.205499699001232
 42
-1.0
 97
        0
 92
       22
 72
     1
 73
     1
 93
        2
 10
0.9950000177037157
 20
1.227499699001232
 42
-1.0
 10
1.001000017703715
 20
1.227499699001232
 42
-1.0
 97
        0
 92
       22
 72
     1
 73
     1
 93
        2
 10
1.001000017703715
 20
1.205499699001232
 42
-1.0
 10
0.9950000177037157
 20
1.205499699001232
 42
-1.0
 97
        0
 92
       22
 72
     1
 73
     1
 93
        2
 10
0.9790000177037157
 20
1.183499699001232
 42
-1.0
 10
0.9730000177037156
 20
1.183499699001232
 42
-1.0
 97
        0
 92
       22
 72
     1
 73
     1
 93
        2
 10
0.9570000177037156
 20
1.183499699001232
 42
-1.0
 10
0.9510000177037156
 20
1.183499699001232
 42
-1.0
 97
        0
 92
       22
 72
     1
 73
     1
 93
        2
 10
0.9290000177037157
 20
1.227499699001232
 42
-1.0
 10
0.9350000177037156
 20
1.227499699001232
 42
-1.0
 97
        0
 92
       22
 72
     1
 73
     1
 93
        2
 10
0.9350000177037156
 20
1.205499699001232
 42
-1.0
 10
0.9290000177037157
 20
1.205499699001232
 42
-1.0
 97
        0
 92
       22
 72
     1
 73
     1
 93
        2
 10
1.001000017703715
 20
1.183499699001232
 42
-1.0
 10
0.9950000177037157
 20
1.183499699001232
 42
-1.0
 97
        0
 92
       22
 72
     1
 73
     1
 93
        2
 10
0.9350000177037156
 20
1.183499699001232
 42
-1.0
 10
0.9290000177037157
 20
1.183499699001232
 42
-1.0
 97
        0
 92
       22
 72
     1
 73
     1
 93
        2
 10
0.9790000177037157
 20
1.161499699001232
 42
-1.0
 10
0.9730000177037156
 20
1.161499699001232
 42
-1.0
 97
        0
 92
       22
 72
     1
 73
     1
 93
        2
 10
0.9570000177037156
 20
1.161499699001232
 42
-1.0
 10
0.9510000177037156
 20
1.161499699001232
 42
-1.0
 97
        0
 92
       22
 72
     1
 73
     1
 93
        2
 10
1.001000017703715
 20
1.161499699001232
 42
-1.0
 10
0.9950000177037157
 20
1.161499699001232
 42
-1.0
 97
        0
 92
       22
 72
     1
 73
     1
 93
        2
 10
0.9350000177037156
 20
1.161499699001232
 42
-1.0
 10
0.9290000177037157
 20
1.161499699001232
 42
-1.0
 97
        0
 92
       22
 72
     1
 73
     1
 93
        2
 10
0.9790000177037157
 20
1.139499699001232
 42
-1.0
 10
0.9730000177037156
 20
1.139499699001232
 42
-1.0
 97
        0
 92
       22
 72
     1
 73
     1
 93
        2
 10
0.9570000177037156
 20
1.139499699001232
 42
-1.0
 10
0.9510000177037156
 20
1.139499699001232
 42
-1.0
 97
        0
 92
       22
 72
     1
 73
     1
 93
        2
 10
1.001000017703715
 20
1.139499699001232
 42
-1.0
 10
0.9950000177037157
 20
1.139499699001232
 42
-1.0
 97
        0
 92
       22
 72
     1
 73
     1
 93
        2
 10
0.9350000177037156
 20
1.139499699001232
 42
-1.0
 10
0.9290000177037157
 20
1.139499699001232
 42
-1.0
 97
        0
 92
       22
 72
     1
 73
     1
 93
        2
 10
0.9790000177037157
 20
1.117499699001232
 42
-1.0
 10
0.9730000177037156
 20
1.117499699001232
 42
-1.0
 97
        0
 92
       22
 72
     1
 73
     1
 93
        2
 10
0.9570000177037156
 20
1.117499699001232
 42
-1.0
 10
0.9510000177037156
 20
1.117499699001232
 42
-1.0
 97
        0
 92
       22
 72
     1
 73
     1
 93
        2
 10
1.001000017703715
 20
1.117499699001232
 42
-1.0
 10
0.9950000177037157
 20
1.117499699001232
 42
-1.0
 97
        0
 92
       22
 72
     1
 73
     1
 93
        2
 10
0.9350000177037156
 20
1.117499699001232
 42
-1.0
 10
0.9290000177037157
 20
1.117499699001232
 42
-1.0
 97
        0
 92
        7
 72
     0
 73
     1
 93
        4
 10
0.9900000177037213
 20
1.069999398002295
 10
0.94000001770371
 20
1.069999398002295
 10
0.94000001770371
 20
1.045000542771646
 10
0.9900000177037213
 20
1.045000542771646
 97
        0
 75
     1
 76
     1
 52
0.0
 41
0.05
 77
     0
 78
     1
 53
45.0
 43
0.0
 44
0.0
 45
-0.0044194173824159
 46
0.0044194173824159
 79
     0
 47
0.0004974748019641
 98
       26
 10
0.9673281314116799
 20
1.217116849697003
 10
0.9673281314116799
 20
1.217116849697003
 10
0.9673281314116799
 20
1.217116849697003
 10
0.9673281314116799
 20
1.217116849697003
 10
0.9673281314116799
 20
1.217116849697003
 10
0.9673281314116799
 20
1.217116849697003
 10
0.9673281314116799
 20
1.217116849697003
 10
0.9673281314116799
 20
1.217116849697003
 10
0.9673281314116799
 20
1.217116849697003
 10
0.9673281314116799
 20
1.217116849697003
 10
0.9673281314116799
 20
1.217116849697003
 10
0.9673281314116799
 20
1.217116849697003
 10
0.9673281314116799
 20
1.217116849697003
 10
0.9673281314116799
 20
1.217116849697003
 10
0.9673281314116799
 20
1.217116849697003
 10
0.9673281314116799
 20
1.217116849697003
 10
0.9673281314116799
 20
1.217116849697003
 10
0.9673281314116799
 20
1.217116849697003
 10
0.9673281314116799
 20
1.217116849697003
 10
0.9673281314116799
 20
1.217116849697003
 10
0.9673281314116799
 20
1.217116849697003
 10
0.9673281314116799
 20
1.217116849697003
 10
0.9673281314116799
 20
1.217116849697003
 10
0.9673281314116799
 20
1.217116849697003
 10
0.9673281314116799
 20
1.217116849697003
 10
0.9683237929251902
 20
1.059417320463079
1001
GradientColor1ACI
1070
     5
1001
GradientColor2ACI
1070
     2
1001
ACAD
1010
0.0
1020
0.0
1030
0.0
  0
CIRCLE
  5
9BF
102
{ACAD_REACTORS
330
9E6
102
}
330
1F
100
AcDbEntity
  8
0
100
AcDbCircle
 10
0.9650000177037156
 20
1.069999398002295
 30
0.0
 40
0.01
  0
DIMENSION
  5
9D5
102
{ACAD_XDICTIONARY
360
9DF
102
}
102
{ACAD_REACTORS
330
9E6
102
}
330
1F
100
AcDbEntity
  8
0
100
AcDbDimension
280
     0
  2
*D11
 10
0.9583581560459915
 20
1.062523725877351
 30
0.0
 11
1.114425085231928
 21
1.138439326833411
 31
0.0
 70
   163
  1
Orientation Marker
 71
     5
 42
0.02
 73
     0
 74
     0
 75
     0
  3
Dan's Dim Style
100
AcDbDiametricDimension
 15
0.9716418793614394
 25
1.077475070127238
 35
0.0
 40
0.0
1001
ACAD_DSTYLE_DIMRADIAL_EXTENSION
1070
   387
1070
     1
1070
   388
1040
0.0
1070
   390
1040
0.0
1001
ACAD
1000
DSTYLE
1002
{
1070
   288
1070
     1
1002
}
  0
DIMENSION
  5
A1D
102
{ACAD_XDICTIONARY
360
A27
102
}
102
{ACAD_REACTORS
330
A2E
102
}
330
1F
100
AcDbEntity
  8
0
100
AcDbDimension
280
     0
  2
*D12
 10
0.9969194545916144
 20
1.224701059445882
 30
0.0
 11
1.146124118410082
 21
1.308486882443241
 31
0.0
 70
   163
  1
Multiple Plated Thru Holes\PTo Ground
 71
     5
 42
0.0060000000000002
 73
     0
 74
     0
 75
     0
  3
Dan's Dim Style
100
AcDbDiametricDimension
 15
0.9990805808158167
 25
1.230298338556581
 35
0.0
 40
0.0
1001
ACAD
1000
DSTYLE
1002
{
1070
   288
1070
     1
1002
}
1001
ACAD_DSTYLE_DIMRADIAL_EXTENSION
1070
   387
1070
     1
1070
   388
1040
0.0
1070
   390
1040
0.0
  0
DIMENSION
  5
A3B
330
1F
100
AcDbEntity
  8
0
100
AcDbDimension
280
     0
  2
*D13
 10
0.9376217047168823
 20
1.21661765158623
 30
0.0
 11
0.8296436001323533
 21
1.290662353388084
 31
0.0
 70
   163
  1
Hatched Area\PIndicates\PFootprint of\PPart
 71
     5
 42
0.0244967198470606
 73
     0
 74
     0
 75
     0
  3
Dan's Dim Style
100
AcDbDiametricDimension
 15
0.9263783306905473
 25
1.238381746416232
 35
0.0
 40
0.0
1001
ACAD_DSTYLE_DIMRADIAL_EXTENSION
1070
   387
1070
     1
1070
   388
1040
0.0
1070
   390
1040
0.0
1001
ACAD
1000
DSTYLE
1002
{
1070
   288
1070
     1
1002
}
  0
LWPOLYLINE
  5
A74
330
1F
100
AcDbEntity
  8
0
100
AcDbPolyline
 90
        3
 70
     0
 43
0.0
 10
0.94500000000005
 20
0.8832625406484662
 42
-1.154860930255067
 10
0.9666302583213237
 20
0.8832649143879153
 42
1.088552161340324
 10
0.985000000024755
 20
0.8832649143879153
 42
1.558641676402833
  0
DIMENSION
  5
A89
330
1F
100
AcDbEntity
  8
0
100
AcDbDimension
280
     0
  2
*D14
 10
0.7715747059894258
 20
0.9843839366186763
 30
0.0
 11
0.9126872023771753
 21
0.8517671937757533
 31
0.0
 70
   163
  1
Copper/Ground
 71
     5
 42
0.0187679955633571
 73
     0
 74
     0
 75
     0
  3
Dan's Dim Style
100
AcDbDiametricDimension
 15
0.7798201812706389
 25
0.9675242274025276
 35
0.0
 40
0.0
1001
ACAD
1000
DSTYLE
1002
{
1070
   288
1070
     1
1002
}
1001
ACAD_DSTYLE_DIMRADIAL_EXTENSION
1070
   387
1070
     1
1070
   388
1040
0.0
1070
   390
1040
0.0
  0
HATCH
  5
B8A
330
1F
100
AcDbEntity
  8
0
100
AcDbHatch
 10
0.0
 20
0.0
 30
0.0
210
0.0
220
0.0
230
1.0
  2
ANSI31
 70
     0
 71
     1
 91
       24
 92
        7
 72
     1
 73
     1
 93
        2
 10
0.9290000177037157
 20
1.227499699001232
 42
1.0
 10
0.9350000177037156
 20
1.227499699001232
 42
1.0
 97
        1
330
40C
 92
        7
 72
     1
 73
     1
 93
        2
 10
0.9570000177037156
 20
1.227499699001232
 42
1.0
 10
0.9510000177037156
 20
1.227499699001232
 42
1.0
 97
        1
330
411
 92
        7
 72
     1
 73
     1
 93
        2
 10
0.9730000177037156
 20
1.227499699001232
 42
1.0
 10
0.9790000177037157
 20
1.227499699001232
 42
1.0
 97
        1
330
412
 92
        7
 72
     1
 73
     1
 93
        2
 10
1.001000017703715
 20
1.227499699001232
 42
1.0
 10
0.9950000177037157
 20
1.227499699001232
 42
1.0
 97
        1
330
413
 92
        7
 72
     1
 73
     1
 93
        2
 10
0.9950000177037157
 20
1.205499699001232
 42
1.0
 10
1.001000017703715
 20
1.205499699001232
 42
1.0
 97
        1
330
41C
 92
        7
 72
     1
 73
     1
 93
        2
 10
0.9790000177037157
 20
1.205499699001232
 42
1.0
 10
0.9730000177037156
 20
1.205499699001232
 42
1.0
 97
        1
330
41B
 92
        7
 72
     1
 73
     1
 93
        2
 10
0.9570000177037156
 20
1.205499699001232
 42
1.0
 10
0.9510000177037156
 20
1.205499699001232
 42
1.0
 97
        1
330
41A
 92
        7
 72
     1
 73
     1
 93
        2
 10
0.9290000177037157
 20
1.205499699001232
 42
1.0
 10
0.9350000177037156
 20
1.205499699001232
 42
1.0
 97
        1
330
416
 92
        7
 72
     1
 73
     1
 93
        2
 10
0.9290000177037157
 20
1.183499699001232
 42
1.0
 10
0.9350000177037156
 20
1.183499699001232
 42
1.0
 97
        1
330
424
 92
        7
 72
     1
 73
     1
 93
        2
 10
0.9510000177037156
 20
1.183499699001232
 42
1.0
 10
0.9570000177037156
 20
1.183499699001232
 42
1.0
 97
        1
330
428
 92
        7
 72
     1
 73
     1
 93
        2
 10
0.9730000177037156
 20
1.183499699001232
 42
1.0
 10
0.9790000177037157
 20
1.183499699001232
 42
1.0
 97
        1
330
429
 92
        7
 72
     1
 73
     1
 93
        2
 10
0.9950000177037157
 20
1.183499699001232
 42
1.0
 10
1.001000017703715
 20
1.183499699001232
 42
1.0
 97
        1
330
42A
 92
        7
 72
     1
 73
     1
 93
        2
 10
1.001000017703715
 20
1.161499699001232
 42
1.0
 10
0.9950000177037157
 20
1.161499699001232
 42
1.0
 97
        1
330
431
 92
        7
 72
     1
 73
     1
 93
        2
 10
0.9790000177037157
 20
1.161499699001232
 42
1.0
 10
0.9730000177037156
 20
1.161499699001232
 42
1.0
 97
        1
330
430
 92
        7
 72
     1
 73
     1
 93
        2
 10
0.9510000177037156
 20
1.161499699001232
 42
1.0
 10
0.9570000177037156
 20
1.161499699001232
 42
1.0
 97
        1
330
42F
 92
        7
 72
     1
 73
     1
 93
        2
 10
0.9290000177037157
 20
1.161499699001232
 42
1.0
 10
0.9350000177037156
 20
1.161499699001232
 42
1.0
 97
        1
330
42B
 92
        7
 72
     1
 73
     1
 93
        2
 10
0.9290000177037157
 20
1.139499699001232
 42
1.0
 10
0.9350000177037156
 20
1.139499699001232
 42
1.0
 97
        1
330
432
 92
        7
 72
     1
 73
     1
 93
        2
 10
0.9510000177037156
 20
1.139499699001232
 42
1.0
 10
0.9570000177037156
 20
1.139499699001232
 42
1.0
 97
        1
330
436
 92
        7
 72
     1
 73
     1
 93
        2
 10
0.9730000177037156
 20
1.139499699001232
 42
1.0
 10
0.9790000177037157
 20
1.139499699001232
 42
1.0
 97
        1
330
437
 92
        7
 72
     1
 73
     1
 93
        2
 10
0.9950000177037157
 20
1.139499699001232
 42
1.0
 10
1.001000017703715
 20
1.139499699001232
 42
1.0
 97
        1
330
438
 92
        7
 72
     1
 73
     1
 93
        2
 10
1.001000017703715
 20
1.117499699001232
 42
1.0
 10
0.9950000177037157
 20
1.117499699001232
 42
1.0
 97
        1
330
43F
 92
        7
 72
     1
 73
     1
 93
        2
 10
0.9730000177037156
 20
1.117499699001232
 42
1.0
 10
0.9790000177037157
 20
1.117499699001232
 42
1.0
 97
        1
330
43E
 92
        7
 72
     1
 73
     1
 93
        2
 10
0.9510000177037156
 20
1.117499699001232
 42
1.0
 10
0.9570000177037156
 20
1.117499699001232
 42
1.0
 97
        1
330
43D
 92
        7
 72
     1
 73
     1
 93
        2
 10
0.9290000177037157
 20
1.117499699001232
 42
1.0
 10
0.9350000177037156
 20
1.117499699001232
 42
1.0
 97
        1
330
439
 75
     1
 76
     1
 52
0.0
 41
0.05
 77
     0
 78
     1
 53
45.0
 43
0.0
 44
0.0
 45
-0.0044194173824159
 46
0.0044194173824159
 79
     0
 47
0.0002408761831515
 98
       24
 10
0.9322604544747804
 20
1.227712459007981
 10
0.9535084421419085
 20
1.226959469243951
 10
0.9764140740307741
 20
1.227712459007981
 10
0.9994704043729672
 20
1.226658271870384
 10
0.9975113729357932
 20
1.205875716705629
 10
0.9764140740307741
 20
1.204068539804001
 10
0.9535084421419085
 20
1.205122726941599
 10
0.9331646209667031
 20
1.205725119242142
 10
0.9318083688060138
 20
1.18388837693979
 10
0.9529056628654238
 20
1.18388837693979
 10
0.9753592090855228
 20
1.18388837693979
 10
0.9990183187042006
 20
1.184189574313357
 10
0.9981141522122779
 20
1.160696250126273
 10
0.9750578218700848
 20
1.16099744749984
 10
0.9547140006948783
 20
1.161449242336895
 10
0.9336167066354686
 20
1.161750439710462
 10
0.9316185372109146
 20
1.139602701437518
 10
0.9533113227502244
 20
1.140084452334991
 10
0.9757271992026005
 20
1.13984357810955
 10
0.9979020405050111
 20
1.139602701437518
 10
0.9981430708093665
 20
1.116960338305168
 10
0.9757271992026005
 20
1.117682968321264
 10
0.9535523530545798
 20
1.117442091649232
 10
0.9316185372109146
 20
1.119128225906863
1001
GradientColor1ACI
1070
     5
1001
GradientColor2ACI
1070
     2
1001
ACAD
1010
0.0
1020
0.0
1030
0.0
  0
VIEWPORT
  5
4AB
102
{ACAD_XDICTIONARY
360
4AC
102
}
330
58
100
AcDbEntity
 67
     1
  8
0
100
AcDbViewport
 10
5.402544698893382
 20
3.358681582158515
 30
0.0
 40
23.66699938905381
 41
10.28607361584614
 68
     2
 69
     1
 12
5.402544698893382
 22
3.358681582158515
 13
0.0
 23
0.0
 14
0.5
 24
0.5
 15
0.5
 25
0.5
 16
0.0
 26
0.0
 36
1.0
 17
0.0
 27
0.0
 37
0.0
 42
50.0
 43
0.0
 44
0.0
 45
10.28607361584614
 50
0.0
 51
0.0
 72
  1000
 90
   819232
  1

281
     0
 71
     1
 74
     0
110
0.0
120
0.0
130
0.0
111
1.0
121
0.0
131
0.0
112
0.0
122
1.0
132
0.0
 79
     0
146
0.0
170
     0
 61
     5
348
9F
292
     1
282
     1
141
0.0
142
0.0
 63
   250
421
  3355443
  0
VIEWPORT
  5
4AF
102
{ACAD_XDICTIONARY
360
4B0
102
}
330
58
100
AcDbEntity
 67
     1
  8
M1_P
100
AcDbViewport
 10
5.246624789372173
 20
4.002586504990704
 30
0.0
 40
10.49587114514863
 41
8.005747904425387
 68
     1
 69
     2
 12
0.9467854649782879
 22
1.12281776462125
 13
0.0
 23
0.0
 14
0.5
 24
0.5
 15
0.5
 25
0.5
 16
0.0
 26
0.0
 36
1.0
 17
0.0
 27
0.0
 37
0.0
 42
50.0
 43
0.0
 44
0.0
 45
0.8012703965148975
 50
0.0
 51
0.0
 72
  1000
 90
   819296
  1

281
     0
 71
     1
 74
     0
110
0.0
120
0.0
130
0.0
111
1.0
121
0.0
131
0.0
112
0.0
122
1.0
132
0.0
 79
     0
146
0.0
170
     0
 61
     5
348
9F
292
     1
282
     1
141
0.0
142
0.0
 63
   250
421
  3355443
  0
ENDSEC
  0
SECTION
  2
OBJECTS
  0
DICTIONARY
  5
C
330
0
100
AcDbDictionary
281
     1
  3
ACAD_CIP_PREVIOUS_PRODUCT_INFO
350
1A5
  3
ACAD_COLOR
350
73
  3
ACAD_DETAILVIEWSTYLE
350
1AB
  3
ACAD_GROUP
350
D
  3
ACAD_LAYOUT
350
1A
  3
ACAD_MATERIAL
350
72
  3
ACAD_MLEADERSTYLE
350
D7
  3
ACAD_MLINESTYLE
350
17
  3
ACAD_PLOTSETTINGS
350
19
  3
ACAD_PLOTSTYLENAME
350
E
  3
ACAD_SCALELIST
350
B6
  3
ACAD_SECTIONVIEWSTYLE
350
1A8
  3
ACAD_TABLESTYLE
350
86
  3
ACAD_VISUALSTYLE
350
99
  3
ACDB_RECOMPOSE_DATA
350
BE0
  3
AcDbVariableDictionary
350
66
  3
AEC_PROPERTY_SET_DEFS
350
5A7
  0
DICTIONARY
  5
18E
330
2
100
AcDbDictionary
280
     1
281
     1
  3
ACAD_LAYERSTATES
360
18F
  0
DICTIONARY
  5
E6
330
10
100
AcDbDictionary
280
     1
281
     1
  0
DICTIONARY
  5
1EA
330
1E9
100
AcDbDictionary
280
     1
281
     1
  0
DICTIONARY
  5
1ED
330
1EC
100
AcDbDictionary
280
     1
281
     1
  0
DICTIONARY
  5
1EF
330
1EE
100
AcDbDictionary
280
     1
281
     1
  0
DICTIONARY
  5
1F1
330
1F0
100
AcDbDictionary
280
     1
281
     1
  0
DICTIONARY
  5
1F3
330
1F2
100
AcDbDictionary
280
     1
281
     1
  0
DICTIONARY
  5
1F5
330
1F4
100
AcDbDictionary
280
     1
281
     1
  0
DICTIONARY
  5
3CE
330
3CD
100
AcDbDictionary
280
     1
281
     1
  0
DICTIONARY
  5
3D0
330
3CF
100
AcDbDictionary
280
     1
281
     1
  0
DICTIONARY
  5
3D3
330
3D2
100
AcDbDictionary
280
     1
281
     1
  0
DICTIONARY
  5
3D5
330
3D4
100
AcDbDictionary
280
     1
281
     1
  0
DICTIONARY
  5
15D
330
1F
100
AcDbDictionary
280
     1
281
     1
  3
ACAD_SORTENTS
360
40B
  0
DICTIONARY
  5
933
330
932
100
AcDbDictionary
280
     1
281
     1
  3
ASDK_XREC_ANNOTATION_SCALE_INFO
360
934
  0
DICTIONARY
  5
937
330
936
100
AcDbDictionary
280
     1
281
     1
  3
ASDK_XREC_ANNOTATION_SCALE_INFO
360
938
  0
DICTIONARY
  5
69B
330
68C
100
AcDbDictionary
280
     1
281
     1
  3
ACAD_DIMASSOC
360
6A7
  0
DICTIONARY
  5
6CA
330
6BC
100
AcDbDictionary
280
     1
281
     1
  3
ACAD_DIMASSOC
360
6D5
  0
DICTIONARY
  5
733
330
725
100
AcDbDictionary
280
     1
281
     1
  3
ACAD_DIMASSOC
360
73E
  0
DICTIONARY
  5
74D
330
73F
100
AcDbDictionary
280
     1
281
     1
  3
ACAD_DIMASSOC
360
758
  0
DICTIONARY
  5
767
330
759
100
AcDbDictionary
280
     1
281
     1
  3
ACAD_DIMASSOC
360
772
  0
DICTIONARY
  5
9DF
330
9D5
100
AcDbDictionary
280
     1
281
     1
  3
ACAD_DIMASSOC
360
9E6
  0
DICTIONARY
  5
A27
330
A1D
100
AcDbDictionary
280
     1
281
     1
  3
ACAD_DIMASSOC
360
A2E
  0
DICTIONARY
  5
4AC
330
4AB
100
AcDbDictionary
280
     1
281
     1
  3
ASDK_XREC_ANNOTATION_SCALE_INFO
360
4AD
  0
DICTIONARY
  5
4B0
330
4AF
100
AcDbDictionary
280
     1
281
     1
  3
ASDK_XREC_ANNOTATION_SCALE_INFO
360
4B1
  0
XRECORD
  5
1A5
102
{ACAD_REACTORS
330
C
102
}
330
C
100
AcDbXrecord
280
     1
300
ACD
300
2016
300
86445ACD_2016_0F
  0
DICTIONARY
  5
73
102
{ACAD_REACTORS
330
C
102
}
330
C
100
AcDbDictionary
281
     1
  0
DICTIONARY
  5
1AB
102
{ACAD_REACTORS
330
C
102
}
330
C
100
AcDbDictionary
281
     1
  3
Imperial24
350
1AC
  0
DICTIONARY
  5
D
102
{ACAD_REACTORS
330
C
102
}
330
C
100
AcDbDictionary
281
     1
  0
DICTIONARY
  5
1A
102
{ACAD_REACTORS
330
C
102
}
330
C
100
AcDbDictionary
281
     1
  3
Layout1
350
59
  3
Layout2
350
5E
  3
Model
350
22
  0
DICTIONARY
  5
72
102
{ACAD_REACTORS
330
C
102
}
330
C
100
AcDbDictionary
281
     1
  3
ByBlock
350
97
  3
ByLayer
350
96
  3
Global
350
98
  0
DICTIONARY
  5
D7
102
{ACAD_REACTORS
330
C
102
}
330
C
100
AcDbDictionary
281
     1
  3
Annotative
350
E5
  3
Standard
350
D8
  0
DICTIONARY
  5
17
102
{ACAD_REACTORS
330
C
102
}
330
C
100
AcDbDictionary
281
     1
  3
Standard
350
18
  0
DICTIONARY
  5
19
102
{ACAD_REACTORS
330
C
102
}
330
C
100
AcDbDictionary
281
     1
  0
ACDBDICTIONARYWDFLT
  5
E
102
{ACAD_REACTORS
330
C
102
}
330
C
100
AcDbDictionary
281
     1
  3
Normal
350
F
100
AcDbDictionaryWithDefault
340
F
  0
DICTIONARY
  5
B6
102
{ACAD_REACTORS
330
C
102
}
330
C
100
AcDbDictionary
281
     1
  3
A0
350
B7
  3
A1
350
124
  3
A2
350
125
  3
A3
350
126
  3
A4
350
127
  3
A5
350
128
  3
A6
350
129
  3
A7
350
12A
  3
A8
350
12B
  3
A9
350
12C
  3
B0
350
12D
  3
B1
350
12E
  3
B2
350
12F
  3
B3
350
130
  3
B4
350
131
  3
B5
350
132
  3
B6
350
133
  3
B7
350
134
  3
B8
350
135
  3
B9
350
136
  3
C0
350
137
  3
C1
350
138
  3
C2
350
139
  3
C3
350
13A
  3
C4
350
13B
  3
C5
350
13C
  3
C6
350
13D
  3
C7
350
13E
  3
C8
350
13F
  3
C9
350
140
  3
D0
350
141
  3
D1
350
142
  3
D2
350
143
  0
DICTIONARY
  5
1A8
102
{ACAD_REACTORS
330
C
102
}
330
C
100
AcDbDictionary
281
     1
  3
Imperial24
350
1AA
  0
DICTIONARY
  5
86
102
{ACAD_REACTORS
330
C
102
}
330
C
100
AcDbDictionary
281
     1
  3
Standard
350
87
  0
DICTIONARY
  5
99
102
{ACAD_REACTORS
330
C
102
}
330
C
100
AcDbDictionary
281
     1
  3
2dWireframe
350
9F
  3
Basic
350
9E
  3
Brighten
350
A5
  3
ColorChange
350
A9
  3
Conceptual
350
A2
  3
Dim
350
A4
  3
EdgeColorOff
350
175
  3
Facepattern
350
A8
  3
Flat
350
9A
  3
FlatWithEdges
350
9B
  3
Gouraud
350
9C
  3
GouraudWithEdges
350
9D
  3
Hidden
350
A1
  3
JitterOff
350
173
  3
Linepattern
350
A7
  3
OverhangOff
350
174
  3
Realistic
350
A3
  3
Shaded
350
182
  3
Shaded with edges
350
181
  3
Shades of Gray
350
17E
  3
Sketchy
350
17F
  3
Thicken
350
A6
  3
Wireframe
350
A0
  3
X-Ray
350
180
  0
XRECORD
  5
BE0
102
{ACAD_REACTORS
330
C
102
}
330
C
100
AcDbXrecord
280
     1
 90
        1
330
87
330
1AA
330
1AC
  0
DICTIONARY
  5
66
102
{ACAD_REACTORS
330
C
102
}
330
C
100
AcDbDictionary
281
     1
  3
CANNOSCALE
350
F0
  3
CMLEADERSTYLE
350
EF
  3
CTABLESTYLE
350
89
  3
CVIEWDETAILSTYLE
350
1B7
  3
CVIEWSECTIONSTYLE
350
1B8
  3
DIMASSOC
350
67
  3
HIDETEXT
350
6B
  3
HPCOLOR
350
9B0
  3
HPTRANSPARENCY
350
9AF
  3
LAYEREVAL
350
14D
  3
LAYERNOTIFY
350
14E
  0
DICTIONARY
  5
5A7
102
{ACAD_REACTORS
330
C
102
}
330
C
100
AcDbDictionary
281
     1
  0
DICTIONARY
  5
18F
102
{ACAD_REACTORS
330
18E
102
}
330
18E
100
AcDbDictionary
281
     1
  0
SORTENTSTABLE
  5
40B
102
{ACAD_REACTORS
330
15D
102
}
330
15D
100
AcDbSortentsTable
330
1F
331
457
  5
54E
331
54D
  5
858
331
453
  5
54A
331
41C
  5
49B
331
549
  5
725
331
68C
  5
872
331
531
  5
86C
331
482
  5
68B
331
40C
  5
48B
331
47E
  5
56D
331
52D
  5
868
331
3F4
  5
489
331
3F0
  5
486
331
309
  5
32D
331
505
  5
864
331
43F
  5
52F
331
3EC
  5
482
331
46E
  5
564
331
4FD
  5
862
331
437
  5
505
331
46A
  5
562
331
4F9
  5
85E
331
466
  5
560
331
42F
  5
4FA
331
42B
  5
4F9
331
45E
  5
55D
331
45A
  5
559
331
36C
  5
391
331
B8A
  5
48A
331
A3B
  5
B52
331
456
  5
54D
331
54C
  5
857
331
452
  5
549
331
364
  5
38B
331
41B
  5
491
331
548
  5
6BC
331
68B
  5
871
331
44A
  5
548
331
33C
  5
361
331
413
  5
48E
331
530
  5
86B
331
481
  5
579
331
47D
  5
56C
331
52C
  5
867
331
446
  5
531
331
759
  5
876
331
479
  5
56A
331
475
  5
568
331
3EF
  5
485
331
43E
  5
52E
331
471
  5
566
331
3EB
  5
481
331
4FC
  5
861
331
436
  5
4FE
331
4F8
  5
85D
331
432
  5
4FD
331
461
  5
55E
331
42A
  5
4F8
331
557
  5
859
331
45D
  5
55C
331
36F
  5
394
331
459
  5
54F
331
36B
  5
390
331
455
  5
54C
331
54B
  5
759
331
41A
  5
490
331
416
  5
48F
331
412
  5
48D
331
9BF
  5
B4D
331
725
  5
874
331
480
  5
576
331
52F
  5
86A
331
52B
  5
866
331
3F2
  5
488
331
3EE
  5
484
331
43D
  5
52D
331
576
  5
86F
331
470
  5
565
331
439
  5
52C
331
46C
  5
563
331
4FB
  5
860
331
468
  5
561
331
431
  5
4FC
331
A89
  5
B54
331
4F7
  5
85C
331
464
  5
55F
331
4EF
  5
85A
331
429
  5
4F7
331
45C
  5
55B
331
36E
  5
393
331
54A
  5
73F
331
454
  5
54B
331
532
  5
86D
331
448
  5
532
331
411
  5
48C
331
9BE
  5
480
331
A1D
  5
B51
331
483
  5
68C
331
47F
  5
575
331
52E
  5
869
331
47B
  5
56B
331
52A
  5
865
331
444
  5
530
331
3F1
  5
487
331
477
  5
569
331
473
  5
567
331
3ED
  5
483
331
579
  5
870
331
4FE
  5
863
331
3E9
  5
47F
331
438
  5
52B
331
575
  5
86E
331
4FA
  5
85F
331
430
  5
4FB
331
A74
  5
B53
331
6BC
  5
873
331
4F6
  5
85B
331
56D
  5
32C
331
73F
  5
875
331
428
  5
4F6
331
45B
  5
55A
331
424
  5
4EF
331
369
  5
38E
331
9D5
  5
B4E
  0
XRECORD
  5
934
102
{ACAD_REACTORS
330
933
102
}
330
933
100
AcDbXrecord
280
     1
 90
        1
340
B7
  0
XRECORD
  5
938
102
{ACAD_REACTORS
330
937
102
}
330
937
100
AcDbXrecord
280
     1
 90
        1
340
B7
  0
DIMASSOC
  5
6A7
102
{ACAD_REACTORS
330
69B
102
}
330
69B
100
AcDbDimAssoc
330
68C
 90
        3
 70
     0
 71
     0
  1
AcDbOsnapPointRef
 72
    13
331
54C
 73
     2
 91
        0
 40
0.0
 10
0.9900000177037213
 20
1.045000542771646
 30
0.0
 75
     0
  1
AcDbOsnapPointRef
 72
    13
331
54B
 73
     2
 91
        0
 40
0.0
 10
0.9900000177037213
 20
1.069999398002295
 30
0.0
 75
     0
  0
DIMASSOC
  5
6D5
102
{ACAD_REACTORS
330
6CA
102
}
330
6CA
100
AcDbDimAssoc
330
6BC
 90
        1
 70
     0
 71
     0
  1
AcDbOsnapPointRef
 72
    13
331
549
 73
     2
 91
        0
 40
0.0
 10
0.94000001770371
 20
1.045000542771646
 30
0.0
 75
     0
  0
DIMASSOC
  5
73E
102
{ACAD_REACTORS
330
733
102
}
330
733
100
AcDbDimAssoc
330
725
 90
        1
 70
     0
 71
     0
  1
AcDbOsnapPointRef
 72
     2
331
54A
 73
     2
 91
        0
 40
0.5
 10
0.9650000177037156
 20
1.069999398002295
 30
0.0
 75
     0
  0
DIMASSOC
  5
758
102
{ACAD_REACTORS
330
74D
102
}
330
74D
100
AcDbDimAssoc
330
73F
 90
        2
 70
     0
 71
     0
  1
AcDbOsnapPointRef
 72
     8
331
68B
 73
     2
 91
        3
 40
0.0001369672134516
 10
0.9099999877662002
 20
1.045007206391016
 30
0.0
 75
     1
  1
AcDbOsnapPointRef
 72
     0
 40
0.0
 10
0.94000001770371
 20
1.045000542771646
 30
0.0
 75
     0
  0
DIMASSOC
  5
772
102
{ACAD_REACTORS
330
767
102
}
330
767
100
AcDbDimAssoc
330
759
 90
        3
 70
     0
 71
     0
  1
AcDbOsnapPointRef
 72
     8
331
549
 73
     2
 91
        0
 40
0.00026655698068
 10
0.9400000177037098
 20
1.045007206391016
 30
0.0
 75
     1
  1
AcDbOsnapPointRef
 72
     0
 40
0.0
 10
0.9099999877662002
 20
1.045007206391016
 30
0.0
 75
     0
  1
AcDbOsnapPointRef
 72
     8
331
54B
 73
     2
 91
        0
 40
0.99973344301932
 10
0.9900000177037213
 20
1.045007206391016
 30
0.0
 75
     1
  1
AcDbOsnapPointRef
 72
     8
331
549
 73
     2
 91
        0
 40
0.00026655698068
 10
0.9400000177037098
 20
1.045007206391016
 30
0.0
 75
     1
  1
AcDbOsnapPointRef
 72
     0
 40
0.0
 10
0.9099999877662002
 20
1.045007206391016
 30
0.0
 75
     0
  0
DIMASSOC
  5
9E6
102
{ACAD_REACTORS
330
9DF
102
}
330
9DF
100
AcDbDimAssoc
330
9D5
 90
        2
 70
     0
 71
     0
  1
AcDbOsnapPointRef
 72
     3
331
9BF
 73
     2
 91
        0
 40
0.0
 10
0.0
 20
0.0
 30
0.0
 75
     0
  0
DIMASSOC
  5
A2E
102
{ACAD_REACTORS
330
A27
102
}
330
A27
100
AcDbDimAssoc
330
A1D
 90
        2
 70
     0
 71
     0
  1
AcDbOsnapPointRef
 72
     3
331
413
 73
     2
 91
        0
 40
0.0
 10
0.0
 20
0.0
 30
0.0
 75
     0
  0
XRECORD
  5
4AD
102
{ACAD_REACTORS
330
4AC
102
}
330
4AC
100
AcDbXrecord
280
     1
 90
        1
340
B7
  0
XRECORD
  5
4B1
102
{ACAD_REACTORS
330
4B0
102
}
330
4B0
100
AcDbXrecord
280
     1
 90
        1
340
B7
  0
ACDBDETAILVIEWSTYLE
  5
1AC
102
{ACAD_XDICTIONARY
360
1C6
102
}
102
{ACAD_REACTORS
330
1AB
102
}
330
1AB
100
AcDbModelDocViewStyle
 70
     0
  3
Imperial24
290
     0
100
AcDbDetailViewStyle
 70
     0
 71
     0
 90
        3
 71
     1
340
11
 62
   256
 40
0.24
340
0
 62
   256
 40
0.24
300

 40
0.36
280
     3
 71
     2
340
16
 90
       25
 62
   256
 71
     3
340
11
 62
   256
 40
0.24
 90
        1
 40
0.75
 90
        1
300
%<\AcVar ViewType \f "%tc1">% %<\AcVar ViewDetailId>%\PSCALE %<\AcVar ViewScale \f "%sn">%
 71
     4
340
16
 90
       25
 62
   256
340
16
 90
       25
 62
   256
280
     0
  0
LAYOUT
  5
59
102
{ACAD_REACTORS
330
1A
102
}
330
1A
100
AcDbPlotSettings
  1

  2
None
  4
Letter_(8.50_x_11.00_Inches)
  6

 40
6.349999904632568
 41
6.349999904632568
 42
6.350006103515625
 43
6.350006103515625
 44
215.8999938964844
 45
279.3999938964844
 46
0.0
 47
0.0
 48
0.0
 49
0.0
140
0.0
141
0.0
142
1.0
143
1.0
 70
   688
 72
     0
 73
     1
 74
     5
  7

 75
    16
147
1.0
 76
     0
 77
     2
 78
   300
148
0.0
149
0.0
100
AcDbLayout
  1
Layout1
 70
     1
 71
     1
 10
-0.2500002402958907
 20
-0.2499999962453767
 11
10.74999951940822
 21
8.249999763458733
 12
0.0
 22
0.0
 32
0.0
 14
-0.0013107832021433
 24
-0.0002874472219894
 34
0.0
 15
10.49456036194649
 25
8.005460457203398
 35
0.0
146
0.0
 13
0.0
 23
0.0
 33
0.0
 16
1.0
 26
0.0
 36
0.0
 17
0.0
 27
1.0
 37
0.0
 76
     0
330
58
331
4AF
1001
ACAD_PSEXT
1000
None
1000
None
1000
Not applicable
1000
The layout will not be plotted unless a new plotter configuration name is selected.
1070
     0
  0
LAYOUT
  5
5E
102
{ACAD_REACTORS
330
1A
102
}
330
1A
100
AcDbPlotSettings
  1

  2
None
  4
Letter_(8.50_x_11.00_Inches)
  6

 40
6.349999904632568
 41
6.349999904632568
 42
6.350006103515625
 43
6.350006103515625
 44
215.8999938964844
 45
279.3999938964844
 46
0.0
 47
0.0
 48
0.0
 49
0.0
140
0.0
141
0.0
142
1.0
143
1.0
 70
   688
 72
     0
 73
     1
 74
     5
  7

 75
    16
147
1.0
 76
     0
 77
     2
 78
   300
148
0.0
149
0.0
100
AcDbLayout
  1
Layout2
 70
     1
 71
     2
 10
-0.2500002402958907
 20
-0.2499999962453767
 11
10.74999951940822
 21
8.249999763458733
 12
0.0
 22
0.0
 32
0.0
 14
1.049999952316284
 24
0.7999999523162842
 34
0.0
 15
9.449999570846559
 25
7.199999570846558
 35
0.0
146
0.0
 13
0.0
 23
0.0
 33
0.0
 16
1.0
 26
0.0
 36
0.0
 17
0.0
 27
1.0
 37
0.0
 76
     0
330
5D
331
932
1001
ACAD_PSEXT
1000
None
1000
None
1000
Not applicable
1000
The layout will not be plotted unless a new plotter configuration name is selected.
1070
     0
  0
LAYOUT
  5
22
102
{ACAD_XDICTIONARY
360
194
102
}
102
{ACAD_REACTORS
330
1A
102
}
330
1A
100
AcDbPlotSettings
  1

  2
none_device
  4
ANSI_A_(8.50_x_11.00_Inches)
  6

 40
6.349999904632568
 41
19.04999923706055
 42
6.350006103515625
 43
19.04998779296875
 44
215.8999938964844
 45
279.3999938964844
 46
0.0
 47
0.0
 48
0.0
 49
0.0
140
0.0
141
0.0
142
1.0
143
2.584895464708373
 70
 11952
 72
     0
 73
     1
 74
     0
  7

 75
     0
147
0.3868628397755418
 76
     0
 77
     2
 78
   300
148
0.0
149
0.0
100
AcDbLayout
  1
Model
 70
     1
 71
     0
 10
0.0
 20
0.0
 11
12.0
 21
9.0
 12
0.0
 22
0.0
 32
0.0
 14
0.0
 24
0.0
 34
0.0
 15
0.0
 25
0.0
 35
0.0
146
0.0
 13
0.0
 23
0.0
 33
0.0
 16
1.0
 26
0.0
 36
0.0
 17
0.0
 27
1.0
 37
0.0
 76
     0
330
1F
331
94
  0
MATERIAL
  5
97
102
{ACAD_XDICTIONARY
360
188
102
}
102
{ACAD_REACTORS
330
72
102
}
330
72
100
AcDbMaterial
  1
ByBlock
 94
       63
  0
MATERIAL
  5
96
102
{ACAD_XDICTIONARY
360
186
102
}
102
{ACAD_REACTORS
330
72
102
}
330
72
100
AcDbMaterial
  1
ByLayer
 94
       63
  0
MATERIAL
  5
98
102
{ACAD_XDICTIONARY
360
110
102
}
102
{ACAD_REACTORS
330
72
102
}
330
72
100
AcDbMaterial
  1
Global
 43
0.0208000000566244
 43
0.0
 43
0.0
 43
0.0
 43
0.0
 43
0.0208000000566244
 43
0.0
 43
0.0
 43
0.0
 43
0.0
 43
1.0
 43
0.0
 43
0.0
 43
0.0
 43
0.0
 43
1.0
 49
0.0208000000566244
 49
0.0
 49
0.0
 49
0.0
 49
0.0
 49
0.0208000000566244
 49
0.0
 49
0.0
 49
0.0
 49
0.0
 49
1.0
 49
0.0
 49
0.0
 49
0.0
 49
0.0
 49
1.0
142
0.0208000000566244
142
0.0
142
0.0
142
0.0
142
0.0
142
0.0208000000566244
142
0.0
142
0.0
142
0.0
142
0.0
142
1.0
142
0.0
142
0.0
142
0.0
142
0.0
142
1.0
144
0.0208000000566244
144
0.0
144
0.0
144
0.0
144
0.0
144
0.0208000000566244
144
0.0
144
0.0
144
0.0
144
0.0
144
1.0
144
0.0
144
0.0
144
0.0
144
0.0
144
1.0
 94
       63
1001
ACAD
1070
    -1
1070
     3
1070
     0
1000

1071
        0
1070
     0
  0
MLEADERSTYLE
  5
E5
102
{ACAD_REACTORS
330
D7
102
}
330
D7
100
AcDbMLeaderStyle
179
     2
170
     2
171
     1
172
     0
 90
        2
 40
0.0
 41
0.0
173
     1
 91
-1056964608
340
14
 92
       -2
290
     1
 42
0.09
291
     1
 43
0.36
  3
Standard
 44
0.18
300

342
11
174
     1
178
     1
175
     1
176
     0
 93
-1056964608
 45
0.18
292
     0
297
     0
 46
0.18
 94
-1056964608
 47
1.0
 49
1.0
140
1.0
293
     1
141
0.0
294
     1
177
     0
142
1.0
295
     0
296
     1
143
0.125
271
     0
272
     9
273
     9
298
     0
  0
MLEADERSTYLE
  5
D8
102
{ACAD_REACTORS
330
D7
102
}
330
D7
100
AcDbMLeaderStyle
179
     2
170
     2
171
     1
172
     0
 90
        2
 40
0.0
 41
0.0
173
     1
 91
-1056964608
340
14
 92
       -2
290
     1
 42
0.09
291
     1
 43
0.36
  3
Standard
 44
0.18
300

342
11
174
     1
178
     1
175
     1
176
     0
 93
-1056964608
 45
0.18
292
     0
297
     0
 46
0.18
 94
-1056964608
 47
1.0
 49
1.0
140
1.0
293
     1
141
0.0
294
     1
177
     0
142
1.0
295
     0
296
     0
143
0.125
271
     0
272
     9
273
     9
298
     0
  0
MLINESTYLE
  5
18
102
{ACAD_REACTORS
330
17
102
}
330
17
100
AcDbMlineStyle
  2
STANDARD
 70
     0
  3

 62
   256
 51
90.0
 52
90.0
 71
     2
 49
0.5
 62
   256
  6
BYLAYER
 49
-0.5
 62
   256
  6
BYLAYER
  0
ACDBPLACEHOLDER
  5
F
102
{ACAD_REACTORS
330
E
102
}
330
E
  0
SCALE
  5
B7
102
{ACAD_REACTORS
330
B6
102
}
330
B6
100
AcDbScale
 70
     0
300
1:1
140
1.0
141
1.0
290
     1
  0
SCALE
  5
124
102
{ACAD_REACTORS
330
B6
102
}
330
B6
100
AcDbScale
 70
     0
300
1:2
140
1.0
141
2.0
290
     0
  0
SCALE
  5
125
102
{ACAD_REACTORS
330
B6
102
}
330
B6
100
AcDbScale
 70
     0
300
1:4
140
1.0
141
4.0
290
     0
  0
SCALE
  5
126
102
{ACAD_REACTORS
330
B6
102
}
330
B6
100
AcDbScale
 70
     0
300
1:5
140
1.0
141
5.0
290
     0
  0
SCALE
  5
127
102
{ACAD_REACTORS
330
B6
102
}
330
B6
100
AcDbScale
 70
     0
300
1:8
140
1.0
141
8.0
290
     0
  0
SCALE
  5
128
102
{ACAD_REACTORS
330
B6
102
}
330
B6
100
AcDbScale
 70
     0
300
1:10
140
1.0
141
10.0
290
     0
  0
SCALE
  5
129
102
{ACAD_REACTORS
330
B6
102
}
330
B6
100
AcDbScale
 70
     0
300
1:16
140
1.0
141
16.0
290
     0
  0
SCALE
  5
12A
102
{ACAD_REACTORS
330
B6
102
}
330
B6
100
AcDbScale
 70
     0
300
1:20
140
1.0
141
20.0
290
     0
  0
SCALE
  5
12B
102
{ACAD_REACTORS
330
B6
102
}
330
B6
100
AcDbScale
 70
     0
300
1:30
140
1.0
141
30.0
290
     0
  0
SCALE
  5
12C
102
{ACAD_REACTORS
330
B6
102
}
330
B6
100
AcDbScale
 70
     0
300
1:40
140
1.0
141
40.0
290
     0
  0
SCALE
  5
12D
102
{ACAD_REACTORS
330
B6
102
}
330
B6
100
AcDbScale
 70
     0
300
1:50
140
1.0
141
50.0
290
     0
  0
SCALE
  5
12E
102
{ACAD_REACTORS
330
B6
102
}
330
B6
100
AcDbScale
 70
     0
300
1:100
140
1.0
141
100.0
290
     0
  0
SCALE
  5
12F
102
{ACAD_REACTORS
330
B6
102
}
330
B6
100
AcDbScale
 70
     0
300
2:1
140
2.0
141
1.0
290
     0
  0
SCALE
  5
130
102
{ACAD_REACTORS
330
B6
102
}
330
B6
100
AcDbScale
 70
     0
300
4:1
140
4.0
141
1.0
290
     0
  0
SCALE
  5
131
102
{ACAD_REACTORS
330
B6
102
}
330
B6
100
AcDbScale
 70
     0
300
8:1
140
8.0
141
1.0
290
     0
  0
SCALE
  5
132
102
{ACAD_REACTORS
330
B6
102
}
330
B6
100
AcDbScale
 70
     0
300
10:1
140
10.0
141
1.0
290
     0
  0
SCALE
  5
133
102
{ACAD_REACTORS
330
B6
102
}
330
B6
100
AcDbScale
 70
     0
300
100:1
140
100.0
141
1.0
290
     0
  0
SCALE
  5
134
102
{ACAD_REACTORS
330
B6
102
}
330
B6
100
AcDbScale
 70
     0
300
1/128" = 1'-0"
140
0.0078125
141
12.0
290
     0
  0
SCALE
  5
135
102
{ACAD_REACTORS
330
B6
102
}
330
B6
100
AcDbScale
 70
     0
300
1/64" = 1'-0"
140
0.015625
141
12.0
290
     0
  0
SCALE
  5
136
102
{ACAD_REACTORS
330
B6
102
}
330
B6
100
AcDbScale
 70
     0
300
1/32" = 1'-0"
140
0.03125
141
12.0
290
     0
  0
SCALE
  5
137
102
{ACAD_REACTORS
330
B6
102
}
330
B6
100
AcDbScale
 70
     0
300
1/16" = 1'-0"
140
0.0625
141
12.0
290
     0
  0
SCALE
  5
138
102
{ACAD_REACTORS
330
B6
102
}
330
B6
100
AcDbScale
 70
     0
300
3/32" = 1'-0"
140
0.09375
141
12.0
290
     0
  0
SCALE
  5
139
102
{ACAD_REACTORS
330
B6
102
}
330
B6
100
AcDbScale
 70
     0
300
1/8" = 1'-0"
140
0.125
141
12.0
290
     0
  0
SCALE
  5
13A
102
{ACAD_REACTORS
330
B6
102
}
330
B6
100
AcDbScale
 70
     0
300
3/16" = 1'-0"
140
0.1875
141
12.0
290
     0
  0
SCALE
  5
13B
102
{ACAD_REACTORS
330
B6
102
}
330
B6
100
AcDbScale
 70
     0
300
1/4" = 1'-0"
140
0.25
141
12.0
290
     0
  0
SCALE
  5
13C
102
{ACAD_REACTORS
330
B6
102
}
330
B6
100
AcDbScale
 70
     0
300
3/8" = 1'-0"
140
0.375
141
12.0
290
     0
  0
SCALE
  5
13D
102
{ACAD_REACTORS
330
B6
102
}
330
B6
100
AcDbScale
 70
     0
300
1/2" = 1'-0"
140
0.5
141
12.0
290
     0
  0
SCALE
  5
13E
102
{ACAD_REACTORS
330
B6
102
}
330
B6
100
AcDbScale
 70
     0
300
3/4" = 1'-0"
140
0.75
141
12.0
290
     0
  0
SCALE
  5
13F
102
{ACAD_REACTORS
330
B6
102
}
330
B6
100
AcDbScale
 70
     0
300
1" = 1'-0"
140
1.0
141
12.0
290
     0
  0
SCALE
  5
140
102
{ACAD_REACTORS
330
B6
102
}
330
B6
100
AcDbScale
 70
     0
300
1-1/2" = 1'-0"
140
1.5
141
12.0
290
     0
  0
SCALE
  5
141
102
{ACAD_REACTORS
330
B6
102
}
330
B6
100
AcDbScale
 70
     0
300
3" = 1'-0"
140
3.0
141
12.0
290
     0
  0
SCALE
  5
142
102
{ACAD_REACTORS
330
B6
102
}
330
B6
100
AcDbScale
 70
     0
300
6" = 1'-0"
140
6.0
141
12.0
290
     0
  0
SCALE
  5
143
102
{ACAD_REACTORS
330
B6
102
}
330
B6
100
AcDbScale
 70
     0
300
1'-0" = 1'-0"
140
12.0
141
12.0
290
     0
  0
ACDBSECTIONVIEWSTYLE
  5
1AA
102
{ACAD_XDICTIONARY
360
1C4
102
}
102
{ACAD_REACTORS
330
1A8
102
}
330
1A8
100
AcDbModelDocViewStyle
 70
     0
  3
Imperial24
290
     0
100
AcDbSectionViewStyle
 70
     0
 71
     0
 90
       78
 71
     1
340
11
 62
   256
 40
0.24
340
0
340
0
 62
   256
 40
0.24
300
I, O, Q, S, X, Z
 40
0.48
 90
        3
 40
0.18
 90
        1
 71
     2
340
16
 90
       25
 62
   256
340
16
 90
       50
 62
   256
 40
0.24
 40
0.0
 40
0.24
 71
     3
340
11
 62
   256
 40
0.24
 90
        1
 40
0.75
 90
        1
300
%<\AcVar ViewType \f "%tc1">% %<\AcVar ViewSectionStartId>%-%<\AcVar ViewSectionEndId>%\PSCALE %<\AcVar ViewScale \f "%sn">%
 71
     4
 62
   256
 62
   257
300
ANSI31
 40
1.0
 90
        0
290
     0
290
     0
 90
        6
 40
0.0
 40
1.570796326794896
 40
0.2617993877991494
 40
1.308996938995747
 40
-0.2617993877991494
 40
1.832595714594046
  0
TABLESTYLE
  5
87
102
{ACAD_XDICTIONARY
360
104
102
}
102
{ACAD_REACTORS
330
86
102
}
330
86
100
AcDbTableStyle
280
     0
  3
Standard
 70
     0
 71
     0
 40
0.06
 41
0.06
280
     0
281
     0
  7
Standard
140
0.18
170
     2
 62
     0
 63
     7
283
     0
 90
      512
 91
        0
  1

274
    -2
284
     1
 64
     0
275
    -2
285
     1
 65
     0
276
    -2
286
     1
 66
     0
277
    -2
287
     1
 67
     0
278
    -2
288
     1
 68
     0
279
    -2
289
     1
 69
     0
  7
Standard
140
0.25
170
     5
 62
     0
 63
     7
283
     0
 90
      512
 91
        0
  1

274
    -2
284
     1
 64
     0
275
    -2
285
     1
 65
     0
276
    -2
286
     1
 66
     0
277
    -2
287
     1
 67
     0
278
    -2
288
     1
 68
     0
279
    -2
289
     1
 69
     0
  7
Standard
140
0.18
170
     5
 62
     0
 63
     7
283
     0
 90
      512
 91
        0
  1

274
    -2
284
     1
 64
     0
275
    -2
285
     1
 65
     0
276
    -2
286
     1
 66
     0
277
    -2
287
     1
 67
     0
278
    -2
288
     1
 68
     0
279
    -2
289
     1
 69
     0
  0
VISUALSTYLE
  5
9F
102
{ACAD_REACTORS
330
99
102
}
330
99
100
AcDbVisualStyle
  2
2dWireframe
 70
     4
177
     3
291
     0
 70
    58
 90
        0
176
     1
 90
        2
176
     1
 90
        1
176
     1
 90
        0
176
     1
 40
0.6
176
     1
 40
30.0
176
     1
 62
     7
420
 16777215
176
     1
 90
        1
176
     1
 90
        4
176
     1
 62
     7
176
     1
 62
   257
176
     1
 90
        1
176
     1
 90
        1
176
     1
 40
1.0
176
     1
 90
        0
176
     1
 62
   257
176
     1
 40
1.0
176
     1
 90
        1
176
     1
 90
        6
176
     1
 90
        2
176
     1
 62
     7
176
     1
 90
        5
176
     1
 90
        0
176
     1
 90
        0
176
     1
290
     0
176
     1
 90
        1
176
     1
 40
0.0
176
     1
 90
        0
176
     1
290
     1
176
     1
290
     1
176
     1
290
     0
176
     1
290
     0
176
     1
290
     0
176
     1
290
     0
176
     1
290
     0
176
     1
290
     0
176
     1
290
     0
176
     1
 90
       50
176
     1
 40
0.0
176
     1
 40
1.0
176
     1
 90
        0
176
     1
 62
    18
420
        0
176
     1
 90
       50
176
     1
 90
        3
176
     1
 62
     5
420
      255
176
     1
290
     0
176
     1
 90
       50
176
     1
 90
       50
176
     1
 90
       50
176
     1
290
     0
176
     1
 90
       50
176
     1
 62
   256
176
     0
 40
1.0
176
     0
 90
        2
176
     1
  1
strokes_ogs.tif
176
     1
290
     0
176
     1
 40
1.0
176
     1
 40
1.0
176
     1
  0
VISUALSTYLE
  5
9E
102
{ACAD_REACTORS
330
99
102
}
330
99
100
AcDbVisualStyle
  2
Basic
 70
     7
177
     3
291
     1
 70
    58
 90
        1
176
     1
 90
        0
176
     1
 90
        1
176
     1
 90
        0
176
     1
 40
0.6
176
     1
 40
30.0
176
     1
 62
     7
420
 16777215
176
     1
 90
        0
176
     1
 90
        4
176
     1
 62
     7
176
     1
 62
   257
176
     1
 90
        1
176
     1
 90
        1
176
     1
 40
1.0
176
     1
 90
        8
176
     1
 62
     7
176
     1
 40
1.0
176
     1
 90
        1
176
     1
 90
        6
176
     1
 90
        2
176
     1
 62
     7
176
     1
 90
        5
176
     1
 90
        0
176
     1
 90
        0
176
     1
290
     0
176
     1
 90
        1
176
     1
 40
0.0
176
     1
 90
        0
176
     1
290
     0
176
     1
290
     1
176
     1
290
     1
176
     1
290
     0
176
     1
290
     0
176
     1
290
     0
176
     1
290
     0
176
     1
290
     0
176
     1
290
     0
176
     1
 90
       50
176
     1
 40
0.0
176
     1
 40
1.0
176
     1
 90
        0
176
     1
 62
    18
420
        0
176
     1
 90
       50
176
     1
 90
        3
176
     1
 62
     5
420
      255
176
     1
290
     0
176
     1
 90
       50
176
     1
 90
       50
176
     1
 90
       50
176
     1
290
     0
176
     1
 90
       50
176
     1
 62
   256
176
     0
 40
1.0
176
     0
 90
        2
176
     1
  1
strokes_ogs.tif
176
     1
290
     0
176
     1
 40
1.0
176
     1
 40
1.0
176
     1
  0
VISUALSTYLE
  5
A5
102
{ACAD_REACTORS
330
99
102
}
330
99
100
AcDbVisualStyle
  2
Brighten
 70
    12
177
     3
291
     1
 70
    58
 90
        2
176
     1
 90
        2
176
     1
 90
        1
176
     1
 90
        0
176
     1
 40
0.6
176
     1
 40
30.0
176
     1
 62
     7
420
 16777215
176
     1
 90
        1
176
     1
 90
        4
176
     1
 62
     7
176
     1
 62
   257
176
     1
 90
        1
176
     1
 90
        1
176
     1
 40
1.0
176
     1
 90
        8
176
     1
 62
     7
176
     1
 40
1.0
176
     1
 90
        1
176
     1
 90
        6
176
     1
 90
        2
176
     1
 62
     7
176
     1
 90
        5
176
     1
 90
        0
176
     1
 90
        0
176
     1
290
     0
176
     1
 90
        1
176
     1
 40
50.0
176
     1
 90
        0
176
     1
290
     0
176
     1
290
     1
176
     1
290
     1
176
     1
290
     0
176
     1
290
     0
176
     1
290
     0
176
     1
290
     0
176
     1
290
     0
176
     1
290
     0
176
     1
 90
       50
176
     1
 40
0.0
176
     1
 40
1.0
176
     1
 90
        0
176
     1
 62
    18
420
        0
176
     1
 90
       50
176
     1
 90
        3
176
     1
 62
     5
420
      255
176
     1
290
     0
176
     1
 90
       50
176
     1
 90
       50
176
     1
 90
       50
176
     1
290
     0
176
     1
 90
       50
176
     1
 62
   256
176
     0
 40
1.0
176
     0
 90
        2
176
     1
  1
strokes_ogs.tif
176
     1
290
     0
176
     1
 40
1.0
176
     1
 40
1.0
176
     1
  0
VISUALSTYLE
  5
A9
102
{ACAD_REACTORS
330
99
102
}
330
99
100
AcDbVisualStyle
  2
ColorChange
 70
    16
177
     3
291
     1
 70
    58
 90
        2
176
     1
 90
        2
176
     1
 90
        3
176
     1
 90
        0
176
     1
 40
0.6
176
     1
 40
30.0
176
     1
 62
     8
420
  8421504
176
     1
 90
        1
176
     1
 90
        4
176
     1
 62
     7
176
     1
 62
   257
176
     1
 90
        1
176
     1
 90
        1
176
     1
 40
1.0
176
     1
 90
        8
176
     1
 62
     8
420
  8421504
176
     1
 40
1.0
176
     1
 90
        1
176
     1
 90
        6
176
     1
 90
        2
176
     1
 62
     7
176
     1
 90
        5
176
     1
 90
        0
176
     1
 90
        0
176
     1
290
     0
176
     1
 90
        1
176
     1
 40
0.0
176
     1
 90
        0
176
     1
290
     0
176
     1
290
     1
176
     1
290
     1
176
     1
290
     0
176
     1
290
     0
176
     1
290
     0
176
     1
290
     0
176
     1
290
     0
176
     1
290
     0
176
     1
 90
       50
176
     1
 40
0.0
176
     1
 40
1.0
176
     1
 90
        0
176
     1
 62
    18
420
        0
176
     1
 90
       50
176
     1
 90
        3
176
     1
 62
     5
420
      255
176
     1
290
     0
176
     1
 90
       50
176
     1
 90
       50
176
     1
 90
       50
176
     1
290
     0
176
     1
 90
       50
176
     1
 62
   256
176
     0
 40
1.0
176
     0
 90
        2
176
     1
  1
strokes_ogs.tif
176
     1
290
     0
176
     1
 40
1.0
176
     1
 40
1.0
176
     1
  0
VISUALSTYLE
  5
A2
102
{ACAD_REACTORS
330
99
102
}
330
99
100
AcDbVisualStyle
  2
Conceptual
 70
     9
177
     3
291
     0
 70
    58
 90
        3
176
     1
 90
        2
176
     1
 90
        1
176
     1
 90
        0
176
     1
 40
0.6
176
     1
 40
30.0
176
     1
 62
     7
420
 16777215
176
     1
 90
        2
176
     1
 90
        2
176
     1
 62
     7
176
     1
 62
   257
176
     1
 90
        1
176
     1
 90
        1
176
     1
 40
40.0
176
     1
 90
        8
176
     1
 62
     7
176
     1
 40
1.0
176
     1
 90
        1
176
     1
 90
        6
176
     1
 90
        2
176
     1
 62
     7
176
     1
 90
        3
176
     1
 90
        0
176
     1
 90
        0
176
     1
290
     0
176
     1
 90
        1
176
     1
 40
0.0
176
     1
 90
        0
176
     1
290
     0
176
     1
290
     1
176
     1
290
     1
176
     1
290
     0
176
     1
290
     0
176
     1
290
     0
176
     1
290
     0
176
     1
290
     0
176
     1
290
     0
176
     1
 90
       50
176
     1
 40
0.0
176
     1
 40
1.0
176
     1
 90
        0
176
     1
 62
    18
420
        0
176
     1
 90
       50
176
     1
 90
        3
176
     1
 62
     5
420
      255
176
     1
290
     0
176
     1
 90
       50
176
     1
 90
       50
176
     1
 90
       50
176
     1
290
     0
176
     1
 90
       50
176
     1
 62
   256
176
     0
 40
1.0
176
     0
 90
        2
176
     1
  1
strokes_ogs.tif
176
     1
290
     0
176
     1
 40
1.0
176
     1
 40
1.0
176
     1
  0
VISUALSTYLE
  5
A4
102
{ACAD_REACTORS
330
99
102
}
330
99
100
AcDbVisualStyle
  2
Dim
 70
    11
177
     3
291
     1
 70
    58
 90
        2
176
     1
 90
        2
176
     1
 90
        1
176
     1
 90
        0
176
     1
 40
0.6
176
     1
 40
30.0
176
     1
 62
     7
420
 16777215
176
     1
 90
        1
176
     1
 90
        4
176
     1
 62
     7
176
     1
 62
   257
176
     1
 90
        1
176
     1
 90
        1
176
     1
 40
1.0
176
     1
 90
        8
176
     1
 62
     7
176
     1
 40
1.0
176
     1
 90
        1
176
     1
 90
        6
176
     1
 90
        2
176
     1
 62
     7
176
     1
 90
        5
176
     1
 90
        0
176
     1
 90
        0
176
     1
290
     0
176
     1
 90
        1
176
     1
 40
-50.0
176
     1
 90
        0
176
     1
290
     0
176
     1
290
     1
176
     1
290
     1
176
     1
290
     0
176
     1
290
     0
176
     1
290
     0
176
     1
290
     0
176
     1
290
     0
176
     1
290
     0
176
     1
 90
       50
176
     1
 40
0.0
176
     1
 40
1.0
176
     1
 90
        0
176
     1
 62
    18
420
        0
176
     1
 90
       50
176
     1
 90
        3
176
     1
 62
     5
420
      255
176
     1
290
     0
176
     1
 90
       50
176
     1
 90
       50
176
     1
 90
       50
176
     1
290
     0
176
     1
 90
       50
176
     1
 62
   256
176
     0
 40
1.0
176
     0
 90
        2
176
     1
  1
strokes_ogs.tif
176
     1
290
     0
176
     1
 40
1.0
176
     1
 40
1.0
176
     1
  0
VISUALSTYLE
  5
175
102
{ACAD_REACTORS
330
99
102
}
330
99
100
AcDbVisualStyle
  2
EdgeColorOff
 70
    22
177
     3
291
     1
 70
    58
 90
        2
176
     0
 90
        2
176
     0
 90
        0
176
     0
 90
        0
176
     0
 40
0.6
176
     0
 40
30.0
176
     0
 62
     7
420
 16777215
176
     0
 90
        1
176
     0
 90
        4
176
     0
 62
     7
176
     0
 62
   257
176
     0
 90
        1
176
     0
 90
        1
176
     0
 40
1.0
176
     0
 90
        8
176
     2
 62
     7
176
     0
 40
1.0
176
     0
 90
        1
176
     0
 90
        6
176
     0
 90
        2
176
     0
 62
     7
176
     0
 90
        5
176
     0
 90
        0
176
     0
 90
        0
176
     0
290
     0
176
     0
 90
        1
176
     0
 40
0.0
176
     0
 90
        0
176
     0
290
     0
176
     1
290
     1
176
     1
290
     1
176
     1
290
     0
176
     1
290
     0
176
     1
290
     0
176
     1
290
     0
176
     1
290
     0
176
     1
290
     0
176
     1
 90
       50
176
     1
 40
0.0
176
     1
 40
1.0
176
     1
 90
        0
176
     1
 62
    18
420
        0
176
     1
 90
       50
176
     1
 90
        3
176
     1
 62
     5
420
      255
176
     1
290
     0
176
     1
 90
       50
176
     1
 90
       50
176
     1
 90
       50
176
     1
290
     0
176
     1
 90
       50
176
     1
 62
   256
176
     0
 40
1.0
176
     0
 90
        2
176
     1
  1
strokes_ogs.tif
176
     1
290
     0
176
     1
 40
1.0
176
     1
 40
1.0
176
     1
  0
VISUALSTYLE
  5
A8
102
{ACAD_REACTORS
330
99
102
}
330
99
100
AcDbVisualStyle
  2
Facepattern
 70
    15
177
     3
291
     1
 70
    58
 90
        2
176
     1
 90
        2
176
     1
 90
        1
176
     1
 90
        0
176
     1
 40
0.6
176
     1
 40
30.0
176
     1
 62
     7
420
 16777215
176
     1
 90
        1
176
     1
 90
        4
176
     1
 62
     7
176
     1
 62
   257
176
     1
 90
        1
176
     1
 90
        1
176
     1
 40
1.0
176
     1
 90
        8
176
     1
 62
     7
176
     1
 40
1.0
176
     1
 90
        1
176
     1
 90
        6
176
     1
 90
        2
176
     1
 62
     7
176
     1
 90
        5
176
     1
 90
        0
176
     1
 90
        0
176
     1
290
     0
176
     1
 90
        1
176
     1
 40
0.0
176
     1
 90
        0
176
     1
290
     0
176
     1
290
     1
176
     1
290
     1
176
     1
290
     0
176
     1
290
     0
176
     1
290
     0
176
     1
290
     0
176
     1
290
     0
176
     1
290
     0
176
     1
 90
       50
176
     1
 40
0.0
176
     1
 40
1.0
176
     1
 90
        0
176
     1
 62
    18
420
        0
176
     1
 90
       50
176
     1
 90
        3
176
     1
 62
     5
420
      255
176
     1
290
     0
176
     1
 90
       50
176
     1
 90
       50
176
     1
 90
       50
176
     1
290
     0
176
     1
 90
       50
176
     1
 62
   256
176
     0
 40
1.0
176
     0
 90
        2
176
     1
  1
strokes_ogs.tif
176
     1
290
     0
176
     1
 40
1.0
176
     1
 40
1.0
176
     1
  0
VISUALSTYLE
  5
9A
102
{ACAD_REACTORS
330
99
102
}
330
99
100
AcDbVisualStyle
  2
Flat
 70
     0
177
     3
291
     1
 70
    58
 90
        2
176
     1
 90
        1
176
     1
 90
        1
176
     1
 90
        2
176
     1
 40
0.6
176
     1
 40
30.0
176
     1
 62
     7
420
 16777215
176
     1
 90
        0
176
     1
 90
        0
176
     1
 62
     7
176
     1
 62
   257
176
     1
 90
        1
176
     1
 90
        1
176
     1
 40
1.0
176
     1
 90
        8
176
     1
 62
     7
176
     1
 40
1.0
176
     1
 90
        1
176
     1
 90
        6
176
     1
 90
        2
176
     1
 62
     7
176
     1
 90
        5
176
     1
 90
        0
176
     1
 90
        0
176
     1
290
     0
176
     1
 90
       13
176
     1
 40
0.0
176
     1
 90
        0
176
     1
290
     0
176
     1
290
     1
176
     1
290
     1
176
     1
290
     0
176
     1
290
     0
176
     1
290
     0
176
     1
290
     0
176
     1
290
     0
176
     1
290
     0
176
     1
 90
       50
176
     1
 40
0.0
176
     1
 40
1.0
176
     1
 90
        0
176
     1
 62
    18
420
        0
176
     1
 90
       50
176
     1
 90
        3
176
     1
 62
     5
420
      255
176
     1
290
     0
176
     1
 90
       50
176
     1
 90
       50
176
     1
 90
       50
176
     1
290
     0
176
     1
 90
       50
176
     1
 62
   256
176
     0
 40
1.0
176
     0
 90
        2
176
     1
  1
strokes_ogs.tif
176
     1
290
     0
176
     1
 40
1.0
176
     1
 40
1.0
176
     1
  0
VISUALSTYLE
  5
9B
102
{ACAD_REACTORS
330
99
102
}
330
99
100
AcDbVisualStyle
  2
FlatWithEdges
 70
     1
177
     3
291
     1
 70
    58
 90
        2
176
     1
 90
        1
176
     1
 90
        1
176
     1
 90
        2
176
     1
 40
0.6
176
     1
 40
30.0
176
     1
 62
     7
420
 16777215
176
     1
 90
        1
176
     1
 90
        0
176
     1
 62
     7
176
     1
 62
   257
176
     1
 90
        1
176
     1
 90
        1
176
     1
 40
1.0
176
     1
 90
        0
176
     1
 62
   257
176
     1
 40
1.0
176
     1
 90
        1
176
     1
 90
        6
176
     1
 90
        2
176
     1
 62
     7
176
     1
 90
        5
176
     1
 90
        0
176
     1
 90
        0
176
     1
290
     0
176
     1
 90
       13
176
     1
 40
0.0
176
     1
 90
        0
176
     1
290
     0
176
     1
290
     1
176
     1
290
     1
176
     1
290
     0
176
     1
290
     0
176
     1
290
     0
176
     1
290
     0
176
     1
290
     0
176
     1
290
     0
176
     1
 90
       50
176
     1
 40
0.0
176
     1
 40
1.0
176
     1
 90
        0
176
     1
 62
    18
420
        0
176
     1
 90
       50
176
     1
 90
        3
176
     1
 62
     5
420
      255
176
     1
290
     0
176
     1
 90
       50
176
     1
 90
       50
176
     1
 90
       50
176
     1
290
     0
176
     1
 90
       50
176
     1
 62
   256
176
     0
 40
1.0
176
     0
 90
        2
176
     1
  1
strokes_ogs.tif
176
     1
290
     0
176
     1
 40
1.0
176
     1
 40
1.0
176
     1
  0
VISUALSTYLE
  5
9C
102
{ACAD_REACTORS
330
99
102
}
330
99
100
AcDbVisualStyle
  2
Gouraud
 70
     2
177
     3
291
     1
 70
    58
 90
        2
176
     1
 90
        2
176
     1
 90
        1
176
     1
 90
        2
176
     1
 40
0.6
176
     1
 40
30.0
176
     1
 62
     7
420
 16777215
176
     1
 90
        0
176
     1
 90
        0
176
     1
 62
     7
176
     1
 62
   257
176
     1
 90
        1
176
     1
 90
        1
176
     1
 40
1.0
176
     1
 90
        0
176
     1
 62
     7
176
     1
 40
1.0
176
     1
 90
        1
176
     1
 90
        6
176
     1
 90
        2
176
     1
 62
     7
176
     1
 90
        5
176
     1
 90
        0
176
     1
 90
        0
176
     1
290
     0
176
     1
 90
       13
176
     1
 40
0.0
176
     1
 90
        0
176
     1
290
     0
176
     1
290
     1
176
     1
290
     1
176
     1
290
     0
176
     1
290
     0
176
     1
290
     0
176
     1
290
     0
176
     1
290
     0
176
     1
290
     0
176
     1
 90
       50
176
     1
 40
0.0
176
     1
 40
1.0
176
     1
 90
        0
176
     1
 62
    18
420
        0
176
     1
 90
       50
176
     1
 90
        3
176
     1
 62
     5
420
      255
176
     1
290
     0
176
     1
 90
       50
176
     1
 90
       50
176
     1
 90
       50
176
     1
290
     0
176
     1
 90
       50
176
     1
 62
   256
176
     0
 40
1.0
176
     0
 90
        2
176
     1
  1
strokes_ogs.tif
176
     1
290
     0
176
     1
 40
1.0
176
     1
 40
1.0
176
     1
  0
VISUALSTYLE
  5
9D
102
{ACAD_REACTORS
330
99
102
}
330
99
100
AcDbVisualStyle
  2
GouraudWithEdges
 70
     3
177
     3
291
     1
 70
    58
 90
        2
176
     1
 90
        2
176
     1
 90
        1
176
     1
 90
        2
176
     1
 40
0.6
176
     1
 40
30.0
176
     1
 62
     7
420
 16777215
176
     1
 90
        1
176
     1
 90
        0
176
     1
 62
     7
176
     1
 62
   257
176
     1
 90
        1
176
     1
 90
        1
176
     1
 40
1.0
176
     1
 90
        0
176
     1
 62
   257
176
     1
 40
1.0
176
     1
 90
        1
176
     1
 90
        6
176
     1
 90
        2
176
     1
 62
     7
176
     1
 90
        5
176
     1
 90
        0
176
     1
 90
        0
176
     1
290
     0
176
     1
 90
       13
176
     1
 40
0.0
176
     1
 90
        0
176
     1
290
     0
176
     1
290
     1
176
     1
290
     1
176
     1
290
     0
176
     1
290
     0
176
     1
290
     0
176
     1
290
     0
176
     1
290
     0
176
     1
290
     0
176
     1
 90
       50
176
     1
 40
0.0
176
     1
 40
1.0
176
     1
 90
        0
176
     1
 62
    18
420
        0
176
     1
 90
       50
176
     1
 90
        3
176
     1
 62
     5
420
      255
176
     1
290
     0
176
     1
 90
       50
176
     1
 90
       50
176
     1
 90
       50
176
     1
290
     0
176
     1
 90
       50
176
     1
 62
   256
176
     0
 40
1.0
176
     0
 90
        2
176
     1
  1
strokes_ogs.tif
176
     1
290
     0
176
     1
 40
1.0
176
     1
 40
1.0
176
     1
  0
VISUALSTYLE
  5
A1
102
{ACAD_REACTORS
330
99
102
}
330
99
100
AcDbVisualStyle
  2
Hidden
 70
     6
177
     3
291
     0
 70
    58
 90
        1
176
     1
 90
        2
176
     1
 90
        2
176
     1
 90
        0
176
     1
 40
0.6
176
     1
 40
30.0
176
     1
 62
     7
420
 16777215
176
     1
 90
        2
176
     1
 90
        2
176
     1
 62
     7
176
     1
 62
   257
176
     1
 90
        2
176
     1
 90
        1
176
     1
 40
40.0
176
     1
 90
        0
176
     1
 62
   257
176
     1
 40
1.0
176
     1
 90
        1
176
     1
 90
        6
176
     1
 90
        2
176
     1
 62
     7
176
     1
 90
        3
176
     1
 90
        0
176
     1
 90
        0
176
     1
290
     0
176
     1
 90
        1
176
     1
 40
0.0
176
     1
 90
        0
176
     1
290
     0
176
     1
290
     1
176
     1
290
     1
176
     1
290
     0
176
     1
290
     0
176
     1
290
     0
176
     1
290
     0
176
     1
290
     0
176
     1
290
     0
176
     1
 90
       50
176
     1
 40
0.0
176
     1
 40
1.0
176
     1
 90
        0
176
     1
 62
    18
420
        0
176
     1
 90
       50
176
     1
 90
        3
176
     1
 62
     5
420
      255
176
     1
290
     0
176
     1
 90
       50
176
     1
 90
       50
176
     1
 90
       50
176
     1
290
     0
176
     1
 90
       50
176
     1
 62
   256
176
     0
 40
1.0
176
     0
 90
        2
176
     1
  1
strokes_ogs.tif
176
     1
290
     0
176
     1
 40
1.0
176
     1
 40
1.0
176
     1
  0
VISUALSTYLE
  5
173
102
{ACAD_REACTORS
330
99
102
}
330
99
100
AcDbVisualStyle
  2
JitterOff
 70
    20
177
     3
291
     1
 70
    58
 90
        2
176
     0
 90
        2
176
     0
 90
        0
176
     0
 90
        0
176
     0
 40
0.6
176
     0
 40
30.0
176
     0
 62
     7
420
 16777215
176
     0
 90
        1
176
     0
 90
        4
176
     0
 62
     7
176
     0
 62
   257
176
     0
 90
        1
176
     0
 90
        1
176
     0
 40
1.0
176
     0
 90
       10
176
     2
 62
     7
176
     0
 40
1.0
176
     0
 90
        1
176
     0
 90
        6
176
     0
 90
        2
176
     0
 62
     7
176
     0
 90
        5
176
     0
 90
        0
176
     0
 90
        0
176
     0
290
     0
176
     0
 90
        1
176
     0
 40
0.0
176
     0
 90
        0
176
     0
290
     0
176
     1
290
     1
176
     1
290
     1
176
     1
290
     0
176
     1
290
     0
176
     1
290
     0
176
     1
290
     0
176
     1
290
     0
176
     1
290
     0
176
     1
 90
       50
176
     1
 40
0.0
176
     1
 40
1.0
176
     1
 90
        0
176
     1
 62
    18
420
        0
176
     1
 90
       50
176
     1
 90
        3
176
     1
 62
     5
420
      255
176
     1
290
     0
176
     1
 90
       50
176
     1
 90
       50
176
     1
 90
       50
176
     1
290
     0
176
     1
 90
       50
176
     1
 62
   256
176
     0
 40
1.0
176
     0
 90
        2
176
     1
  1
strokes_ogs.tif
176
     1
290
     0
176
     1
 40
1.0
176
     1
 40
1.0
176
     1
  0
VISUALSTYLE
  5
A7
102
{ACAD_REACTORS
330
99
102
}
330
99
100
AcDbVisualStyle
  2
Linepattern
 70
    14
177
     3
291
     1
 70
    58
 90
        2
176
     1
 90
        2
176
     1
 90
        1
176
     1
 90
        0
176
     1
 40
0.6
176
     1
 40
30.0
176
     1
 62
     7
420
 16777215
176
     1
 90
        1
176
     1
 90
        4
176
     1
 62
     7
176
     1
 62
   257
176
     1
 90
        7
176
     1
 90
        7
176
     1
 40
1.0
176
     1
 90
        8
176
     1
 62
     7
176
     1
 40
1.0
176
     1
 90
        1
176
     1
 90
        6
176
     1
 90
        2
176
     1
 62
     7
176
     1
 90
        5
176
     1
 90
        0
176
     1
 90
        0
176
     1
290
     0
176
     1
 90
        1
176
     1
 40
0.0
176
     1
 90
        0
176
     1
290
     0
176
     1
290
     1
176
     1
290
     1
176
     1
290
     0
176
     1
290
     0
176
     1
290
     0
176
     1
290
     0
176
     1
290
     0
176
     1
290
     0
176
     1
 90
       50
176
     1
 40
0.0
176
     1
 40
1.0
176
     1
 90
        0
176
     1
 62
    18
420
        0
176
     1
 90
       50
176
     1
 90
        3
176
     1
 62
     5
420
      255
176
     1
290
     0
176
     1
 90
       50
176
     1
 90
       50
176
     1
 90
       50
176
     1
290
     0
176
     1
 90
       50
176
     1
 62
   256
176
     0
 40
1.0
176
     0
 90
        2
176
     1
  1
strokes_ogs.tif
176
     1
290
     0
176
     1
 40
1.0
176
     1
 40
1.0
176
     1
  0
VISUALSTYLE
  5
174
102
{ACAD_REACTORS
330
99
102
}
330
99
100
AcDbVisualStyle
  2
OverhangOff
 70
    21
177
     3
291
     1
 70
    58
 90
        2
176
     0
 90
        2
176
     0
 90
        0
176
     0
 90
        0
176
     0
 40
0.6
176
     0
 40
30.0
176
     0
 62
     7
420
 16777215
176
     0
 90
        1
176
     0
 90
        4
176
     0
 62
     7
176
     0
 62
   257
176
     0
 90
        1
176
     0
 90
        1
176
     0
 40
1.0
176
     0
 90
        9
176
     2
 62
     7
176
     0
 40
1.0
176
     0
 90
        1
176
     0
 90
        6
176
     0
 90
        2
176
     0
 62
     7
176
     0
 90
        5
176
     0
 90
        0
176
     0
 90
        0
176
     0
290
     0
176
     0
 90
        1
176
     0
 40
0.0
176
     0
 90
        0
176
     0
290
     0
176
     1
290
     1
176
     1
290
     1
176
     1
290
     0
176
     1
290
     0
176
     1
290
     0
176
     1
290
     0
176
     1
290
     0
176
     1
290
     0
176
     1
 90
       50
176
     1
 40
0.0
176
     1
 40
1.0
176
     1
 90
        0
176
     1
 62
    18
420
        0
176
     1
 90
       50
176
     1
 90
        3
176
     1
 62
     5
420
      255
176
     1
290
     0
176
     1
 90
       50
176
     1
 90
       50
176
     1
 90
       50
176
     1
290
     0
176
     1
 90
       50
176
     1
 62
   256
176
     0
 40
1.0
176
     0
 90
        2
176
     1
  1
strokes_ogs.tif
176
     1
290
     0
176
     1
 40
1.0
176
     1
 40
1.0
176
     1
  0
VISUALSTYLE
  5
A3
102
{ACAD_REACTORS
330
99
102
}
330
99
100
AcDbVisualStyle
  2
Realistic
 70
     8
177
     3
291
     0
 70
    58
 90
        2
176
     1
 90
        3
176
     1
 90
        0
176
     1
 90
        2
176
     1
 40
0.6
176
     1
 40
30.0
176
     1
 62
     7
420
 16777215
176
     1
 90
        0
176
     1
 90
        0
176
     1
 62
     7
176
     1
 62
   257
176
     1
 90
        1
176
     1
 90
        1
176
     1
 40
1.0
176
     1
 90
        8
176
     1
 62
   257
176
     1
 40
1.0
176
     1
 90
        1
176
     1
 90
        6
176
     1
 90
        2
176
     1
 62
     7
176
     1
 90
        3
176
     1
 90
        0
176
     1
 90
        0
176
     1
290
     0
176
     1
 90
       13
176
     1
 40
0.0
176
     1
 90
        0
176
     1
290
     0
176
     1
290
     1
176
     1
290
     1
176
     1
290
     0
176
     1
290
     0
176
     1
290
     0
176
     1
290
     0
176
     1
290
     0
176
     1
290
     0
176
     1
 90
       50
176
     1
 40
0.0
176
     1
 40
1.0
176
     1
 90
        0
176
     1
 62
    18
420
        0
176
     1
 90
       50
176
     1
 90
        3
176
     1
 62
     5
420
      255
176
     1
290
     0
176
     1
 90
       50
176
     1
 90
       50
176
     1
 90
       50
176
     1
290
     0
176
     1
 90
       50
176
     1
 62
   256
176
     0
 40
1.0
176
     0
 90
        2
176
     1
  1
strokes_ogs.tif
176
     1
290
     0
176
     1
 40
1.0
176
     1
 40
1.0
176
     1
  0
VISUALSTYLE
  5
182
102
{ACAD_REACTORS
330
99
102
}
330
99
100
AcDbVisualStyle
  2
Shaded
 70
    27
177
     3
291
     0
 70
    58
 90
        2
176
     1
 90
        2
176
     1
 90
        1
176
     1
 90
        2
176
     1
 40
0.6
176
     1
 40
30.0
176
     1
 62
     7
420
 16777215
176
     1
 90
        0
176
     1
 90
        4
176
     1
 62
     7
176
     1
 62
   257
176
     1
 90
        1
176
     1
 90
        1
176
     1
 40
1.0
176
     1
 90
        8
176
     1
 62
   257
176
     1
 40
1.0
176
     1
 90
        1
176
     1
 90
        6
176
     1
 90
        2
176
     1
 62
     8
420
  7895160
176
     1
 90
        3
176
     1
 90
        0
176
     1
 90
        0
176
     1
290
     0
176
     1
 90
        5
176
     1
 40
0.0
176
     1
 90
        0
176
     1
290
     0
176
     1
290
     1
176
     1
290
     1
176
     1
290
     0
176
     1
290
     0
176
     1
290
     0
176
     1
290
     0
176
     1
290
     0
176
     1
290
     0
176
     1
 90
       50
176
     1
 40
0.0
176
     1
 40
1.0
176
     1
 90
        0
176
     1
 62
    18
420
        0
176
     1
 90
       50
176
     1
 90
        3
176
     1
 62
     5
420
      255
176
     1
290
     0
176
     1
 90
       50
176
     1
 90
       50
176
     1
 90
       50
176
     1
290
     0
176
     1
 90
       50
176
     1
 62
   256
176
     0
 40
1.0
176
     0
 90
        2
176
     1
  1
strokes_ogs.tif
176
     1
290
     0
176
     1
 40
1.0
176
     1
 40
1.0
176
     1
  0
VISUALSTYLE
  5
181
102
{ACAD_REACTORS
330
99
102
}
330
99
100
AcDbVisualStyle
  2
Shaded with edges
 70
    26
177
     3
291
     0
 70
    58
 90
        2
176
     1
 90
        2
176
     1
 90
        1
176
     1
 90
        2
176
     1
 40
0.6
176
     1
 40
30.0
176
     1
 62
     7
420
 16777215
176
     1
 90
        1
176
     1
 90
       10
176
     1
 62
     7
176
     1
 62
   257
176
     1
 90
        2
176
     1
 90
        1
176
     1
 40
1.0
176
     1
 90
        8
176
     1
 62
   257
176
     1
 40
1.0
176
     1
 90
        1
176
     1
 90
        6
176
     1
 90
        2
176
     1
 62
     7
176
     1
 90
        3
176
     1
 90
        0
176
     1
 90
        0
176
     1
290
     0
176
     1
 90
        5
176
     1
 40
0.0
176
     1
 90
        0
176
     1
290
     0
176
     1
290
     1
176
     1
290
     1
176
     1
290
     0
176
     1
290
     0
176
     1
290
     0
176
     1
290
     0
176
     1
290
     0
176
     1
290
     0
176
     1
 90
       50
176
     1
 40
0.0
176
     1
 40
1.0
176
     1
 90
        0
176
     1
 62
    18
420
        0
176
     1
 90
       50
176
     1
 90
        3
176
     1
 62
     5
420
      255
176
     1
290
     0
176
     1
 90
       50
176
     1
 90
       50
176
     1
 90
       50
176
     1
290
     0
176
     1
 90
       50
176
     1
 62
   256
176
     0
 40
1.0
176
     0
 90
        2
176
     1
  1
strokes_ogs.tif
176
     1
290
     0
176
     1
 40
1.0
176
     1
 40
1.0
176
     1
  0
VISUALSTYLE
  5
17E
102
{ACAD_REACTORS
330
99
102
}
330
99
100
AcDbVisualStyle
  2
Shades of Gray
 70
    23
177
     3
291
     0
 70
    58
 90
        2
176
     1
 90
        2
176
     1
 90
        3
176
     1
 90
        0
176
     1
 40
0.6
176
     1
 40
30.0
176
     1
 62
     7
420
 16777215
176
     1
 90
        2
176
     1
 90
        2
176
     1
 62
     7
176
     1
 62
     7
176
     1
 90
        1
176
     1
 90
        1
176
     1
 40
40.0
176
     1
 90
        8
176
     1
 62
     7
176
     1
 40
1.0
176
     1
 90
        1
176
     1
 90
        6
176
     1
 90
        2
176
     1
 62
     7
176
     1
 90
        3
176
     1
 90
        0
176
     1
 90
        0
176
     1
290
     0
176
     1
 90
        1
176
     1
 40
0.0
176
     1
 90
        0
176
     1
290
     0
176
     1
290
     1
176
     1
290
     1
176
     1
290
     0
176
     1
290
     0
176
     1
290
     0
176
     1
290
     0
176
     1
290
     0
176
     1
290
     0
176
     1
 90
       50
176
     1
 40
0.0
176
     1
 40
1.0
176
     1
 90
        0
176
     1
 62
    18
420
        0
176
     1
 90
       50
176
     1
 90
        3
176
     1
 62
     5
420
      255
176
     1
290
     0
176
     1
 90
       50
176
     1
 90
       50
176
     1
 90
       50
176
     1
290
     0
176
     1
 90
       50
176
     1
 62
   256
176
     0
 40
1.0
176
     0
 90
        2
176
     1
  1
strokes_ogs.tif
176
     1
290
     0
176
     1
 40
1.0
176
     1
 40
1.0
176
     1
  0
VISUALSTYLE
  5
17F
102
{ACAD_REACTORS
330
99
102
}
330
99
100
AcDbVisualStyle
  2
Sketchy
 70
    24
177
     3
291
     0
 70
    58
 90
        1
176
     1
 90
        2
176
     1
 90
        2
176
     1
 90
        0
176
     1
 40
0.6
176
     1
 40
30.0
176
     1
 62
     7
420
 16777215
176
     1
 90
        2
176
     1
 90
        2
176
     1
 62
     7
176
     1
 62
     7
176
     1
 90
        1
176
     1
 90
        1
176
     1
 40
40.0
176
     1
 90
       11
176
     1
 62
     7
176
     1
 40
1.0
176
     1
 90
        1
176
     1
 90
        6
176
     1
 90
        2
176
     1
 62
     7
176
     1
 90
        6
176
     1
 90
        0
176
     1
 90
        0
176
     1
290
     0
176
     1
 90
        1
176
     1
 40
0.0
176
     1
 90
        0
176
     1
290
     0
176
     1
290
     1
176
     1
290
     1
176
     1
290
     0
176
     1
290
     0
176
     1
290
     0
176
     1
290
     0
176
     1
290
     0
176
     1
290
     0
176
     1
 90
       50
176
     1
 40
0.0
176
     1
 40
1.0
176
     1
 90
        0
176
     1
 62
    18
420
        0
176
     1
 90
       50
176
     1
 90
        3
176
     1
 62
     5
420
      255
176
     1
290
     0
176
     1
 90
       50
176
     1
 90
       50
176
     1
 90
       50
176
     1
290
     0
176
     1
 90
       50
176
     1
 62
   256
176
     0
 40
1.0
176
     0
 90
        2
176
     1
  1
strokes_ogs.tif
176
     1
290
     0
176
     1
 40
1.0
176
     1
 40
1.0
176
     1
  0
VISUALSTYLE
  5
A6
102
{ACAD_REACTORS
330
99
102
}
330
99
100
AcDbVisualStyle
  2
Thicken
 70
    13
177
     3
291
     1
 70
    58
 90
        2
176
     1
 90
        2
176
     1
 90
        1
176
     1
 90
        0
176
     1
 40
0.6
176
     1
 40
30.0
176
     1
 62
     7
420
 16777215
176
     1
 90
        1
176
     1
 90
        4
176
     1
 62
     7
176
     1
 62
   257
176
     1
 90
        1
176
     1
 90
        1
176
     1
 40
1.0
176
     1
 90
       12
176
     1
 62
     7
176
     1
 40
1.0
176
     1
 90
        1
176
     1
 90
        6
176
     1
 90
        2
176
     1
 62
     7
176
     1
 90
        5
176
     1
 90
        0
176
     1
 90
        0
176
     1
290
     0
176
     1
 90
        1
176
     1
 40
0.0
176
     1
 90
        0
176
     1
290
     0
176
     1
290
     1
176
     1
290
     1
176
     1
290
     0
176
     1
290
     0
176
     1
290
     0
176
     1
290
     0
176
     1
290
     0
176
     1
290
     0
176
     1
 90
       50
176
     1
 40
0.0
176
     1
 40
1.0
176
     1
 90
        0
176
     1
 62
    18
420
        0
176
     1
 90
       50
176
     1
 90
        3
176
     1
 62
     5
420
      255
176
     1
290
     0
176
     1
 90
       50
176
     1
 90
       50
176
     1
 90
       50
176
     1
290
     0
176
     1
 90
       50
176
     1
 62
   256
176
     0
 40
1.0
176
     0
 90
        2
176
     1
  1
strokes_ogs.tif
176
     1
290
     0
176
     1
 40
1.0
176
     1
 40
1.0
176
     1
  0
VISUALSTYLE
  5
A0
102
{ACAD_REACTORS
330
99
102
}
330
99
100
AcDbVisualStyle
  2
Wireframe
 70
     5
177
     3
291
     0
 70
    58
 90
        0
176
     1
 90
        2
176
     1
 90
        0
176
     1
 90
        0
176
     1
 40
0.6
176
     1
 40
30.0
176
     1
 62
     7
420
 16777215
176
     1
 90
        1
176
     1
 90
        4
176
     1
 62
     7
176
     1
 62
   257
176
     1
 90
        1
176
     1
 90
        1
176
     1
 40
1.0
176
     1
 90
        0
176
     1
 62
   257
176
     1
 40
1.0
176
     1
 90
        1
176
     1
 90
        6
176
     1
 90
        2
176
     1
 62
     7
176
     1
 90
        3
176
     1
 90
        0
176
     1
 90
        0
176
     1
290
     0
176
     1
 90
        1
176
     1
 40
0.0
176
     1
 90
        0
176
     1
290
     0
176
     1
290
     1
176
     1
290
     1
176
     1
290
     0
176
     1
290
     0
176
     1
290
     0
176
     1
290
     0
176
     1
290
     0
176
     1
290
     0
176
     1
 90
       50
176
     1
 40
0.0
176
     1
 40
1.0
176
     1
 90
        0
176
     1
 62
    18
420
        0
176
     1
 90
       50
176
     1
 90
        3
176
     1
 62
     5
420
      255
176
     1
290
     0
176
     1
 90
       50
176
     1
 90
       50
176
     1
 90
       50
176
     1
290
     0
176
     1
 90
       50
176
     1
 62
   256
176
     0
 40
1.0
176
     0
 90
        2
176
     1
  1
strokes_ogs.tif
176
     1
290
     0
176
     1
 40
1.0
176
     1
 40
1.0
176
     1
  0
VISUALSTYLE
  5
180
102
{ACAD_REACTORS
330
99
102
}
330
99
100
AcDbVisualStyle
  2
X-Ray
 70
    25
177
     3
291
     0
 70
    58
 90
        2
176
     1
 90
        2
176
     1
 90
        1
176
     1
 90
        1
176
     1
 40
0.5
176
     1
 40
30.0
176
     1
 62
     7
420
 16777215
176
     1
 90
        1
176
     1
 90
        0
176
     1
 62
     7
176
     1
 62
   257
176
     1
 90
        1
176
     1
 90
        1
176
     1
 40
1.0
176
     1
 90
        8
176
     1
 62
     7
176
     1
 40
1.0
176
     1
 90
        1
176
     1
 90
        6
176
     1
 90
        2
176
     1
 62
     7
176
     1
 90
        3
176
     1
 90
        0
176
     1
 90
        0
176
     1
290
     0
176
     1
 90
       13
176
     1
 40
0.0
176
     1
 90
        0
176
     1
290
     0
176
     1
290
     1
176
     1
290
     1
176
     1
290
     0
176
     1
290
     0
176
     1
290
     0
176
     1
290
     0
176
     1
290
     0
176
     1
290
     0
176
     1
 90
       50
176
     1
 40
0.0
176
     1
 40
1.0
176
     1
 90
        0
176
     1
 62
    18
420
        0
176
     1
 90
       50
176
     1
 90
        3
176
     1
 62
     5
420
      255
176
     1
290
     0
176
     1
 90
       50
176
     1
 90
       50
176
     1
 90
       50
176
     1
290
     0
176
     1
 90
       50
176
     1
 62
   256
176
     0
 40
1.0
176
     0
 90
        2
176
     1
  1
strokes_ogs.tif
176
     1
290
     0
176
     1
 40
1.0
176
     1
 40
1.0
176
     1
  0
DICTIONARYVAR
  5
F0
102
{ACAD_REACTORS
330
66
102
}
330
66
100
DictionaryVariables
280
     0
  1
1:1
  0
DICTIONARYVAR
  5
EF
102
{ACAD_REACTORS
330
66
102
}
330
66
100
DictionaryVariables
280
     0
  1
STANDARD
  0
DICTIONARYVAR
  5
89
102
{ACAD_REACTORS
330
66
102
}
330
66
100
DictionaryVariables
280
     0
  1
STANDARD
  0
DICTIONARYVAR
  5
1B7
102
{ACAD_REACTORS
330
66
102
}
330
66
100
DictionaryVariables
280
     0
  1
Imperial24
  0
DICTIONARYVAR
  5
1B8
102
{ACAD_REACTORS
330
66
102
}
330
66
100
DictionaryVariables
280
     0
  1
Imperial24
  0
DICTIONARYVAR
  5
67
102
{ACAD_REACTORS
330
66
102
}
330
66
100
DictionaryVariables
280
     0
  1
2
  0
DICTIONARYVAR
  5
6B
102
{ACAD_REACTORS
330
66
102
}
330
66
100
DictionaryVariables
280
     0
  1
1
  0
DICTIONARYVAR
  5
9B0
102
{ACAD_REACTORS
330
66
102
}
330
66
100
DictionaryVariables
280
     0
  1
BYLAYER
  0
DICTIONARYVAR
  5
9AF
102
{ACAD_REACTORS
330
66
102
}
330
66
100
DictionaryVariables
280
     0
  1
ByLayer
  0
DICTIONARYVAR
  5
14D
102
{ACAD_REACTORS
330
66
102
}
330
66
100
DictionaryVariables
280
     0
  1
0
  0
DICTIONARYVAR
  5
14E
102
{ACAD_REACTORS
330
66
102
}
330
66
100
DictionaryVariables
280
     0
  1
0
  0
DICTIONARY
  5
1C6
330
1AC
100
AcDbDictionary
280
     1
281
     1
  3
ACAD_XREC_ROUNDTRIP
360
BDF
  0
DICTIONARY
  5
194
330
22
100
AcDbDictionary
280
     1
281
     1
  0
DICTIONARY
  5
188
330
97
100
AcDbDictionary
280
     1
281
     1
  3
FBXASSET
360
189
  0
DICTIONARY
  5
186
330
96
100
AcDbDictionary
280
     1
281
     1
  3
FBXASSET
360
187
  0
DICTIONARY
  5
110
330
98
100
AcDbDictionary
280
     1
281
     1
  3
BUMPTILE
360
112
  3
DIFFUSETILE
360
111
  3
FBXASSET
360
18A
  3
OPACITYTILE
360
113
  3
REFLECTIONTILE
360
114
  0
DICTIONARY
  5
1C4
330
1AA
100
AcDbDictionary
280
     1
281
     1
  3
ACAD_XREC_ROUNDTRIP
360
BDE
  0
DICTIONARY
  5
104
330
87
100
AcDbDictionary
280
     1
281
     1
  3
ACAD_ROUNDTRIP_2008_TABLESTYLE_CELLSTYLEMAP
360
BDD
  0
XRECORD
  5
BDF
102
{ACAD_REACTORS
330
1C6
102
}
330
1C6
100
AcDbXrecord
280
     1
102
DISPLAYNAME
  1
Imperial24
102
FLAGS
 90
        0
  0
XRECORD
  5
189
102
{ACAD_REACTORS
330
188
102
}
330
188
100
AcDbXrecord
280
     1
 70
     1
 90
429727718
  1
508B35C9-AEE7-456F-BE74-D52651303AC6
310
504B03040A0000080000B670623B3DEE336E79000000790000001B0000006175746F6465736B2D64657369676E2D7061636B6167652E786D6C3C3F786D6C2076657273696F6E3D22312E302220656E636F64696E673D227574662D3822203F3E3C666F726D6174733E3C666F726D61743E687474703A2F2F736368656D612E
310
6175746F6465736B2E636F6D2F64657369676E2D7061636B6167652F323030393C2F666F726D61743E3C2F666F726D6174733E504B0304140006080800B670623BD486FD9CA0000000F4000000130000005B436F6E74656E745F54797065735D2E786D6C7D8EC10E82300C865F65E91D8A1E8C310C0EEA1BF002731658846E
310
D98AC1B77784ABF1D8FE5FBFBF75BBCE937A534CCEB38643598122B6FEE978D0B0485F9C41B54DDD7D022595594E1A469170414C76A4D9A4D207E29CF43ECE46F218070CC6BECC4078ACAA135ACF422C856C0E68EA1BF5669944DDD7BCDE7B1F8E415D77AECB980613C2E4AC91FC167A2B244592486606FC29C8FD7F045B9A
310
EF7053A7E60B504B0304140006080800B670623B28ED286BEB0000007C01000008000000636F72652E786D6C8D90416EC3201045AF82665B6183218D6D61A254764FD00B204C5C94182C03558F5F9C3852BBEB6A467FFE9B197D71FA9E6FE8CBACC17AD7012D0820E3B41FAD9B3A48F1826B40272956EFE32F1B20A766D3C1
310
268314D3EAD3B24BDABB685CCCAAF3A3D94515828980F42D371D04FD696655A814B3235C8B45E9AB9A4C419F5D8653B2237A1CB163DE672FD6AC209BF3C08E0D1B30EB19C3FC9D72FCC6EB231EFA33EDE96BDD341517E5064B11EDFCBCAF57A3A2194156843498524CAA0FCA5B7268F9E185D42D21A2DCEC7FA0B48CFF8492
310
759155FBBB0F2C80A4F991FB408A72CB22977B50B96EB9C91F504B0304140006080800B670623B55019EA25F0000007C00000007000000636E782E786D6C4DCB3B0E80201045D1AD90E915ED2CF8AC45050C11660C8261F98AB1B07AC9C97D42D718D865D3E909258CFD00CCE24AC6E326A164D74DC0B4128928FF32603847
310
2BA13128B1252AC747C6BAB984FC68F0B87FE8960A5C09FE86CFB69FBA01504B0304140006080800B670623B7BC41AC871010000D40300000C0000006662782F636F72652E786D6CC553ED6E8320147D15C2DF4501B56B6D90A64BBB27D80B50A5CE54C120983EFEAE1F4DD7A56BBA5FF3879273EEE59E7310BE393735EA95
310
ED2AA333CC428A91D2B9292A5D66D8BB63B0C26823B835C67D2BC348CB46657880B1E0A535BE9DA1DC68A7B403549B42CDA0EC3AE530CA6B5864B8CB3F552343E91D5474A7B095F949962A6421D0502778E72C0840D390E18DC5F170E664C205F7BE2A66B62A605A75AC94C522DDEEE3651AEF837817C741F2CE92E02D592D
310
83FD6ECB76EC7595A651C2C9D02CB8AB9A8BBADC2AE954814544691A3016D0E883256BBA58278B17BA5A53CAC9507ED3E4DBE2C9265F691747B3DCA9ADC382819091F8E1162272A8933DE82182932144F88C09DF060D8140C84E1EEA8B8F1340BDCA9DB1093085F157AA97B557309586747CD0EF0B4EA64E983A6E0EAEEFCE
310
889E9EF17847386AA94B30211D2C0FDE0D3AF9A4610EAD5536E8DD1969631B593F67E381C33F5157F17725E5A636F6BF1491F980C8FC7B90E13E8A2F504B0304140006080800B670623B70102A487D0000009D0000000B0000006662782F636E782E786D6C4DCCD10A83201886E15B91FFDC95A5C30335ACCDFB886521330D
310
A76397BF1A1DECE883878F57749FD5A3B74D2F17830472A901D9F088930B8B849267CC01754AA418F3DF0D5018572BE160506249B16C274D761E8BCFBB7A179E27F65CB39A0F14D396184C9921B81F34C3ACA1B4B99ABB6E6F062A25AA5F69DF23ACBE504B0304140006080800B670623B3610CA3329010000120200003100
310
00006662782F42384135303843342D343331462D343546312D424341352D3532343432364645413344462F636F72652E786D6C8D515B6EC32010BC0AE22B55850D0E446E848992B43E412FE000495162B07854397EA176A4F62F3F2C9A9D991D58BEBB8F37F0AD7D30CE76905418026DA553C65E3A98E219B510EC04F7CEC5
310
3F3408EC30EA0E16180A7EF12E4D0B249D8DDAC68C5AA7F4020E21E80881BCE54B0783FCD2E3500D296646B856D320AFC34557A4CAEDCC133C449F0380794839A138B47B86DB2345744D7A44594FD0E1B867883594369BFE63BF7EEF793D0B054FC9A8456E548E63CE46FB674D8A58F068C6477CE9F510B582A2C1F80D1182
310
70F349E816B32D65AFB8DD62CCEB42FF274A937A52948C8DEB66893BCB021484D7734370E5D2E9F608A3EF93F3119479ABA0E50B14B8C298119A43CCC4FCFCECB8A18B6388CEE7EF5D5D4F994BD86CBBA182D76543B9FCAE2FD7B24DF103504B0304140006080800B670623B1B8617914E0100003303000030000000666278
310
2F42384135303843342D343331462D343546312D424341352D3532343432364645413344462F636E782E786D6CD593C16EC32010447F0571AD6CE3D489D20813A9877E410FBD62D82434182CC055F3F75D1292E692438FBD206B7698593D61BEFD1E2DF982108D773D6D6B460938E5B571FB9ECE6957AD29D90A1EBC4F7736
310
4A9C1CA1A759A682EF839FA72269D8C9D92654AD71C72206887E0E0A22CAF926B15E498B01E0AA19451807D01A34B919F16B070157417138917400F2F6FA41FCF0092A45DEE414C19BDC21783E4BD39D891265658C3D8DEA00A3ACE59CBC8678ACB54CB26EEB6BD7839D7E9348BE70AD9C8321B9BCA7F9A4A26C542347DEE0
310
50F09802D22BA6749A800A394DD62899107273365E3C82CFC6A55557BC06C10774B7ABE7AEC3B0F34CF06446280E154026D0542C187BA9DAB6628BF7B6DBB0E5A65B3EB1F58631DE64BBE083F7B65CC218087E22CABB042E51D1F2268F1FE12B3EA24D40D63E9CFE00120194D60B9D5BC67FE6D39CDF37E20AF817881F504B
310
0304140006080800B670623BBFEF2E3B690500003C100000340000006662782F42384135303843342D343331462D343546312D424341352D3532343432364645413344462F6F626A656374732E786D6CAD575D739B3814FD2B0CFB0C98D84E931D4227B6938EA793B6534F3BFB90198F0099B001899144EAECAFDF231018B0
310
D37A3FFC609090EEE7B94757C1FB7D915B2F54C88CB31BDB7727B64559CC938CA53776A576CE956DBD0F03C1B9EA2DB32D460A7A63EB693B0C52C1ABD24C257447AA5C8D66EF177F5832A68CDA569C13296F6C193FD182B8A4523CA1F2D94D88226EBADBBBBEDB2C1C8A4D05299F46424B222853B014F30C52ACC6287F389C
310
D85E1878FA7B18E87FB36AFAF62AAFF667A83F635211161F291B8999FAB3D5DDC5FCDA99CF6653677679E13B8BFBC5CAF1DF4D27CBCBE5F2FAF6EE1A8AA51290642C117467871F101B91C581D77CEA2C36869F3229E68CD1B8F61F1ED6361B89092D294B90C78C4A68EB793D190E7D1D9BDEE7A91E1B95FDE9F3BCEAEFE809
310
6A6D6F9F7D4B79F4275C90E7A04248AA51D5C4C738DAE06F72885AC4796EBE65D22A88A22223B995679120E2D50EB1542F098381188D4EA111AE3DB043FF20AF6F2B4AE3D7D83D65E5AECA730D4D3BAC91BD05FEA992B565D95F549CD6069B90AB2A63EACA38A45E4B6A87D781574F86817E4C2FCCC72690D62E2729520E37
310
9BAF234797BAF6D62B3BFC781FED37BA1E4F2B2F052FA9501A3E80569BB8F6A9A364D4FA67654E6F803383981F82F21591FF84F23D9882BC896C3FDBCF8C162508933B2E0AE4C69DD43F6BD2BE38DDDBF10BF86CB4FA784D37F3AF16075E67EC9030DECA1FC0A55373F5DFF3378C591FA9BDF485C10B0A8C8BA909E5262639
310
A8E72163488806A595734C81CB77D1DE0ED7604A303B76913CEC0272F412782FF88EFF4636D8AA56DF7B322474C4B767303F625997056C7B032C473C592B36CEBD15F3F9FF5233B7ABCDC74D257624A60F8658567497B14CE1EC3C80B76FD02011038F9EE9EB0F2E12387A9C844D3F09855125116D1D731DF8B43D2CF4E0A0
310
79A020C6BE946BCE0B7EA1E1219331CD73C228AF5A2DDD31A4B1DA918CE91350854D40A71723140BFA92E94E62B0626016CEFA5864A50E5977E8753CEDBEE1CBB7F52780D20E17AF0BA0F5F9B02A3AD07DCC732EB6D1EBB661421BE0C39E21BABF0FE16D22EA6929407C8DE596724C88B749B6DB5512BC7B228ADFD7CB7EA6
310
3A22397E690BA8D5D8D4E40CEC8CDA23C2C0B7D5898640101CEC9C6D331CE328CB93CAFBBAC70A642DF70DF95155945B52F08AA973C23469FD69ADEF84F7BB18F983A8F8C90E37F5D35980B2139A1C523540813E824EF83448CF7C72B598CE97D7CEEDDDDD3B6736BFBC771677EF66CE6A7E7139F7A793E9EDF2B2B3A8B624
310
0CDA13AA5F8388264EC4A0129909F3B7F5A16CEDF08128E97D680ACA4B9BE7B7B58BB638F0B00700EF36AE8B32A705658A68F83EE897FC2B41573190D1CCAF0B92D233A47CFEB019D9809933F67DD1A5467F8CF69AD9A5AE859342D45355448C64F968A371DC2D596ADC6E43D93D1B466F877A64E2893E54F23C4B40388995
310
525E5005DA3983ED45412510D3EFCA13737B3863F74BD30F2A12E5B4B5E489A025CE25500DB855B11ACE5BBFA185D35DD48D8DC3CE7DC69F2944DB42AA6F6CF09BCA622ADD08C7A36E7C6AE18000BAB08E040135C2D21C9D75B3A91B77BB746C403F38018DFE6EC939DD92F16B40BC05294B9CDA035AAD6D330AE27FE4786B
310
8E45145EA34A75BE1C263A676A35A8ACC6297337400BF16C54EF515F3F77CB77EB3583889C754FFA29081AA98E2222ADEF05DA3E63D2EDEA8B8756C05A7FB6CABC4A91CBF325398202CC952E70A008A830324BA200D5E5EF8F5F04C75DB4B0EE3340E071C98B823333B83577596BF3849B69F2085AA0FAFA212F26BEFF5877
310
FDE622B28D88A42E49E43326DA82D31E8CB006401E1DA726059ECEC168F97A6599036306A135688F9AD2E61A6EA178F4CD51974A9F2CCB9F36FE5EBD14601068D9C3BF01504B0304140006080000B670623B000000000000000000000000350000006662782F42384135303843342D343331462D343546312D424341352D35
310
32343432364645413344462F76657274696365732E62696E504B0304140006080800B670623BF270F1330600000004000000360000006662782F42384135303843342D343331462D343546312D424341352D3532343432364645413344462F747269616E676C65732E62696E636660600000504B0304140006080000B67062
310
3B000000000000000000000000370000006662782F42384135303843342D343331462D343546312D424341352D3532343432364645413344462F617474726962757465732E62696E504B0304140006080800B670623B08DA0BD19000000041010000360000006662782F42384135303843342D343331462D343546312D4243
310
41352D3532343432364645413344462F6469726563746F72792E786D6C858F410AC3201045AF22B36F53E9A60B35CBEEBAE80D244E44489C6234F4F835464A48035D0DF398FF9F8AF63D0E6CC63039F212F8F9020C7D47C6792B21C5FE7403D62A1188E2E60C98D7234A5830286103A55745067B9D86B8A3CF9C7F90C11DE6
310
07FB144396D7B6A82D282E9A152AD114D5EF2CB866EEE831B8EEA07A7BB5A8D7D61A2BAAEB7FD5F70921FF497D00504B0304140006080800B670623B3B4606F3FE000000A00100003B0000006662782F42384135303843342D343331462D343546312D424341352D3532343432364645413344462F7265736F75726365732F
310
636F72652E786D6C8D504B6E833010BD0A9A6D65B08134808CA354A427E8052C332156828DFCA97AFC9A40A576D7CDCCE87D344F8F9FBEE647F689CE6B6B7A6039850C8DB2A336530F315C4903D94970676DF82583CCC8197B5861107C72362E3BA4AC096842428D1D7107A5F71820538F74F4E0D50D6799CB1892C2DFF345
310
AABB9C306779A2934E701F5C0A906D4FD609C2A1B7D129F4BCD858C163D4E3AED163FAA9AF1A1D88F67CA98E6D35906AA82A52BFB39ABCD5CD915C86331BD86BD3B665CD8BD52C78D0F34F46E550061C419494B6843142CB0F5677F4D0D58717DA7494F26295FF31C565FCA7296A13AA728FBBD93C0896823C09C18BB5AFB4
310
9E65A6BD762BBE01504B010214000A0000080000B670623B3DEE336E79000000790000001B00000000000000000000000000000000006175746F6465736B2D64657369676E2D7061636B6167652E786D6C504B01021400140006080800B670623BD486FD9CA0000000F40000001300000000000000000000000000B2000000
310
5B436F6E74656E745F54797065735D2E786D6C504B01021400140006080800B670623B28ED286BEB0000007C010000080000000000000000000000000083010000636F72652E786D6C504B01021400140006080800B670623B55019EA25F0000007C000000070000000000000000000000000094020000636E782E786D6C50
310
4B01021400140006080800B670623B7BC41AC871010000D40300000C00000000000000000000000000180300006662782F636F72652E786D6C504B01021400140006080800B670623B70102A487D0000009D0000000B00000000000000000000000000B30400006662782F636E782E786D6C504B01021400140006080800B6
310
70623B3610CA3329010000120200003100000000000000000000000000590500006662782F42384135303843342D343331462D343546312D424341352D3532343432364645413344462F636F72652E786D6C504B01021400140006080800B670623B1B8617914E010000330300003000000000000000000000000000D10600
310
006662782F42384135303843342D343331462D343546312D424341352D3532343432364645413344462F636E782E786D6C504B01021400140006080800B670623BBFEF2E3B690500003C10000034000000000000000000000000006D0800006662782F42384135303843342D343331462D343546312D424341352D35323434
310
32364645413344462F6F626A656374732E786D6C504B01021400140006080000B670623B0000000000000000000000003500000000000000000000000000280E00006662782F42384135303843342D343331462D343546312D424341352D3532343432364645413344462F76657274696365732E62696E504B010214001400
310
06080800B670623BF270F133060000000400000036000000000000000000000000007B0E00006662782F42384135303843342D343331462D343546312D424341352D3532343432364645413344462F747269616E676C65732E62696E504B01021400140006080000B670623B00000000000000000000000037000000000000
310
00000000000000D50E00006662782F42384135303843342D343331462D343546312D424341352D3532343432364645413344462F617474726962757465732E62696E504B01021400140006080800B670623B08DA0BD1900000004101000036000000000000000000000000002A0F00006662782F42384135303843342D3433
310
31462D343546312D424341352D3532343432364645413344462F6469726563746F72792E786D6C504B01021400140006080800B670623B3B4606F3FE000000A00100003B000000000000000000000000000E1000006662782F42384135303843342D343331462D343546312D424341352D3532343432364645413344462F72
310
65736F75726365732F636F72652E786D6C504B0506000000000E000E0080040000651100000000
  0
XRECORD
  5
187
102
{ACAD_REACTORS
330
186
102
}
330
186
100
AcDbXrecord
280
     1
 70
     1
 90
429727718
  1
887D55A9-D0DD-414E-B741-A7DCD4DA2B4C
310
504B03040A0000080000B670623B3DEE336E79000000790000001B0000006175746F6465736B2D64657369676E2D7061636B6167652E786D6C3C3F786D6C2076657273696F6E3D22312E302220656E636F64696E673D227574662D3822203F3E3C666F726D6174733E3C666F726D61743E687474703A2F2F736368656D612E
310
6175746F6465736B2E636F6D2F64657369676E2D7061636B6167652F323030393C2F666F726D61743E3C2F666F726D6174733E504B0304140006080800B670623BD486FD9CA0000000F4000000130000005B436F6E74656E745F54797065735D2E786D6C7D8EC10E82300C865F65E91D8A1E8C310C0EEA1BF002731658846E
310
D98AC1B77784ABF1D8FE5FBFBF75BBCE937A534CCEB38643598122B6FEE978D0B0485F9C41B54DDD7D022595594E1A469170414C76A4D9A4D207E29CF43ECE46F218070CC6BECC4078ACAA135ACF422C856C0E68EA1BF5669944DDD7BCDE7B1F8E415D77AECB980613C2E4AC91FC167A2B244592486606FC29C8FD7F045B9A
310
EF7053A7E60B504B0304140006080800B670623BBC1638F5EC0000007C01000008000000636F72652E786D6C8D90416EC3201045AF82665B61836BE2D8C24471DB9CA01740401C94182C03558F5F9C3852BBEB6A467FFE9B197D7EF89E6EE8CB2CC17AD7032D0820E394D7D68D3DA478C67B4007C117EFE32F1B202727D3C3
310
2A83E0E3E2D3BC49CABB685CCCAAF3DA6CA20CC14440EA969B1E82BA98491632C5EC08D76296EA2A4753D06797E194AC468F2356E77DF66CCD02825543D50CACC62D39ED70FDC68EB8FD68F6F8787A6784342D1DDA1D2F5758F068A7E77DB518198D065111D2624A31A93E69DD11D6D5EC85EC3B4278B9DAFF4069D6FF8492
310
75F1B5DADE7D600104CD8FDC0782976B16B9DC83CA75CD4DFC00504B0304140006080800B670623B55019EA25F0000007C00000007000000636E782E786D6C4DCB3B0E80201045D1AD90E915ED2CF8AC45050C11660C8261F98AB1B07AC9C97D42D718D865D3E909258CFD00CCE24AC6E326A164D74DC0B4128928FF326038
310
472BA13128B1252AC747C6BAB984FC68F0B87FE8960A5C09FE86CFB69FBA01504B0304140006080800B670623B3586FFB671010000D40300000C0000006662782F636F72652E786D6CC553ED6E8320147D15C2DF4541A76D6D90A6DDD627D80B50A4CE54C120983EFEAE1F4DD7A55BBA5FF3879273EEE59E7310B6393735EA
310
95ED2AA3731C851423A5A5292A5DE6D8BB63B0C268C39935C67D29C3488B46E578803167A535BE9D2169B453DA01AA4DA16650749D7218C91A1639EEE4876A4428BC838AEE14B6429E44A9C228041AEA38EB9C0501681A32BC313F1ECE8C4C3867DE57C5CC56054CAB8E95B298A7F12E5EEED224C8E87E11242FE936C8DE96
310
AB60BB7F4D295D66D12E5B30323473E6AAE6A24E5A259C2A308F29CD82280A68FC1E256B9AAE93F489AED694323294DF34F9B678B0C957DA3DC7B3DCA9ADC33C022123F1CD2D44E450277AD04338234388F01913BE0D1A0281909D38D4171F27807A259DB1093085F157AA17B557309586747CD0CF0B46A64E983A6E0EAEEF
310
CE881F9EF1FB8E70D44297604238581EBC1B74B249C31C5AAB6CD0BB33D2C636A27ECCC62F0EFF445DC5DF95244D6DEC7F2922F30191F9F720C37DE49F504B0304140006080800B670623B4220A0FF7D0000009D0000000B0000006662782F636E782E786D6C4DCCD10A83201886E15B91FFDCE542CB0335D0EC3E6259C84A
310
C3E9D8E5AF46073BFAE0E1E315DD675BD1DBA5978F41C2FD4600B9F088930F8B849267CC01754AA418F3DF0D50183727E164506249B1EC174D6E1ECB9A0F5D7D785E68DB8151CD286E5A5363CA6B8A39E90D36D40E96B086F55A43A544F52B1D7B86D517504B0304140006080800B670623B2FA3FEDE290100001202000031
310
0000006662782F45374635344235342D363743322D343832342D383044432D4334454645303536354442422F636F72652E786D6C8D515B6EC32010BC0AE22B55850D2E386E848994D7097A0117488A1283C5A3CAF10BB523B57FF961D1ECCCECC0F2ED7DBC816FED8371B687A4C210682B9D32F6D2C314CFA883602BB8772E
310
FEA141608751F7B0C050F08B77695A20E96CD43666D43AA5177008414708E42D5F7A18E4971E876A483133C2B59A06791D2EBA22556E679EE021FA1C00CC43CA09C5717D6274C7286AD7FB06D1AEA1A8C3873DDAD3E3E98859CB0EBB1DAF67A1E02919B5C88DCA71CCD968FFAC49110B1ECDF8882FBD1EA256503418BF2342
310
106E3E08DD60B6A1EC15771B8C795DE8FF4469524F8A92B1F1AD59E2CEB20005E1F5DC105CB9F4797B84D1F7C9F908CABC55D0F2050A5C61CC1AD2F27A26E6E767C7962E8E213A9FBF7775FDCC5CC266DB960A5E970DE5F2BBBE5CCB36C50F504B0304140006080800B670623B1B8617914E01000033030000300000006662
310
782F45374635344235342D363743322D343832342D383044432D4334454645303536354442422F636E782E786D6CD593C16EC32010447F0571AD6CE3D489D20813A9877E410FBD62D82434182CC055F3F75D1292E692438FBD206B7698593D61BEFD1E2DF982108D773D6D6B460938E5B571FB9ECE6957AD29D90A1EBC4F77
310
364A9C1CA1A759A682EF839FA72269D8C9D92654AD71C72206887E0E0A22CAF926B15E498B01E0AA19451807D01A34B919F16B070157417138917400F2F6FA41FCF0092A45DEE414C19BDC21783E4BD39D891265658C3D8DEA00A3ACE59CBC8678ACB54CB26EEB6BD7839D7E9348BE70AD9C8321B9BCA7F9A4A26C542347DE
310
E050F09802D22BA6749A800A394DD62899107273365E3C82CFC6A55557BC06C10774B7ABE7AEC3B0F34CF06446280E154026D0542C187BA9DAB6628BF7B6DBB0E5A65B3EB1F58631DE64BBE083F7B65CC218087E22CABB042E51D1F2268F1FE12B3EA24D40D63E9CFE00120194D60B9D5BC67FE6D39CDF37E20AF817881F50
310
4B0304140006080800B670623B29652116630500003C100000340000006662782F45374635344235342D363743322D343832342D383044432D4334454645303536354442422F6F626A656374732E786D6CAD575D739B3814FD2B0CFB0C989834C90EA1639B24E3E9A6EDD4D3CE3E64C623834CD8006224913AFDF57B040203
310
B65BEF871F0C12D2FD3CF7E8CA7FBFCB33E3957291B2E2D674ED8969D02262715A24B76625B7D6B569BC0F7CCE98EC2D338D82E4F4D654D366E0279C55A59E8AE99654991CCDDECFFF3444440B6A1A514684B83545F44C7362934AB2988A173B2692D8C97667BB76B3702836E1A47C1E092D09A78584A5982F20C5688C7287
310
C389E904BEA3BE07BEFAD7ABA6A75739B53F43FD69212429A20365233153D70BEF2E2E6FAC4BCF9B5ADEBB0BD79ADFCF43CBBD9A4E16EF168B9BD9DD0D140BC921495BC2E9D60C1E101B9E46BED37CEA2CD6861F3329624541A3DA7F7858DBAC25C6B4A4458C3CA654405BCFEBC970E8AAD8F43E4FD558ABEC4F9FE7557F47
310
4F506B7BFBEC5BCA367FC105710E2AB8A00A554D7CB4A30DFE26FBA86D18CBF4B75418399194A72433B274C3097F33032C554B027F2046A1932B842B0FCCC0DDCBEBDB8AD2F835768F59B9ADB24C41D30C6A64AF817F2A456D59FA83F2E3DA60137255A585BCD60EC9B7929AC18DEFD49381AF1ED30BFDB109A4B1CD488294
310
C3CDE6EBC8D185AABD6568061FEE37BB95AAC7E3CA4BCE4ACAA5820FA0D526AE7DAA2869B5EE5999531BE0CC20E6FBA07C41E43FA27CF7A6206F3CDD793B4F6B919C1462CB788EDCD893FA674CDA17AB7B3B7C019F8D561FAEE966FED562DFE98C1D12C6A9FC015C2A35D7FF3D7FC398F591DA4B5FE0BFA2C0189FEA50AE22
310
92817A1ED3020951A03432862970F976B33383259812CC8E5D240BBA801CBCF8CE2BBEE3BF910DB6AAD5F79E05123AE2DB33981FB1ACCB02B69D00CB014FD68AB573A7627EF9BFD4CC2C5C7D58557C4B22FAA88925A4DBB44825CECE3D78FB060D1231F0E885BE7D673C86A3874958F593906B5502D1563157814FDAC3420D
310
F69A070A22EC4B98E23CFF171A1E5311D12C23056555ABA53B8614563B92D17D02AAB009E8F46284624E5F53D5490C560CCCC2591FF1B45421EB0EBD8EA7ED13BE7C5D7E0428CD60FEF60779EB13E6664FF711CB185F6FDED60D139A001FF60CD1FD6D086F1D51474901E26B2CB794A343BC8ED3EDB612E0DD2351FCB65CF4
310
33D511C9E14B5B40ADC6A6263DB0336A8F700DDF56271A024E70B0B3629DE21847591E55DED73D56206AB927E46FAABC5C939C55853C274C93D69FD6FA4E78BF8B11DF898C9ECD60553FAD39283BA6F18984AA23E8884F83F45C5F5F859797B31B2B9C84A1E5B9DE9D35BFF25C6B76152E422F9C5DCC3D847F5801ED09D5AF
310
41441327A25FF15487F9EB725FB666F048A4701E9A827292E6F97569A32DF61DEC01C0BB8DCBBCCC684E0B49147C1FD54BF685A0AB18C868E6973949E819523E3DAC463660E68C7D9F55A9D1EFA3BD7A76A16AE1A810F95CE59B82A4D968A376DC2E8B44BBDD86B27B368CDE0ED548C7137DA860591A83706223A12CA712B4
310
7306DBF39C0A20A6DF95C7FAF670C6EED7A61F946493D1D6926782963813403548A78AE470DEF80D2D9CEAA26E4D1C76F60BFE74219A06527D6B82DF641A51616F703CAAC6A7160E08A00BEB4810A0274592A1B36E3675E36E978A0DE80727A0D6DF2D39A75BD27E0D8837276589537B40ABB56D5A41F48F1C6FCD3188C4EB
310
A6929D2FFB89CE995A4D00AE813BDD032DC48B56BD437DFDDC2DD7AED70C2272D63DE9A72068A45A92F0A4BE17A8A06B9366E16707AD80B1FC649459952097E74BB23805982B55E0401150A165964402AA8BDF9F3E7386BB686EDCA780C0D382E5392BF460A6EFB2C6EA1937D3F809B440D5F5435C4C5CF7A9EEFAF54564BD
310
2182DA24162F98680B4E7930C21A0079709CEAEB99A372305ABE0C0D7D6078105A83F6A0296DAEE1068A47DD1C55A9F4C9B2FC69E3EFD44B81028E963DF81B504B0304140006080000B670623B000000000000000000000000350000006662782F45374635344235342D363743322D343832342D383044432D433445464530
310
3536354442422F76657274696365732E62696E504B0304140006080800B670623BF270F1330600000004000000360000006662782F45374635344235342D363743322D343832342D383044432D4334454645303536354442422F747269616E676C65732E62696E636660600000504B0304140006080000B670623B00000000
310
0000000000000000370000006662782F45374635344235342D363743322D343832342D383044432D4334454645303536354442422F617474726962757465732E62696E504B0304140006080800B670623B08DA0BD19000000041010000360000006662782F45374635344235342D363743322D343832342D383044432D4334
310
454645303536354442422F6469726563746F72792E786D6C858F410AC3201045AF22B36F53E9A60B35CBEEBAE80D244E44489C6234F4F835464A48035D0DF398FF9F8AF63D0E6CC63039F212F8F9020C7D47C6792B21C5FE7403D62A1188E2E60C98D7234A5830286103A55745067B9D86B8A3CF9C7F90C11DE607FB144396
310
D7B6A82D282E9A152AD114D5EF2CB866EEE831B8EEA07A7BB5A8D7D61A2BAAEB7FD5F70921FF497D00504B0304140006080800B670623B6378F24DFF000000A00100003B0000006662782F45374635344235342D363743322D343832342D383044432D4334454645303536354442422F7265736F75726365732F636F72652E
310
786D6C8D504B6E833010BD0A9A6D65B0094E42641C85B639412F6099496225D8C89FAAC7AF09546A77DDCC8CDE47F3F4C4F16B7C149FE88371B603565228D06A37187BED20C50BD9437194C23B177FC9A0B06AC40E6618A4B87A97A615D2CE46B431A3D60DB8822A048C50E8473E3A08FA86A32A558A5911EEE5A4F45D5DB1
310
6465A6B34E8A107D0E502C4FE609D26370C96B0CA25A58295232C3AA3143FE692E063D485EF7F5AEE71BD2D2F39634AFFC44DAF7DD9E9CCE6F9CD25DCBFA762BAAD92C4534E34F46ED51451C40D694B6843142EB0FD61C283F34FC85EE0F948A6A96FF31A569F8A729191B37F51A77B105902C0779125254735F793DCBCC7B
310
EE567E03504B010214000A0000080000B670623B3DEE336E79000000790000001B00000000000000000000000000000000006175746F6465736B2D64657369676E2D7061636B6167652E786D6C504B01021400140006080800B670623BD486FD9CA0000000F40000001300000000000000000000000000B20000005B436F6E
310
74656E745F54797065735D2E786D6C504B01021400140006080800B670623BBC1638F5EC0000007C010000080000000000000000000000000083010000636F72652E786D6C504B01021400140006080800B670623B55019EA25F0000007C000000070000000000000000000000000095020000636E782E786D6C504B010214
310
00140006080800B670623B3586FFB671010000D40300000C00000000000000000000000000190300006662782F636F72652E786D6C504B01021400140006080800B670623B4220A0FF7D0000009D0000000B00000000000000000000000000B40400006662782F636E782E786D6C504B01021400140006080800B670623B2F
310
A3FEDE290100001202000031000000000000000000000000005A0500006662782F45374635344235342D363743322D343832342D383044432D4334454645303536354442422F636F72652E786D6C504B01021400140006080800B670623B1B8617914E010000330300003000000000000000000000000000D2060000666278
310
2F45374635344235342D363743322D343832342D383044432D4334454645303536354442422F636E782E786D6C504B01021400140006080800B670623B29652116630500003C10000034000000000000000000000000006E0800006662782F45374635344235342D363743322D343832342D383044432D4334454645303536
310
354442422F6F626A656374732E786D6C504B01021400140006080000B670623B0000000000000000000000003500000000000000000000000000230E00006662782F45374635344235342D363743322D343832342D383044432D4334454645303536354442422F76657274696365732E62696E504B01021400140006080800
310
B670623BF270F13306000000040000003600000000000000000000000000760E00006662782F45374635344235342D363743322D343832342D383044432D4334454645303536354442422F747269616E676C65732E62696E504B01021400140006080000B670623B0000000000000000000000003700000000000000000000
310
000000D00E00006662782F45374635344235342D363743322D343832342D383044432D4334454645303536354442422F617474726962757465732E62696E504B01021400140006080800B670623B08DA0BD190000000410100003600000000000000000000000000250F00006662782F45374635344235342D363743322D34
310
3832342D383044432D4334454645303536354442422F6469726563746F72792E786D6C504B01021400140006080800B670623B6378F24DFF000000A00100003B00000000000000000000000000091000006662782F45374635344235342D363743322D343832342D383044432D4334454645303536354442422F7265736F75
310
726365732F636F72652E786D6C504B0506000000000E000E0080040000611100000000
  0
XRECORD
  5
112
102
{ACAD_REACTORS
330
110
102
}
330
110
100
AcDbXrecord
280
     1
270
     1
271
     1
  0
XRECORD
  5
111
102
{ACAD_REACTORS
330
110
102
}
330
110
100
AcDbXrecord
280
     1
270
     1
271
     1
  0
XRECORD
  5
18A
102
{ACAD_REACTORS
330
110
102
}
330
110
100
AcDbXrecord
280
     1
 70
     0
 90
1778669749
  1
9BF507EE-FAF7-4A99-A33D-4EE51894BC40
310
504B03040A0000080000B670623B3DEE336E79000000790000001B0000006175746F6465736B2D64657369676E2D7061636B6167652E786D6C3C3F786D6C2076657273696F6E3D22312E302220656E636F64696E673D227574662D3822203F3E3C666F726D6174733E3C666F726D61743E687474703A2F2F736368656D612E
310
6175746F6465736B2E636F6D2F64657369676E2D7061636B6167652F323030393C2F666F726D61743E3C2F666F726D6174733E504B0304140006080800B670623BD486FD9CA0000000F4000000130000005B436F6E74656E745F54797065735D2E786D6C7D8EC10E82300C865F65E91D8A1E8C310C0EEA1BF002731658846E
310
D98AC1B77784ABF1D8FE5FBFBF75BBCE937A534CCEB38643598122B6FEE978D0B0485F9C41B54DDD7D022595594E1A469170414C76A4D9A4D207E29CF43ECE46F218070CC6BECC4078ACAA135ACF422C856C0E68EA1BF5669944DDD7BCDE7B1F8E415D77AECB980613C2E4AC91FC167A2B244592486606FC29C8FD7F045B9A
310
EF7053A7E60B504B0304140006080800B670623BCA089DFFEC0000007C01000008000000636F72652E786D6C8D90416E83301045AF62CDB632D8402020E32882F604BD80653BC44AB011B6AB1EBF262152BBEB6A467FFE9B197D76FA9EEFE84BAFDE38DB03CD08206DA553C64E3DC470C1474027CE56E7C22F1B202B66DDC3
310
260367D3EAE2B24BD2D9A06D48AA754AEFA2F05E0740F29E9A1EBCBCEA59642286E4F0B76C11F226269DD15797E0188D42CF2346A57DE662F40ABCAEC77628C6120F654571D50C04B7F5B9C1E3997CD4F550BE3745C3F20DE62C98F9755FAE5A04AD801784B498524C8A4F5A75E4D055873772EC0861F966FF03C545FD138A
310
C686B2D8DF7D621E384D8F3C069CE55B16A93C824A75CB8DFF00504B0304140006080800B670623B55019EA25F0000007C00000007000000636E782E786D6C4DCB3B0E80201045D1AD90E915ED2CF8AC45050C11660C8261F98AB1B07AC9C97D42D718D865D3E909258CFD00CCE24AC6E326A164D74DC0B4128928FF326038
310
472BA13128B1252AC747C6BAB984FC68F0B87FE8960A5C09FE86CFB69FBA01504B0304140006080800B670623B68FC0B7272010000D40300000C0000006662782F636F72652E786D6CC5535B6E833010BC8AE5DF0A6C1E8124328E22D29EA01770C0A128602363A31CBFCB234A53A555FA553EC09AD9F5CE8C31DB5DDA060D
310
D2F4B556190E7C8A9154852E6B5565D8D993B7C668C799D1DA7E29C3488956667884316795D1AE5BA0422B2B950554E9522EA0E87B69312A1A5864B82F3E642B7CE12C54F467BF13C55954D20F7CA0A18EB3DE1A1080E621E31BF3D3F1C2C88C73E65C5D2E6C5DC2B4FA544B8379921C36797888BC3C8A032F4E73EA6D927D
310
EA1DF6F42D49F2E8350D5346C666CE6CDD5ED515460A2B4BCC434A375E1078347C0FE22D5D6DE3D50B5D6F2965642CBF6B725DF96493AB958DC245EEDCD6631E809089F8E61622B2A81703E8219C913144F84C09DF070D8140C8561C9BAB8F3340832CAC363130A576376A108D933095FA747AD0CF0B46E64E983A6D0EAE1F
310
CE089F9EF1FB8E70D44255604258581E9D1D75B259C3125A278D37D80B52DAB4A279CEC62F0EFF44DDC43F9454E8469BFF5244960322CBEF41C6FBC83F01504B0304140006080800B670623B0F71DDB67E0000009D0000000B0000006662782F636E782E786D6C4DCCD10A83201886E15B91FFDCA54DB73F502386BB8F5816
310
32D3703976F9ABD1C18E3E78F87855FB990379BBFCF2296AE02706C4C5471A7C9C349475A408A4352AA7B4FEDD80C47E761A7606A3A69CCA72D0E0C6BE8475D3E0E3F3409428EA6B27A84079A782899AA2EC1A7AE3ECCC2FD858CB2D544655BFD2B67BD87C01504B0304140006080800B670623BE134B4FB28010000120200
310
00310000006662782F38353834323741342D343835462D343034322D383541392D4331303331363839454531452F636F72652E786D6C8D515B6EC32010BC0AE22B55850D0EA424C24451959EA0172086A42831583CAA1CBF503B52FB971F16CDCECC0EACD8DFC71BF836215AEF7A481A0C817183D7D65D7A98D3197108F652
310
04EFD31F1A044E8DA6871586525C82CFD3020DDE25E352419DD76601558C264130DCCAA58771F832A36A544E8511AFCDA486ABBA988634A55D7852C4144A00300FA927949C71DABD1D28A29C7D208A6987383B6CD13BC16BB2E1DBE3911C453B0BA5C8D9EA456E758963CFD684674DAA588A64C747FC2118958C86B2C3788B
310
0841B8FB247487D98EB257CC77188BB6D2FF89F2A49F1465EBD2BA5BE2CEB2082511EDDC9042FB7CBA3DC298FBE4430275DE2A9AE1054ADC60CC08E3A29D89E5F9C5714317C7987C28DFBBBA9E0A97B0D97643A568EB864AF95D5FA9759BF207504B0304140006080800B670623B1B8617914E010000330300003000000066
310
62782F38353834323741342D343835462D343034322D383541392D4331303331363839454531452F636E782E786D6CD593C16EC32010447F0571AD6CE3D489D20813A9877E410FBD62D82434182CC055F3F75D1292E692438FBD206B7698593D61BEFD1E2DF982108D773D6D6B460938E5B571FB9ECE6957AD29D90A1EBC4F
310
77364A9C1CA1A759A682EF839FA72269D8C9D92654AD71C72206887E0E0A22CAF926B15E498B01E0AA19451807D01A34B919F16B070157417138917400F2F6FA41FCF0092A45DEE414C19BDC21783E4BD39D891265658C3D8DEA00A3ACE59CBC8678ACB54CB26EEB6BD7839D7E9348BE70AD9C8321B9BCA7F9A4A26C542347
310
DEE050F09802D22BA6749A800A394DD62899107273365E3C82CFC6A55557BC06C10774B7ABE7AEC3B0F34CF06446280E154026D0542C187BA9DAB6628BF7B6DBB0E5A65B3EB1F58631DE64BBE083F7B65CC218087E22CABB042E51D1F2268F1FE12B3EA24D40D63E9CFE00120194D60B9D5BC67FE6D39CDF37E20AF817881F
310
504B0304140006080800B670623B5933D422630500003B100000340000006662782F38353834323741342D343835462D343034322D383541392D4331303331363839454531452F6F626A656374732E786D6CAD575B6FA33814FE2B887D0642934E9B156594264D158D3A534DD4D13E548A0C38942D60649B4EBABF7E3F8321
310
40924EF6928780CDF1B97EE762EFF32E4B8D37CA45C2F21BD3B547A641F39045491EDF98A5DC5AD7A6F1D9F73863B243661A39C9E88DA9B64DDF8B392B0BBD15D12D295339D85DDEFE618890E6D434C2940871638AF08566C426A5641115AF764424B1E3EDCE76ED9AB0CF36E6A47819302D08A7B984A6D8CFC1C5A89572FB
310
CB91E9F89EA3BEFB9EFAD754E3D3544E654F5F7E920B49F2F040D880CDD89D2CEE2E2EA7D6E56432B6269F2E5CEB7679BBB0DCABF168FE693E9FCEEEA6102C240727AD09A75BD3BF876F78127A4EFDA9D5582B7E4CA590E5390D2BFB6161A5B3E618D182E611E2985001691DAB47FDA5AB7CD3F93C566B2DB2BB7D9E55DD13
310
1D468DEECDB3AB290BFE8409E21C54704115AA6AFF68436BFC8DF65E0B184BF5B74418199194272435D224E084BF9B3E481589EFF5D828747285706581E9BB7B7E5D5D911ABFC6EE312DB7659A2A689A7E85EC0DF04FA5A8344BFEA2FCB834E8845895492EAFB541F2BDA0A63FF59C6AD3F7D4637CA13FD68E34B629891172
310
98597F1D183A57B9B75A98FE9765B05BAB7C3C2EBCE0ACA05C2AF8005A4DE09AA7F29216EB9E15397500C6F47CBE77CA7778FE2BD277AF0AE2C693DD6437D1522427B9D8329E2136F6A8FA19A3E6C56ADF0E5F50CF06D48734EDCEBF22F69C56D97EC138153F804B85E6FABFC7AFEFB32E523BE1F3BD372418E363EDCA7548
310
52949E8724474014288D94610BB57C1BEC4C7F854A89CA8E5324F55B871CBC78CE1BBEE3BFE68D6A5589EF3C730474506FCFA8FCF0659516D0ED04580EEA6425581B77CAE797FF4BCECC16EB2FEB926F49481F746159D06D922712BD730FDEAE42BD40F42C7AA5EF3F198F60E86110D6DD20645A9480B795CF95E3E3A659A8
310
C55E724F408873315335CFFB8584874484344D494E59D94869DB90C26A5B64F49C802CAC1D3ABE18A098D3B7444D123D8A9E5AE8F5214F0AE5B2B6E9B575DA3E61CBD3EA2B4009FA940524DD1305FB6A1FB294F14DF0BEA90BA109ECE1481FDC3FFAE8D60E75141700BE82725371B4873751B2DD960265F788137FACE6DD40
310
B575E4F0A5C99F46629D92131467A41EE11ABD8D4CCC039CA0AFB37C93A08B232B8F0AEFCA1E0A1015DF13FC83322B362463652ECF71D3A8B1A7D1BE65DE1D62C44F22C317D35F574FEB16153BA2D13E543D10A80E74C4A65E78A6B7CBCBD1D5DD9DB59C2DAFACC96C3AB566E3F1C29ADCDD5DBAD7D3C9ED7C822ED74F80A6
310
41755310DE4443F44A9E68373FADF6596BFA0F440AE7BECE2727AE9F4F2B1B53B1E7E00CF0DD1E5C65454A339A4BA2D0FBA05ED2EF0443458F47BDBFCA484CCFE0F2ED7E3DD0013B679C7B5499467F0ECEEADDB9CA85A34CE44B99053949D2C1416DB85DE4B136BB7165FBAC0B7AB3542BED4F8CA182A549847A1319316519
310
95A83A67147B9E5101C47487F2485F1ECE38FD568F839204296D3479219888530154036E6528FBFBC66F98E0D4107563A2D7D9AFF8D389681A08F58D89F22693900A3B407754734FC51C10C010D6D640809EE4718AC1BA3ED4AEDB53CA37283F68805A7E4B72CEB0A4EDEAD5DD8C14059A76AFAA56BA6901E13F32BC51C720
310
12AF41295B5BF61BAD3195181FB506E6B40F4C10AF5AF40EF9F5B159AE5DD1F43C72D635E94310D45C2D49785C5D0B94D3B54AB3C5A38349C0587D338AB48C11CBF339599C02CCA54A70A008A8D03C0B2201D5F9EFCF8F9CE12A9A19CB0410789EB32C63B95ECCF455D658BFE0621A3DA32C5075FB101723D77DAE867E7D0F
310
D90444509B44E2151B4DC2290B065803200FBAA9BE9D392A0603F2D5C2D00D6302A615680F66D2FA166E2079D4C551A54AB758161FCEFD4E450A14704CECFEDF504B0304140006080000B670623B000000000000000000000000350000006662782F38353834323741342D343835462D343034322D383541392D4331303331
310
363839454531452F76657274696365732E62696E504B0304140006080800B670623BF270F1330600000004000000360000006662782F38353834323741342D343835462D343034322D383541392D4331303331363839454531452F747269616E676C65732E62696E636660600000504B0304140006080000B670623B000000
310
000000000000000000370000006662782F38353834323741342D343835462D343034322D383541392D4331303331363839454531452F617474726962757465732E62696E504B0304140006080800B670623B08DA0BD19000000041010000360000006662782F38353834323741342D343835462D343034322D383541392D43
310
31303331363839454531452F6469726563746F72792E786D6C858F410AC3201045AF22B36F53E9A60B35CBEEBAE80D244E44489C6234F4F835464A48035D0DF398FF9F8AF63D0E6CC63039F212F8F9020C7D47C6792B21C5FE7403D62A1188E2E60C98D7234A5830286103A55745067B9D86B8A3CF9C7F90C11DE607FB1443
310
96D7B6A82D282E9A152AD114D5EF2CB866EEE831B8EEA07A7BB5A8D7D61A2BAAEB7FD5F70921FF497D00504B0304140006080800B670623BD9A3B367FE000000A00100003B0000006662782F38353834323741342D343835462D343034322D383541392D4331303331363839454531452F7265736F75726365732F636F7265
310
2E786D6C8D504B6E833010BD0A9A6D65B01D0201194711694FD00B586642AD043BF2A7EAF16B122AB5BB6E6646EFA3797AE2F8B5DC8A4FF4C1383B002B291468B59B8C9D0748F1420E501CA5F0CEC55F3228AC5A708015062966EFD27D83B4B3116DCCA875136EA00A012314FA968F0182FEC045952AC5AC08D7F2AEF455CD
310
58B232D3592745883E07289E4FD609D26370C96B0CA27AB252A464A64D63A6FCD35C0C7A904D73EE467EE664DCD58CD4ED4849D79C5A723ED1B7A61977AF2D6F45B59AA58866F9C9A83DAA8813484E6947182394BFB3BAA7FBBEDEBFD0434FA9A856F91F53BA4FFF342563E38E6F719FB60092E5200F428A6AED2BAF479979
310
AFDDCA6F504B010214000A0000080000B670623B3DEE336E79000000790000001B00000000000000000000000000000000006175746F6465736B2D64657369676E2D7061636B6167652E786D6C504B01021400140006080800B670623BD486FD9CA0000000F40000001300000000000000000000000000B20000005B436F6E
310
74656E745F54797065735D2E786D6C504B01021400140006080800B670623BCA089DFFEC0000007C010000080000000000000000000000000083010000636F72652E786D6C504B01021400140006080800B670623B55019EA25F0000007C000000070000000000000000000000000095020000636E782E786D6C504B010214
310
00140006080800B670623B68FC0B7272010000D40300000C00000000000000000000000000190300006662782F636F72652E786D6C504B01021400140006080800B670623B0F71DDB67E0000009D0000000B00000000000000000000000000B50400006662782F636E782E786D6C504B01021400140006080800B670623BE1
310
34B4FB280100001202000031000000000000000000000000005C0500006662782F38353834323741342D343835462D343034322D383541392D4331303331363839454531452F636F72652E786D6C504B01021400140006080800B670623B1B8617914E010000330300003000000000000000000000000000D3060000666278
310
2F38353834323741342D343835462D343034322D383541392D4331303331363839454531452F636E782E786D6C504B01021400140006080800B670623B5933D422630500003B10000034000000000000000000000000006F0800006662782F38353834323741342D343835462D343034322D383541392D4331303331363839
310
454531452F6F626A656374732E786D6C504B01021400140006080000B670623B0000000000000000000000003500000000000000000000000000240E00006662782F38353834323741342D343835462D343034322D383541392D4331303331363839454531452F76657274696365732E62696E504B01021400140006080800
310
B670623BF270F13306000000040000003600000000000000000000000000770E00006662782F38353834323741342D343835462D343034322D383541392D4331303331363839454531452F747269616E676C65732E62696E504B01021400140006080000B670623B0000000000000000000000003700000000000000000000
310
000000D10E00006662782F38353834323741342D343835462D343034322D383541392D4331303331363839454531452F617474726962757465732E62696E504B01021400140006080800B670623B08DA0BD190000000410100003600000000000000000000000000260F00006662782F38353834323741342D343835462D34
310
3034322D383541392D4331303331363839454531452F6469726563746F72792E786D6C504B01021400140006080800B670623BD9A3B367FE000000A00100003B000000000000000000000000000A1000006662782F38353834323741342D343835462D343034322D383541392D4331303331363839454531452F7265736F75
310
726365732F636F72652E786D6C504B0506000000000E000E0080040000611100000000
  0
XRECORD
  5
113
102
{ACAD_REACTORS
330
110
102
}
330
110
100
AcDbXrecord
280
     1
270
     1
271
     1
  0
XRECORD
  5
114
102
{ACAD_REACTORS
330
110
102
}
330
110
100
AcDbXrecord
280
     1
270
     1
271
     1
  0
XRECORD
  5
BDE
102
{ACAD_REACTORS
330
1C4
102
}
330
1C4
100
AcDbXrecord
280
     1
102
DISPLAYNAME
  1
Imperial24
102
FLAGS
 90
        0
  0
CELLSTYLEMAP
  5
BDD
102
{ACAD_REACTORS
330
104
102
}
330
104
100
AcDbCellStyleMap
 90
        3
300
CELLSTYLE
  1
TABLEFORMAT_BEGIN
 90
        5
170
     1
 91
        0
 92
    32768
 62
   257
 93
        1
300
CONTENTFORMAT
  1
CONTENTFORMAT_BEGIN
 90
        0
 91
        0
 92
      512
 93
        0
300

 40
0.0
140
1.0
 94
        5
 62
     0
340
11
144
0.25
309
CONTENTFORMAT_END
171
     1
301
MARGIN
  1
CELLMARGIN_BEGIN
 40
0.06
 40
0.06
 40
0.06
 40
0.06
 40
0.18
 40
0.18
309
CELLMARGIN_END
 94
        6
 95
        1
302
GRIDFORMAT
  1
GRIDFORMAT_BEGIN
 90
        0
 91
        1
 62
     0
 92
       -2
340
0
 93
        0
 40
0.045
309
GRIDFORMAT_END
 95
        2
302
GRIDFORMAT
  1
GRIDFORMAT_BEGIN
 90
        0
 91
        1
 62
     0
 92
       -2
340
0
 93
        0
 40
0.045
309
GRIDFORMAT_END
 95
        4
302
GRIDFORMAT
  1
GRIDFORMAT_BEGIN
 90
        0
 91
        1
 62
     0
 92
       -2
340
0
 93
        0
 40
0.045
309
GRIDFORMAT_END
 95
        8
302
GRIDFORMAT
  1
GRIDFORMAT_BEGIN
 90
        0
 91
        1
 62
     0
 92
       -2
340
0
 93
        0
 40
0.045
309
GRIDFORMAT_END
 95
       16
302
GRIDFORMAT
  1
GRIDFORMAT_BEGIN
 90
        0
 91
        1
 62
     0
 92
       -2
340
0
 93
        0
 40
0.045
309
GRIDFORMAT_END
 95
       32
302
GRIDFORMAT
  1
GRIDFORMAT_BEGIN
 90
        0
 91
        1
 62
     0
 92
       -2
340
0
 93
        0
 40
0.045
309
GRIDFORMAT_END
309
TABLEFORMAT_END
  1
CELLSTYLE_BEGIN
 90
        1
 91
        1
300
_TITLE
309
CELLSTYLE_END
300
CELLSTYLE
  1
TABLEFORMAT_BEGIN
 90
        5
170
     1
 91
        0
 92
        0
 62
   257
 93
        1
300
CONTENTFORMAT
  1
CONTENTFORMAT_BEGIN
 90
        0
 91
        0
 92
      512
 93
        0
300

 40
0.0
140
1.0
 94
        5
 62
     0
340
11
144
0.18
309
CONTENTFORMAT_END
171
     1
301
MARGIN
  1
CELLMARGIN_BEGIN
 40
0.06
 40
0.06
 40
0.06
 40
0.06
 40
0.18
 40
0.18
309
CELLMARGIN_END
 94
        6
 95
        1
302
GRIDFORMAT
  1
GRIDFORMAT_BEGIN
 90
        0
 91
        1
 62
     0
 92
       -2
340
0
 93
        0
 40
0.045
309
GRIDFORMAT_END
 95
        2
302
GRIDFORMAT
  1
GRIDFORMAT_BEGIN
 90
        0
 91
        1
 62
     0
 92
       -2
340
0
 93
        0
 40
0.045
309
GRIDFORMAT_END
 95
        4
302
GRIDFORMAT
  1
GRIDFORMAT_BEGIN
 90
        0
 91
        1
 62
     0
 92
       -2
340
0
 93
        0
 40
0.045
309
GRIDFORMAT_END
 95
        8
302
GRIDFORMAT
  1
GRIDFORMAT_BEGIN
 90
        0
 91
        1
 62
     0
 92
       -2
340
0
 93
        0
 40
0.045
309
GRIDFORMAT_END
 95
       16
302
GRIDFORMAT
  1
GRIDFORMAT_BEGIN
 90
        0
 91
        1
 62
     0
 92
       -2
340
0
 93
        0
 40
0.045
309
GRIDFORMAT_END
 95
       32
302
GRIDFORMAT
  1
GRIDFORMAT_BEGIN
 90
        0
 91
        1
 62
     0
 92
       -2
340
0
 93
        0
 40
0.045
309
GRIDFORMAT_END
309
TABLEFORMAT_END
  1
CELLSTYLE_BEGIN
 90
        2
 91
        1
300
_HEADER
309
CELLSTYLE_END
300
CELLSTYLE
  1
TABLEFORMAT_BEGIN
 90
        5
170
     1
 91
        0
 92
        0
 62
   257
 93
        1
300
CONTENTFORMAT
  1
CONTENTFORMAT_BEGIN
 90
        0
 91
        0
 92
      512
 93
        0
300

 40
0.0
140
1.0
 94
        2
 62
     0
340
11
144
0.18
309
CONTENTFORMAT_END
171
     1
301
MARGIN
  1
CELLMARGIN_BEGIN
 40
0.06
 40
0.06
 40
0.06
 40
0.06
 40
0.18
 40
0.18
309
CELLMARGIN_END
 94
        6
 95
        1
302
GRIDFORMAT
  1
GRIDFORMAT_BEGIN
 90
        0
 91
        1
 62
     0
 92
       -2
340
0
 93
        0
 40
0.045
309
GRIDFORMAT_END
 95
        2
302
GRIDFORMAT
  1
GRIDFORMAT_BEGIN
 90
        0
 91
        1
 62
     0
 92
       -2
340
0
 93
        0
 40
0.045
309
GRIDFORMAT_END
 95
        4
302
GRIDFORMAT
  1
GRIDFORMAT_BEGIN
 90
        0
 91
        1
 62
     0
 92
       -2
340
0
 93
        0
 40
0.045
309
GRIDFORMAT_END
 95
        8
302
GRIDFORMAT
  1
GRIDFORMAT_BEGIN
 90
        0
 91
        1
 62
     0
 92
       -2
340
0
 93
        0
 40
0.045
309
GRIDFORMAT_END
 95
       16
302
GRIDFORMAT
  1
GRIDFORMAT_BEGIN
 90
        0
 91
        1
 62
     0
 92
       -2
340
0
 93
        0
 40
0.045
309
GRIDFORMAT_END
 95
       32
302
GRIDFORMAT
  1
GRIDFORMAT_BEGIN
 90
        0
 91
        1
 62
     0
 92
       -2
340
0
 93
        0
 40
0.045
309
GRIDFORMAT_END
309
TABLEFORMAT_END
  1
CELLSTYLE_BEGIN
 90
        3
 91
        2
300
_DATA
309
CELLSTYLE_END
  0
ENDSEC
  0
SECTION
  2
ACDSDATA
 70
     2
 71
     8
  0
ACDSSCHEMA
 90
        0
  1
AcDb_Thumbnail_Schema
  2
AcDbDs::ID
280
    10
 91
        8
  2
Thumbnail_Data
280
    15
 91
        0
101
ACDSRECORD
 95
        0
 90
        1
  2
AcDbDs::TreatedAsObjectData
280
     1
291
     1
101
ACDSRECORD
 95
        0
 90
        2
  2
AcDbDs::Legacy
280
     1
291
     1
101
ACDSRECORD
  1
AcDbDs::ID
 90
        3
  2
AcDs:Indexable
280
     1
291
     1
101
ACDSRECORD
  1
AcDbDs::ID
 90
        4
  2
AcDbDs::HandleAttribute
280
     7
282
     1
  0
ACDSSCHEMA
 90
        1
  1
AcDbDs::TreatedAsObjectDataSchema
  2
AcDbDs::TreatedAsObjectData
280
     1
 91
        0
  0
ACDSSCHEMA
 90
        2
  1
AcDbDs::LegacySchema
  2
AcDbDs::Legacy
280
     1
 91
        0
  0
ACDSSCHEMA
 90
        3
  1
AcDbDs::IndexedPropertySchema
  2
AcDs:Indexable
280
     1
 91
        0
  0
ACDSSCHEMA
 90
        4
  1
AcDbDs::HandleAttributeSchema
  2
AcDbDs::HandleAttribute
280
     7
 91
        1
284
     1
  0
ACDSRECORD
 90
        0
  2
AcDbDs::ID
280
    10
320
59
  2
Thumbnail_Data
280
    15
 94
     2591
310
89504E470D0A1A0A0000000D4948445200000100000000C508030000008CFEDCE700000300504C5445FFFFFF000000C8C8C80000000000000000000000000000000000000000000000000000330000660000990000CC0000FF0033000033330033660033990033CC0033FF0066000066330066660066990066CC0066FF0099
310
000099330099660099990099CC0099FF00CC0000CC3300CC6600CC9900CCCC00CCFF00FF0000FF3300FF6600FF9900FFCC00FFFF3300003300333300663300993300CC3300FF3333003333333333663333993333CC3333FF3366003366333366663366993366CC3366FF3399003399333399663399993399CC3399FF33CC00
310
33CC3333CC6633CC9933CCCC33CCFF33FF0033FF3333FF6633FF9933FFCC33FFFF6600006600336600666600996600CC6600FF6633006633336633666633996633CC6633FF6666006666336666666666996666CC6666FF6699006699336699666699996699CC6699FF66CC0066CC3366CC6666CC9966CCCC66CCFF66FF0066
310
FF3366FF6666FF9966FFCC66FFFF9900009900339900669900999900CC9900FF9933009933339933669933999933CC9933FF9966009966339966669966999966CC9966FF9999009999339999669999999999CC9999FF99CC0099CC3399CC6699CC9999CCCC99CCFF99FF0099FF3399FF6699FF9999FFCC99FFFFCC0000CC00
310
33CC0066CC0099CC00CCCC00FFCC3300CC3333CC3366CC3399CC33CCCC33FFCC6600CC6633CC6666CC6699CC66CCCC66FFCC9900CC9933CC9966CC9999CC99CCCC99FFCCCC00CCCC33CCCC66CCCC99CCCCCCCCCCFFCCFF00CCFF33CCFF66CCFF99CCFFCCCCFFFFFF0000FF0033FF0066FF0099FF00CCFF00FFFF3300FF3333
310
FF3366FF3399FF33CCFF33FFFF6600FF6633FF6666FF6699FF66CCFF66FFFF9900FF9933FF9966FF9999FF99CCFF99FFFFCC00FFCC33FFCC66FFCC99FFCCCCFFCCFFFFFF00FFFF33FFFF66FFFF99FFFFCCFFFFFF0000000D0D0D1A1A1A2828283535354343435050505D5D5D6B6B6B787878868686939393A1A1A1AEAEAEBB
310
BBBBC9C9C9D6D6D6E4E4E4F1F1F1FFFFFF000000000000000000000000000000000000000000000000000000000000B0E2D2350000045B4944415478DAED9D6172EB200C84758377FFEBEDEF1EE2759AC406240CC90403D2D2D6D349321EF3592C2B193BF213BC49E046000440004F00FFE2B5020044F0DBE26C4B00E1A29F
310
000880000880000880000880000880000880000880000880000880000880000880000880000880000880000880000880000880003E6F8FA548BD2F8FDCC91C0078FEF5BD3C722713011847597979E44EE600809807597979E44E1801D400CE023BF8806F75693100B0DBC0A0DE1980228077DADE00EC892D1000B711F0F17C
310
F7D7252700FA0EB4780B3DC1B4C934F8C9514308C03980C6F13B027071DC78A7FFDB96C408A00600AF5F63739B319E0800C78FB9796E9D47C0AB97E506E22802320CE510474302B035804CEFF2737FDDC3E4DD4EDFB87E49CC8C809A0C22FDC43B95B2F5001C4769399787E2190A88A6026E5C162F3E027C32076E5D16CFFB
310
7095DA62EF08B83E91AF13FF48FBF31F00D230025B97C5F328B6FADF11E23ECAE28FEE9FBD3EFEC36DC9C05400CFFEBF4A5F47FCDF49601E0094047404C033009C739E5601698AA09308386C50C9E07BF3FCF22298067DCE2188081E7F85128611C1D7692F94308E081675A154031C8AA02E88E24809F52C90F47FDCDA815B
310
01A8B03E9CE06B0C549CE0C0F1703B80B42347CF1FDDAE3BC18125C23B01E4719D3AC16C0C682738D2154C8B80D409563400390138D380DC09CAA513F4A2014ACCCFA0976B27E86416A83BC154FF223AC1AC1614D009EA6C38503A6CF65F02A5C35AFF121F34645DD8622268E8DFE18D7D038088AA85974ED0270054D261A5
310
825E23003A1DB66781ED45B076AB834E07CB71D0F6415FB38683AF0E9BABFDCC7438554234097CCF268DBE3C8E1A00D423006D27F0BDF4701C806A0F3297676B80E8A5347DFBDE2302DE58FBBE730474ADF3A8DD3AE242030CA5CE4FF0331334A33B27802D67810A129C226F44C0B194BCA89F39498650105000504E15F00A
310
E02C099A1E29174178046088606A9172097003C02A09A6BD4CD7955E8BE0C6009A066054DEB75636988BE05907000A111CCD6046046879533950B2ACDC1D00817682BA120081A99BAE009C22A8AE08A5B1E014405FCD0B0E35402C8F07B35EE6CF091A494FE174A01711F8354299E62900A19CA001C0AF13CC4A1AAD08805B
310
008513AC68004570FCA591C9CF10690110670094AB890C20AB8C9C85D24811806416381FAC116B084801004621C0B50836EE1FDD1F007A01682758C885F708680218056159009674F8D6804204DD00402F800BE5DB1B003E1A02B715C8C60F01A023405449CC1300090E404000C101083E00E02A190A0FA0F9381C02F00EA0
310
FDE44802700EA0F5402D02700FE07AD533010400D0787828010800DF002EEFFD386F13090720AD9A4CF99A951B8BA2E8F8C4FD5F33B31400975FB333B77B04B0148025094C788ED0ACEBC00B00683D142000004C5C09B00280F04320BA08120001100001100001100001100001100001100001100001100001100001100001
310
10000110C04200E2B51C40D0460004400004F0F3D8066EE101FC07A0250197888DE8740000000049454E44AE4260828DB9A80642304737EF045A01143C20190E7251BA34BF0AA04D04514A85A309A92C15D60880A523E4A3009209B1380AEC06B0A52334EA01515394D303825FA803405AF2AD6F0FB40C00070094A2402505
310
5EAA05B64501B68BC35D006BB5C00C002702A010057200EBB5C0BE28C03520D202C0510B6C8B025C57C7FB1E00A5005667378444705B14602A52E822C8907A2A1C92A20070D200882238F10D4BFBC8EC07E03F481D80F016E98C89208049119CBB5F20DA393F40E1FFF116008425C0F448166C12C17102A5BA265D02C975A3
310
6701A87FBB5E6F54A7083A8ECDC0A84B601EC6BE30C8E2021A004C8BA0735C03DDFD3CC000C82D81B18DA95755A02A8277013032A1D1F48042182CC7515522B8EE028D25D0DC3A9AEC0FDB3A424C2E9017BD70D200DCD2121819D33A0060D7D56136021A00AC3F70116A016CBC5F80C9051A0078DB416EEF0317E95BBA8902
310
D8BC83040781AD00B66FA6966429DA0008EC294A32158700CC6EABBBF0D85D680220B2B3346D19E0040091EDF5CB7D3F1500700A40B166833400C83C6586EC09C20080090BF63E7D1E820030FCB0B54D4F9F8FC7C2A50060FD818BAC1ED0ED643102E816475222584995CB24C2DAAF0A207B6776818DD41B3909A0B0D33CE2
310
01986C07416486D638507DE5A008366EA20CCD8DEE83E37C68A90200D40793ED7C8CE909111C05B0F531AE6701287842ED511134000A089C15C1E62C04CB20847A000E4A01400C407763A4870370F7F0006700B602787114B83D80FB1F6B22F8DCC300D044D0003CFB78F31270A60106C0005814B0286051C034C00018008B
310
0216052C0A9806383F90FF9A9FA60106C00018800F80BF2F3F5E0FE01F528895F3631FC5640000000049454E44AE4260826082
  0
ACDSRECORD
 90
        0
  2
AcDbDs::ID
280
    10
320
5E
  2
Thumbnail_Data
280
    15
 94
     2041
310
89504E470D0A1A0A0000000D4948445200000100000000C608030000000A6AAE4900000300504C5445FFFFFF000000C8C8C80000000000000000000000000000000000000000000000000000330000660000990000CC0000FF0033000033330033660033990033CC0033FF0066000066330066660066990066CC0066FF0099
310
000099330099660099990099CC0099FF00CC0000CC3300CC6600CC9900CCCC00CCFF00FF0000FF3300FF6600FF9900FFCC00FFFF3300003300333300663300993300CC3300FF3333003333333333663333993333CC3333FF3366003366333366663366993366CC3366FF3399003399333399663399993399CC3399FF33CC00
310
33CC3333CC6633CC9933CCCC33CCFF33FF0033FF3333FF6633FF9933FFCC33FFFF6600006600336600666600996600CC6600FF6633006633336633666633996633CC6633FF6666006666336666666666996666CC6666FF6699006699336699666699996699CC6699FF66CC0066CC3366CC6666CC9966CCCC66CCFF66FF0066
310
FF3366FF6666FF9966FFCC66FFFF9900009900339900669900999900CC9900FF9933009933339933669933999933CC9933FF9966009966339966669966999966CC9966FF9999009999339999669999999999CC9999FF99CC0099CC3399CC6699CC9999CCCC99CCFF99FF0099FF3399FF6699FF9999FFCC99FFFFCC0000CC00
310
33CC0066CC0099CC00CCCC00FFCC3300CC3333CC3366CC3399CC33CCCC33FFCC6600CC6633CC6666CC6699CC66CCCC66FFCC9900CC9933CC9966CC9999CC99CCCC99FFCCCC00CCCC33CCCC66CCCC99CCCCCCCCCCFFCCFF00CCFF33CCFF66CCFF99CCFFCCCCFFFFFF0000FF0033FF0066FF0099FF00CCFF00FFFF3300FF3333
310
FF3366FF3399FF33CCFF33FFFF6600FF6633FF6666FF6699FF66CCFF66FFFF9900FF9933FF9966FF9999FF99CCFF99FFFFCC00FFCC33FFCC66FFCC99FFCCCCFFCCFFFFFF00FFFF33FFFF66FFFF99FFFFCCFFFFFF0000000D0D0D1A1A1A2828283535354343435050505D5D5D6B6B6B787878868686939393A1A1A1AEAEAEBB
310
BBBBC9C9C9D6D6D6E4E4E4F1F1F1FFFFFF000000000000000000000000000000000000000000000000000000000000B0E2D235000004B44944415478DAED9D09829B300C457D03DFFF3CBA0307D049DA64129660F0261BD9FA6A9B32D3819887FCB53850E76030180C66DE98F9FD62EAF500003E00B336E9AD4F0100000044
310
0118A200340000000051008628000D00806B007E7CAB04D0FC4A10B53DBE7F7477050600DAA7000000000040040100530000260740A72D72F10D47B300A0DD79D3F13B371BBBADE14550A107200A4004CB0010E514F0243C8152DA0B3FE39305F077F06404222A967394C0F8440150EE35E9EC01A1F1498A609D3C938B0BBF
310
F83B8802A0AA4B1B08EFA78DBA14203C3EC1295007A0BD076807D0DC0600B0A4DAB400847FAE0640BF28405500A84E65846B013AE41BF9694C3E002A224009004A3341CA5ECCEAE701C1F1891743356B796D35203C3E3DD520AD2716CD0316C138AB06C06B362F8999E0225446E96A8828F380473A423D3440DF14E8190534
310
02E89907C0033447016D1A605E04CD8741F389105261EB22683E0C761341AD89509BDD432B87D21E90B73AD9750A44570E0534207375B22B80F8CA613D80ECD5C98E00623D63893058D097EE0620B66A20910895AC4C7413C1E8E0043C606C00021A2009A0DF14100C834302904C845403B85468C94448731448593994CB03
310
A81A408BDDEF570E65CAE1ECD5C9CEC5D0F5D0E41A2279AB936888A0210200E808A123F424002C8D4104110685132178C06022A85403CC03683B05D87A1864FD89103CA01B80A944307561921F0A8381F189DE3091BA30C9FC4822141C5F8B5B66A804407B0F088F4F0E40464B9A9FD0808BF18901C85A947800C0D5F89E06
310
40D500A80D806C11CC00C0E9E63D071E01B8789F9D0A690270312E9FE101BEB907B49D0217C72A02A04503EA6F6DCF0440C5045ADD365772DBE47E26E701A06202EDEE1B2CB96D52D603389608A7DF3758584ADC9FFEF69FF87C4C5A03A24FFF3D8FAF6B478877BF3FE9A06C1460B93368520EEF01FC79001D6E642F0170D0
310
8291007CFE12F600560EE075D1AF244044039403689E080902E8B37BDF30A819805022A45D04EBAA414EDA730C0DE09806F8DBF75A04B5E76900540D800604B039EA5522940EA0766DE8111164690FB82F32540390D1804091614B04CF45C67000281B00850170663EA004C06F22140770AC026F8B0C031E305A1408F3E4DD
310
F30439F010C1FFDFEB9809F6AA052E9EEBE623EF356847285C04D50118AA2374EF011C793F4EF080A11B22850026E9085136009AAA23F49AC979005A37441E6889497880B3AE0100603D0C0E9D08950118B223D4CC03060420AB016E3C0D00005B006EBBB726001C9A97DB6179FFC5F707999F04D066F77DF392D72E76C01D
310
424E321900F77BD1ED68001BD680E4A1FC68C04923FCC6D21576439503887D6E605D05F9B261731EB00138FDEBA0A9B0CFD28015800BE8A909007B29FD6AC0F6E50453A0200A307FE36BBA434C06806D03700E1EB0AAC0F82218098363D60232891052611B006C174391CF075C563F7C515AF264009C7F0BFDAA096B32F8A7
310
FFEF8468CB08D7064C889A52114C01B0CB7C3E85C1B7CFB4FFE3DCA16E9A0BC07692BCFEFA9C7218C05C53609582A0077C0B83B50F95E901DA01188F0200307D2A0C00C34C81F1AD0EC0BC0600D601C0AC1B340000000051008628000D000000401480210AB8FDC7BCCDBCC2076030180C06FB07D5A7237DCFB4D716000000
310
0049454E44AE426082
  0
ACDSRECORD
 90
        0
  2
AcDbDs::ID
280
    10
320
22
  2
Thumbnail_Data
280
    15
 94
     2160
310
89504E470D0A1A0A0000000D49484452000001000000006F08030000003479EE6F00000300504C5445000000000000C8C8C80000000000000000000000000000000000000000000000000000330000660000990000CC0000FF0033000033330033660033990033CC0033FF0066000066330066660066990066CC0066FF0099
310
000099330099660099990099CC0099FF00CC0000CC3300CC6600CC9900CCCC00CCFF00FF0000FF3300FF6600FF9900FFCC00FFFF3300003300333300663300993300CC3300FF3333003333333333663333993333CC3333FF3366003366333366663366993366CC3366FF3399003399333399663399993399CC3399FF33CC00
310
33CC3333CC6633CC9933CCCC33CCFF33FF0033FF3333FF6633FF9933FFCC33FFFF6600006600336600666600996600CC6600FF6633006633336633666633996633CC6633FF6666006666336666666666996666CC6666FF6699006699336699666699996699CC6699FF66CC0066CC3366CC6666CC9966CCCC66CCFF66FF0066
310
FF3366FF6666FF9966FFCC66FFFF9900009900339900669900999900CC9900FF9933009933339933669933999933CC9933FF9966009966339966669966999966CC9966FF9999009999339999669999999999CC9999FF99CC0099CC3399CC6699CC9999CCCC99CCFF99FF0099FF3399FF6699FF9999FFCC99FFFFCC0000CC00
310
33CC0066CC0099CC00CCCC00FFCC3300CC3333CC3366CC3399CC33CCCC33FFCC6600CC6633CC6666CC6699CC66CCCC66FFCC9900CC9933CC9966CC9999CC99CCCC99FFCCCC00CCCC33CCCC66CCCC99CCCCCCCCCCFFCCFF00CCFF33CCFF66CCFF99CCFFCCCCFFFFFF0000FF0033FF0066FF0099FF00CCFF00FFFF3300FF3333
310
FF3366FF3399FF33CCFF33FFFF6600FF6633FF6666FF6699FF66CCFF66FFFF9900FF9933FF9966FF9999FF99CCFF99FFFFCC00FFCC33FFCC66FFCC99FFCCCCFFCCFFFFFF00FFFF33FFFF66FFFF99FFFFCCFFFFFF0000000D0D0D1A1A1A2828283535354343435050505D5D5D6B6B6B787878868686939393A1A1A1AEAEAEBB
310
BBBBC9C9C9D6D6D6E4E4E4F1F1F1FFFFFF00000000000000000000000000000000000000000000000000000000000008F1915C000002744944415478DAED5BCB8EE44008E3FFFFD7F75D2909050953E939AC566DDB523FD2930B2E70192A136118866118866118866118FF02C0EE727FF3CBDDDF123E7EBCDCDFFC72F79710
310
109D80D81270FBEBFE6E67008506BC28C4F76BC0AFF28337CC868D426C4149002408F84C21F0068E22D86F981319642AF051FC419EF96354D4043C4AF9EFFBB9019C2A48BE1FDE09C0C1C0F1717E0B2838822BD911983200A4CBBFB2E0881F99F2C902626680A81D5E82766640AF03C4A00254ED7051748CAE678895B01D2E
310
35005C4B9FF13366C054C68706202BE02C872956DA0E206BA07C09191C15106839A03119480D40CD80AB0AB418B8D943A5F8B304EAEAAB954060ED032B7E7A068A1544D381B6E5D34E82972B7E6AC0D240E25A40BE6AE5DF1960B0BFEF1950ED4F0A217D0694EA463C7D20D8EDEFD80BA421947482512540CE094EF1AB9C07
310
A50F581484CA8118D209460DFCD07E1502721BECAB1FDC43E17AD5EB3D8A1FE61B08CD0FBD94FA2F1F8F6D80F019A9CD19784CD353CAA170E4C150D3856BF9C19501AD8CE7E90FCA90201EA7C4647AB8363DDC824C5AC07F487C2A605FE3D50E73FB617C0072026AB9AF46F0B288F4142C23746D06EB99892212D4A380480D
310
5893E14B033408B8F5C15A1AB0E601519E1D693E40612A922550084827289F011AF10F0484CE503003BE11A07036B8262069840A01214240A406A067800E01C50A0B7800FCA8036D1BCC825031432620C6E46724003F13B0DEBB5410F6C0635B583B44E6BE489E8071326E023A0102A26F02940978FE2F84091023603AF935
310
012620748641F710CB09892601EFBFEB3060029418503C096C830E6D02423D030CC3300CC3300CC3300CC3308CFF8F3FC71F91518AAFFD120000000049454E44AE4260829F8511F8D300EB76C45C205E18B80800443758903F5C08805B18C9E4775914D56C5A2A0C055312920A22FA5078E8E881B9FCE5848D6CA10C05FBAF
310
5D18D16588EB14A09CB203AC0650FBDF920CB5ED499A0EA0326F992A975010892341F477E80C40CFD1C74A3674160036172AA835CED38096B21D2400E9B2D95936A0A16C0729E3239B282BDD7BF302925BE6CE0EF2378E3453A877DFB22F715F3CC59FEB67B7903365A3F1EE7D01003917C40F27A8311C1103A768008A1A80
310
5B00083680EE21C86CC0C100145E802E07EBBCC0DA5B1FCD86D58F7F193C44E11540BECE1B2F1223DA1AA28E044F0340835C521862774781148576123002C06940BE26966C28BE0580900BA4F233B9808519F04000821760D7C4622F70238064B08572F0B51A80DE0A09764E604B6752DAF724EEA872718ADE7E753C8B7121
310
2681FB15C07AA7411580592EE01040E205040086B940F0B7EFBE43036E8886F9C8B068032E04D06B0483830B46D35F0F003E049F124E346AC03D003A6DC0D104D878F6FF054058A48BA1DE01F41E9BA28BBE491CC0A9C5E5003453C02A0FF440809725D780F47173170128B6A4298F1F3509D00C4033051CC180B9061C06C0
310
7AB9591707FC01F0640F600C80F7028E0118D9C1A21790DDE91100303C05AA2FD0E87CF09E27152896C59D03503DE5CE1380E58F17BE1F80C1531C1702D8F0A6055C0F605C05346B83DE123853027F00560198163B0D1E565B056066EC08FF0026C7CE23049600989E3AE80F0A6E01B02275EA26B000C09AD4513E2AB919C0
310
BAD4B9EF454F93012CAE1CB061E946009B0A2740C3BE96890076D68DA07EA5D834002E2AC79AF76C32C82C8E48395B48930B9DC95691028086C4D7DD329A20091861F3DF31EBC9EF1B65F9BF057F17B48602D9B4D08CB3CFE5D3BEB418EEE6EFEA6814E142F11B094CBCFE011F152DEBB716C87B0000000049454E44AE4260
310
82
  0
ENDSEC
  0
EOF
