  0
SECTION
  2
HEADER
  9
$ACADVER
  1
AC1032
  9
$ACADMAINTVER
 90
      176
  9
$DWGCODEPAGE
  3
ANSI_1252
  9
$LASTSAVEDBY
  1
XMOHARCHEN
  9
$REQUIREDVERSIONS
160
                 0
  9
$INSBASE
 10
0.0
 20
0.0
 30
0.0
  9
$EXTMIN
 10
5.57397169988025
 20
1.468920599325189
 30
0.0
  9
$EXTMAX
 10
57.60773457844093
 20
26.76329071618282
 30
0.0
  9
$LIMMIN
 10
0.0
 20
0.0
  9
$LIMMAX
 10
12.0
 20
9.0
  9
$ORTHOMODE
 70
     0
  9
$REGENMODE
 70
     1
  9
$FILLMODE
 70
     1
  9
$QTEXTMODE
 70
     0
  9
$MIRRTEXT
 70
     0
  9
$LTSCALE
 40
1.0
  9
$ATTMODE
 70
     1
  9
$TEXTSIZE
 40
0.2
  9
$TRACEWID
 40
0.05
  9
$TEXTSTYLE
  7
Standard
  9
$CLAYER
  8
0
  9
$CELTYPE
  6
ByLayer
  9
$CECOLOR
 62
   256
  9
$CELTSCALE
 40
1.0
  9
$DISPSILH
 70
     0
  9
$DIMSCALE
 40
1.0
  9
$DIMASZ
 40
0.18
  9
$DIMEXO
 40
0.0625
  9
$DIMDLI
 40
0.38
  9
$DIMRND
 40
0.0
  9
$DIMDLE
 40
0.0
  9
$DIMEXE
 40
0.18
  9
$DIMTP
 40
0.0
  9
$DIMTM
 40
0.0
  9
$DIMTXT
 40
0.18
  9
$DIMCEN
 40
0.09
  9
$DIMTSZ
 40
0.0
  9
$DIMTOL
 70
     0
  9
$DIMLIM
 70
     0
  9
$DIMTIH
 70
     1
  9
$DIMTOH
 70
     1
  9
$DIMSE1
 70
     0
  9
$DIMSE2
 70
     0
  9
$DIMTAD
 70
     0
  9
$DIMZIN
 70
     0
  9
$DIMBLK
  1

  9
$DIMASO
 70
     1
  9
$DIMSHO
 70
     1
  9
$DIMPOST
  1

  9
$DIMAPOST
  1

  9
$DIMALT
 70
     0
  9
$DIMALTD
 70
     2
  9
$DIMALTF
 40
25.4
  9
$DIMLFAC
 40
1.0
  9
$DIMTOFL
 70
     0
  9
$DIMTVP
 40
0.0
  9
$DIMTIX
 70
     0
  9
$DIMSOXD
 70
     0
  9
$DIMSAH
 70
     0
  9
$DIMBLK1
  1

  9
$DIMBLK2
  1

  9
$DIMSTYLE
  2
Standard
  9
$DIMCLRD
 70
     0
  9
$DIMCLRE
 70
     0
  9
$DIMCLRT
 70
     0
  9
$DIMTFAC
 40
1.0
  9
$DIMGAP
 40
0.09
  9
$DIMJUST
 70
     0
  9
$DIMSD1
 70
     0
  9
$DIMSD2
 70
     0
  9
$DIMTOLJ
 70
     1
  9
$DIMTZIN
 70
     0
  9
$DIMALTZ
 70
     0
  9
$DIMALTTZ
 70
     0
  9
$DIMUPT
 70
     0
  9
$DIMDEC
 70
     4
  9
$DIMTDEC
 70
     4
  9
$DIMALTU
 70
     2
  9
$DIMALTTD
 70
     2
  9
$DIMTXSTY
  7
Standard
  9
$DIMAUNIT
 70
     0
  9
$DIMADEC
 70
     0
  9
$DIMALTRND
 40
0.0
  9
$DIMAZIN
 70
     0
  9
$DIMDSEP
 70
    46
  9
$DIMATFIT
 70
     3
  9
$DIMFRAC
 70
     0
  9
$DIMLDRBLK
  1

  9
$DIMLUNIT
 70
     2
  9
$DIMLWD
 70
    -2
  9
$DIMLWE
 70
    -2
  9
$DIMTMOVE
 70
     0
  9
$DIMFXL
 40
1.0
  9
$DIMFXLON
 70
     0
  9
$DIMJOGANG
 40
0.7853981633974483
  9
$DIMTFILL
 70
     0
  9
$DIMTFILLCLR
 70
     0
  9
$DIMARCSYM
 70
     0
  9
$DIMLTYPE
  6

  9
$DIMLTEX1
  6

  9
$DIMLTEX2
  6

  9
$DIMTXTDIRECTION
 70
     0
  9
$LUNITS
 70
     2
  9
$LUPREC
 70
     8
  9
$SKETCHINC
 40
0.1
  9
$FILLETRAD
 40
0.0
  9
$AUNITS
 70
     0
  9
$AUPREC
 70
     0
  9
$MENU
  1
.
  9
$ELEVATION
 40
0.0
  9
$PELEVATION
 40
0.0
  9
$THICKNESS
 40
0.0
  9
$LIMCHECK
 70
     0
  9
$CHAMFERA
 40
0.0
  9
$CHAMFERB
 40
0.0
  9
$CHAMFERC
 40
0.0
  9
$CHAMFERD
 40
0.0
  9
$SKPOLY
 70
     0
  9
$TDCREATE
 40
2460028.668506945
  9
$TDUCREATE
 40
2460028.835173611
  9
$TDUPDATE
 40
2460112.861736111
  9
$TDUUPDATE
 40
2460113.028402778
  9
$TDINDWG
 40
0.0150000000
  9
$TDUSRTIMER
 40
0.0150000000
  9
$USRTIMER
 70
     1
  9
$ANGBASE
 50
0.0
  9
$ANGDIR
 70
     0
  9
$PDMODE
 70
     0
  9
$PDSIZE
 40
0.0
  9
$PLINEWID
 40
0.0
  9
$SPLFRAME
 70
     0
  9
$SPLINETYPE
 70
     6
  9
$SPLINESEGS
 70
     8
  9
$HANDSEED
  5
D2C
  9
$SURFTAB1
 70
     6
  9
$SURFTAB2
 70
     6
  9
$SURFTYPE
 70
     6
  9
$SURFU
 70
     6
  9
$SURFV
 70
     6
  9
$UCSBASE
  2

  9
$UCSNAME
  2

  9
$UCSORG
 10
0.0
 20
0.0
 30
0.0
  9
$UCSXDIR
 10
1.0
 20
0.0
 30
0.0
  9
$UCSYDIR
 10
0.0
 20
1.0
 30
0.0
  9
$UCSORTHOREF
  2

  9
$UCSORTHOVIEW
 70
     0
  9
$UCSORGTOP
 10
0.0
 20
0.0
 30
0.0
  9
$UCSORGBOTTOM
 10
0.0
 20
0.0
 30
0.0
  9
$UCSORGLEFT
 10
0.0
 20
0.0
 30
0.0
  9
$UCSORGRIGHT
 10
0.0
 20
0.0
 30
0.0
  9
$UCSORGFRONT
 10
0.0
 20
0.0
 30
0.0
  9
$UCSORGBACK
 10
0.0
 20
0.0
 30
0.0
  9
$PUCSBASE
  2

  9
$PUCSNAME
  2

  9
$PUCSORG
 10
0.0
 20
0.0
 30
0.0
  9
$PUCSXDIR
 10
1.0
 20
0.0
 30
0.0
  9
$PUCSYDIR
 10
0.0
 20
1.0
 30
0.0
  9
$PUCSORTHOREF
  2

  9
$PUCSORTHOVIEW
 70
     0
  9
$PUCSORGTOP
 10
0.0
 20
0.0
 30
0.0
  9
$PUCSORGBOTTOM
 10
0.0
 20
0.0
 30
0.0
  9
$PUCSORGLEFT
 10
0.0
 20
0.0
 30
0.0
  9
$PUCSORGRIGHT
 10
0.0
 20
0.0
 30
0.0
  9
$PUCSORGFRONT
 10
0.0
 20
0.0
 30
0.0
  9
$PUCSORGBACK
 10
0.0
 20
0.0
 30
0.0
  9
$USERI1
 70
     0
  9
$USERI2
 70
     0
  9
$USERI3
 70
     0
  9
$USERI4
 70
     0
  9
$USERI5
 70
     0
  9
$USERR1
 40
0.1
  9
$USERR2
 40
0.1
  9
$USERR3
 40
0.1
  9
$USERR4
 40
0.0
  9
$USERR5
 40
0.0
  9
$WORLDVIEW
 70
     1
  9
$SHADEDGE
 70
     3
  9
$SHADEDIF
 70
    70
  9
$TILEMODE
 70
     1
  9
$MAXACTVP
 70
    64
  9
$PINSBASE
 10
0.0
 20
0.0
 30
0.0
  9
$PLIMCHECK
 70
     0
  9
$PEXTMIN
 10
0.0
 20
0.0
 30
0.0
  9
$PEXTMAX
 10
0.0
 20
0.0
 30
0.0
  9
$PLIMMIN
 10
0.0
 20
0.0
  9
$PLIMMAX
 10
12.0
 20
9.0
  9
$UNITMODE
 70
     0
  9
$VISRETAIN
 70
     1
  9
$PLINEGEN
 70
     0
  9
$PSLTSCALE
 70
     1
  9
$TREEDEPTH
 70
  3020
  9
$CMLSTYLE
  2
Standard
  9
$CMLJUST
 70
     0
  9
$CMLSCALE
 40
1.0
  9
$PROXYGRAPHICS
 70
     1
  9
$MEASUREMENT
 70
     0
  9
$CELWEIGHT
370
    -1
  9
$ENDCAPS
280
     0
  9
$JOINSTYLE
280
     0
  9
$LWDISPLAY
290
     0
  9
$INSUNITS
 70
     4
  9
$HYPERLINKBASE
  1

  9
$STYLESHEET
  1

  9
$XEDIT
290
     1
  9
$CEPSNTYPE
380
     0
  9
$PSTYLEMODE
290
     1
  9
$FINGERPRINTGUID
  2
{70193108-1AEE-CC48-A62C-A8BE2E4A30BD}
  9
$VERSIONGUID
  2
{387460B4-DA7D-E744-AE68-01B388FBDEF0}
  9
$EXTNAMES
290
     1
  9
$PSVPSCALE
 40
0.0
  9
$OLESTARTUP
290
     0
  9
$SORTENTS
280
   127
  9
$INDEXCTL
280
     0
  9
$HIDETEXT
280
     1
  9
$XCLIPFRAME
280
     2
  9
$HALOGAP
280
     0
  9
$OBSCOLOR
 70
   257
  9
$OBSLTYPE
280
     0
  9
$INTERSECTIONDISPLAY
280
     0
  9
$INTERSECTIONCOLOR
 70
   257
  9
$DIMASSOC
280
     2
  9
$PROJECTNAME
  1

  9
$CAMERADISPLAY
290
     0
  9
$LENSLENGTH
 40
50.0
  9
$CAMERAHEIGHT
 40
0.0
  9
$STEPSPERSEC
 40
2.0
  9
$STEPSIZE
 40
6.0
  9
$3DDWFPREC
 40
2.0
  9
$PSOLWIDTH
 40
0.25
  9
$PSOLHEIGHT
 40
4.0
  9
$LOFTANG1
 40
1.570796326794896
  9
$LOFTANG2
 40
1.570796326794896
  9
$LOFTMAG1
 40
0.0
  9
$LOFTMAG2
 40
0.0
  9
$LOFTPARAM
 70
     7
  9
$LOFTNORMALS
280
     1
  9
$LATITUDE
 40
37.795
  9
$LONGITUDE
 40
-122.394
  9
$NORTHDIRECTION
 40
0.0
  9
$TIMEZONE
 70
 -8000
  9
$LIGHTGLYPHDISPLAY
280
     1
  9
$TILEMODELIGHTSYNCH
280
     1
  9
$CMATERIAL
347
96
  9
$SOLIDHIST
280
     0
  9
$SHOWHIST
280
     1
  9
$DWFFRAME
280
     2
  9
$DGNFRAME
280
     0
  9
$REALWORLDSCALE
290
     1
  9
$INTERFERECOLOR
 62
     1
  9
$INTERFEREOBJVS
345
A3
  9
$INTERFEREVPVS
346
A0
  9
$CSHADOW
280
     0
  9
$SHADOWPLANELOCATION
 40
0.0
  0
ENDSEC
  0
SECTION
  2
CLASSES
  0
CLASS
  1
ACDBDICTIONARYWDFLT
  2
AcDbDictionaryWithDefault
  3
ObjectDBX Classes
 90
        0
 91
        1
280
     0
281
     0
  0
CLASS
  1
DICTIONARYVAR
  2
AcDbDictionaryVar
  3
ObjectDBX Classes
 90
        0
 91
       11
280
     0
281
     0
  0
CLASS
  1
TABLESTYLE
  2
AcDbTableStyle
  3
ObjectDBX Classes
 90
     4095
 91
        1
280
     0
281
     0
  0
CLASS
  1
MATERIAL
  2
AcDbMaterial
  3
ObjectDBX Classes
 90
     1153
 91
        3
280
     0
281
     0
  0
CLASS
  1
VISUALSTYLE
  2
AcDbVisualStyle
  3
ObjectDBX Classes
 90
     4095
 91
       24
280
     0
281
     0
  0
CLASS
  1
SCALE
  2
AcDbScale
  3
ObjectDBX Classes
 90
     1153
 91
       33
280
     0
281
     0
  0
CLASS
  1
MLEADERSTYLE
  2
AcDbMLeaderStyle
  3
ACDB_MLEADERSTYLE_CLASS
 90
     4095
 91
        3
280
     0
281
     0
  0
CLASS
  1
CELLSTYLEMAP
  2
AcDbCellStyleMap
  3
ObjectDBX Classes
 90
     1152
 91
        1
280
     0
281
     0
  0
CLASS
  1
EXACXREFPANELOBJECT
  2
ExAcXREFPanelObject
  3
EXAC_ESW
 90
     1025
 91
        0
280
     0
281
     0
  0
CLASS
  1
NPOCOLLECTION
  2
AcDbImpNonPersistentObjectsCollection
  3
ObjectDBX Classes
 90
     1153
 91
        0
280
     0
281
     0
  0
CLASS
  1
LAYER_INDEX
  2
AcDbLayerIndex
  3
ObjectDBX Classes
 90
        0
 91
        0
280
     0
281
     0
  0
CLASS
  1
SPATIAL_INDEX
  2
AcDbSpatialIndex
  3
ObjectDBX Classes
 90
        0
 91
        0
280
     0
281
     0
  0
CLASS
  1
IDBUFFER
  2
AcDbIdBuffer
  3
ObjectDBX Classes
 90
        0
 91
        0
280
     0
281
     0
  0
CLASS
  1
ACDBSECTIONVIEWSTYLE
  2
AcDbSectionViewStyle
  3
ObjectDBX Classes
 90
     1025
 91
        1
280
     0
281
     0
  0
CLASS
  1
ACDBDETAILVIEWSTYLE
  2
AcDbDetailViewStyle
  3
ObjectDBX Classes
 90
     1025
 91
        1
280
     0
281
     0
  0
CLASS
  1
DIMASSOC
  2
AcDbDimAssoc
  3
"AcDbDimAssoc|Product Desc:     AcDim ARX App For Dimension|Company:          Autodesk, Inc.|WEB Address:      www.autodesk.com"
 90
        0
 91
       90
280
     0
281
     0
  0
CLASS
  1
MULTILEADER
  2
AcDbMLeader
  3
ACDB_MLEADER_CLASS
 90
     1025
 91
       12
280
     0
281
     1
  0
CLASS
  1
SORTENTSTABLE
  2
AcDbSortentsTable
  3
ObjectDBX Classes
 90
        0
 91
        3
280
     0
281
     0
  0
ENDSEC
  0
SECTION
  2
TABLES
  0
TABLE
  2
VPORT
  5
8
330
0
100
AcDbSymbolTable
 70
     1
  0
VPORT
  5
94
330
8
100
AcDbSymbolTableRecord
100
AcDbViewportTableRecord
  2
*Active
 70
     0
 10
0.0
 20
0.0
 11
1.0
 21
1.0
 12
45.86833492146862
 22
18.42583282115654
 13
0.0
 23
0.0
 14
0.5
 24
0.5
 15
0.5
 25
0.5
 16
0.0
 26
0.0
 36
1.0
 17
0.0
 27
0.0
 37
0.0
 40
23.10177388097611
 41
1.816431322207958
 42
50.0
 43
0.0
 44
0.0
 50
0.0
 51
0.0
 71
     0
 72
  4000
 73
     1
 74
     3
 75
     0
 76
     0
 77
     0
 78
     0
281
     0
 65
     1
110
0.0
120
0.0
130
0.0
111
1.0
121
0.0
131
0.0
112
0.0
122
1.0
132
0.0
 79
     0
146
0.0
348
9F
 60
     3
 61
     5
292
     1
282
     1
141
0.0
142
0.0
 63
   250
421
  3355443
1001
ACAD_NAV_VCDISPLAY
1070
     3
  0
ENDTAB
  0
TABLE
  2
LTYPE
  5
5
330
0
100
AcDbSymbolTable
 70
     2
  0
LTYPE
  5
14
330
5
100
AcDbSymbolTableRecord
100
AcDbLinetypeTableRecord
  2
ByBlock
 70
     0
  3

 72
    65
 73
     0
 40
0.0
  0
LTYPE
  5
15
330
5
100
AcDbSymbolTableRecord
100
AcDbLinetypeTableRecord
  2
ByLayer
 70
     0
  3

 72
    65
 73
     0
 40
0.0
  0
LTYPE
  5
16
330
5
100
AcDbSymbolTableRecord
100
AcDbLinetypeTableRecord
  2
Continuous
 70
     0
  3
Solid line
 72
    65
 73
     0
 40
0.0
  0
ENDTAB
  0
TABLE
  2
LAYER
  5
2
102
{ACAD_XDICTIONARY
360
18E
102
}
330
0
100
AcDbSymbolTable
 70
    14
  0
LAYER
  5
10
102
{ACAD_XDICTIONARY
360
E6
102
}
330
2
100
AcDbSymbolTableRecord
100
AcDbLayerTableRecord
  2
0
 70
     0
 62
     7
  6
Continuous
370
    -3
390
F
347
98
348
0
  0
LAYER
  5
29C
330
2
100
AcDbSymbolTableRecord
100
AcDbLayerTableRecord
  2
Defpoints
 70
     0
 62
     7
  6
Continuous
290
     0
370
    -3
390
F
347
98
348
0
  0
LAYER
  5
29D
330
2
100
AcDbSymbolTableRecord
100
AcDbLayerTableRecord
  2
Dimensions
 70
     0
 62
   252
  6
Continuous
370
    -3
390
F
347
98
348
0
1001
AcAecLayerStandard
1000

1000

  0
LAYER
  5
29E
102
{ACAD_XDICTIONARY
360
29F
102
}
330
2
100
AcDbSymbolTableRecord
100
AcDbLayerTableRecord
  2
Board Outline
 70
     0
 62
     2
  6
Continuous
370
    -3
390
F
347
98
348
0
1001
AcAecLayerStandard
1000

1000

  0
LAYER
  5
2A0
330
2
100
AcDbSymbolTableRecord
100
AcDbLayerTableRecord
  2
RO4003
 70
     0
 62
    11
  6
Continuous
370
    -3
390
F
347
98
348
0
  0
LAYER
  5
2A1
330
2
100
AcDbSymbolTableRecord
100
AcDbLayerTableRecord
  2
Notes
 70
     0
 62
   210
  6
Continuous
370
    -3
390
F
347
98
348
0
  0
LAYER
  5
2A2
330
2
100
AcDbSymbolTableRecord
100
AcDbLayerTableRecord
  2
ED_Cu_plating
 70
     0
 62
    40
  6
Continuous
370
    -3
390
F
347
98
348
0
1001
AcAecLayerStandard
1000

1000

  0
LAYER
  5
2A7
330
2
100
AcDbSymbolTableRecord
100
AcDbLayerTableRecord
  2
Laminate
 70
     0
 62
   202
  6
Continuous
370
    -3
390
F
347
98
348
0
  0
LAYER
  5
2A8
102
{ACAD_XDICTIONARY
360
2A9
102
}
330
2
100
AcDbSymbolTableRecord
100
AcDbLayerTableRecord
  2
M2 Cu Feature
 70
     0
 62
   191
  6
Continuous
370
    -3
390
F
347
98
348
0
  0
LAYER
  5
2AA
102
{ACAD_XDICTIONARY
360
2AB
102
}
330
2
100
AcDbSymbolTableRecord
100
AcDbLayerTableRecord
  2
M1 Cu Feature
 70
     0
 62
     5
  6
Continuous
370
    -3
390
F
347
98
348
0
  0
LAYER
  5
2AC
102
{ACAD_XDICTIONARY
360
2AD
102
}
330
2
100
AcDbSymbolTableRecord
100
AcDbLayerTableRecord
  2
M3 Cu Feature
 70
     0
 62
     4
  6
Continuous
370
    -3
390
F
347
98
348
0
1001
AcAecLayerStandard
1000

1000

  0
LAYER
  5
48C
102
{ACAD_XDICTIONARY
360
48D
102
}
330
2
100
AcDbSymbolTableRecord
100
AcDbLayerTableRecord
  2
M1-M3 PlatedThruHole
 70
     0
 62
     6
  6
Continuous
370
    -3
390
F
347
98
348
0
  0
LAYER
  5
5E7
330
2
100
AcDbSymbolTableRecord
100
AcDbLayerTableRecord
  2
0402 Capacitor
 70
     0
 62
   246
  6
Continuous
370
    -3
390
F
347
98
348
0
1001
AcAecLayerStandard
1000

1000

1001
AcCmTransparency
1071
        0
  0
ENDTAB
  0
TABLE
  2
STYLE
  5
3
330
0
100
AcDbSymbolTable
 70
     3
  0
STYLE
  5
11
330
3
100
AcDbSymbolTableRecord
100
AcDbTextStyleTableRecord
  2
Standard
 70
     0
 40
0.0
 41
1.0
 50
0.0
 71
     0
 42
0.2
  3
arial.ttf
  4

1001
ACAD
1000
Arial
1071
       34
  0
STYLE
  5
DC
330
3
100
AcDbSymbolTableRecord
100
AcDbTextStyleTableRecord
  2
Annotative
 70
     0
 40
0.0
 41
1.0
 50
0.0
 71
     0
 42
0.2
  3
arial.ttf
  4

1001
AcadAnnotative
1000
AnnotativeData
1002
{
1070
     1
1070
     1
1002
}
1001
ACAD
1000
Arial
1071
       34
  0
STYLE
  5
2AE
330
3
100
AcDbSymbolTableRecord
100
AcDbTextStyleTableRecord
  2
RomanS
 70
     0
 40
0.0
 41
0.9
 50
0.0
 71
     0
 42
0.12
  3
romans.shx
  4

  0
ENDTAB
  0
TABLE
  2
VIEW
  5
6
330
0
100
AcDbSymbolTable
 70
     1
  0
ENDTAB
  0
TABLE
  2
UCS
  5
7
330
0
100
AcDbSymbolTable
 70
     0
  0
ENDTAB
  0
TABLE
  2
APPID
  5
9
330
0
100
AcDbSymbolTable
 70
    15
  0
APPID
  5
12
330
9
100
AcDbSymbolTableRecord
100
AcDbRegAppTableRecord
  2
ACAD
 70
     0
  0
APPID
  5
DD
330
9
100
AcDbSymbolTableRecord
100
AcDbRegAppTableRecord
  2
AcadAnnoPO
 70
     0
  0
APPID
  5
DE
330
9
100
AcDbSymbolTableRecord
100
AcDbRegAppTableRecord
  2
AcadAnnotative
 70
     0
  0
APPID
  5
DF
330
9
100
AcDbSymbolTableRecord
100
AcDbRegAppTableRecord
  2
ACAD_DSTYLE_DIMJAG
 70
     0
  0
APPID
  5
E0
330
9
100
AcDbSymbolTableRecord
100
AcDbRegAppTableRecord
  2
ACAD_DSTYLE_DIMTALN
 70
     0
  0
APPID
  5
107
330
9
100
AcDbSymbolTableRecord
100
AcDbRegAppTableRecord
  2
ACAD_MLEADERVER
 70
     0
  0
APPID
  5
1A6
330
9
100
AcDbSymbolTableRecord
100
AcDbRegAppTableRecord
  2
ACAD_NAV_VCDISPLAY
 70
     0
  0
APPID
  5
2B1
330
9
100
AcDbSymbolTableRecord
100
AcDbRegAppTableRecord
  2
AcAecLayerStandard
 70
     0
  0
APPID
  5
2B2
330
9
100
AcDbSymbolTableRecord
100
AcDbRegAppTableRecord
  2
ACAD_DSTYLE_DIMBREAK
 70
     0
  0
APPID
  5
2B3
330
9
100
AcDbSymbolTableRecord
100
AcDbRegAppTableRecord
  2
ACAD_DSTYLE_DIMRADIAL_EXTENSION
 70
     0
  0
APPID
  5
2B4
330
9
100
AcDbSymbolTableRecord
100
AcDbRegAppTableRecord
  2
ACAD_DSTYLE_DIMJOGGED_JOGANGLE_SYMBOL
 70
     0
  0
APPID
  5
46F
330
9
100
AcDbSymbolTableRecord
100
AcDbRegAppTableRecord
  2
GradientColor1ACI
 70
     0
  0
APPID
  5
470
330
9
100
AcDbSymbolTableRecord
100
AcDbRegAppTableRecord
  2
GradientColor2ACI
 70
     0
  0
APPID
  5
53C
330
9
100
AcDbSymbolTableRecord
100
AcDbRegAppTableRecord
  2
ACAD_EXEMPT_FROM_CAD_STANDARDS
 70
     0
  0
APPID
  5
5E8
330
9
100
AcDbSymbolTableRecord
100
AcDbRegAppTableRecord
  2
AcCmTransparency
 70
     0
  0
ENDTAB
  0
TABLE
  2
DIMSTYLE
  5
A
330
0
100
AcDbSymbolTable
 70
     5
100
AcDbDimStyleTable
 71
     2
340
27
340
E1
  0
DIMSTYLE
105
27
102
{ACAD_REACTORS
330
BA7
330
BAA
330
BD2
330
BD5
330
BD8
330
BDB
330
BDE
330
BE1
102
}
330
A
100
AcDbSymbolTableRecord
100
AcDbDimStyleTableRecord
  2
Standard
 70
     0
340
11
  0
DIMSTYLE
105
E1
330
A
100
AcDbSymbolTableRecord
100
AcDbDimStyleTableRecord
  2
Annotative
 70
     0
 40
0.0
340
11
1001
AcadAnnotative
1000
AnnotativeData
1002
{
1070
     1
1070
     1
1002
}
1001
ACAD_DSTYLE_DIMJAG
1070
   388
1040
1.5
1001
ACAD_DSTYLE_DIMTALN
1070
   392
1070
     0
  0
DIMSTYLE
105
2AF
102
{ACAD_REACTORS
330
BAD
330
BB0
330
BB3
330
BB6
330
BB9
330
BBC
330
BE4
330
BE7
102
}
330
A
100
AcDbSymbolTableRecord
100
AcDbDimStyleTableRecord
  2
Copy(2) of Standard
 70
     0
 41
0.12
140
0.12
340
11
1001
ACAD_DSTYLE_DIMBREAK
1070
   391
1040
0.125
1001
ACAD_DSTYLE_DIMJAG
1070
   388
1040
1.5
1001
ACAD_DSTYLE_DIMTALN
1070
   392
1070
     0
  0
DIMSTYLE
105
2B0
102
{ACAD_REACTORS
330
CEB
330
CEF
102
}
330
A
100
AcDbSymbolTableRecord
100
AcDbDimStyleTableRecord
  2
PRC_No_Tol
 70
     0
  3
\X
 44
0.06
 49
0.18
 78
     4
140
0.12
146
0.71
147
0.06
271
     2
272
     2
284
     4
340
2AE
1001
ACAD_DSTYLE_DIMJOGGED_JOGANGLE_SYMBOL
1070
   384
1040
0.7853981633974483
1001
ACAD_DSTYLE_DIMJAG
1070
   388
1040
1.5
1001
ACAD_DSTYLE_DIMTALN
1070
   392
1070
     0
  0
DIMSTYLE
105
48E
330
A
100
AcDbSymbolTableRecord
100
AcDbDimStyleTableRecord
  2
datasheet_dimension
 70
     0
  3
\X
 41
0.075
 44
0.06
 49
0.18
 78
     1
140
0.12
146
0.71
147
0.06
271
     2
272
     2
340
DC
1001
ACAD_DSTYLE_DIMBREAK
1070
   391
1040
0.125
1001
ACAD_DSTYLE_DIMJAG
1070
   388
1040
1.5
1001
ACAD_DSTYLE_DIMTALN
1070
   392
1070
     0
  0
ENDTAB
  0
TABLE
  2
BLOCK_RECORD
  5
1
330
0
100
AcDbSymbolTable
 70
    73
  0
BLOCK_RECORD
  5
1F
102
{ACAD_XDICTIONARY
360
15D
102
}
330
1
100
AcDbSymbolTableRecord
100
AcDbBlockTableRecord
  2
*Model_Space
340
22
 70
     0
280
     1
281
     0
  0
BLOCK_RECORD
  5
58
330
1
100
AcDbSymbolTableRecord
100
AcDbBlockTableRecord
  2
*Paper_Space
340
59
 70
     0
280
     1
281
     0
  0
BLOCK_RECORD
  5
5D
330
1
100
AcDbSymbolTableRecord
100
AcDbBlockTableRecord
  2
*Paper_Space0
340
5E
 70
     0
280
     1
281
     0
  0
BLOCK_RECORD
  5
6CE
330
1
100
AcDbSymbolTableRecord
100
AcDbBlockTableRecord
  2
*D22
340
0
 70
     0
280
     1
281
     0
  0
BLOCK_RECORD
  5
6DB
330
1
100
AcDbSymbolTableRecord
100
AcDbBlockTableRecord
  2
*D23
340
0
 70
     0
280
     1
281
     0
  0
BLOCK_RECORD
  5
6E8
330
1
100
AcDbSymbolTableRecord
100
AcDbBlockTableRecord
  2
*D24
340
0
 70
     0
280
     1
281
     0
  0
BLOCK_RECORD
  5
6F5
330
1
100
AcDbSymbolTableRecord
100
AcDbBlockTableRecord
  2
*D25
340
0
 70
     0
280
     1
281
     0
  0
BLOCK_RECORD
  5
702
330
1
100
AcDbSymbolTableRecord
100
AcDbBlockTableRecord
  2
*D26
340
0
 70
     0
280
     1
281
     0
  0
BLOCK_RECORD
  5
70F
330
1
100
AcDbSymbolTableRecord
100
AcDbBlockTableRecord
  2
*D27
340
0
 70
     0
280
     1
281
     0
  0
BLOCK_RECORD
  5
71D
330
1
100
AcDbSymbolTableRecord
100
AcDbBlockTableRecord
  2
*D28
340
0
 70
     0
280
     1
281
     0
  0
BLOCK_RECORD
  5
72A
330
1
100
AcDbSymbolTableRecord
100
AcDbBlockTableRecord
  2
*D29
340
0
 70
     0
280
     1
281
     0
  0
BLOCK_RECORD
  5
737
330
1
100
AcDbSymbolTableRecord
100
AcDbBlockTableRecord
  2
*D30
340
0
 70
     0
280
     1
281
     0
  0
BLOCK_RECORD
  5
744
330
1
100
AcDbSymbolTableRecord
100
AcDbBlockTableRecord
  2
*D31
340
0
 70
     0
280
     1
281
     0
  0
BLOCK_RECORD
  5
751
330
1
100
AcDbSymbolTableRecord
100
AcDbBlockTableRecord
  2
*D32
340
0
 70
     0
280
     1
281
     0
  0
BLOCK_RECORD
  5
75E
330
1
100
AcDbSymbolTableRecord
100
AcDbBlockTableRecord
  2
*D33
340
0
 70
     0
280
     1
281
     0
  0
BLOCK_RECORD
  5
799
330
1
100
AcDbSymbolTableRecord
100
AcDbBlockTableRecord
  2
*D34
340
0
 70
     0
280
     1
281
     0
  0
BLOCK_RECORD
  5
7A6
330
1
100
AcDbSymbolTableRecord
100
AcDbBlockTableRecord
  2
*D35
340
0
 70
     0
280
     1
281
     0
  0
BLOCK_RECORD
  5
7E0
330
1
100
AcDbSymbolTableRecord
100
AcDbBlockTableRecord
  2
*D36
340
0
 70
     0
280
     1
281
     0
  0
BLOCK_RECORD
  5
7ED
330
1
100
AcDbSymbolTableRecord
100
AcDbBlockTableRecord
  2
*D37
340
0
 70
     0
280
     1
281
     0
  0
BLOCK_RECORD
  5
A75
330
1
100
AcDbSymbolTableRecord
100
AcDbBlockTableRecord
  2
*D38
340
0
 70
     0
280
     1
281
     0
  0
BLOCK_RECORD
  5
A82
330
1
100
AcDbSymbolTableRecord
100
AcDbBlockTableRecord
  2
*D39
340
0
 70
     0
280
     1
281
     0
  0
BLOCK_RECORD
  5
A90
330
1
100
AcDbSymbolTableRecord
100
AcDbBlockTableRecord
  2
*D40
340
0
 70
     0
280
     1
281
     0
  0
BLOCK_RECORD
  5
A9D
330
1
100
AcDbSymbolTableRecord
100
AcDbBlockTableRecord
  2
*D41
340
0
 70
     0
280
     1
281
     0
  0
BLOCK_RECORD
  5
AAA
330
1
100
AcDbSymbolTableRecord
100
AcDbBlockTableRecord
  2
*D42
340
0
 70
     0
280
     1
281
     0
  0
BLOCK_RECORD
  5
AB7
330
1
100
AcDbSymbolTableRecord
100
AcDbBlockTableRecord
  2
*D43
340
0
 70
     0
280
     1
281
     0
  0
BLOCK_RECORD
  5
AC4
330
1
100
AcDbSymbolTableRecord
100
AcDbBlockTableRecord
  2
*D44
340
0
 70
     0
280
     1
281
     0
  0
BLOCK_RECORD
  5
AD1
330
1
100
AcDbSymbolTableRecord
100
AcDbBlockTableRecord
  2
*D45
340
0
 70
     0
280
     1
281
     0
  0
BLOCK_RECORD
  5
ADC
330
1
100
AcDbSymbolTableRecord
100
AcDbBlockTableRecord
  2
*D46
340
0
 70
     0
280
     1
281
     0
  0
BLOCK_RECORD
  5
AE9
330
1
100
AcDbSymbolTableRecord
100
AcDbBlockTableRecord
  2
*D47
340
0
 70
     0
280
     1
281
     0
  0
BLOCK_RECORD
  5
AF6
330
1
100
AcDbSymbolTableRecord
100
AcDbBlockTableRecord
  2
*D48
340
0
 70
     0
280
     1
281
     0
  0
BLOCK_RECORD
  5
B04
330
1
100
AcDbSymbolTableRecord
100
AcDbBlockTableRecord
  2
*D49
340
0
 70
     0
280
     1
281
     0
  0
BLOCK_RECORD
  5
B12
330
1
100
AcDbSymbolTableRecord
100
AcDbBlockTableRecord
  2
*D50
340
0
 70
     0
280
     1
281
     0
  0
BLOCK_RECORD
  5
B1D
330
1
100
AcDbSymbolTableRecord
100
AcDbBlockTableRecord
  2
*D51
340
0
 70
     0
280
     1
281
     0
  0
BLOCK_RECORD
  5
B2B
330
1
100
AcDbSymbolTableRecord
100
AcDbBlockTableRecord
  2
*D52
340
0
 70
     0
280
     1
281
     0
  0
BLOCK_RECORD
  5
B38
330
1
100
AcDbSymbolTableRecord
100
AcDbBlockTableRecord
  2
*D53
340
0
 70
     0
280
     1
281
     0
  0
BLOCK_RECORD
  5
BEF
330
1
100
AcDbSymbolTableRecord
100
AcDbBlockTableRecord
  2
*D55
340
0
 70
     0
280
     1
281
     0
  0
BLOCK_RECORD
  5
BFC
330
1
100
AcDbSymbolTableRecord
100
AcDbBlockTableRecord
  2
*D56
340
0
 70
     0
280
     1
281
     0
  0
BLOCK_RECORD
  5
C0A
330
1
100
AcDbSymbolTableRecord
100
AcDbBlockTableRecord
  2
*D57
340
0
 70
     0
280
     1
281
     0
  0
BLOCK_RECORD
  5
C17
330
1
100
AcDbSymbolTableRecord
100
AcDbBlockTableRecord
  2
*D58
340
0
 70
     0
280
     1
281
     0
  0
BLOCK_RECORD
  5
C22
330
1
100
AcDbSymbolTableRecord
100
AcDbBlockTableRecord
  2
*D59
340
0
 70
     0
280
     1
281
     0
  0
BLOCK_RECORD
  5
C2F
330
1
100
AcDbSymbolTableRecord
100
AcDbBlockTableRecord
  2
*D60
340
0
 70
     0
280
     1
281
     0
  0
BLOCK_RECORD
  5
C3C
330
1
100
AcDbSymbolTableRecord
100
AcDbBlockTableRecord
  2
*D61
340
0
 70
     0
280
     1
281
     0
  0
BLOCK_RECORD
  5
C49
330
1
100
AcDbSymbolTableRecord
100
AcDbBlockTableRecord
  2
*D62
340
0
 70
     0
280
     1
281
     0
  0
BLOCK_RECORD
  5
C56
330
1
100
AcDbSymbolTableRecord
100
AcDbBlockTableRecord
  2
*D63
340
0
 70
     0
280
     1
281
     0
  0
BLOCK_RECORD
  5
C63
330
1
100
AcDbSymbolTableRecord
100
AcDbBlockTableRecord
  2
*D64
340
0
 70
     0
280
     1
281
     0
  0
BLOCK_RECORD
  5
C70
330
1
100
AcDbSymbolTableRecord
100
AcDbBlockTableRecord
  2
*D65
340
0
 70
     0
280
     1
281
     0
  0
BLOCK_RECORD
  5
C7E
330
1
100
AcDbSymbolTableRecord
100
AcDbBlockTableRecord
  2
*D66
340
0
 70
     0
280
     1
281
     0
  0
BLOCK_RECORD
  5
C8C
330
1
100
AcDbSymbolTableRecord
100
AcDbBlockTableRecord
  2
*D67
340
0
 70
     0
280
     1
281
     0
  0
BLOCK_RECORD
  5
C97
330
1
100
AcDbSymbolTableRecord
100
AcDbBlockTableRecord
  2
*D68
340
0
 70
     0
280
     1
281
     0
  0
BLOCK_RECORD
  5
CA5
330
1
100
AcDbSymbolTableRecord
100
AcDbBlockTableRecord
  2
*D69
340
0
 70
     0
280
     1
281
     0
  0
BLOCK_RECORD
  5
CB2
330
1
100
AcDbSymbolTableRecord
100
AcDbBlockTableRecord
  2
*D70
340
0
 70
     0
280
     1
281
     0
  0
BLOCK_RECORD
  5
D06
330
1
100
AcDbSymbolTableRecord
100
AcDbBlockTableRecord
  2
*D71
340
0
 70
     0
280
     1
281
     0
  0
BLOCK_RECORD
  5
D13
330
1
100
AcDbSymbolTableRecord
100
AcDbBlockTableRecord
  2
*D72
340
0
 70
     0
280
     1
281
     0
  0
ENDTAB
  0
ENDSEC
  0
SECTION
  2
BLOCKS
  0
BLOCK
  5
20
330
1F
100
AcDbEntity
  8
0
100
AcDbBlockBegin
  2
*Model_Space
 70
     0
 10
0.0
 20
0.0
 30
0.0
  3
*Model_Space
  1

  0
ENDBLK
  5
21
330
1F
100
AcDbEntity
  8
0
100
AcDbBlockEnd
  0
BLOCK
  5
5A
330
58
100
AcDbEntity
 67
     1
  8
0
100
AcDbBlockBegin
  2
*Paper_Space
 70
     0
 10
0.0
 20
0.0
 30
0.0
  3
*Paper_Space
  1

  0
ENDBLK
  5
5B
330
58
100
AcDbEntity
 67
     1
  8
0
100
AcDbBlockEnd
  0
BLOCK
  5
5F
330
5D
100
AcDbEntity
 67
     1
  8
0
100
AcDbBlockBegin
  2
*Paper_Space0
 70
     0
 10
0.0
 20
0.0
 30
0.0
  3
*Paper_Space0
  1

  0
ENDBLK
  5
60
330
5D
100
AcDbEntity
 67
     1
  8
0
100
AcDbBlockEnd
  0
BLOCK
  5
6CF
330
6CE
100
AcDbEntity
  8
0
100
AcDbBlockBegin
  2
*D22
 70
     1
 10
0.0
 20
0.0
 30
0.0
  3
*D22
  1

  0
LINE
  5
6D1
330
6CE
100
AcDbEntity
  8
Dimensions
 62
     0
440
 16777216
370
    -2
100
AcDbLine
 10
10.96859387151668
 20
2.90204869127102
 30
0.0
 11
10.96859387151668
 21
2.169391652028369
 31
0.0
  0
LINE
  5
6D2
330
6CE
100
AcDbEntity
  8
Dimensions
 62
     0
440
 16777216
370
    -2
100
AcDbLine
 10
11.29879387151428
 20
2.90204869127102
 30
0.0
 11
11.29879387151428
 21
2.169391652028369
 31
0.0
  0
LINE
  5
6D3
330
6CE
100
AcDbEntity
  8
Dimensions
 62
     0
440
 16777216
370
    -2
100
AcDbLine
 10
10.78859387151668
 20
2.229391652028369
 30
0.0
 11
10.60859387151668
 21
2.229391652028369
 31
0.0
  0
LINE
  5
6D4
330
6CE
100
AcDbEntity
  8
Dimensions
 62
     0
440
 16777216
370
    -2
100
AcDbLine
 10
11.47879387151428
 20
2.229391652028369
 30
0.0
 11
11.65879387151428
 21
2.229391652028369
 31
0.0
  0
SOLID
  5
6D5
330
6CE
100
AcDbEntity
  8
Dimensions
 62
     0
440
 16777216
100
AcDbTrace
 10
10.78859387151668
 20
2.259391652028369
 30
0.0
 11
10.78859387151668
 21
2.199391652028369
 31
0.0
 12
10.96859387151668
 22
2.229391652028369
 32
0.0
 13
10.96859387151668
 23
2.229391652028369
 33
0.0
  0
SOLID
  5
6D6
330
6CE
100
AcDbEntity
  8
Dimensions
 62
     0
440
 16777216
100
AcDbTrace
 10
11.47879387151428
 20
2.259391652028369
 30
0.0
 11
11.47879387151428
 21
2.199391652028369
 31
0.0
 12
11.29879387151428
 22
2.229391652028369
 32
0.0
 13
11.29879387151428
 23
2.229391652028369
 33
0.0
  0
MTEXT
  5
6D7
330
6CE
100
AcDbEntity
  8
Dimensions
 62
     0
440
 16777216
100
AcDbMText
 10
11.82936530008571
 20
2.229391652028369
 30
0.0
 40
0.12
 41
0.0
 46
0.0
 71
     5
 72
     1
  1
\A1;.33
  7
RomanS
 73
     1
 44
1.0
  0
POINT
  5
6D8
330
6CE
100
AcDbEntity
  8
Defpoints
 62
     0
440
 16777216
100
AcDbPoint
 10
10.96859387151668
 20
2.96454869127102
 30
0.0
  0
POINT
  5
6D9
330
6CE
100
AcDbEntity
  8
Defpoints
 62
     0
440
 16777216
100
AcDbPoint
 10
11.29879387151428
 20
2.96454869127102
 30
0.0
  0
POINT
  5
6DA
330
6CE
100
AcDbEntity
  8
Defpoints
 62
     0
440
 16777216
100
AcDbPoint
 10
11.29879387151428
 20
2.229391652028369
 30
0.0
  0
ENDBLK
  5
6D0
330
6CE
100
AcDbEntity
  8
0
100
AcDbBlockEnd
  0
BLOCK
  5
6DC
330
6DB
100
AcDbEntity
  8
0
100
AcDbBlockBegin
  2
*D23
 70
     1
 10
0.0
 20
0.0
 30
0.0
  3
*D23
  1

  0
LINE
  5
6DE
330
6DB
100
AcDbEntity
  8
Dimensions
 62
     0
440
 16777216
370
    -2
100
AcDbLine
 10
11.29879387151428
 20
2.90204869127102
 30
0.0
 11
11.29879387151428
 21
1.802402736861398
 31
0.0
  0
LINE
  5
6DF
330
6DB
100
AcDbEntity
  8
Dimensions
 62
     0
440
 16777216
370
    -2
100
AcDbLine
 10
11.95919387151631
 20
2.90204869127102
 30
0.0
 11
11.95919387151631
 21
1.802402736861398
 31
0.0
  0
LINE
  5
6E0
330
6DB
100
AcDbEntity
  8
Dimensions
 62
     0
440
 16777216
370
    -2
100
AcDbLine
 10
11.47879387151428
 20
1.862402736861398
 30
0.0
 11
11.77919387151631
 21
1.862402736861398
 31
0.0
  0
LINE
  5
6E1
330
6DB
100
AcDbEntity
  8
Dimensions
 62
     0
440
 16777216
370
    -2
100
AcDbLine
 10
11.95919387151631
 20
1.862402736861398
 30
0.0
 11
12.13919387151631
 21
1.862402736861398
 31
0.0
  0
SOLID
  5
6E2
330
6DB
100
AcDbEntity
  8
Dimensions
 62
     0
440
 16777216
100
AcDbTrace
 10
11.47879387151428
 20
1.892402736861398
 30
0.0
 11
11.47879387151428
 21
1.832402736861398
 31
0.0
 12
11.29879387151428
 22
1.862402736861398
 32
0.0
 13
11.29879387151428
 23
1.862402736861398
 33
0.0
  0
SOLID
  5
6E3
330
6DB
100
AcDbEntity
  8
Dimensions
 62
     0
440
 16777216
100
AcDbTrace
 10
11.77919387151631
 20
1.892402736861398
 30
0.0
 11
11.77919387151631
 21
1.832402736861398
 31
0.0
 12
11.95919387151631
 22
1.862402736861398
 32
0.0
 13
11.95919387151631
 23
1.862402736861398
 33
0.0
  0
MTEXT
  5
6E4
330
6DB
100
AcDbEntity
  8
Dimensions
 62
     0
440
 16777216
100
AcDbMText
 10
12.30976530008774
 20
1.862402736861398
 30
0.0
 40
0.12
 41
0.0
 46
0.0
 71
     5
 72
     1
  1
\A1;.66
  7
RomanS
 73
     1
 44
1.0
  0
POINT
  5
6E5
330
6DB
100
AcDbEntity
  8
Defpoints
 62
     0
440
 16777216
100
AcDbPoint
 10
11.29879387151428
 20
2.96454869127102
 30
0.0
  0
POINT
  5
6E6
330
6DB
100
AcDbEntity
  8
Defpoints
 62
     0
440
 16777216
100
AcDbPoint
 10
11.95919387151631
 20
2.96454869127102
 30
0.0
  0
POINT
  5
6E7
330
6DB
100
AcDbEntity
  8
Defpoints
 62
     0
440
 16777216
100
AcDbPoint
 10
11.95919387151631
 20
1.862402736861398
 30
0.0
  0
ENDBLK
  5
6DD
330
6DB
100
AcDbEntity
  8
0
100
AcDbBlockEnd
  0
BLOCK
  5
6E9
330
6E8
100
AcDbEntity
  8
0
100
AcDbBlockBegin
  2
*D24
 70
     1
 10
0.0
 20
0.0
 30
0.0
  3
*D24
  1

  0
LINE
  5
6EB
330
6E8
100
AcDbEntity
  8
Dimensions
 62
     0
440
 16777216
370
    -2
100
AcDbLine
 10
12.35189387151574
 20
4.285348691270832
 30
0.0
 11
14.11947369325813
 21
4.285348691270833
 31
0.0
  0
LINE
  5
6EC
330
6E8
100
AcDbEntity
  8
Dimensions
 62
     0
440
 16777216
370
    -2
100
AcDbLine
 10
12.35189387151574
 20
4.691748691270606
 30
0.0
 11
14.11947369325813
 21
4.691748691270607
 31
0.0
  0
LINE
  5
6ED
330
6E8
100
AcDbEntity
  8
Dimensions
 62
     0
440
 16777216
370
    -2
100
AcDbLine
 10
14.05947369325813
 20
4.105348691270833
 30
0.0
 11
14.05947369325813
 21
3.925348691270833
 31
0.0
  0
LINE
  5
6EE
330
6E8
100
AcDbEntity
  8
Dimensions
 62
     0
440
 16777216
370
    -2
100
AcDbLine
 10
14.05947369325813
 20
4.871748691270607
 30
0.0
 11
14.05947369325813
 21
5.051748691270607
 31
0.0
  0
SOLID
  5
6EF
330
6E8
100
AcDbEntity
  8
Dimensions
 62
     0
440
 16777216
100
AcDbTrace
 10
14.02947369325813
 20
4.105348691270833
 30
0.0
 11
14.08947369325813
 21
4.105348691270833
 31
0.0
 12
14.05947369325813
 22
4.285348691270833
 32
0.0
 13
14.05947369325813
 23
4.285348691270833
 33
0.0
  0
SOLID
  5
6F0
330
6E8
100
AcDbEntity
  8
Dimensions
 62
     0
440
 16777216
100
AcDbTrace
 10
14.02947369325813
 20
4.871748691270607
 30
0.0
 11
14.08947369325813
 21
4.871748691270607
 31
0.0
 12
14.05947369325813
 22
4.691748691270607
 32
0.0
 13
14.05947369325813
 23
4.691748691270607
 33
0.0
  0
MTEXT
  5
6F1
330
6E8
100
AcDbEntity
  8
Dimensions
 62
     0
440
 16777216
100
AcDbMText
 10
14.05947369325813
 20
4.488548691270715
 30
0.0
 40
0.12
 41
0.0
 46
0.0
 71
     5
 72
     1
  1
\A1;.41
  7
RomanS
 73
     1
 44
1.0
  0
POINT
  5
6F2
330
6E8
100
AcDbEntity
  8
Defpoints
 62
     0
440
 16777216
100
AcDbPoint
 10
12.28939387151574
 20
4.285348691270832
 30
0.0
  0
POINT
  5
6F3
330
6E8
100
AcDbEntity
  8
Defpoints
 62
     0
440
 16777216
100
AcDbPoint
 10
12.28939387151574
 20
4.691748691270606
 30
0.0
  0
POINT
  5
6F4
330
6E8
100
AcDbEntity
  8
Defpoints
 62
     0
440
 16777216
100
AcDbPoint
 10
14.05947369325813
 20
4.691748691270607
 30
0.0
  0
ENDBLK
  5
6EA
330
6E8
100
AcDbEntity
  8
0
100
AcDbBlockEnd
  0
BLOCK
  5
6F6
330
6F5
100
AcDbEntity
  8
0
100
AcDbBlockBegin
  2
*D25
 70
     1
 10
0.0
 20
0.0
 30
0.0
  3
*D25
  1

  0
LINE
  5
6F8
330
6F5
100
AcDbEntity
  8
Dimensions
 62
     0
440
 16777216
370
    -2
100
AcDbLine
 10
12.35189387151574
 20
4.285348691270832
 30
0.0
 11
13.68564839591059
 21
4.285348691270832
 31
0.0
  0
LINE
  5
6F9
330
6F5
100
AcDbEntity
  8
Dimensions
 62
     0
440
 16777216
370
    -2
100
AcDbLine
 10
12.35189387151574
 20
4.03134869127034
 30
0.0
 11
13.68564839591059
 21
4.03134869127034
 31
0.0
  0
LINE
  5
6FA
330
6F5
100
AcDbEntity
  8
Dimensions
 62
     0
440
 16777216
370
    -2
100
AcDbLine
 10
13.62564839591059
 20
4.465348691270832
 30
0.0
 11
13.62564839591059
 21
4.645348691270832
 31
0.0
  0
LINE
  5
6FB
330
6F5
100
AcDbEntity
  8
Dimensions
 62
     0
440
 16777216
370
    -2
100
AcDbLine
 10
13.62564839591059
 20
3.851348691270341
 30
0.0
 11
13.62564839591059
 21
3.671348691270341
 31
0.0
  0
SOLID
  5
6FC
330
6F5
100
AcDbEntity
  8
Dimensions
 62
     0
440
 16777216
100
AcDbTrace
 10
13.59564839591059
 20
4.465348691270832
 30
0.0
 11
13.65564839591059
 21
4.465348691270832
 31
0.0
 12
13.62564839591059
 22
4.285348691270832
 32
0.0
 13
13.62564839591059
 23
4.285348691270832
 33
0.0
  0
SOLID
  5
6FD
330
6F5
100
AcDbEntity
  8
Dimensions
 62
     0
440
 16777216
100
AcDbTrace
 10
13.5956483959106
 20
3.851348691270341
 30
0.0
 11
13.6556483959106
 21
3.851348691270341
 31
0.0
 12
13.62564839591059
 22
4.03134869127034
 32
0.0
 13
13.62564839591059
 23
4.03134869127034
 33
0.0
  0
MTEXT
  5
6FE
330
6F5
100
AcDbEntity
  8
Dimensions
 62
     0
440
 16777216
100
AcDbMText
 10
13.62564839591059
 20
4.158348691270582
 30
0.0
 40
0.12
 41
0.0
 46
0.0
 71
     5
 72
     1
  1
\A1;.25
  7
RomanS
 73
     1
 44
1.0
  0
POINT
  5
6FF
330
6F5
100
AcDbEntity
  8
Defpoints
 62
     0
440
 16777216
100
AcDbPoint
 10
12.28939387151574
 20
4.285348691270832
 30
0.0
  0
POINT
  5
700
330
6F5
100
AcDbEntity
  8
Defpoints
 62
     0
440
 16777216
100
AcDbPoint
 10
12.28939387151574
 20
4.03134869127034
 30
0.0
  0
POINT
  5
701
330
6F5
100
AcDbEntity
  8
Defpoints
 62
     0
440
 16777216
100
AcDbPoint
 10
13.62564839591059
 20
4.03134869127034
 30
0.0
  0
ENDBLK
  5
6F7
330
6F5
100
AcDbEntity
  8
0
100
AcDbBlockEnd
  0
BLOCK
  5
703
330
702
100
AcDbEntity
  8
0
100
AcDbBlockBegin
  2
*D26
 70
     1
 10
0.0
 20
0.0
 30
0.0
  3
*D26
  1

  0
LINE
  5
705
330
702
100
AcDbEntity
  8
Dimensions
 62
     0
440
 16777216
370
    -2
100
AcDbLine
 10
11.36129387151429
 20
3.360751665659694
 30
0.0
 11
11.60867587825004
 21
3.360751665659694
 31
0.0
  0
LINE
  5
706
330
702
100
AcDbEntity
  8
Dimensions
 62
     0
440
 16777216
370
    -2
100
AcDbLine
 10
11.36129387151429
 20
2.964548691271021
 30
0.0
 11
11.60867587825004
 21
2.964548691271021
 31
0.0
  0
LINE
  5
707
330
702
100
AcDbEntity
  8
Dimensions
 62
     0
440
 16777216
370
    -2
100
AcDbLine
 10
11.54867587825004
 20
3.540751665659694
 30
0.0
 11
11.54867587825004
 21
3.720751665659693
 31
0.0
  0
LINE
  5
708
330
702
100
AcDbEntity
  8
Dimensions
 62
     0
440
 16777216
370
    -2
100
AcDbLine
 10
11.54867587825004
 20
2.784548691271021
 30
0.0
 11
11.54867587825004
 21
2.604548691271021
 31
0.0
  0
SOLID
  5
709
330
702
100
AcDbEntity
  8
Dimensions
 62
     0
440
 16777216
100
AcDbTrace
 10
11.51867587825004
 20
3.540751665659694
 30
0.0
 11
11.57867587825004
 21
3.540751665659694
 31
0.0
 12
11.54867587825004
 22
3.360751665659694
 32
0.0
 13
11.54867587825004
 23
3.360751665659694
 33
0.0
  0
SOLID
  5
70A
330
702
100
AcDbEntity
  8
Dimensions
 62
     0
440
 16777216
100
AcDbTrace
 10
11.51867587825004
 20
2.784548691271021
 30
0.0
 11
11.57867587825004
 21
2.784548691271021
 31
0.0
 12
11.54867587825004
 22
2.964548691271021
 32
0.0
 13
11.54867587825004
 23
2.964548691271021
 33
0.0
  0
MTEXT
  5
70B
330
702
100
AcDbEntity
  8
Dimensions
 62
     0
440
 16777216
100
AcDbMText
 10
11.54867587825004
 20
3.162650178465353
 30
0.0
 40
0.12
 41
0.0
 46
0.0
 71
     5
 72
     1
  1
\A1;.40
  7
RomanS
 73
     1
 44
1.0
  0
POINT
  5
70C
330
702
100
AcDbEntity
  8
Defpoints
 62
     0
440
 16777216
100
AcDbPoint
 10
11.29879387151428
 20
3.360751665659694
 30
0.0
  0
POINT
  5
70D
330
702
100
AcDbEntity
  8
Defpoints
 62
     0
440
 16777216
100
AcDbPoint
 10
11.29879387151428
 20
2.964548691271021
 30
0.0
  0
POINT
  5
70E
330
702
100
AcDbEntity
  8
Defpoints
 62
     0
440
 16777216
100
AcDbPoint
 10
11.54867587825004
 20
2.964548691271021
 30
0.0
  0
ENDBLK
  5
704
330
702
100
AcDbEntity
  8
0
100
AcDbBlockEnd
  0
BLOCK
  5
710
330
70F
100
AcDbEntity
  8
0
100
AcDbBlockBegin
  2
*D27
 70
     1
 10
0.0
 20
0.0
 30
0.0
  3
*D27
  1

  0
LINE
  5
712
330
70F
100
AcDbEntity
  8
Dimensions
 62
     0
440
 16777216
370
    -2
100
AcDbLine
 10
9.902572468429632
 20
2.89886567180515
 30
0.0
 11
8.255847120756531
 21
2.242169965336352
 31
0.0
  0
LINE
  5
713
330
70F
100
AcDbEntity
  8
Dimensions
 62
     0
440
 16777216
370
    -2
100
AcDbLine
 10
10.06252010551156
 20
2.497782147596449
 30
0.0
 11
8.415794757838458
 21
1.841086441127651
 31
0.0
  0
LINE
  5
714
330
70F
100
AcDbEntity
  8
Dimensions
 62
     0
440
 16777216
370
    -2
100
AcDbLine
 10
8.244903250394726
 20
2.431590744823461
 30
0.0
 11
8.178227533222967
 21
2.598786285253317
 31
0.0
  0
LINE
  5
715
330
70F
100
AcDbEntity
  8
Dimensions
 62
     0
440
 16777216
370
    -2
100
AcDbLine
 10
8.538202321820168
 20
1.696116139755047
 30
0.0
 11
8.604878038991927
 21
1.528920599325191
 31
0.0
  0
LINE
  5
716
330
70F
100
AcDbEntity
  8
Dimensions
 62
     0
440
 16777216
370
    -2
100
AcDbLine
 10
8.604878038991927
 20
1.528920599325191
 30
0.0
 11
8.784878038991928
 21
1.528920599325191
 31
0.0
  0
SOLID
  5
717
330
70F
100
AcDbEntity
  8
Dimensions
 62
     0
440
 16777216
100
AcDbTrace
 10
8.2727691737997
 20
2.442703364352087
 30
0.0
 11
8.21703732698975
 21
2.420478125294835
 31
0.0
 12
8.311578967566482
 22
2.264395204393605
 32
0.0
 13
8.311578967566482
 23
2.264395204393605
 33
0.0
  0
SOLID
  5
718
330
70F
100
AcDbEntity
  8
Dimensions
 62
     0
440
 16777216
100
AcDbTrace
 10
8.566068245225144
 20
1.707228759283674
 30
0.0
 11
8.510336398415192
 21
1.685003520226421
 31
0.0
 12
8.471526604648412
 22
1.863311680184904
 32
0.0
 13
8.471526604648412
 23
1.863311680184904
 33
0.0
  0
MTEXT
  5
719
330
70F
100
AcDbEntity
  8
Dimensions
 62
     0
440
 16777216
100
AcDbMText
 10
9.75516375327764
 20
1.528920599325189
 30
0.0
 40
0.12
 41
2.150314036078725
 46
0.0
 71
     5
 72
     1
  1
\A1;3x Transmission Lines 
  7
RomanS
 73
     1
 44
1.0
  0
POINT
  5
71A
330
70F
100
AcDbEntity
  8
Defpoints
 62
     0
440
 16777216
100
AcDbPoint
 10
9.960626475523334
 20
2.922016962489789
 30
0.0
  0
POINT
  5
71B
330
70F
100
AcDbEntity
  8
Defpoints
 62
     0
440
 16777216
100
AcDbPoint
 10
10.12057411260526
 20
2.520933438281088
 30
0.0
  0
POINT
  5
71C
330
70F
100
AcDbEntity
  8
Defpoints
 62
     0
440
 16777216
100
AcDbPoint
 10
8.471526604648412
 20
1.863311680184904
 30
0.0
  0
ENDBLK
  5
711
330
70F
100
AcDbEntity
  8
0
100
AcDbBlockEnd
  0
BLOCK
  5
71E
330
71D
100
AcDbEntity
  8
0
100
AcDbBlockBegin
  2
*D28
 70
     1
 10
0.0
 20
0.0
 30
0.0
  3
*D28
  1

  0
LINE
  5
720
330
71D
100
AcDbEntity
  8
Dimensions
 62
     0
440
 16777216
370
    -2
100
AcDbLine
 10
10.96859387151668
 20
17.89731982348222
 30
0.0
 11
10.96859387151668
 21
17.16466278423957
 31
0.0
  0
LINE
  5
721
330
71D
100
AcDbEntity
  8
Dimensions
 62
     0
440
 16777216
370
    -2
100
AcDbLine
 10
11.29879387151428
 20
17.89731982348222
 30
0.0
 11
11.29879387151428
 21
17.16466278423957
 31
0.0
  0
LINE
  5
722
330
71D
100
AcDbEntity
  8
Dimensions
 62
     0
440
 16777216
370
    -2
100
AcDbLine
 10
10.78859387151668
 20
17.22466278423956
 30
0.0
 11
10.60859387151668
 21
17.22466278423956
 31
0.0
  0
LINE
  5
723
330
71D
100
AcDbEntity
  8
Dimensions
 62
     0
440
 16777216
370
    -2
100
AcDbLine
 10
11.47879387151428
 20
17.22466278423956
 30
0.0
 11
11.65879387151428
 21
17.22466278423956
 31
0.0
  0
SOLID
  5
724
330
71D
100
AcDbEntity
  8
Dimensions
 62
     0
440
 16777216
100
AcDbTrace
 10
10.78859387151668
 20
17.25466278423956
 30
0.0
 11
10.78859387151668
 21
17.19466278423956
 31
0.0
 12
10.96859387151668
 22
17.22466278423956
 32
0.0
 13
10.96859387151668
 23
17.22466278423956
 33
0.0
  0
SOLID
  5
725
330
71D
100
AcDbEntity
  8
Dimensions
 62
     0
440
 16777216
100
AcDbTrace
 10
11.47879387151428
 20
17.25466278423956
 30
0.0
 11
11.47879387151428
 21
17.19466278423956
 31
0.0
 12
11.29879387151428
 22
17.22466278423956
 32
0.0
 13
11.29879387151428
 23
17.22466278423956
 33
0.0
  0
MTEXT
  5
726
330
71D
100
AcDbEntity
  8
Dimensions
 62
     0
440
 16777216
100
AcDbMText
 10
11.82936530008571
 20
17.22466278423956
 30
0.0
 40
0.12
 41
0.0
 46
0.0
 71
     5
 72
     1
  1
\A1;.33
  7
RomanS
 73
     1
 44
1.0
  0
POINT
  5
727
330
71D
100
AcDbEntity
  8
Defpoints
 62
     0
440
 16777216
100
AcDbPoint
 10
10.96859387151668
 20
17.95981982348221
 30
0.0
  0
POINT
  5
728
330
71D
100
AcDbEntity
  8
Defpoints
 62
     0
440
 16777216
100
AcDbPoint
 10
11.29879387151428
 20
17.95981982348221
 30
0.0
  0
POINT
  5
729
330
71D
100
AcDbEntity
  8
Defpoints
 62
     0
440
 16777216
100
AcDbPoint
 10
11.29879387151428
 20
17.22466278423956
 30
0.0
  0
ENDBLK
  5
71F
330
71D
100
AcDbEntity
  8
0
100
AcDbBlockEnd
  0
BLOCK
  5
72B
330
72A
100
AcDbEntity
  8
0
100
AcDbBlockBegin
  2
*D29
 70
     1
 10
0.0
 20
0.0
 30
0.0
  3
*D29
  1

  0
LINE
  5
72D
330
72A
100
AcDbEntity
  8
Dimensions
 62
     0
440
 16777216
370
    -2
100
AcDbLine
 10
11.29879387151428
 20
17.89731982348222
 30
0.0
 11
11.29879387151428
 21
16.7976738690726
 31
0.0
  0
LINE
  5
72E
330
72A
100
AcDbEntity
  8
Dimensions
 62
     0
440
 16777216
370
    -2
100
AcDbLine
 10
11.95919387151631
 20
17.89731982348222
 30
0.0
 11
11.95919387151631
 21
16.7976738690726
 31
0.0
  0
LINE
  5
72F
330
72A
100
AcDbEntity
  8
Dimensions
 62
     0
440
 16777216
370
    -2
100
AcDbLine
 10
11.47879387151428
 20
16.85767386907259
 30
0.0
 11
11.77919387151631
 21
16.85767386907259
 31
0.0
  0
LINE
  5
730
330
72A
100
AcDbEntity
  8
Dimensions
 62
     0
440
 16777216
370
    -2
100
AcDbLine
 10
11.95919387151631
 20
16.85767386907259
 30
0.0
 11
12.13919387151631
 21
16.85767386907259
 31
0.0
  0
SOLID
  5
731
330
72A
100
AcDbEntity
  8
Dimensions
 62
     0
440
 16777216
100
AcDbTrace
 10
11.47879387151428
 20
16.88767386907259
 30
0.0
 11
11.47879387151428
 21
16.82767386907259
 31
0.0
 12
11.29879387151428
 22
16.85767386907259
 32
0.0
 13
11.29879387151428
 23
16.85767386907259
 33
0.0
  0
SOLID
  5
732
330
72A
100
AcDbEntity
  8
Dimensions
 62
     0
440
 16777216
100
AcDbTrace
 10
11.77919387151631
 20
16.88767386907259
 30
0.0
 11
11.77919387151631
 21
16.82767386907259
 31
0.0
 12
11.95919387151631
 22
16.85767386907259
 32
0.0
 13
11.95919387151631
 23
16.85767386907259
 33
0.0
  0
MTEXT
  5
733
330
72A
100
AcDbEntity
  8
Dimensions
 62
     0
440
 16777216
100
AcDbMText
 10
12.30976530008774
 20
16.85767386907259
 30
0.0
 40
0.12
 41
0.0
 46
0.0
 71
     5
 72
     1
  1
\A1;.66
  7
RomanS
 73
     1
 44
1.0
  0
POINT
  5
734
330
72A
100
AcDbEntity
  8
Defpoints
 62
     0
440
 16777216
100
AcDbPoint
 10
11.29879387151428
 20
17.95981982348221
 30
0.0
  0
POINT
  5
735
330
72A
100
AcDbEntity
  8
Defpoints
 62
     0
440
 16777216
100
AcDbPoint
 10
11.95919387151631
 20
17.95981982348221
 30
0.0
  0
POINT
  5
736
330
72A
100
AcDbEntity
  8
Defpoints
 62
     0
440
 16777216
100
AcDbPoint
 10
11.95919387151631
 20
16.85767386907259
 30
0.0
  0
ENDBLK
  5
72C
330
72A
100
AcDbEntity
  8
0
100
AcDbBlockEnd
  0
BLOCK
  5
738
330
737
100
AcDbEntity
  8
0
100
AcDbBlockBegin
  2
*D30
 70
     1
 10
0.0
 20
0.0
 30
0.0
  3
*D30
  1

  0
LINE
  5
73A
330
737
100
AcDbEntity
  8
Dimensions
 62
     0
440
 16777216
370
    -2
100
AcDbLine
 10
12.35189387151574
 20
19.28061982348203
 30
0.0
 11
14.11947369325813
 21
19.28061982348203
 31
0.0
  0
LINE
  5
73B
330
737
100
AcDbEntity
  8
Dimensions
 62
     0
440
 16777216
370
    -2
100
AcDbLine
 10
12.35189387151574
 20
19.68701982348181
 30
0.0
 11
14.11947369325813
 21
19.68701982348181
 31
0.0
  0
LINE
  5
73C
330
737
100
AcDbEntity
  8
Dimensions
 62
     0
440
 16777216
370
    -2
100
AcDbLine
 10
14.05947369325813
 20
19.10061982348203
 30
0.0
 11
14.05947369325813
 21
18.92061982348203
 31
0.0
  0
LINE
  5
73D
330
737
100
AcDbEntity
  8
Dimensions
 62
     0
440
 16777216
370
    -2
100
AcDbLine
 10
14.05947369325813
 20
19.86701982348181
 30
0.0
 11
14.05947369325812
 21
20.04701982348181
 31
0.0
  0
SOLID
  5
73E
330
737
100
AcDbEntity
  8
Dimensions
 62
     0
440
 16777216
100
AcDbTrace
 10
14.02947369325812
 20
19.10061982348203
 30
0.0
 11
14.08947369325812
 21
19.10061982348203
 31
0.0
 12
14.05947369325813
 22
19.28061982348203
 32
0.0
 13
14.05947369325813
 23
19.28061982348203
 33
0.0
  0
SOLID
  5
73F
330
737
100
AcDbEntity
  8
Dimensions
 62
     0
440
 16777216
100
AcDbTrace
 10
14.02947369325812
 20
19.86701982348181
 30
0.0
 11
14.08947369325812
 21
19.86701982348181
 31
0.0
 12
14.05947369325813
 22
19.68701982348181
 32
0.0
 13
14.05947369325813
 23
19.68701982348181
 33
0.0
  0
MTEXT
  5
740
330
737
100
AcDbEntity
  8
Dimensions
 62
     0
440
 16777216
100
AcDbMText
 10
14.05947369325813
 20
19.48381982348191
 30
0.0
 40
0.12
 41
0.0
 46
0.0
 71
     5
 72
     1
  1
\A1;.41
  7
RomanS
 73
     1
 44
1.0
  0
POINT
  5
741
330
737
100
AcDbEntity
  8
Defpoints
 62
     0
440
 16777216
100
AcDbPoint
 10
12.28939387151574
 20
19.28061982348203
 30
0.0
  0
POINT
  5
742
330
737
100
AcDbEntity
  8
Defpoints
 62
     0
440
 16777216
100
AcDbPoint
 10
12.28939387151574
 20
19.68701982348181
 30
0.0
  0
POINT
  5
743
330
737
100
AcDbEntity
  8
Defpoints
 62
     0
440
 16777216
100
AcDbPoint
 10
14.05947369325813
 20
19.68701982348181
 30
0.0
  0
ENDBLK
  5
739
330
737
100
AcDbEntity
  8
0
100
AcDbBlockEnd
  0
BLOCK
  5
745
330
744
100
AcDbEntity
  8
0
100
AcDbBlockBegin
  2
*D31
 70
     1
 10
0.0
 20
0.0
 30
0.0
  3
*D31
  1

  0
LINE
  5
747
330
744
100
AcDbEntity
  8
Dimensions
 62
     0
440
 16777216
370
    -2
100
AcDbLine
 10
12.35189387151574
 20
19.28061982348203
 30
0.0
 11
13.68564839591059
 21
19.28061982348203
 31
0.0
  0
LINE
  5
748
330
744
100
AcDbEntity
  8
Dimensions
 62
     0
440
 16777216
370
    -2
100
AcDbLine
 10
12.35189387151574
 20
19.02661982348154
 30
0.0
 11
13.68564839591059
 21
19.02661982348154
 31
0.0
  0
LINE
  5
749
330
744
100
AcDbEntity
  8
Dimensions
 62
     0
440
 16777216
370
    -2
100
AcDbLine
 10
13.62564839591059
 20
19.46061982348203
 30
0.0
 11
13.62564839591059
 21
19.64061982348203
 31
0.0
  0
LINE
  5
74A
330
744
100
AcDbEntity
  8
Dimensions
 62
     0
440
 16777216
370
    -2
100
AcDbLine
 10
13.62564839591059
 20
18.84661982348154
 30
0.0
 11
13.62564839591059
 21
18.66661982348154
 31
0.0
  0
SOLID
  5
74B
330
744
100
AcDbEntity
  8
Dimensions
 62
     0
440
 16777216
100
AcDbTrace
 10
13.59564839591059
 20
19.46061982348203
 30
0.0
 11
13.65564839591059
 21
19.46061982348203
 31
0.0
 12
13.62564839591059
 22
19.28061982348203
 32
0.0
 13
13.62564839591059
 23
19.28061982348203
 33
0.0
  0
SOLID
  5
74C
330
744
100
AcDbEntity
  8
Dimensions
 62
     0
440
 16777216
100
AcDbTrace
 10
13.59564839591059
 20
18.84661982348154
 30
0.0
 11
13.65564839591059
 21
18.84661982348154
 31
0.0
 12
13.62564839591059
 22
19.02661982348154
 32
0.0
 13
13.62564839591059
 23
19.02661982348154
 33
0.0
  0
MTEXT
  5
74D
330
744
100
AcDbEntity
  8
Dimensions
 62
     0
440
 16777216
100
AcDbMText
 10
13.62564839591059
 20
19.15361982348178
 30
0.0
 40
0.12
 41
0.0
 46
0.0
 71
     5
 72
     1
  1
\A1;.25
  7
RomanS
 73
     1
 44
1.0
  0
POINT
  5
74E
330
744
100
AcDbEntity
  8
Defpoints
 62
     0
440
 16777216
100
AcDbPoint
 10
12.28939387151574
 20
19.28061982348203
 30
0.0
  0
POINT
  5
74F
330
744
100
AcDbEntity
  8
Defpoints
 62
     0
440
 16777216
100
AcDbPoint
 10
12.28939387151574
 20
19.02661982348154
 30
0.0
  0
POINT
  5
750
330
744
100
AcDbEntity
  8
Defpoints
 62
     0
440
 16777216
100
AcDbPoint
 10
13.62564839591059
 20
19.02661982348154
 30
0.0
  0
ENDBLK
  5
746
330
744
100
AcDbEntity
  8
0
100
AcDbBlockEnd
  0
BLOCK
  5
752
330
751
100
AcDbEntity
  8
0
100
AcDbBlockBegin
  2
*D32
 70
     1
 10
0.0
 20
0.0
 30
0.0
  3
*D32
  1

  0
LINE
  5
754
330
751
100
AcDbEntity
  8
Dimensions
 62
     0
440
 16777216
370
    -2
100
AcDbLine
 10
11.36129387151429
 20
18.35602279787089
 30
0.0
 11
11.60867587825003
 21
18.35602279787089
 31
0.0
  0
LINE
  5
755
330
751
100
AcDbEntity
  8
Dimensions
 62
     0
440
 16777216
370
    -2
100
AcDbLine
 10
11.36129387151429
 20
17.95981982348222
 30
0.0
 11
11.60867587825003
 21
17.95981982348222
 31
0.0
  0
LINE
  5
756
330
751
100
AcDbEntity
  8
Dimensions
 62
     0
440
 16777216
370
    -2
100
AcDbLine
 10
11.54867587825003
 20
18.53602279787089
 30
0.0
 11
11.54867587825003
 21
18.71602279787089
 31
0.0
  0
LINE
  5
757
330
751
100
AcDbEntity
  8
Dimensions
 62
     0
440
 16777216
370
    -2
100
AcDbLine
 10
11.54867587825003
 20
17.77981982348222
 30
0.0
 11
11.54867587825003
 21
17.59981982348222
 31
0.0
  0
SOLID
  5
758
330
751
100
AcDbEntity
  8
Dimensions
 62
     0
440
 16777216
100
AcDbTrace
 10
11.51867587825003
 20
18.53602279787089
 30
0.0
 11
11.57867587825003
 21
18.53602279787089
 31
0.0
 12
11.54867587825003
 22
18.35602279787089
 32
0.0
 13
11.54867587825003
 23
18.35602279787089
 33
0.0
  0
SOLID
  5
759
330
751
100
AcDbEntity
  8
Dimensions
 62
     0
440
 16777216
100
AcDbTrace
 10
11.51867587825003
 20
17.77981982348222
 30
0.0
 11
11.57867587825003
 21
17.77981982348222
 31
0.0
 12
11.54867587825003
 22
17.95981982348222
 32
0.0
 13
11.54867587825003
 23
17.95981982348222
 33
0.0
  0
MTEXT
  5
75A
330
751
100
AcDbEntity
  8
Dimensions
 62
     0
440
 16777216
100
AcDbMText
 10
11.54867587825004
 20
18.15792131067655
 30
0.0
 40
0.12
 41
0.0
 46
0.0
 71
     5
 72
     1
  1
\A1;.40
  7
RomanS
 73
     1
 44
1.0
  0
POINT
  5
75B
330
751
100
AcDbEntity
  8
Defpoints
 62
     0
440
 16777216
100
AcDbPoint
 10
11.29879387151428
 20
18.35602279787089
 30
0.0
  0
POINT
  5
75C
330
751
100
AcDbEntity
  8
Defpoints
 62
     0
440
 16777216
100
AcDbPoint
 10
11.29879387151428
 20
17.95981982348222
 30
0.0
  0
POINT
  5
75D
330
751
100
AcDbEntity
  8
Defpoints
 62
     0
440
 16777216
100
AcDbPoint
 10
11.54867587825003
 20
17.95981982348222
 30
0.0
  0
ENDBLK
  5
753
330
751
100
AcDbEntity
  8
0
100
AcDbBlockEnd
  0
BLOCK
  5
75F
330
75E
100
AcDbEntity
  8
0
100
AcDbBlockBegin
  2
*D33
 70
     1
 10
0.0
 20
0.0
 30
0.0
  3
*D33
  1

  0
LINE
  5
761
330
75E
100
AcDbEntity
  8
Dimensions
 62
     0
440
 16777216
370
    -2
100
AcDbLine
 10
9.902572468429635
 20
17.89413680401634
 30
0.0
 11
8.255847120756563
 21
17.23744109754756
 31
0.0
  0
LINE
  5
762
330
75E
100
AcDbEntity
  8
Dimensions
 62
     0
440
 16777216
370
    -2
100
AcDbLine
 10
10.06252010551156
 20
17.49305327980765
 30
0.0
 11
8.415794757838488
 21
16.83635757333886
 31
0.0
  0
LINE
  5
763
330
75E
100
AcDbEntity
  8
Dimensions
 62
     0
440
 16777216
370
    -2
100
AcDbLine
 10
8.244903250394756
 20
17.42686187703467
 30
0.0
 11
8.178227533222997
 21
17.59405741746452
 31
0.0
  0
LINE
  5
764
330
75E
100
AcDbEntity
  8
Dimensions
 62
     0
440
 16777216
370
    -2
100
AcDbLine
 10
8.5382023218202
 20
16.69138727196625
 30
0.0
 11
8.604878038991959
 21
16.5241917315364
 31
0.0
  0
LINE
  5
765
330
75E
100
AcDbEntity
  8
Dimensions
 62
     0
440
 16777216
370
    -2
100
AcDbLine
 10
8.604878038991959
 20
16.5241917315364
 30
0.0
 11
8.784878038991958
 21
16.5241917315364
 31
0.0
  0
SOLID
  5
766
330
75E
100
AcDbEntity
  8
Dimensions
 62
     0
440
 16777216
100
AcDbTrace
 10
8.272769173799733
 20
17.43797449656329
 30
0.0
 11
8.217037326989782
 21
17.41574925750604
 31
0.0
 12
8.311578967566514
 22
17.25966633660481
 32
0.0
 13
8.311578967566514
 23
17.25966633660481
 33
0.0
  0
SOLID
  5
767
330
75E
100
AcDbEntity
  8
Dimensions
 62
     0
440
 16777216
100
AcDbTrace
 10
8.566068245225174
 20
16.70249989149488
 30
0.0
 11
8.510336398415223
 21
16.68027465243763
 31
0.0
 12
8.471526604648442
 22
16.85858281239611
 32
0.0
 13
8.471526604648442
 23
16.85858281239611
 33
0.0
  0
MTEXT
  5
768
330
75E
100
AcDbEntity
  8
Dimensions
 62
     0
440
 16777216
100
AcDbMText
 10
9.755163753277674
 20
16.5241917315364
 30
0.0
 40
0.12
 41
2.027962629116302
 46
0.0
 71
     5
 72
     1
  1
\A1;3x Transmission Lines
  7
RomanS
 73
     1
 44
1.0
  0
POINT
  5
769
330
75E
100
AcDbEntity
  8
Defpoints
 62
     0
440
 16777216
100
AcDbPoint
 10
9.960626475523334
 20
17.91728809470098
 30
0.0
  0
POINT
  5
76A
330
75E
100
AcDbEntity
  8
Defpoints
 62
     0
440
 16777216
100
AcDbPoint
 10
10.12057411260526
 20
17.51620457049228
 30
0.0
  0
POINT
  5
76B
330
75E
100
AcDbEntity
  8
Defpoints
 62
     0
440
 16777216
100
AcDbPoint
 10
8.471526604648442
 20
16.85858281239611
 30
0.0
  0
ENDBLK
  5
760
330
75E
100
AcDbEntity
  8
0
100
AcDbBlockEnd
  0
BLOCK
  5
79A
330
799
100
AcDbEntity
  8
0
100
AcDbBlockBegin
  2
*D34
 70
     1
 10
0.0
 20
0.0
 30
0.0
  3
*D34
  1

  0
LINE
  5
79C
330
799
100
AcDbEntity
  8
Dimensions
 62
     0
440
 16777216
370
    -2
100
AcDbLine
 10
19.04684946785766
 20
19.31554308849062
 30
0.0
 11
17.27439293960113
 21
19.31554308849062
 31
0.0
  0
LINE
  5
79D
330
799
100
AcDbEntity
  8
Dimensions
 62
     0
440
 16777216
370
    -2
100
AcDbLine
 10
19.04684946785766
 20
18.78554308849064
 30
0.0
 11
17.27439293960113
 21
18.78554308849064
 31
0.0
  0
LINE
  5
79E
330
799
100
AcDbEntity
  8
Dimensions
 62
     0
440
 16777216
370
    -2
100
AcDbLine
 10
17.33439293960113
 20
19.21554308849061
 30
0.0
 11
17.33439293960113
 21
19.18910447311842
 31
0.0
  0
LINE
  5
79F
330
799
100
AcDbEntity
  8
Dimensions
 62
     0
440
 16777216
370
    -2
100
AcDbLine
 10
17.33439293960113
 20
18.88554308849064
 30
0.0
 11
17.33439293960113
 21
18.94910447311842
 31
0.0
  0
MTEXT
  5
7A0
330
799
100
AcDbEntity
  8
Dimensions
 62
     0
440
 16777216
100
AcDbMText
 10
17.32387667725153
 20
19.06910447311841
 30
0.0
 40
0.12
 41
0.0
 46
0.0
 71
     5
 72
     1
  1
\A1;CIRCUIT SECTION
  7
RomanS
 73
     1
 44
1.0
  0
SOLID
  5
7A1
330
799
100
AcDbEntity
  8
Dimensions
 62
     0
440
 16777216
100
AcDbTrace
 10
17.31772627293447
 20
19.21554308849061
 30
0.0
 11
17.3510596062678
 21
19.21554308849061
 31
0.0
 12
17.33439293960113
 22
19.31554308849062
 32
0.0
 13
17.33439293960113
 23
19.31554308849062
 33
0.0
  0
SOLID
  5
7A2
330
799
100
AcDbEntity
  8
Dimensions
 62
     0
440
 16777216
100
AcDbTrace
 10
17.31772627293447
 20
18.88554308849064
 30
0.0
 11
17.3510596062678
 21
18.88554308849064
 31
0.0
 12
17.33439293960113
 22
18.78554308849064
 32
0.0
 13
17.33439293960113
 23
18.78554308849064
 33
0.0
  0
POINT
  5
7A3
330
799
100
AcDbEntity
  8
Defpoints
 62
     0
440
 16777216
100
AcDbPoint
 10
19.10934946785766
 20
19.31554308849062
 30
0.0
  0
POINT
  5
7A4
330
799
100
AcDbEntity
  8
Defpoints
 62
     0
440
 16777216
100
AcDbPoint
 10
19.10934946785766
 20
18.78554308849064
 30
0.0
  0
POINT
  5
7A5
330
799
100
AcDbEntity
  8
Defpoints
 62
     0
440
 16777216
100
AcDbPoint
 10
17.33439293960113
 20
18.78554308849064
 30
0.0
  0
ENDBLK
  5
79B
330
799
100
AcDbEntity
  8
0
100
AcDbBlockEnd
  0
BLOCK
  5
7A7
330
7A6
100
AcDbEntity
  8
0
100
AcDbBlockBegin
  2
*D35
 70
     1
 10
0.0
 20
0.0
 30
0.0
  3
*D35
  1

  0
LINE
  5
7A9
330
7A6
100
AcDbEntity
  8
Dimensions
 62
     0
440
 16777216
370
    -2
100
AcDbLine
 10
19.04684946785766
 20
18.78554308849064
 30
0.0
 11
17.81482214553818
 21
18.78554308849064
 31
0.0
  0
LINE
  5
7AA
330
7A6
100
AcDbEntity
  8
Dimensions
 62
     0
440
 16777216
370
    -2
100
AcDbLine
 10
19.04684946785766
 20
17.53054308849053
 30
0.0
 11
17.81482214553818
 21
17.53054308849053
 31
0.0
  0
LINE
  5
7AB
330
7A6
100
AcDbEntity
  8
Dimensions
 62
     0
440
 16777216
370
    -2
100
AcDbLine
 10
17.87482214553818
 20
18.68554308849064
 30
0.0
 11
17.87482214553818
 21
18.29309406506027
 31
0.0
  0
LINE
  5
7AC
330
7A6
100
AcDbEntity
  8
Dimensions
 62
     0
440
 16777216
370
    -2
100
AcDbLine
 10
17.87482214553818
 20
17.63054308849053
 30
0.0
 11
17.87482214553818
 21
18.05309406506027
 31
0.0
  0
MTEXT
  5
7AD
330
7A6
100
AcDbEntity
  8
Dimensions
 62
     0
440
 16777216
100
AcDbMText
 10
17.95191544403392
 20
18.17309406506026
 30
0.0
 40
0.12
 41
0.0
 46
0.0
 71
     5
 72
     1
  1
\A1;STIFFENER SECTION
  7
RomanS
 73
     1
 44
1.0
  0
SOLID
  5
7AE
330
7A6
100
AcDbEntity
  8
Dimensions
 62
     0
440
 16777216
100
AcDbTrace
 10
17.85815547887151
 20
18.68554308849064
 30
0.0
 11
17.89148881220484
 21
18.68554308849064
 31
0.0
 12
17.87482214553818
 22
18.78554308849064
 32
0.0
 13
17.87482214553818
 23
18.78554308849064
 33
0.0
  0
SOLID
  5
7AF
330
7A6
100
AcDbEntity
  8
Dimensions
 62
     0
440
 16777216
100
AcDbTrace
 10
17.85815547887151
 20
17.63054308849053
 30
0.0
 11
17.89148881220484
 21
17.63054308849053
 31
0.0
 12
17.87482214553818
 22
17.53054308849053
 32
0.0
 13
17.87482214553818
 23
17.53054308849053
 33
0.0
  0
POINT
  5
7B0
330
7A6
100
AcDbEntity
  8
Defpoints
 62
     0
440
 16777216
100
AcDbPoint
 10
19.10934946785766
 20
18.78554308849064
 30
0.0
  0
POINT
  5
7B1
330
7A6
100
AcDbEntity
  8
Defpoints
 62
     0
440
 16777216
100
AcDbPoint
 10
19.10934946785766
 20
17.53054308849053
 30
0.0
  0
POINT
  5
7B2
330
7A6
100
AcDbEntity
  8
Defpoints
 62
     0
440
 16777216
100
AcDbPoint
 10
17.87482214553818
 20
17.53054308849053
 30
0.0
  0
ENDBLK
  5
7A8
330
7A6
100
AcDbEntity
  8
0
100
AcDbBlockEnd
  0
BLOCK
  5
7E1
330
7E0
100
AcDbEntity
  8
0
100
AcDbBlockBegin
  2
*D36
 70
     1
 10
0.0
 20
0.0
 30
0.0
  3
*D36
  1

  0
LINE
  5
7E3
330
7E0
100
AcDbEntity
  8
Dimensions
 62
     0
440
 16777216
370
    -2
100
AcDbLine
 10
19.04684946785765
 20
4.343259845283407
 30
0.0
 11
17.27439293960113
 21
4.343259845283406
 31
0.0
  0
LINE
  5
7E4
330
7E0
100
AcDbEntity
  8
Dimensions
 62
     0
440
 16777216
370
    -2
100
AcDbLine
 10
19.04684946785765
 20
3.813259845283434
 30
0.0
 11
17.27439293960113
 21
3.813259845283434
 31
0.0
  0
LINE
  5
7E5
330
7E0
100
AcDbEntity
  8
Dimensions
 62
     0
440
 16777216
370
    -2
100
AcDbLine
 10
17.33439293960113
 20
4.243259845283406
 30
0.0
 11
17.33439293960113
 21
4.216821229911212
 31
0.0
  0
LINE
  5
7E6
330
7E0
100
AcDbEntity
  8
Dimensions
 62
     0
440
 16777216
370
    -2
100
AcDbLine
 10
17.33439293960113
 20
3.913259845283434
 30
0.0
 11
17.33439293960113
 21
3.976821229911212
 31
0.0
  0
MTEXT
  5
7E7
330
7E0
100
AcDbEntity
  8
Dimensions
 62
     0
440
 16777216
100
AcDbMText
 10
17.32387667725152
 20
4.096821229911206
 30
0.0
 40
0.12
 41
0.0
 46
0.0
 71
     5
 72
     1
  1
\A1;CIRCUIT SECTION
  7
RomanS
 73
     1
 44
1.0
  0
SOLID
  5
7E8
330
7E0
100
AcDbEntity
  8
Dimensions
 62
     0
440
 16777216
100
AcDbTrace
 10
17.31772627293446
 20
4.243259845283406
 30
0.0
 11
17.35105960626779
 21
4.243259845283406
 31
0.0
 12
17.33439293960113
 22
4.343259845283406
 32
0.0
 13
17.33439293960113
 23
4.343259845283406
 33
0.0
  0
SOLID
  5
7E9
330
7E0
100
AcDbEntity
  8
Dimensions
 62
     0
440
 16777216
100
AcDbTrace
 10
17.31772627293446
 20
3.913259845283434
 30
0.0
 11
17.35105960626779
 21
3.913259845283434
 31
0.0
 12
17.33439293960113
 22
3.813259845283434
 32
0.0
 13
17.33439293960113
 23
3.813259845283434
 33
0.0
  0
POINT
  5
7EA
330
7E0
100
AcDbEntity
  8
Defpoints
 62
     0
440
 16777216
100
AcDbPoint
 10
19.10934946785765
 20
4.343259845283407
 30
0.0
  0
POINT
  5
7EB
330
7E0
100
AcDbEntity
  8
Defpoints
 62
     0
440
 16777216
100
AcDbPoint
 10
19.10934946785765
 20
3.813259845283434
 30
0.0
  0
POINT
  5
7EC
330
7E0
100
AcDbEntity
  8
Defpoints
 62
     0
440
 16777216
100
AcDbPoint
 10
17.33439293960113
 20
3.813259845283434
 30
0.0
  0
ENDBLK
  5
7E2
330
7E0
100
AcDbEntity
  8
0
100
AcDbBlockEnd
  0
BLOCK
  5
7EE
330
7ED
100
AcDbEntity
  8
0
100
AcDbBlockBegin
  2
*D37
 70
     1
 10
0.0
 20
0.0
 30
0.0
  3
*D37
  1

  0
LINE
  5
7F0
330
7ED
100
AcDbEntity
  8
Dimensions
 62
     0
440
 16777216
370
    -2
100
AcDbLine
 10
19.04684946785765
 20
3.813259845283434
 30
0.0
 11
17.81482214553818
 21
3.813259845283434
 31
0.0
  0
LINE
  5
7F1
330
7ED
100
AcDbEntity
  8
Dimensions
 62
     0
440
 16777216
370
    -2
100
AcDbLine
 10
19.04684946785765
 20
2.558259845283321
 30
0.0
 11
17.81482214553818
 21
2.55825984528332
 31
0.0
  0
LINE
  5
7F2
330
7ED
100
AcDbEntity
  8
Dimensions
 62
     0
440
 16777216
370
    -2
100
AcDbLine
 10
17.87482214553817
 20
3.713259845283434
 30
0.0
 11
17.87482214553817
 21
3.320810821853066
 31
0.0
  0
LINE
  5
7F3
330
7ED
100
AcDbEntity
  8
Dimensions
 62
     0
440
 16777216
370
    -2
100
AcDbLine
 10
17.87482214553817
 20
2.65825984528332
 30
0.0
 11
17.87482214553817
 21
3.080810821853066
 31
0.0
  0
MTEXT
  5
7F4
330
7ED
100
AcDbEntity
  8
Dimensions
 62
     0
440
 16777216
100
AcDbMText
 10
17.95191544403392
 20
3.20081082185306
 30
0.0
 40
0.12
 41
0.0
 46
0.0
 71
     5
 72
     1
  1
\A1;STIFFENER SECTION
  7
RomanS
 73
     1
 44
1.0
  0
SOLID
  5
7F5
330
7ED
100
AcDbEntity
  8
Dimensions
 62
     0
440
 16777216
100
AcDbTrace
 10
17.85815547887151
 20
3.713259845283434
 30
0.0
 11
17.89148881220484
 21
3.713259845283434
 31
0.0
 12
17.87482214553817
 22
3.813259845283434
 32
0.0
 13
17.87482214553817
 23
3.813259845283434
 33
0.0
  0
SOLID
  5
7F6
330
7ED
100
AcDbEntity
  8
Dimensions
 62
     0
440
 16777216
100
AcDbTrace
 10
17.85815547887151
 20
2.65825984528332
 30
0.0
 11
17.89148881220484
 21
2.65825984528332
 31
0.0
 12
17.87482214553817
 22
2.55825984528332
 32
0.0
 13
17.87482214553817
 23
2.55825984528332
 33
0.0
  0
POINT
  5
7F7
330
7ED
100
AcDbEntity
  8
Defpoints
 62
     0
440
 16777216
100
AcDbPoint
 10
19.10934946785765
 20
3.813259845283434
 30
0.0
  0
POINT
  5
7F8
330
7ED
100
AcDbEntity
  8
Defpoints
 62
     0
440
 16777216
100
AcDbPoint
 10
19.10934946785765
 20
2.558259845283321
 30
0.0
  0
POINT
  5
7F9
330
7ED
100
AcDbEntity
  8
Defpoints
 62
     0
440
 16777216
100
AcDbPoint
 10
17.87482214553817
 20
2.55825984528332
 30
0.0
  0
ENDBLK
  5
7EF
330
7ED
100
AcDbEntity
  8
0
100
AcDbBlockEnd
  0
BLOCK
  5
A76
330
A75
100
AcDbEntity
  8
0
100
AcDbBlockBegin
  2
*D38
 70
     1
 10
0.0
 20
0.0
 30
0.0
  3
*D38
  1

  0
LINE
  5
A77
330
A75
100
AcDbEntity
  8
Dimensions
 62
     0
440
 16777216
370
    -2
100
AcDbLine
 10
35.34563180687184
 20
4.263876161006246
 30
0.0
 11
36.78081051052828
 21
4.263876161006246
 31
0.0
  0
LINE
  5
A78
330
A75
100
AcDbEntity
  8
Dimensions
 62
     0
440
 16777216
370
    -2
100
AcDbLine
 10
35.34563180687184
 20
4.670276161006031
 30
0.0
 11
36.78081051052828
 21
4.670276161006031
 31
0.0
  0
LINE
  5
A79
330
A75
100
AcDbEntity
  8
Dimensions
 62
     0
440
 16777216
370
    -2
100
AcDbLine
 10
36.60081051052828
 20
4.143876161006246
 30
0.0
 11
36.60081051052828
 21
4.023876161006246
 31
0.0
  0
LINE
  5
A7A
330
A75
100
AcDbEntity
  8
Dimensions
 62
     0
440
 16777216
370
    -2
100
AcDbLine
 10
36.60081051052828
 20
4.790276161006031
 30
0.0
 11
36.60081051052828
 21
4.910276161006031
 31
0.0
  0
SOLID
  5
A7B
330
A75
100
AcDbEntity
  8
Dimensions
 62
     0
440
 16777216
100
AcDbTrace
 10
36.58081051052828
 20
4.143876161006246
 30
0.0
 11
36.62081051052829
 21
4.143876161006246
 31
0.0
 12
36.60081051052828
 22
4.263876161006246
 32
0.0
 13
36.60081051052828
 23
4.263876161006246
 33
0.0
  0
SOLID
  5
A7C
330
A75
100
AcDbEntity
  8
Dimensions
 62
     0
440
 16777216
100
AcDbTrace
 10
36.58081051052828
 20
4.790276161006031
 30
0.0
 11
36.62081051052829
 21
4.790276161006031
 31
0.0
 12
36.60081051052828
 22
4.670276161006031
 32
0.0
 13
36.60081051052828
 23
4.670276161006031
 33
0.0
  0
MTEXT
  5
A7D
330
A75
100
AcDbEntity
  8
Dimensions
 62
     0
440
 16777216
100
AcDbMText
 10
36.60081051052828
 20
4.467076161006127
 30
0.0
 40
0.12
 41
0.0
 46
0.0
 71
     5
 72
     1
  1
\A1;0.4064
 73
     1
 44
1.0
  0
POINT
  5
A7E
330
A75
100
AcDbEntity
  8
Defpoints
 62
     0
440
 16777216
100
AcDbPoint
 10
35.28313180687184
 20
4.263876161006246
 30
0.0
  0
POINT
  5
A7F
330
A75
100
AcDbEntity
  8
Defpoints
 62
     0
440
 16777216
100
AcDbPoint
 10
35.28313180687184
 20
4.670276161006031
 30
0.0
  0
POINT
  5
A80
330
A75
100
AcDbEntity
  8
Defpoints
 62
     0
440
 16777216
100
AcDbPoint
 10
36.60081051052828
 20
4.670276161006031
 30
0.0
  0
ENDBLK
  5
A81
330
A75
100
AcDbEntity
  8
0
100
AcDbBlockEnd
  0
BLOCK
  5
A83
330
A82
100
AcDbEntity
  8
0
100
AcDbBlockBegin
  2
*D39
 70
     1
 10
0.0
 20
0.0
 30
0.0
  3
*D39
  1

  0
LINE
  5
A84
330
A82
100
AcDbEntity
  8
Dimensions
 62
     0
440
 16777216
370
    -2
100
AcDbLine
 10
36.18254492585005
 20
4.223376161005662
 30
0.0
 11
37.05756699938809
 21
4.223376161005662
 31
0.0
  0
LINE
  5
A85
330
A82
100
AcDbEntity
  8
Dimensions
 62
     0
440
 16777216
370
    -2
100
AcDbLine
 10
36.18254492585076
 20
4.710776161006608
 30
0.0
 11
37.05756699938809
 21
4.710776161006608
 31
0.0
  0
LINE
  5
A86
330
A82
100
AcDbEntity
  8
Dimensions
 62
     0
440
 16777216
370
    -2
100
AcDbLine
 10
36.87756699938809
 20
4.343376161005662
 30
0.0
 11
36.87756699938809
 21
4.590776161006608
 31
0.0
  0
LINE
  5
A87
330
A82
100
AcDbEntity
  8
Dimensions
 62
     0
440
 16777216
370
    -2
100
AcDbLine
 10
36.87756699938809
 20
4.710776161006608
 30
0.0
 11
36.87756699938809
 21
4.830776161006608
 31
0.0
  0
LINE
  5
A88
330
A82
100
AcDbEntity
  8
Dimensions
 62
     0
440
 16777216
370
    -2
100
AcDbLine
 10
36.87756699938809
 20
4.830776161006608
 30
0.0
 11
36.99756699938808
 21
4.830776161006608
 31
0.0
  0
SOLID
  5
A89
330
A82
100
AcDbEntity
  8
Dimensions
 62
     0
440
 16777216
100
AcDbTrace
 10
36.85756699938809
 20
4.343376161005662
 30
0.0
 11
36.89756699938809
 21
4.343376161005662
 31
0.0
 12
36.87756699938809
 22
4.223376161005662
 32
0.0
 13
36.87756699938809
 23
4.223376161005662
 33
0.0
  0
SOLID
  5
A8A
330
A82
100
AcDbEntity
  8
Dimensions
 62
     0
440
 16777216
100
AcDbTrace
 10
36.85756699938809
 20
4.590776161006608
 30
0.0
 11
36.89756699938809
 21
4.590776161006608
 31
0.0
 12
36.87756699938809
 22
4.710776161006608
 32
0.0
 13
36.87756699938809
 23
4.710776161006608
 33
0.0
  0
MTEXT
  5
A8B
330
A82
100
AcDbEntity
  8
Dimensions
 62
     0
440
 16777216
100
AcDbMText
 10
37.33640738137989
 20
4.830776161006596
 30
0.0
 40
0.12
 41
0.0
 46
0.0
 71
     5
 72
     1
  1
\A1;0.4874
 73
     1
 44
1.0
  0
POINT
  5
A8C
330
A82
100
AcDbEntity
  8
Defpoints
 62
     0
440
 16777216
100
AcDbPoint
 10
36.12004492585004
 20
4.223376161005662
 30
0.0
  0
POINT
  5
A8D
330
A82
100
AcDbEntity
  8
Defpoints
 62
     0
440
 16777216
100
AcDbPoint
 10
36.12004492585076
 20
4.710776161006608
 30
0.0
  0
POINT
  5
A8E
330
A82
100
AcDbEntity
  8
Defpoints
 62
     0
440
 16777216
100
AcDbPoint
 10
36.87756699938809
 20
4.710776161006608
 30
0.0
  0
ENDBLK
  5
A8F
330
A82
100
AcDbEntity
  8
0
100
AcDbBlockEnd
  0
BLOCK
  5
A91
330
A90
100
AcDbEntity
  8
0
100
AcDbBlockBegin
  2
*D40
 70
     1
 10
0.0
 20
0.0
 30
0.0
  3
*D40
  1

  0
LINE
  5
A92
330
A90
100
AcDbEntity
  8
Dimensions
 62
     0
440
 16777216
370
    -2
100
AcDbLine
 10
34.62273180687193
 20
4.201376161006244
 30
0.0
 11
34.62273180687193
 21
3.526626789457495
 31
0.0
  0
LINE
  5
A93
330
A90
100
AcDbEntity
  8
Dimensions
 62
     0
440
 16777216
370
    -2
100
AcDbLine
 10
35.94353180687172
 20
4.201376161006244
 30
0.0
 11
35.94353180687172
 21
3.526626789457495
 31
0.0
  0
LINE
  5
A94
330
A90
100
AcDbEntity
  8
Dimensions
 62
     0
440
 16777216
370
    -2
100
AcDbLine
 10
34.74273180687192
 20
3.706626789457494
 30
0.0
 11
34.94957109745846
 21
3.706626789457494
 31
0.0
  0
LINE
  5
A95
330
A90
100
AcDbEntity
  8
Dimensions
 62
     0
440
 16777216
370
    -2
100
AcDbLine
 10
35.82353180687172
 20
3.706626789457494
 30
0.0
 11
35.61669251628519
 21
3.706626789457494
 31
0.0
  0
SOLID
  5
A96
330
A90
100
AcDbEntity
  8
Dimensions
 62
     0
440
 16777216
100
AcDbTrace
 10
34.74273180687192
 20
3.726626789457494
 30
0.0
 11
34.74273180687192
 21
3.686626789457494
 31
0.0
 12
34.62273180687193
 22
3.706626789457494
 32
0.0
 13
34.62273180687193
 23
3.706626789457494
 33
0.0
  0
SOLID
  5
A97
330
A90
100
AcDbEntity
  8
Dimensions
 62
     0
440
 16777216
100
AcDbTrace
 10
35.82353180687172
 20
3.726626789457494
 30
0.0
 11
35.82353180687172
 21
3.686626789457494
 31
0.0
 12
35.94353180687172
 22
3.706626789457494
 32
0.0
 13
35.94353180687172
 23
3.706626789457494
 33
0.0
  0
MTEXT
  5
A98
330
A90
100
AcDbEntity
  8
Dimensions
 62
     0
440
 16777216
100
AcDbMText
 10
35.28313180687182
 20
3.706626789457494
 30
0.0
 40
0.12
 41
0.0
 46
0.0
 71
     5
 72
     1
  1
\A1;1.3208
 73
     1
 44
1.0
  0
POINT
  5
A99
330
A90
100
AcDbEntity
  8
Defpoints
 62
     0
440
 16777216
100
AcDbPoint
 10
34.62273180687193
 20
4.263876161006244
 30
0.0
  0
POINT
  5
A9A
330
A90
100
AcDbEntity
  8
Defpoints
 62
     0
440
 16777216
100
AcDbPoint
 10
35.94353180687172
 20
4.263876161006244
 30
0.0
  0
POINT
  5
A9B
330
A90
100
AcDbEntity
  8
Defpoints
 62
     0
440
 16777216
100
AcDbPoint
 10
35.94353180687172
 20
3.706626789457494
 30
0.0
  0
ENDBLK
  5
A9C
330
A90
100
AcDbEntity
  8
0
100
AcDbBlockEnd
  0
BLOCK
  5
A9E
330
A9D
100
AcDbEntity
  8
0
100
AcDbBlockBegin
  2
*D41
 70
     1
 10
0.0
 20
0.0
 30
0.0
  3
*D41
  1

  0
LINE
  5
A9F
330
A9D
100
AcDbEntity
  8
Dimensions
 62
     0
440
 16777216
370
    -2
100
AcDbLine
 10
34.62273180687193
 20
4.201376161006414
 30
0.0
 11
34.62273180687193
 21
3.706626789457494
 31
0.0
  0
LINE
  5
AA0
330
A9D
100
AcDbEntity
  8
Dimensions
 62
     0
440
 16777216
370
    -2
100
AcDbLine
 10
34.44621868789291
 20
4.160876161005666
 30
0.0
 11
34.44621868789291
 21
3.706626789457494
 31
0.0
  0
LINE
  5
AA1
330
A9D
100
AcDbEntity
  8
Dimensions
 62
     0
440
 16777216
370
    -2
100
AcDbLine
 10
34.32621868789291
 20
3.886626789457494
 30
0.0
 11
34.20621868789291
 21
3.886626789457494
 31
0.0
  0
LINE
  5
AA2
330
A9D
100
AcDbEntity
  8
Dimensions
 62
     0
440
 16777216
370
    -2
100
AcDbLine
 10
34.74273180687192
 20
3.886626789457494
 30
0.0
 11
34.86273180687193
 21
3.886626789457494
 31
0.0
  0
SOLID
  5
AA3
330
A9D
100
AcDbEntity
  8
Dimensions
 62
     0
440
 16777216
100
AcDbTrace
 10
34.32621868789291
 20
3.906626789457494
 30
0.0
 11
34.32621868789291
 21
3.866626789457494
 31
0.0
 12
34.44621868789291
 22
3.886626789457494
 32
0.0
 13
34.44621868789291
 23
3.886626789457494
 33
0.0
  0
SOLID
  5
AA4
330
A9D
100
AcDbEntity
  8
Dimensions
 62
     0
440
 16777216
100
AcDbTrace
 10
34.74273180687192
 20
3.906626789457494
 30
0.0
 11
34.74273180687192
 21
3.866626789457494
 31
0.0
 12
34.62273180687193
 22
3.886626789457494
 32
0.0
 13
34.62273180687193
 23
3.886626789457494
 33
0.0
  0
MTEXT
  5
AA5
330
A9D
100
AcDbEntity
  8
Dimensions
 62
     0
440
 16777216
100
AcDbMText
 10
35.20226795966865
 20
3.886626789457494
 30
0.0
 40
0.12
 41
0.0
 46
0.0
 71
     5
 72
     1
  1
\A1;0.1765
 73
     1
 44
1.0
  0
POINT
  5
AA6
330
A9D
100
AcDbEntity
  8
Defpoints
 62
     0
440
 16777216
100
AcDbPoint
 10
34.62273180687193
 20
4.263876161006414
 30
0.0
  0
POINT
  5
AA7
330
A9D
100
AcDbEntity
  8
Defpoints
 62
     0
440
 16777216
100
AcDbPoint
 10
34.44621868789291
 20
4.223376161005666
 30
0.0
  0
POINT
  5
AA8
330
A9D
100
AcDbEntity
  8
Defpoints
 62
     0
440
 16777216
100
AcDbPoint
 10
34.44621868789291
 20
3.886626789457494
 30
0.0
  0
ENDBLK
  5
AA9
330
A9D
100
AcDbEntity
  8
0
100
AcDbBlockEnd
  0
BLOCK
  5
AAB
330
AAA
100
AcDbEntity
  8
0
100
AcDbBlockBegin
  2
*D42
 70
     1
 10
0.0
 20
0.0
 30
0.0
  3
*D42
  1

  0
LINE
  5
AAC
330
AAA
100
AcDbEntity
  8
Dimensions
 62
     0
440
 16777216
370
    -2
100
AcDbLine
 10
34.44621868789291
 20
4.16087616100566
 30
0.0
 11
34.44621868789291
 21
3.278269576889091
 31
0.0
  0
LINE
  5
AAD
330
AAA
100
AcDbEntity
  8
Dimensions
 62
     0
440
 16777216
370
    -2
100
AcDbLine
 10
34.10593270867988
 20
4.16087616100566
 30
0.0
 11
34.10593270867988
 21
3.278269576889091
 31
0.0
  0
LINE
  5
AAE
330
AAA
100
AcDbEntity
  8
Dimensions
 62
     0
440
 16777216
370
    -2
100
AcDbLine
 10
34.56621868789291
 20
3.45826957688909
 30
0.0
 11
34.68621868789291
 21
3.45826957688909
 31
0.0
  0
LINE
  5
AAF
330
AAA
100
AcDbEntity
  8
Dimensions
 62
     0
440
 16777216
370
    -2
100
AcDbLine
 10
33.98593270867988
 20
3.45826957688909
 30
0.0
 11
33.86593270867989
 21
3.45826957688909
 31
0.0
  0
SOLID
  5
AB0
330
AAA
100
AcDbEntity
  8
Dimensions
 62
     0
440
 16777216
100
AcDbTrace
 10
34.56621868789291
 20
3.47826957688909
 30
0.0
 11
34.56621868789291
 21
3.43826957688909
 31
0.0
 12
34.44621868789291
 22
3.45826957688909
 32
0.0
 13
34.44621868789291
 23
3.45826957688909
 33
0.0
  0
SOLID
  5
AB1
330
AAA
100
AcDbEntity
  8
Dimensions
 62
     0
440
 16777216
100
AcDbTrace
 10
33.98593270867988
 20
3.47826957688909
 30
0.0
 11
33.98593270867988
 21
3.43826957688909
 31
0.0
 12
34.10593270867988
 22
3.45826957688909
 32
0.0
 13
34.10593270867988
 23
3.45826957688909
 33
0.0
  0
MTEXT
  5
AB2
330
AAA
100
AcDbEntity
  8
Dimensions
 62
     0
440
 16777216
100
AcDbMText
 10
33.52684676052163
 20
3.45826957688909
 30
0.0
 40
0.12
 41
0.0
 46
0.0
 71
     5
 72
     1
  1
\A1;0.3403
 73
     1
 44
1.0
  0
POINT
  5
AB3
330
AAA
100
AcDbEntity
  8
Defpoints
 62
     0
440
 16777216
100
AcDbPoint
 10
34.44621868789291
 20
4.22337616100566
 30
0.0
  0
POINT
  5
AB4
330
AAA
100
AcDbEntity
  8
Defpoints
 62
     0
440
 16777216
100
AcDbPoint
 10
34.10593270867988
 20
4.22337616100566
 30
0.0
  0
POINT
  5
AB5
330
AAA
100
AcDbEntity
  8
Defpoints
 62
     0
440
 16777216
100
AcDbPoint
 10
34.10593270867988
 20
3.45826957688909
 30
0.0
  0
ENDBLK
  5
AB6
330
AAA
100
AcDbEntity
  8
0
100
AcDbBlockEnd
  0
BLOCK
  5
AB8
330
AB7
100
AcDbEntity
  8
0
100
AcDbBlockBegin
  2
*D43
 70
     1
 10
0.0
 20
0.0
 30
0.0
  3
*D43
  1

  0
LINE
  5
AB9
330
AB7
100
AcDbEntity
  8
Dimensions
 62
     0
440
 16777216
370
    -2
100
AcDbLine
 10
34.62273180687156
 20
4.529576161005968
 30
0.0
 11
34.62273180687156
 21
5.78796394771585
 31
0.0
  0
LINE
  5
ABA
330
AB7
100
AcDbEntity
  8
Dimensions
 62
     0
440
 16777216
370
    -2
100
AcDbLine
 10
34.10593270867988
 20
4.529576161005968
 30
0.0
 11
34.10593270867988
 21
5.78796394771585
 31
0.0
  0
LINE
  5
ABB
330
AB7
100
AcDbEntity
  8
Dimensions
 62
     0
440
 16777216
370
    -2
100
AcDbLine
 10
34.50273180687156
 20
5.60796394771585
 30
0.0
 11
34.22593270867988
 21
5.60796394771585
 31
0.0
  0
LINE
  5
ABC
330
AB7
100
AcDbEntity
  8
Dimensions
 62
     0
440
 16777216
370
    -2
100
AcDbLine
 10
34.10593270867988
 20
5.60796394771585
 30
0.0
 11
33.98593270867988
 21
5.60796394771585
 31
0.0
  0
SOLID
  5
ABD
330
AB7
100
AcDbEntity
  8
Dimensions
 62
     0
440
 16777216
100
AcDbTrace
 10
34.50273180687156
 20
5.62796394771585
 30
0.0
 11
34.50273180687156
 21
5.58796394771585
 31
0.0
 12
34.62273180687156
 22
5.60796394771585
 32
0.0
 13
34.62273180687156
 23
5.60796394771585
 33
0.0
  0
SOLID
  5
ABE
330
AB7
100
AcDbEntity
  8
Dimensions
 62
     0
440
 16777216
100
AcDbTrace
 10
34.22593270867988
 20
5.62796394771585
 30
0.0
 11
34.22593270867988
 21
5.58796394771585
 31
0.0
 12
34.10593270867988
 22
5.60796394771585
 32
0.0
 13
34.10593270867988
 23
5.60796394771585
 33
0.0
  0
MTEXT
  5
ABF
330
AB7
100
AcDbEntity
  8
Dimensions
 62
     0
440
 16777216
100
AcDbMText
 10
33.53388632395955
 20
5.60796394771585
 30
0.0
 40
0.12
 41
0.0
 46
0.0
 71
     5
 72
     1
  1
\A1;2x 0.5168
 73
     1
 44
1.0
  0
POINT
  5
AC0
330
AB7
100
AcDbEntity
  8
Defpoints
 62
     0
440
 16777216
100
AcDbPoint
 10
34.62273180687156
 20
4.467076161005968
 30
0.0
  0
POINT
  5
AC1
330
AB7
100
AcDbEntity
  8
Defpoints
 62
     0
440
 16777216
100
AcDbPoint
 10
34.10593270867988
 20
4.467076161005968
 30
0.0
  0
POINT
  5
AC2
330
AB7
100
AcDbEntity
  8
Defpoints
 62
     0
440
 16777216
100
AcDbPoint
 10
34.10593270867988
 20
5.60796394771585
 30
0.0
  0
ENDBLK
  5
AC3
330
AB7
100
AcDbEntity
  8
0
100
AcDbBlockEnd
  0
BLOCK
  5
AC5
330
AC4
100
AcDbEntity
  8
0
100
AcDbBlockBegin
  2
*D44
 70
     1
 10
0.0
 20
0.0
 30
0.0
  3
*D44
  1

  0
LINE
  5
AC6
330
AC4
100
AcDbEntity
  8
Dimensions
 62
     0
440
 16777216
370
    -2
100
AcDbLine
 10
35.76125986116442
 20
4.529576161006502
 30
0.0
 11
35.76125986116442
 21
5.265948630227143
 31
0.0
  0
LINE
  5
AC7
330
AC4
100
AcDbEntity
  8
Dimensions
 62
     0
440
 16777216
370
    -2
100
AcDbLine
 10
35.28313180687183
 20
4.529576161006502
 30
0.0
 11
35.28313180687183
 21
5.265948630227143
 31
0.0
  0
LINE
  5
AC8
330
AC4
100
AcDbEntity
  8
Dimensions
 62
     0
440
 16777216
370
    -2
100
AcDbLine
 10
35.64125986116442
 20
5.085948630227143
 30
0.0
 11
35.40313180687183
 21
5.085948630227143
 31
0.0
  0
LINE
  5
AC9
330
AC4
100
AcDbEntity
  8
Dimensions
 62
     0
440
 16777216
370
    -2
100
AcDbLine
 10
35.28313180687183
 20
5.085948630227143
 30
0.0
 11
35.16313180687183
 21
5.085948630227143
 31
0.0
  0
SOLID
  5
ACA
330
AC4
100
AcDbEntity
  8
Dimensions
 62
     0
440
 16777216
100
AcDbTrace
 10
35.64125986116442
 20
5.105948630227143
 30
0.0
 11
35.64125986116442
 21
5.065948630227143
 31
0.0
 12
35.76125986116442
 22
5.085948630227143
 32
0.0
 13
35.76125986116442
 23
5.085948630227143
 33
0.0
  0
SOLID
  5
ACB
330
AC4
100
AcDbEntity
  8
Dimensions
 62
     0
440
 16777216
100
AcDbTrace
 10
35.40313180687183
 20
5.105948630227143
 30
0.0
 11
35.40313180687183
 21
5.065948630227143
 31
0.0
 12
35.28313180687183
 22
5.085948630227143
 32
0.0
 13
35.28313180687183
 23
5.085948630227143
 33
0.0
  0
MTEXT
  5
ACC
330
AC4
100
AcDbEntity
  8
Dimensions
 62
     0
440
 16777216
100
AcDbMText
 10
34.72139920114195
 20
5.085948630227143
 30
0.0
 40
0.12
 41
0.0
 46
0.0
 71
     5
 72
     1
  1
\A1;4x 0.4781
 73
     1
 44
1.0
  0
POINT
  5
ACD
330
AC4
100
AcDbEntity
  8
Defpoints
 62
     0
440
 16777216
100
AcDbPoint
 10
35.76125986116442
 20
4.467076161006502
 30
0.0
  0
POINT
  5
ACE
330
AC4
100
AcDbEntity
  8
Defpoints
 62
     0
440
 16777216
100
AcDbPoint
 10
35.28313180687183
 20
4.467076161006502
 30
0.0
  0
POINT
  5
ACF
330
AC4
100
AcDbEntity
  8
Defpoints
 62
     0
440
 16777216
100
AcDbPoint
 10
35.28313180687183
 20
5.085948630227143
 30
0.0
  0
ENDBLK
  5
AD0
330
AC4
100
AcDbEntity
  8
0
100
AcDbBlockEnd
  0
BLOCK
  5
AD2
330
AD1
100
AcDbEntity
  8
0
100
AcDbBlockBegin
  2
*D45
 70
     1
 10
0.0
 20
0.0
 30
0.0
  3
*D45
  1

  0
LINE
  5
AD3
330
AD1
100
AcDbEntity
  8
Dimensions
 62
     0
440
 16777216
370
    -2
100
AcDbLine
 10
33.29048964107347
 20
4.885504179013327
 30
0.0
 11
33.41048964107348
 21
4.885504179013327
 31
0.0
  0
LINE
  5
AD4
330
AD1
100
AcDbEntity
  8
Dimensions
 62
     0
440
 16777216
370
    -2
100
AcDbLine
 10
33.41048964107348
 20
4.885504179013327
 30
0.0
 11
34.1021899740566
 21
4.569669169186695
 31
0.0
  0
MTEXT
  5
AD5
330
AD1
100
AcDbEntity
  8
Dimensions
 62
     0
440
 16777216
100
AcDbMText
 10
32.88632865880881
 20
4.885504179013327
 30
0.0
 40
0.12
 41
0.0
 46
0.0
 71
     5
 72
     1
  1
\A1;∅0.2540
 73
     1
 44
1.0
  0
SOLID
  5
AD6
330
AD1
100
AcDbEntity
  8
Dimensions
 62
     0
440
 16777216
100
AcDbTrace
 10
34.11049710022503
 20
4.58786234523767
 30
0.0
 11
34.09388284788817
 21
4.551475993135721
 31
0.0
 12
34.21134903036245
 22
4.519826412176103
 32
0.0
 13
34.21134903036245
 23
4.519826412176103
 33
0.0
  0
LINE
  5
AD7
330
AD1
100
AcDbEntity
  8
Dimensions
 62
     0
440
 16777216
370
    -2
100
AcDbLine
 10
34.23687569828626
 20
4.467076161006502
 30
0.0
 11
34.41687569828626
 21
4.467076161006506
 31
0.0
  0
LINE
  5
AD8
330
AD1
100
AcDbEntity
  8
Dimensions
 62
     0
440
 16777216
370
    -2
100
AcDbLine
 10
34.32687569828626
 20
4.377076161006506
 30
0.0
 11
34.32687569828626
 21
4.557076161006504
 31
0.0
  0
POINT
  5
AD9
330
AD1
100
AcDbEntity
  8
Defpoints
 62
     0
440
 16777216
100
AcDbPoint
 10
34.21134903036245
 20
4.519826412176103
 30
0.0
  0
POINT
  5
ADA
330
AD1
100
AcDbEntity
  8
Defpoints
 62
     0
440
 16777216
100
AcDbPoint
 10
34.44240236621007
 20
4.414325909836906
 30
0.0
  0
ENDBLK
  5
ADB
330
AD1
100
AcDbEntity
  8
0
100
AcDbBlockEnd
  0
BLOCK
  5
ADD
330
ADC
100
AcDbEntity
  8
0
100
AcDbBlockBegin
  2
*D46
 70
     1
 10
0.0
 20
0.0
 30
0.0
  3
*D46
  1

  0
LINE
  5
ADE
330
ADC
100
AcDbEntity
  8
Dimensions
 62
     0
440
 16777216
370
    -2
100
AcDbLine
 10
28.71119698748652
 20
3.540976126005823
 30
0.0
 11
28.71119698748652
 21
3.034487653553548
 31
0.0
  0
LINE
  5
ADF
330
ADC
100
AcDbEntity
  8
Dimensions
 62
     0
440
 16777216
370
    -2
100
AcDbLine
 10
29.04139698748591
 20
3.540976126005823
 30
0.0
 11
29.04139698748591
 21
3.034487653553548
 31
0.0
  0
LINE
  5
AE0
330
ADC
100
AcDbEntity
  8
Dimensions
 62
     0
440
 16777216
370
    -2
100
AcDbLine
 10
29.16139698748591
 20
3.214487653553548
 30
0.0
 11
29.28139698748591
 21
3.214487653553548
 31
0.0
  0
LINE
  5
AE1
330
ADC
100
AcDbEntity
  8
Dimensions
 62
     0
440
 16777216
370
    -2
100
AcDbLine
 10
28.59119698748651
 20
3.214487653553548
 30
0.0
 11
28.42530870229941
 21
3.214487653553548
 31
0.0
  0
SOLID
  5
AE2
330
ADC
100
AcDbEntity
  8
Dimensions
 62
     0
440
 16777216
100
AcDbTrace
 10
29.16139698748591
 20
3.234487653553548
 30
0.0
 11
29.16139698748591
 21
3.194487653553548
 31
0.0
 12
29.04139698748591
 22
3.214487653553548
 32
0.0
 13
29.04139698748591
 23
3.214487653553548
 33
0.0
  0
SOLID
  5
AE3
330
ADC
100
AcDbEntity
  8
Dimensions
 62
     0
440
 16777216
100
AcDbTrace
 10
28.59119698748651
 20
3.234487653553548
 30
0.0
 11
28.59119698748651
 21
3.194487653553548
 31
0.0
 12
28.71119698748652
 22
3.214487653553548
 32
0.0
 13
28.71119698748652
 23
3.214487653553548
 33
0.0
  0
MTEXT
  5
AE4
330
ADC
100
AcDbEntity
  8
Dimensions
 62
     0
440
 16777216
100
AcDbMText
 10
27.99589533258591
 20
3.214487653553548
 30
0.0
 40
0.12
 41
0.0
 46
0.0
 71
     5
 72
     1
  1
\A1;4x0.3302
 73
     1
 44
1.0
  0
POINT
  5
AE5
330
ADC
100
AcDbEntity
  8
Defpoints
 62
     0
440
 16777216
100
AcDbPoint
 10
28.71119698748652
 20
3.603476126005823
 30
0.0
  0
POINT
  5
AE6
330
ADC
100
AcDbEntity
  8
Defpoints
 62
     0
440
 16777216
100
AcDbPoint
 10
29.04139698748591
 20
3.603476126005823
 30
0.0
  0
POINT
  5
AE7
330
ADC
100
AcDbEntity
  8
Defpoints
 62
     0
440
 16777216
100
AcDbPoint
 10
29.04139698748591
 20
3.214487653553548
 30
0.0
  0
ENDBLK
  5
AE8
330
ADC
100
AcDbEntity
  8
0
100
AcDbBlockEnd
  0
BLOCK
  5
AEA
330
AE9
100
AcDbEntity
  8
0
100
AcDbBlockBegin
  2
*D47
 70
     1
 10
0.0
 20
0.0
 30
0.0
  3
*D47
  1

  0
LINE
  5
AEB
330
AE9
100
AcDbEntity
  8
Dimensions
 62
     0
440
 16777216
370
    -2
100
AcDbLine
 10
29.04139698748591
 20
5.393176161006302
 30
0.0
 11
29.04139698748591
 21
6.014179085752992
 31
0.0
  0
LINE
  5
AEC
330
AE9
100
AcDbEntity
  8
Dimensions
 62
     0
440
 16777216
370
    -2
100
AcDbLine
 10
29.70179698748618
 20
5.393176161006302
 30
0.0
 11
29.70179698748618
 21
6.014179085752992
 31
0.0
  0
LINE
  5
AED
330
AE9
100
AcDbEntity
  8
Dimensions
 62
     0
440
 16777216
370
    -2
100
AcDbLine
 10
29.16139698748591
 20
5.834179085752992
 30
0.0
 11
29.58179698748617
 21
5.834179085752992
 31
0.0
  0
LINE
  5
AEE
330
AE9
100
AcDbEntity
  8
Dimensions
 62
     0
440
 16777216
370
    -2
100
AcDbLine
 10
29.70179698748618
 20
5.834179085752992
 30
0.0
 11
29.82179698748618
 21
5.834179085752992
 31
0.0
  0
SOLID
  5
AEF
330
AE9
100
AcDbEntity
  8
Dimensions
 62
     0
440
 16777216
100
AcDbTrace
 10
29.16139698748591
 20
5.854179085752992
 30
0.0
 11
29.16139698748591
 21
5.814179085752993
 31
0.0
 12
29.04139698748591
 22
5.834179085752992
 32
0.0
 13
29.04139698748591
 23
5.834179085752992
 33
0.0
  0
SOLID
  5
AF0
330
AE9
100
AcDbEntity
  8
Dimensions
 62
     0
440
 16777216
100
AcDbTrace
 10
29.58179698748617
 20
5.854179085752992
 30
0.0
 11
29.58179698748617
 21
5.814179085752993
 31
0.0
 12
29.70179698748618
 22
5.834179085752992
 32
0.0
 13
29.70179698748618
 23
5.834179085752992
 33
0.0
  0
MTEXT
  5
AF1
330
AE9
100
AcDbEntity
  8
Dimensions
 62
     0
440
 16777216
100
AcDbMText
 10
30.16063736947799
 20
5.834179085752992
 30
0.0
 40
0.12
 41
0.0
 46
0.0
 71
     5
 72
     1
  1
\A1;0.6604
 73
     1
 44
1.0
  0
POINT
  5
AF2
330
AE9
100
AcDbEntity
  8
Defpoints
 62
     0
440
 16777216
100
AcDbPoint
 10
29.04139698748591
 20
5.330676161006302
 30
0.0
  0
POINT
  5
AF3
330
AE9
100
AcDbEntity
  8
Defpoints
 62
     0
440
 16777216
100
AcDbPoint
 10
29.70179698748618
 20
5.330676161006302
 30
0.0
  0
POINT
  5
AF4
330
AE9
100
AcDbEntity
  8
Defpoints
 62
     0
440
 16777216
100
AcDbPoint
 10
29.70179698748618
 20
5.834179085752992
 30
0.0
  0
ENDBLK
  5
AF5
330
AE9
100
AcDbEntity
  8
0
100
AcDbBlockEnd
  0
BLOCK
  5
AF7
330
AF6
100
AcDbEntity
  8
0
100
AcDbBlockBegin
  2
*D48
 70
     1
 10
0.0
 20
0.0
 30
0.0
  3
*D48
  1

  0
LINE
  5
AF8
330
AF6
100
AcDbEntity
  8
Dimensions
 62
     0
440
 16777216
370
    -2
100
AcDbLine
 10
28.64869698748653
 20
4.670276161006031
 30
0.0
 11
27.85155229557742
 21
4.670276161006031
 31
0.0
  0
LINE
  5
AF9
330
AF6
100
AcDbEntity
  8
Dimensions
 62
     0
440
 16777216
370
    -2
100
AcDbLine
 10
28.64869698748653
 20
4.924276161005829
 30
0.0
 11
27.85155229557742
 21
4.924276161005829
 31
0.0
  0
LINE
  5
AFA
330
AF6
100
AcDbEntity
  8
Dimensions
 62
     0
440
 16777216
370
    -2
100
AcDbLine
 10
28.03155229557742
 20
5.044276161005829
 30
0.0
 11
28.03155229557742
 21
5.16427616100583
 31
0.0
  0
LINE
  5
AFB
330
AF6
100
AcDbEntity
  8
Dimensions
 62
     0
440
 16777216
370
    -2
100
AcDbLine
 10
28.03155229557742
 20
4.55027616100603
 30
0.0
 11
28.03155229557742
 21
4.108922759183149
 31
0.0
  0
LINE
  5
AFC
330
AF6
100
AcDbEntity
  8
Dimensions
 62
     0
440
 16777216
370
    -2
100
AcDbLine
 10
28.03155229557742
 20
4.108922759183149
 30
0.0
 11
27.91155229557741
 21
4.108922759183149
 31
0.0
  0
SOLID
  5
AFD
330
AF6
100
AcDbEntity
  8
Dimensions
 62
     0
440
 16777216
100
AcDbTrace
 10
28.01155229557742
 20
5.044276161005829
 30
0.0
 11
28.05155229557742
 21
5.044276161005829
 31
0.0
 12
28.03155229557742
 22
4.924276161005829
 32
0.0
 13
28.03155229557742
 23
4.924276161005829
 33
0.0
  0
SOLID
  5
AFE
330
AF6
100
AcDbEntity
  8
Dimensions
 62
     0
440
 16777216
100
AcDbTrace
 10
28.01155229557742
 20
4.55027616100603
 30
0.0
 11
28.05155229557742
 21
4.55027616100603
 31
0.0
 12
28.03155229557742
 22
4.670276161006031
 32
0.0
 13
28.03155229557742
 23
4.670276161006031
 33
0.0
  0
MTEXT
  5
AFF
330
AF6
100
AcDbEntity
  8
Dimensions
 62
     0
440
 16777216
100
AcDbMText
 10
27.48172964891984
 20
4.10892275918314
 30
0.0
 40
0.12
 41
0.0
 46
0.0
 71
     5
 72
     1
  1
\A1;4x0.2540
 73
     1
 44
1.0
  0
POINT
  5
B00
330
AF6
100
AcDbEntity
  8
Defpoints
 62
     0
440
 16777216
100
AcDbPoint
 10
28.71119698748653
 20
4.670276161006031
 30
0.0
  0
POINT
  5
B01
330
AF6
100
AcDbEntity
  8
Defpoints
 62
     0
440
 16777216
100
AcDbPoint
 10
28.71119698748653
 20
4.924276161005829
 30
0.0
  0
POINT
  5
B02
330
AF6
100
AcDbEntity
  8
Defpoints
 62
     0
440
 16777216
100
AcDbPoint
 10
28.03155229557742
 20
4.924276161005829
 30
0.0
  0
ENDBLK
  5
B03
330
AF6
100
AcDbEntity
  8
0
100
AcDbBlockEnd
  0
BLOCK
  5
B05
330
B04
100
AcDbEntity
  8
0
100
AcDbBlockBegin
  2
*D49
 70
     1
 10
0.0
 20
0.0
 30
0.0
  3
*D49
  1

  0
LINE
  5
B06
330
B04
100
AcDbEntity
  8
Dimensions
 62
     0
440
 16777216
370
    -2
100
AcDbLine
 10
30.27101010646464
 20
4.223376161005669
 30
0.0
 11
31.46740965421019
 21
4.223376161005669
 31
0.0
  0
LINE
  5
B07
330
B04
100
AcDbEntity
  8
Dimensions
 62
     0
440
 16777216
370
    -2
100
AcDbLine
 10
30.27101010646535
 20
4.710776161006608
 30
0.0
 11
31.46740965421019
 21
4.710776161006608
 31
0.0
  0
LINE
  5
B08
330
B04
100
AcDbEntity
  8
Dimensions
 62
     0
440
 16777216
370
    -2
100
AcDbLine
 10
31.2874096542102
 20
4.343376161005669
 30
0.0
 11
31.2874096542102
 21
4.590776161006608
 31
0.0
  0
LINE
  5
B09
330
B04
100
AcDbEntity
  8
Dimensions
 62
     0
440
 16777216
370
    -2
100
AcDbLine
 10
31.2874096542102
 20
4.710776161006608
 30
0.0
 11
31.2874096542102
 21
4.830776161006608
 31
0.0
  0
LINE
  5
B0A
330
B04
100
AcDbEntity
  8
Dimensions
 62
     0
440
 16777216
370
    -2
100
AcDbLine
 10
31.2874096542102
 20
4.830776161006608
 30
0.0
 11
31.4074096542102
 21
4.830776161006608
 31
0.0
  0
SOLID
  5
B0B
330
B04
100
AcDbEntity
  8
Dimensions
 62
     0
440
 16777216
100
AcDbTrace
 10
31.26740965421019
 20
4.343376161005669
 30
0.0
 11
31.30740965421019
 21
4.343376161005669
 31
0.0
 12
31.2874096542102
 22
4.223376161005669
 32
0.0
 13
31.2874096542102
 23
4.223376161005669
 33
0.0
  0
SOLID
  5
B0C
330
B04
100
AcDbEntity
  8
Dimensions
 62
     0
440
 16777216
100
AcDbTrace
 10
31.26740965421019
 20
4.590776161006608
 30
0.0
 11
31.30740965421019
 21
4.590776161006608
 31
0.0
 12
31.2874096542102
 22
4.710776161006608
 32
0.0
 13
31.2874096542102
 23
4.710776161006608
 33
0.0
  0
MTEXT
  5
B0D
330
B04
100
AcDbEntity
  8
Dimensions
 62
     0
440
 16777216
100
AcDbMText
 10
31.746250036202
 20
4.830776161006598
 30
0.0
 40
0.12
 41
0.0
 46
0.0
 71
     5
 72
     1
  1
\A1;0.4874
 73
     1
 44
1.0
  0
POINT
  5
B0E
330
B04
100
AcDbEntity
  8
Defpoints
 62
     0
440
 16777216
100
AcDbPoint
 10
30.20851010646464
 20
4.223376161005669
 30
0.0
  0
POINT
  5
B0F
330
B04
100
AcDbEntity
  8
Defpoints
 62
     0
440
 16777216
100
AcDbPoint
 10
30.20851010646535
 20
4.710776161006608
 30
0.0
  0
POINT
  5
B10
330
B04
100
AcDbEntity
  8
Defpoints
 62
     0
440
 16777216
100
AcDbPoint
 10
31.2874096542102
 20
4.710776161006608
 30
0.0
  0
ENDBLK
  5
B11
330
B04
100
AcDbEntity
  8
0
100
AcDbBlockEnd
  0
BLOCK
  5
B13
330
B12
100
AcDbEntity
  8
0
100
AcDbBlockBegin
  2
*D50
 70
     1
 10
0.0
 20
0.0
 30
0.0
  3
*D50
  1

  0
LINE
  5
B14
330
B12
100
AcDbEntity
  8
Dimensions
 62
     0
440
 16777216
370
    -2
100
AcDbLine
 10
30.0734959051136
 20
4.843319881553631
 30
0.0
 11
29.9534959051136
 21
4.843319881553631
 31
0.0
  0
LINE
  5
B15
330
B12
100
AcDbEntity
  8
Dimensions
 62
     0
440
 16777216
370
    -2
100
AcDbLine
 10
29.9534959051136
 20
4.843319881553631
 30
0.0
 11
29.57901618107298
 21
4.601189091523918
 31
0.0
  0
MTEXT
  5
B16
330
B12
100
AcDbEntity
  8
Dimensions
 62
     0
440
 16777216
100
AcDbMText
 10
30.47765688737827
 20
4.843319881553631
 30
0.0
 40
0.12
 41
0.0
 46
0.0
 71
     5
 72
     1
  1
\A1;∅0.2540
 73
     1
 44
1.0
  0
SOLID
  5
B17
330
B12
100
AcDbEntity
  8
Dimensions
 62
     0
440
 16777216
100
AcDbTrace
 10
29.56815683447239
 20
4.61798416792768
 30
0.0
 11
29.58987552767358
 21
4.584394015120158
 31
0.0
 12
29.47824572265042
 22
4.536033011920352
 32
0.0
 13
29.47824572265042
 23
4.536033011920352
 33
0.0
  0
LINE
  5
B18
330
B12
100
AcDbEntity
  8
Dimensions
 62
     0
440
 16777216
370
    -2
100
AcDbLine
 10
29.28159698748642
 20
4.467076161006506
 30
0.0
 11
29.46159698748643
 21
4.467076161006504
 31
0.0
  0
LINE
  5
B19
330
B12
100
AcDbEntity
  8
Dimensions
 62
     0
440
 16777216
370
    -2
100
AcDbLine
 10
29.37159698748643
 20
4.377076161006506
 30
0.0
 11
29.37159698748643
 21
4.557076161006504
 31
0.0
  0
POINT
  5
B1A
330
B12
100
AcDbEntity
  8
Defpoints
 62
     0
440
 16777216
100
AcDbPoint
 10
29.47824572265042
 20
4.536033011920352
 30
0.0
  0
POINT
  5
B1B
330
B12
100
AcDbEntity
  8
Defpoints
 62
     0
440
 16777216
100
AcDbPoint
 10
29.26494825232243
 20
4.398119310092656
 30
0.0
  0
ENDBLK
  5
B1C
330
B12
100
AcDbEntity
  8
0
100
AcDbBlockEnd
  0
BLOCK
  5
B1E
330
B1D
100
AcDbEntity
  8
0
100
AcDbBlockBegin
  2
*D51
 70
     1
 10
0.0
 20
0.0
 30
0.0
  3
*D51
  1

  0
LINE
  5
B1F
330
B1D
100
AcDbEntity
  8
Dimensions
 62
     0
440
 16777216
370
    -2
100
AcDbLine
 10
28.34323457820656
 20
5.11797942847723
 30
0.0
 11
27.68220758374081
 21
5.381589622939337
 31
0.0
  0
LINE
  5
B20
330
B1D
100
AcDbEntity
  8
Dimensions
 62
     0
440
 16777216
370
    -2
100
AcDbLine
 10
28.50318221528833
 20
5.519062952685395
 30
0.0
 11
27.84215522082258
 21
5.782673147147502
 31
0.0
  0
LINE
  5
B21
330
B1D
100
AcDbEntity
  8
Dimensions
 62
     0
440
 16777216
370
    -2
100
AcDbLine
 10
28.0760264784242
 20
5.883192970405572
 30
0.0
 11
28.14270219559598
 21
6.05038851083542
 31
0.0
  0
LINE
  5
B22
330
B1D
100
AcDbEntity
  8
Dimensions
 62
     0
440
 16777216
370
    -2
100
AcDbLine
 10
27.78272740699887
 20
5.147718365337711
 30
0.0
 11
27.7160516898271
 21
4.980522824907859
 31
0.0
  0
LINE
  5
B23
330
B1D
100
AcDbEntity
  8
Dimensions
 62
     0
440
 16777216
370
    -2
100
AcDbLine
 10
27.7160516898271
 20
4.980522824907859
 30
0.0
 11
27.53605168982709
 21
4.980522824907859
 31
0.0
  0
SOLID
  5
B24
330
B1D
100
AcDbEntity
  8
Dimensions
 62
     0
440
 16777216
100
AcDbTrace
 10
28.04816055501922
 20
5.894305589934202
 30
0.0
 11
28.10389240182918
 21
5.87208035087694
 31
0.0
 12
28.00935076125242
 22
5.715997429975724
 32
0.0
 13
28.00935076125242
 23
5.715997429975724
 33
0.0
  0
SOLID
  5
B25
330
B1D
100
AcDbEntity
  8
Dimensions
 62
     0
440
 16777216
100
AcDbTrace
 10
27.7548614835939
 20
5.158830984866341
 30
0.0
 11
27.81059333040385
 21
5.136605745809079
 31
0.0
 12
27.84940312417065
 22
5.314913905767559
 32
0.0
 13
27.84940312417065
 23
5.314913905767559
 33
0.0
  0
MTEXT
  5
B26
330
B1D
100
AcDbEntity
  8
Dimensions
 62
     0
440
 16777216
100
AcDbMText
 10
26.65864377713951
 20
4.980522824907861
 30
0.0
 40
0.12
 41
0.0
 46
0.0
 71
     5
 72
     1
  1
\A1;4x Transmission Line
 73
     1
 44
1.0
  0
POINT
  5
B27
330
B1D
100
AcDbEntity
  8
Defpoints
 62
     0
440
 16777216
100
AcDbPoint
 10
28.40128858530026
 20
5.094828137792584
 30
0.0
  0
POINT
  5
B28
330
B1D
100
AcDbEntity
  8
Defpoints
 62
     0
440
 16777216
100
AcDbPoint
 10
28.56123622238202
 20
5.495911662000748
 30
0.0
  0
POINT
  5
B29
330
B1D
100
AcDbEntity
  8
Defpoints
 62
     0
440
 16777216
100
AcDbPoint
 10
28.00935076125242
 20
5.715997429975724
 30
0.0
  0
ENDBLK
  5
B2A
330
B1D
100
AcDbEntity
  8
0
100
AcDbBlockEnd
  0
BLOCK
  5
B2C
330
B2B
100
AcDbEntity
  8
0
100
AcDbBlockBegin
  2
*D52
 70
     1
 10
0.0
 20
0.0
 30
0.0
  3
*D52
  1

  0
LINE
  5
B2D
330
B2B
100
AcDbEntity
  8
Dimensions
 62
     0
440
 16777216
370
    -2
100
AcDbLine
 10
30.09449698748632
 20
4.670276161006031
 30
0.0
 11
31.1283405973083
 21
4.670276161006031
 31
0.0
  0
LINE
  5
B2E
330
B2B
100
AcDbEntity
  8
Dimensions
 62
     0
440
 16777216
370
    -2
100
AcDbLine
 10
30.09449698748632
 20
4.263876161006246
 30
0.0
 11
31.1283405973083
 21
4.263876161006246
 31
0.0
  0
LINE
  5
B2F
330
B2B
100
AcDbEntity
  8
Dimensions
 62
     0
440
 16777216
370
    -2
100
AcDbLine
 10
30.94834059730831
 20
4.790276161006031
 30
0.0
 11
30.94834059730831
 21
4.910276161006031
 31
0.0
  0
LINE
  5
B30
330
B2B
100
AcDbEntity
  8
Dimensions
 62
     0
440
 16777216
370
    -2
100
AcDbLine
 10
30.94834059730831
 20
4.143876161006246
 30
0.0
 11
30.94834059730831
 21
4.023876161006246
 31
0.0
  0
SOLID
  5
B31
330
B2B
100
AcDbEntity
  8
Dimensions
 62
     0
440
 16777216
100
AcDbTrace
 10
30.9283405973083
 20
4.790276161006031
 30
0.0
 11
30.9683405973083
 21
4.790276161006031
 31
0.0
 12
30.94834059730831
 22
4.670276161006031
 32
0.0
 13
30.94834059730831
 23
4.670276161006031
 33
0.0
  0
SOLID
  5
B32
330
B2B
100
AcDbEntity
  8
Dimensions
 62
     0
440
 16777216
100
AcDbTrace
 10
30.9283405973083
 20
4.143876161006246
 30
0.0
 11
30.9683405973083
 21
4.143876161006246
 31
0.0
 12
30.94834059730831
 22
4.263876161006246
 32
0.0
 13
30.94834059730831
 23
4.263876161006246
 33
0.0
  0
MTEXT
  5
B33
330
B2B
100
AcDbEntity
  8
Dimensions
 62
     0
440
 16777216
100
AcDbMText
 10
30.9483405973083
 20
4.467076161006128
 30
0.0
 40
0.12
 41
0.0
 46
0.0
 71
     5
 72
     1
  1
\A1;0.4064
 73
     1
 44
1.0
  0
POINT
  5
B34
330
B2B
100
AcDbEntity
  8
Defpoints
 62
     0
440
 16777216
100
AcDbPoint
 10
30.03199698748633
 20
4.670276161006031
 30
0.0
  0
POINT
  5
B35
330
B2B
100
AcDbEntity
  8
Defpoints
 62
     0
440
 16777216
100
AcDbPoint
 10
30.03199698748633
 20
4.263876161006246
 30
0.0
  0
POINT
  5
B36
330
B2B
100
AcDbEntity
  8
Defpoints
 62
     0
440
 16777216
100
AcDbPoint
 10
30.94834059730831
 20
4.263876161006246
 30
0.0
  0
ENDBLK
  5
B37
330
B2B
100
AcDbEntity
  8
0
100
AcDbBlockEnd
  0
BLOCK
  5
B39
330
B38
100
AcDbEntity
  8
0
100
AcDbBlockBegin
  2
*D53
 70
     1
 10
0.0
 20
0.0
 30
0.0
  3
*D53
  1

  0
LINE
  5
B3A
330
B38
100
AcDbEntity
  8
Dimensions
 62
     0
440
 16777216
370
    -2
100
AcDbLine
 10
29.10389698748593
 20
4.009876161005772
 30
0.0
 11
29.50400866947414
 21
4.009876161005772
 31
0.0
  0
LINE
  5
B3B
330
B38
100
AcDbEntity
  8
Dimensions
 62
     0
440
 16777216
370
    -2
100
AcDbLine
 10
29.10389698748593
 20
3.603476161005987
 30
0.0
 11
29.50400866947414
 21
3.603476161005987
 31
0.0
  0
LINE
  5
B3C
330
B38
100
AcDbEntity
  8
Dimensions
 62
     0
440
 16777216
370
    -2
100
AcDbLine
 10
29.32400866947414
 20
4.129876161005772
 30
0.0
 11
29.32400866947414
 21
4.249876161005772
 31
0.0
  0
LINE
  5
B3D
330
B38
100
AcDbEntity
  8
Dimensions
 62
     0
440
 16777216
370
    -2
100
AcDbLine
 10
29.32400866947414
 20
3.483476161005987
 30
0.0
 11
29.32400866947414
 21
3.363476161005988
 31
0.0
  0
SOLID
  5
B3E
330
B38
100
AcDbEntity
  8
Dimensions
 62
     0
440
 16777216
100
AcDbTrace
 10
29.30400866947414
 20
4.129876161005772
 30
0.0
 11
29.34400866947414
 21
4.129876161005772
 31
0.0
 12
29.32400866947414
 22
4.009876161005772
 32
0.0
 13
29.32400866947414
 23
4.009876161005772
 33
0.0
  0
SOLID
  5
B3F
330
B38
100
AcDbEntity
  8
Dimensions
 62
     0
440
 16777216
100
AcDbTrace
 10
29.30400866947414
 20
3.483476161005987
 30
0.0
 11
29.34400866947414
 21
3.483476161005987
 31
0.0
 12
29.32400866947414
 22
3.603476161005987
 32
0.0
 13
29.32400866947414
 23
3.603476161005987
 33
0.0
  0
MTEXT
  5
B40
330
B38
100
AcDbEntity
  8
Dimensions
 62
     0
440
 16777216
100
AcDbMText
 10
29.32400866947413
 20
3.806676161005871
 30
0.0
 40
0.12
 41
0.0
 46
0.0
 71
     5
 72
     1
  1
\A1;0.4064
 73
     1
 44
1.0
  0
POINT
  5
B41
330
B38
100
AcDbEntity
  8
Defpoints
 62
     0
440
 16777216
100
AcDbPoint
 10
29.04139698748593
 20
4.009876161005772
 30
0.0
  0
POINT
  5
B42
330
B38
100
AcDbEntity
  8
Defpoints
 62
     0
440
 16777216
100
AcDbPoint
 10
29.04139698748593
 20
3.603476161005987
 30
0.0
  0
POINT
  5
B43
330
B38
100
AcDbEntity
  8
Defpoints
 62
     0
440
 16777216
100
AcDbPoint
 10
29.32400866947414
 20
3.603476161005987
 30
0.0
  0
ENDBLK
  5
B44
330
B38
100
AcDbEntity
  8
0
100
AcDbBlockEnd
  0
BLOCK
  5
BF0
330
BEF
100
AcDbEntity
  8
0
100
AcDbBlockBegin
  2
*D55
 70
     1
 10
0.0
 20
0.0
 30
0.0
  3
*D55
  1

  0
LINE
  5
BF2
330
BEF
100
AcDbEntity
  8
Dimensions
 62
     0
440
 16777216
370
    -2
100
AcDbLine
 10
43.61431950439185
 20
17.45545654404969
 30
0.0
 11
45.04949820804831
 21
17.45545654404969
 31
0.0
  0
LINE
  5
BF3
330
BEF
100
AcDbEntity
  8
Dimensions
 62
     0
440
 16777216
370
    -2
100
AcDbLine
 10
43.61431950439185
 20
17.86185654404947
 30
0.0
 11
45.04949820804831
 21
17.86185654404947
 31
0.0
  0
LINE
  5
BF4
330
BEF
100
AcDbEntity
  8
Dimensions
 62
     0
440
 16777216
370
    -2
100
AcDbLine
 10
44.86949820804831
 20
17.33545654404969
 30
0.0
 11
44.86949820804831
 21
17.21545654404969
 31
0.0
  0
LINE
  5
BF5
330
BEF
100
AcDbEntity
  8
Dimensions
 62
     0
440
 16777216
370
    -2
100
AcDbLine
 10
44.86949820804831
 20
17.98185654404948
 30
0.0
 11
44.86949820804831
 21
18.10185654404947
 31
0.0
  0
SOLID
  5
BF6
330
BEF
100
AcDbEntity
  8
Dimensions
 62
     0
440
 16777216
100
AcDbTrace
 10
44.84949820804831
 20
17.33545654404969
 30
0.0
 11
44.88949820804831
 21
17.33545654404969
 31
0.0
 12
44.86949820804831
 22
17.45545654404969
 32
0.0
 13
44.86949820804831
 23
17.45545654404969
 33
0.0
  0
SOLID
  5
BF7
330
BEF
100
AcDbEntity
  8
Dimensions
 62
     0
440
 16777216
100
AcDbTrace
 10
44.84949820804831
 20
17.98185654404948
 30
0.0
 11
44.88949820804831
 21
17.98185654404948
 31
0.0
 12
44.86949820804831
 22
17.86185654404947
 32
0.0
 13
44.86949820804831
 23
17.86185654404947
 33
0.0
  0
MTEXT
  5
BF8
330
BEF
100
AcDbEntity
  8
Dimensions
 62
     0
440
 16777216
100
AcDbMText
 10
44.86949820804831
 20
17.65865654404956
 30
0.0
 40
0.12
 41
0.0
 46
0.0
 71
     5
 72
     1
  1
\A1;0.4064
 73
     1
 44
1.0
  0
POINT
  5
BF9
330
BEF
100
AcDbEntity
  8
Defpoints
 62
     0
440
 16777216
100
AcDbPoint
 10
43.55181950439185
 20
17.45545654404969
 30
0.0
  0
POINT
  5
BFA
330
BEF
100
AcDbEntity
  8
Defpoints
 62
     0
440
 16777216
100
AcDbPoint
 10
43.55181950439185
 20
17.86185654404947
 30
0.0
  0
POINT
  5
BFB
330
BEF
100
AcDbEntity
  8
Defpoints
 62
     0
440
 16777216
100
AcDbPoint
 10
44.86949820804831
 20
17.86185654404947
 30
0.0
  0
ENDBLK
  5
BF1
330
BEF
100
AcDbEntity
  8
0
100
AcDbBlockEnd
  0
BLOCK
  5
BFD
330
BFC
100
AcDbEntity
  8
0
100
AcDbBlockBegin
  2
*D56
 70
     1
 10
0.0
 20
0.0
 30
0.0
  3
*D56
  1

  0
LINE
  5
BFF
330
BFC
100
AcDbEntity
  8
Dimensions
 62
     0
440
 16777216
370
    -2
100
AcDbLine
 10
44.45123262337006
 20
17.41495654404911
 30
0.0
 11
45.32625469690811
 21
17.41495654404911
 31
0.0
  0
LINE
  5
C00
330
BFC
100
AcDbEntity
  8
Dimensions
 62
     0
440
 16777216
370
    -2
100
AcDbLine
 10
44.45123262337077
 20
17.90235654405005
 30
0.0
 11
45.32625469690811
 21
17.90235654405005
 31
0.0
  0
LINE
  5
C01
330
BFC
100
AcDbEntity
  8
Dimensions
 62
     0
440
 16777216
370
    -2
100
AcDbLine
 10
45.14625469690812
 20
17.53495654404911
 30
0.0
 11
45.14625469690812
 21
17.78235654405005
 31
0.0
  0
LINE
  5
C02
330
BFC
100
AcDbEntity
  8
Dimensions
 62
     0
440
 16777216
370
    -2
100
AcDbLine
 10
45.14625469690812
 20
17.90235654405005
 30
0.0
 11
45.14625469690812
 21
18.02235654405005
 31
0.0
  0
LINE
  5
C03
330
BFC
100
AcDbEntity
  8
Dimensions
 62
     0
440
 16777216
370
    -2
100
AcDbLine
 10
45.14625469690812
 20
18.02235654405005
 30
0.0
 11
45.26625469690811
 21
18.02235654405005
 31
0.0
  0
SOLID
  5
C04
330
BFC
100
AcDbEntity
  8
Dimensions
 62
     0
440
 16777216
100
AcDbTrace
 10
45.12625469690811
 20
17.53495654404911
 30
0.0
 11
45.16625469690811
 21
17.53495654404911
 31
0.0
 12
45.14625469690812
 22
17.41495654404911
 32
0.0
 13
45.14625469690812
 23
17.41495654404911
 33
0.0
  0
SOLID
  5
C05
330
BFC
100
AcDbEntity
  8
Dimensions
 62
     0
440
 16777216
100
AcDbTrace
 10
45.12625469690811
 20
17.78235654405005
 30
0.0
 11
45.16625469690811
 21
17.78235654405005
 31
0.0
 12
45.14625469690812
 22
17.90235654405005
 32
0.0
 13
45.14625469690812
 23
17.90235654405005
 33
0.0
  0
MTEXT
  5
C06
330
BFC
100
AcDbEntity
  8
Dimensions
 62
     0
440
 16777216
100
AcDbMText
 10
45.60509507889992
 20
18.02235654405004
 30
0.0
 40
0.12
 41
0.0
 46
0.0
 71
     5
 72
     1
  1
\A1;0.4874
 73
     1
 44
1.0
  0
POINT
  5
C07
330
BFC
100
AcDbEntity
  8
Defpoints
 62
     0
440
 16777216
100
AcDbPoint
 10
44.38873262337006
 20
17.41495654404911
 30
0.0
  0
POINT
  5
C08
330
BFC
100
AcDbEntity
  8
Defpoints
 62
     0
440
 16777216
100
AcDbPoint
 10
44.38873262337077
 20
17.90235654405005
 30
0.0
  0
POINT
  5
C09
330
BFC
100
AcDbEntity
  8
Defpoints
 62
     0
440
 16777216
100
AcDbPoint
 10
45.14625469690812
 20
17.90235654405005
 30
0.0
  0
ENDBLK
  5
BFE
330
BFC
100
AcDbEntity
  8
0
100
AcDbBlockEnd
  0
BLOCK
  5
C0B
330
C0A
100
AcDbEntity
  8
0
100
AcDbBlockBegin
  2
*D57
 70
     1
 10
0.0
 20
0.0
 30
0.0
  3
*D57
  1

  0
LINE
  5
C0D
330
C0A
100
AcDbEntity
  8
Dimensions
 62
     0
440
 16777216
370
    -2
100
AcDbLine
 10
44.02994755868443
 20
17.72115654404994
 30
0.0
 11
44.02994755868443
 21
18.45752901327058
 31
0.0
  0
LINE
  5
C0E
330
C0A
100
AcDbEntity
  8
Dimensions
 62
     0
440
 16777216
370
    -2
100
AcDbLine
 10
43.55181950439184
 20
17.72115654404994
 30
0.0
 11
43.55181950439184
 21
18.45752901327058
 31
0.0
  0
LINE
  5
C0F
330
C0A
100
AcDbEntity
  8
Dimensions
 62
     0
440
 16777216
370
    -2
100
AcDbLine
 10
43.90994755868444
 20
18.27752901327058
 30
0.0
 11
43.67181950439184
 21
18.27752901327058
 31
0.0
  0
LINE
  5
C10
330
C0A
100
AcDbEntity
  8
Dimensions
 62
     0
440
 16777216
370
    -2
100
AcDbLine
 10
43.55181950439184
 20
18.27752901327058
 30
0.0
 11
43.43181950439183
 21
18.27752901327058
 31
0.0
  0
SOLID
  5
C11
330
C0A
100
AcDbEntity
  8
Dimensions
 62
     0
440
 16777216
100
AcDbTrace
 10
43.90994755868444
 20
18.29752901327058
 30
0.0
 11
43.90994755868444
 21
18.25752901327058
 31
0.0
 12
44.02994755868443
 22
18.27752901327058
 32
0.0
 13
44.02994755868443
 23
18.27752901327058
 33
0.0
  0
SOLID
  5
C12
330
C0A
100
AcDbEntity
  8
Dimensions
 62
     0
440
 16777216
100
AcDbTrace
 10
43.67181950439184
 20
18.29752901327058
 30
0.0
 11
43.67181950439184
 21
18.25752901327058
 31
0.0
 12
43.55181950439184
 22
18.27752901327058
 32
0.0
 13
43.55181950439184
 23
18.27752901327058
 33
0.0
  0
MTEXT
  5
C13
330
C0A
100
AcDbEntity
  8
Dimensions
 62
     0
440
 16777216
100
AcDbMText
 10
42.99008689866196
 20
18.27752901327058
 30
0.0
 40
0.12
 41
0.0
 46
0.0
 71
     5
 72
     1
  1
\A1;4x 0.4781
 73
     1
 44
1.0
  0
POINT
  5
C14
330
C0A
100
AcDbEntity
  8
Defpoints
 62
     0
440
 16777216
100
AcDbPoint
 10
44.02994755868443
 20
17.65865654404994
 30
0.0
  0
POINT
  5
C15
330
C0A
100
AcDbEntity
  8
Defpoints
 62
     0
440
 16777216
100
AcDbPoint
 10
43.55181950439184
 20
17.65865654404994
 30
0.0
  0
POINT
  5
C16
330
C0A
100
AcDbEntity
  8
Defpoints
 62
     0
440
 16777216
100
AcDbPoint
 10
43.55181950439184
 20
18.27752901327058
 30
0.0
  0
ENDBLK
  5
C0C
330
C0A
100
AcDbEntity
  8
0
100
AcDbBlockEnd
  0
BLOCK
  5
C18
330
C17
100
AcDbEntity
  8
0
100
AcDbBlockBegin
  2
*D58
 70
     1
 10
0.0
 20
0.0
 30
0.0
  3
*D58
  1

  0
LINE
  5
CC9
330
C17
100
AcDbEntity
  8
Dimensions
 62
     0
440
 16777216
370
    -2
100
AcDbLine
 10
41.55917733859349
 20
18.07708456205676
 30
0.0
 11
41.6791773385935
 21
18.07708456205676
 31
0.0
  0
LINE
  5
CCA
330
C17
100
AcDbEntity
  8
Dimensions
 62
     0
440
 16777216
370
    -2
100
AcDbLine
 10
41.6791773385935
 20
18.07708456205676
 30
0.0
 11
42.37087767157662
 21
17.76124955223013
 31
0.0
  0
MTEXT
  5
CCB
330
C17
100
AcDbEntity
  8
Dimensions
 62
     0
440
 16777216
100
AcDbMText
 10
41.15501635632882
 20
18.07708456205677
 30
0.0
 40
0.12
 41
0.0
 46
0.0
 71
     5
 72
     1
  1
\A1;∅0.2540
 73
     1
 44
1.0
  0
SOLID
  5
CCC
330
C17
100
AcDbEntity
  8
Dimensions
 62
     0
440
 16777216
100
AcDbTrace
 10
42.37918479774505
 20
17.77944272828111
 30
0.0
 11
42.36257054540819
 21
17.74305637617915
 31
0.0
 12
42.48003672788247
 22
17.71140679521954
 32
0.0
 13
42.48003672788247
 23
17.71140679521954
 33
0.0
  0
LINE
  5
CCD
330
C17
100
AcDbEntity
  8
Dimensions
 62
     0
440
 16777216
370
    -2
100
AcDbLine
 10
42.50556339580628
 20
17.65865654404994
 30
0.0
 11
42.68556339580628
 21
17.65865654404993
 31
0.0
  0
LINE
  5
CCE
330
C17
100
AcDbEntity
  8
Dimensions
 62
     0
440
 16777216
370
    -2
100
AcDbLine
 10
42.59556339580629
 20
17.56865654404993
 30
0.0
 11
42.59556339580628
 21
17.74865654404993
 31
0.0
  0
POINT
  5
CCF
330
C17
100
AcDbEntity
  8
Defpoints
 62
     0
440
 16777216
100
AcDbPoint
 10
42.48003672788247
 20
17.71140679521954
 30
0.0
  0
POINT
  5
CD0
330
C17
100
AcDbEntity
  8
Defpoints
 62
     0
440
 16777216
100
AcDbPoint
 10
42.71109006373008
 20
17.60590629288033
 30
0.0
  0
ENDBLK
  5
C19
330
C17
100
AcDbEntity
  8
0
100
AcDbBlockEnd
  0
BLOCK
  5
C23
330
C22
100
AcDbEntity
  8
0
100
AcDbBlockBegin
  2
*D59
 70
     1
 10
0.0
 20
0.0
 30
0.0
  3
*D59
  1

  0
LINE
  5
C25
330
C22
100
AcDbEntity
  8
Dimensions
 62
     0
440
 16777216
370
    -2
100
AcDbLine
 10
42.89141950439194
 20
17.39295654404968
 30
0.0
 11
42.89141950439194
 21
16.71820717250093
 31
0.0
  0
LINE
  5
C26
330
C22
100
AcDbEntity
  8
Dimensions
 62
     0
440
 16777216
370
    -2
100
AcDbLine
 10
44.21221950439174
 20
17.39295654404968
 30
0.0
 11
44.21221950439174
 21
16.71820717250093
 31
0.0
  0
LINE
  5
C27
330
C22
100
AcDbEntity
  8
Dimensions
 62
     0
440
 16777216
370
    -2
100
AcDbLine
 10
43.01141950439194
 20
16.89820717250093
 30
0.0
 11
43.21825879497847
 21
16.89820717250093
 31
0.0
  0
LINE
  5
C28
330
C22
100
AcDbEntity
  8
Dimensions
 62
     0
440
 16777216
370
    -2
100
AcDbLine
 10
44.09221950439174
 20
16.89820717250093
 30
0.0
 11
43.88538021380521
 21
16.89820717250093
 31
0.0
  0
SOLID
  5
C29
330
C22
100
AcDbEntity
  8
Dimensions
 62
     0
440
 16777216
100
AcDbTrace
 10
43.01141950439194
 20
16.91820717250093
 30
0.0
 11
43.01141950439194
 21
16.87820717250093
 31
0.0
 12
42.89141950439194
 22
16.89820717250093
 32
0.0
 13
42.89141950439194
 23
16.89820717250093
 33
0.0
  0
SOLID
  5
C2A
330
C22
100
AcDbEntity
  8
Dimensions
 62
     0
440
 16777216
100
AcDbTrace
 10
44.09221950439174
 20
16.91820717250093
 30
0.0
 11
44.09221950439174
 21
16.87820717250093
 31
0.0
 12
44.21221950439174
 22
16.89820717250093
 32
0.0
 13
44.21221950439174
 23
16.89820717250093
 33
0.0
  0
MTEXT
  5
C2B
330
C22
100
AcDbEntity
  8
Dimensions
 62
     0
440
 16777216
100
AcDbMText
 10
43.55181950439184
 20
16.89820717250093
 30
0.0
 40
0.12
 41
0.0
 46
0.0
 71
     5
 72
     1
  1
\A1;1.3208
 73
     1
 44
1.0
  0
POINT
  5
C2C
330
C22
100
AcDbEntity
  8
Defpoints
 62
     0
440
 16777216
100
AcDbPoint
 10
42.89141950439194
 20
17.45545654404968
 30
0.0
  0
POINT
  5
C2D
330
C22
100
AcDbEntity
  8
Defpoints
 62
     0
440
 16777216
100
AcDbPoint
 10
44.21221950439174
 20
17.45545654404968
 30
0.0
  0
POINT
  5
C2E
330
C22
100
AcDbEntity
  8
Defpoints
 62
     0
440
 16777216
100
AcDbPoint
 10
44.21221950439174
 20
16.89820717250093
 30
0.0
  0
ENDBLK
  5
C24
330
C22
100
AcDbEntity
  8
0
100
AcDbBlockEnd
  0
BLOCK
  5
C30
330
C2F
100
AcDbEntity
  8
0
100
AcDbBlockBegin
  2
*D60
 70
     1
 10
0.0
 20
0.0
 30
0.0
  3
*D60
  1

  0
LINE
  5
CBF
330
C2F
100
AcDbEntity
  8
Dimensions
 62
     0
440
 16777216
370
    -2
100
AcDbLine
 10
42.89141950439194
 20
17.39295654404985
 30
0.0
 11
42.89141950439194
 21
16.89820717250094
 31
0.0
  0
LINE
  5
CC0
330
C2F
100
AcDbEntity
  8
Dimensions
 62
     0
440
 16777216
370
    -2
100
AcDbLine
 10
42.71490638541293
 20
17.35245654404911
 30
0.0
 11
42.71490638541293
 21
16.89820717250094
 31
0.0
  0
LINE
  5
CC1
330
C2F
100
AcDbEntity
  8
Dimensions
 62
     0
440
 16777216
370
    -2
100
AcDbLine
 10
42.59490638541293
 20
17.07820717250094
 30
0.0
 11
42.47490638541292
 21
17.07820717250094
 31
0.0
  0
LINE
  5
CC2
330
C2F
100
AcDbEntity
  8
Dimensions
 62
     0
440
 16777216
370
    -2
100
AcDbLine
 10
43.01141950439194
 20
17.07820717250094
 30
0.0
 11
43.13141950439194
 21
17.07820717250094
 31
0.0
  0
SOLID
  5
CC3
330
C2F
100
AcDbEntity
  8
Dimensions
 62
     0
440
 16777216
100
AcDbTrace
 10
42.59490638541293
 20
17.09820717250094
 30
0.0
 11
42.59490638541293
 21
17.05820717250094
 31
0.0
 12
42.71490638541293
 22
17.07820717250094
 32
0.0
 13
42.71490638541293
 23
17.07820717250094
 33
0.0
  0
SOLID
  5
CC4
330
C2F
100
AcDbEntity
  8
Dimensions
 62
     0
440
 16777216
100
AcDbTrace
 10
43.01141950439194
 20
17.09820717250094
 30
0.0
 11
43.01141950439194
 21
17.05820717250094
 31
0.0
 12
42.89141950439194
 22
17.07820717250094
 32
0.0
 13
42.89141950439194
 23
17.07820717250094
 33
0.0
  0
MTEXT
  5
CC5
330
C2F
100
AcDbEntity
  8
Dimensions
 62
     0
440
 16777216
100
AcDbMText
 10
43.47095565718867
 20
17.07820717250094
 30
0.0
 40
0.12
 41
0.0
 46
0.0
 71
     5
 72
     1
  1
\A1;0.1765
 73
     1
 44
1.0
  0
POINT
  5
CC6
330
C2F
100
AcDbEntity
  8
Defpoints
 62
     0
440
 16777216
100
AcDbPoint
 10
42.89141950439194
 20
17.45545654404985
 30
0.0
  0
POINT
  5
CC7
330
C2F
100
AcDbEntity
  8
Defpoints
 62
     0
440
 16777216
100
AcDbPoint
 10
42.71490638541293
 20
17.41495654404911
 30
0.0
  0
POINT
  5
CC8
330
C2F
100
AcDbEntity
  8
Defpoints
 62
     0
440
 16777216
100
AcDbPoint
 10
42.71490638541293
 20
17.07820717250094
 30
0.0
  0
ENDBLK
  5
C31
330
C2F
100
AcDbEntity
  8
0
100
AcDbBlockEnd
  0
BLOCK
  5
C3D
330
C3C
100
AcDbEntity
  8
0
100
AcDbBlockBegin
  2
*D61
 70
     1
 10
0.0
 20
0.0
 30
0.0
  3
*D61
  1

  0
LINE
  5
C3F
330
C3C
100
AcDbEntity
  8
Dimensions
 62
     0
440
 16777216
370
    -2
100
AcDbLine
 10
42.71490638541293
 20
17.3524565440491
 30
0.0
 11
42.71490638541293
 21
16.46984995993253
 31
0.0
  0
LINE
  5
C40
330
C3C
100
AcDbEntity
  8
Dimensions
 62
     0
440
 16777216
370
    -2
100
AcDbLine
 10
42.37462040619989
 20
17.3524565440491
 30
0.0
 11
42.37462040619989
 21
16.46984995993253
 31
0.0
  0
LINE
  5
C41
330
C3C
100
AcDbEntity
  8
Dimensions
 62
     0
440
 16777216
370
    -2
100
AcDbLine
 10
42.83490638541293
 20
16.64984995993253
 30
0.0
 11
42.95490638541293
 21
16.64984995993253
 31
0.0
  0
LINE
  5
C42
330
C3C
100
AcDbEntity
  8
Dimensions
 62
     0
440
 16777216
370
    -2
100
AcDbLine
 10
42.2546204061999
 20
16.64984995993253
 30
0.0
 11
42.13462040619989
 21
16.64984995993253
 31
0.0
  0
SOLID
  5
C43
330
C3C
100
AcDbEntity
  8
Dimensions
 62
     0
440
 16777216
100
AcDbTrace
 10
42.83490638541293
 20
16.66984995993253
 30
0.0
 11
42.83490638541293
 21
16.62984995993253
 31
0.0
 12
42.71490638541293
 22
16.64984995993253
 32
0.0
 13
42.71490638541293
 23
16.64984995993253
 33
0.0
  0
SOLID
  5
C44
330
C3C
100
AcDbEntity
  8
Dimensions
 62
     0
440
 16777216
100
AcDbTrace
 10
42.2546204061999
 20
16.66984995993253
 30
0.0
 11
42.2546204061999
 21
16.62984995993253
 31
0.0
 12
42.37462040619989
 22
16.64984995993253
 32
0.0
 13
42.37462040619989
 23
16.64984995993253
 33
0.0
  0
MTEXT
  5
C45
330
C3C
100
AcDbEntity
  8
Dimensions
 62
     0
440
 16777216
100
AcDbMText
 10
41.79553445804164
 20
16.64984995993253
 30
0.0
 40
0.12
 41
0.0
 46
0.0
 71
     5
 72
     1
  1
\A1;0.3403
 73
     1
 44
1.0
  0
POINT
  5
C46
330
C3C
100
AcDbEntity
  8
Defpoints
 62
     0
440
 16777216
100
AcDbPoint
 10
42.71490638541293
 20
17.4149565440491
 30
0.0
  0
POINT
  5
C47
330
C3C
100
AcDbEntity
  8
Defpoints
 62
     0
440
 16777216
100
AcDbPoint
 10
42.37462040619989
 20
17.4149565440491
 30
0.0
  0
POINT
  5
C48
330
C3C
100
AcDbEntity
  8
Defpoints
 62
     0
440
 16777216
100
AcDbPoint
 10
42.37462040619989
 20
16.64984995993253
 30
0.0
  0
ENDBLK
  5
C3E
330
C3C
100
AcDbEntity
  8
0
100
AcDbBlockEnd
  0
BLOCK
  5
C4A
330
C49
100
AcDbEntity
  8
0
100
AcDbBlockBegin
  2
*D62
 70
     1
 10
0.0
 20
0.0
 30
0.0
  3
*D62
  1

  0
LINE
  5
C4C
330
C49
100
AcDbEntity
  8
Dimensions
 62
     0
440
 16777216
370
    -2
100
AcDbLine
 10
42.89141950439158
 20
17.72115654404941
 30
0.0
 11
42.89141950439158
 21
18.97954433075929
 31
0.0
  0
LINE
  5
C4D
330
C49
100
AcDbEntity
  8
Dimensions
 62
     0
440
 16777216
370
    -2
100
AcDbLine
 10
42.37462040619989
 20
17.72115654404941
 30
0.0
 11
42.37462040619989
 21
18.97954433075929
 31
0.0
  0
LINE
  5
C4E
330
C49
100
AcDbEntity
  8
Dimensions
 62
     0
440
 16777216
370
    -2
100
AcDbLine
 10
42.77141950439157
 20
18.79954433075929
 30
0.0
 11
42.49462040619989
 21
18.79954433075929
 31
0.0
  0
LINE
  5
C4F
330
C49
100
AcDbEntity
  8
Dimensions
 62
     0
440
 16777216
370
    -2
100
AcDbLine
 10
42.37462040619989
 20
18.79954433075929
 30
0.0
 11
42.25462040619989
 21
18.79954433075929
 31
0.0
  0
SOLID
  5
C50
330
C49
100
AcDbEntity
  8
Dimensions
 62
     0
440
 16777216
100
AcDbTrace
 10
42.77141950439157
 20
18.81954433075929
 30
0.0
 11
42.77141950439157
 21
18.77954433075929
 31
0.0
 12
42.89141950439158
 22
18.79954433075929
 32
0.0
 13
42.89141950439158
 23
18.79954433075929
 33
0.0
  0
SOLID
  5
C51
330
C49
100
AcDbEntity
  8
Dimensions
 62
     0
440
 16777216
100
AcDbTrace
 10
42.49462040619989
 20
18.81954433075929
 30
0.0
 11
42.49462040619989
 21
18.77954433075929
 31
0.0
 12
42.37462040619989
 22
18.79954433075929
 32
0.0
 13
42.37462040619989
 23
18.79954433075929
 33
0.0
  0
MTEXT
  5
C52
330
C49
100
AcDbEntity
  8
Dimensions
 62
     0
440
 16777216
100
AcDbMText
 10
41.80257402147956
 20
18.79954433075929
 30
0.0
 40
0.12
 41
0.0
 46
0.0
 71
     5
 72
     1
  1
\A1;2x 0.5168
 73
     1
 44
1.0
  0
POINT
  5
C53
330
C49
100
AcDbEntity
  8
Defpoints
 62
     0
440
 16777216
100
AcDbPoint
 10
42.89141950439158
 20
17.6586565440494
 30
0.0
  0
POINT
  5
C54
330
C49
100
AcDbEntity
  8
Defpoints
 62
     0
440
 16777216
100
AcDbPoint
 10
42.37462040619989
 20
17.6586565440494
 30
0.0
  0
POINT
  5
C55
330
C49
100
AcDbEntity
  8
Defpoints
 62
     0
440
 16777216
100
AcDbPoint
 10
42.37462040619989
 20
18.79954433075929
 30
0.0
  0
ENDBLK
  5
C4B
330
C49
100
AcDbEntity
  8
0
100
AcDbBlockEnd
  0
BLOCK
  5
C57
330
C56
100
AcDbEntity
  8
0
100
AcDbBlockBegin
  2
*D63
 70
     1
 10
0.0
 20
0.0
 30
0.0
  3
*D63
  1

  0
LINE
  5
C59
330
C56
100
AcDbEntity
  8
Dimensions
 62
     0
440
 16777216
370
    -2
100
AcDbLine
 10
36.97988468500654
 20
16.73255650904926
 30
0.0
 11
36.97988468500654
 21
16.22606803659699
 31
0.0
  0
LINE
  5
C5A
330
C56
100
AcDbEntity
  8
Dimensions
 62
     0
440
 16777216
370
    -2
100
AcDbLine
 10
37.31008468500593
 20
16.73255650904926
 30
0.0
 11
37.31008468500593
 21
16.22606803659699
 31
0.0
  0
LINE
  5
C5B
330
C56
100
AcDbEntity
  8
Dimensions
 62
     0
440
 16777216
370
    -2
100
AcDbLine
 10
37.43008468500593
 20
16.40606803659698
 30
0.0
 11
37.55008468500593
 21
16.40606803659698
 31
0.0
  0
LINE
  5
C5C
330
C56
100
AcDbEntity
  8
Dimensions
 62
     0
440
 16777216
370
    -2
100
AcDbLine
 10
36.85988468500654
 20
16.40606803659698
 30
0.0
 11
36.69399639981943
 21
16.40606803659698
 31
0.0
  0
SOLID
  5
C5D
330
C56
100
AcDbEntity
  8
Dimensions
 62
     0
440
 16777216
100
AcDbTrace
 10
37.43008468500593
 20
16.42606803659699
 30
0.0
 11
37.43008468500593
 21
16.38606803659699
 31
0.0
 12
37.31008468500593
 22
16.40606803659698
 32
0.0
 13
37.31008468500593
 23
16.40606803659698
 33
0.0
  0
SOLID
  5
C5E
330
C56
100
AcDbEntity
  8
Dimensions
 62
     0
440
 16777216
100
AcDbTrace
 10
36.85988468500654
 20
16.42606803659699
 30
0.0
 11
36.85988468500654
 21
16.38606803659699
 31
0.0
 12
36.97988468500654
 22
16.40606803659698
 32
0.0
 13
36.97988468500654
 23
16.40606803659698
 33
0.0
  0
MTEXT
  5
C5F
330
C56
100
AcDbEntity
  8
Dimensions
 62
     0
440
 16777216
100
AcDbMText
 10
36.26458303010593
 20
16.40606803659698
 30
0.0
 40
0.12
 41
0.0
 46
0.0
 71
     5
 72
     1
  1
\A1;4x0.3302
 73
     1
 44
1.0
  0
POINT
  5
C60
330
C56
100
AcDbEntity
  8
Defpoints
 62
     0
440
 16777216
100
AcDbPoint
 10
36.97988468500654
 20
16.79505650904926
 30
0.0
  0
POINT
  5
C61
330
C56
100
AcDbEntity
  8
Defpoints
 62
     0
440
 16777216
100
AcDbPoint
 10
37.31008468500593
 20
16.79505650904926
 30
0.0
  0
POINT
  5
C62
330
C56
100
AcDbEntity
  8
Defpoints
 62
     0
440
 16777216
100
AcDbPoint
 10
37.31008468500593
 20
16.40606803659698
 30
0.0
  0
ENDBLK
  5
C58
330
C56
100
AcDbEntity
  8
0
100
AcDbBlockEnd
  0
BLOCK
  5
C64
330
C63
100
AcDbEntity
  8
0
100
AcDbBlockBegin
  2
*D64
 70
     1
 10
0.0
 20
0.0
 30
0.0
  3
*D64
  1

  0
LINE
  5
C66
330
C63
100
AcDbEntity
  8
Dimensions
 62
     0
440
 16777216
370
    -2
100
AcDbLine
 10
37.31008468500593
 20
18.58475654404974
 30
0.0
 11
37.31008468500593
 21
19.20575946879643
 31
0.0
  0
LINE
  5
C67
330
C63
100
AcDbEntity
  8
Dimensions
 62
     0
440
 16777216
370
    -2
100
AcDbLine
 10
37.9704846850062
 20
18.58475654404974
 30
0.0
 11
37.9704846850062
 21
19.20575946879643
 31
0.0
  0
LINE
  5
C68
330
C63
100
AcDbEntity
  8
Dimensions
 62
     0
440
 16777216
370
    -2
100
AcDbLine
 10
37.43008468500593
 20
19.02575946879643
 30
0.0
 11
37.8504846850062
 21
19.02575946879643
 31
0.0
  0
LINE
  5
C69
330
C63
100
AcDbEntity
  8
Dimensions
 62
     0
440
 16777216
370
    -2
100
AcDbLine
 10
37.9704846850062
 20
19.02575946879643
 30
0.0
 11
38.0904846850062
 21
19.02575946879643
 31
0.0
  0
SOLID
  5
C6A
330
C63
100
AcDbEntity
  8
Dimensions
 62
     0
440
 16777216
100
AcDbTrace
 10
37.43008468500593
 20
19.04575946879643
 30
0.0
 11
37.43008468500593
 21
19.00575946879643
 31
0.0
 12
37.31008468500593
 22
19.02575946879643
 32
0.0
 13
37.31008468500593
 23
19.02575946879643
 33
0.0
  0
SOLID
  5
C6B
330
C63
100
AcDbEntity
  8
Dimensions
 62
     0
440
 16777216
100
AcDbTrace
 10
37.8504846850062
 20
19.04575946879643
 30
0.0
 11
37.8504846850062
 21
19.00575946879643
 31
0.0
 12
37.9704846850062
 22
19.02575946879643
 32
0.0
 13
37.9704846850062
 23
19.02575946879643
 33
0.0
  0
MTEXT
  5
C6C
330
C63
100
AcDbEntity
  8
Dimensions
 62
     0
440
 16777216
100
AcDbMText
 10
38.42932506699801
 20
19.02575946879643
 30
0.0
 40
0.12
 41
0.0
 46
0.0
 71
     5
 72
     1
  1
\A1;0.6604
 73
     1
 44
1.0
  0
POINT
  5
C6D
330
C63
100
AcDbEntity
  8
Defpoints
 62
     0
440
 16777216
100
AcDbPoint
 10
37.31008468500593
 20
18.52225654404974
 30
0.0
  0
POINT
  5
C6E
330
C63
100
AcDbEntity
  8
Defpoints
 62
     0
440
 16777216
100
AcDbPoint
 10
37.9704846850062
 20
18.52225654404974
 30
0.0
  0
POINT
  5
C6F
330
C63
100
AcDbEntity
  8
Defpoints
 62
     0
440
 16777216
100
AcDbPoint
 10
37.9704846850062
 20
19.02575946879643
 30
0.0
  0
ENDBLK
  5
C65
330
C63
100
AcDbEntity
  8
0
100
AcDbBlockEnd
  0
BLOCK
  5
C71
330
C70
100
AcDbEntity
  8
0
100
AcDbBlockBegin
  2
*D65
 70
     1
 10
0.0
 20
0.0
 30
0.0
  3
*D65
  1

  0
LINE
  5
C73
330
C70
100
AcDbEntity
  8
Dimensions
 62
     0
440
 16777216
370
    -2
100
AcDbLine
 10
36.91738468500656
 20
17.86185654404947
 30
0.0
 11
36.12023999309744
 21
17.86185654404947
 31
0.0
  0
LINE
  5
C74
330
C70
100
AcDbEntity
  8
Dimensions
 62
     0
440
 16777216
370
    -2
100
AcDbLine
 10
36.91738468500656
 20
18.11585654404927
 30
0.0
 11
36.12023999309744
 21
18.11585654404927
 31
0.0
  0
LINE
  5
C75
330
C70
100
AcDbEntity
  8
Dimensions
 62
     0
440
 16777216
370
    -2
100
AcDbLine
 10
36.30023999309744
 20
18.23585654404928
 30
0.0
 11
36.30023999309744
 21
18.35585654404927
 31
0.0
  0
LINE
  5
C76
330
C70
100
AcDbEntity
  8
Dimensions
 62
     0
440
 16777216
370
    -2
100
AcDbLine
 10
36.30023999309744
 20
17.74185654404947
 30
0.0
 11
36.30023999309744
 21
17.30050314222659
 31
0.0
  0
LINE
  5
C77
330
C70
100
AcDbEntity
  8
Dimensions
 62
     0
440
 16777216
370
    -2
100
AcDbLine
 10
36.30023999309744
 20
17.30050314222659
 30
0.0
 11
36.18023999309744
 21
17.30050314222659
 31
0.0
  0
SOLID
  5
C78
330
C70
100
AcDbEntity
  8
Dimensions
 62
     0
440
 16777216
100
AcDbTrace
 10
36.28023999309743
 20
18.23585654404928
 30
0.0
 11
36.32023999309744
 21
18.23585654404928
 31
0.0
 12
36.30023999309744
 22
18.11585654404927
 32
0.0
 13
36.30023999309744
 23
18.11585654404927
 33
0.0
  0
SOLID
  5
C79
330
C70
100
AcDbEntity
  8
Dimensions
 62
     0
440
 16777216
100
AcDbTrace
 10
36.28023999309743
 20
17.74185654404947
 30
0.0
 11
36.32023999309744
 21
17.74185654404947
 31
0.0
 12
36.30023999309744
 22
17.86185654404947
 32
0.0
 13
36.30023999309744
 23
17.86185654404947
 33
0.0
  0
MTEXT
  5
C7A
330
C70
100
AcDbEntity
  8
Dimensions
 62
     0
440
 16777216
100
AcDbMText
 10
35.75041734643986
 20
17.30050314222658
 30
0.0
 40
0.12
 41
0.0
 46
0.0
 71
     5
 72
     1
  1
\A1;4x0.2540
 73
     1
 44
1.0
  0
POINT
  5
C7B
330
C70
100
AcDbEntity
  8
Defpoints
 62
     0
440
 16777216
100
AcDbPoint
 10
36.97988468500656
 20
17.86185654404947
 30
0.0
  0
POINT
  5
C7C
330
C70
100
AcDbEntity
  8
Defpoints
 62
     0
440
 16777216
100
AcDbPoint
 10
36.97988468500656
 20
18.11585654404927
 30
0.0
  0
POINT
  5
C7D
330
C70
100
AcDbEntity
  8
Defpoints
 62
     0
440
 16777216
100
AcDbPoint
 10
36.30023999309744
 20
18.11585654404927
 30
0.0
  0
ENDBLK
  5
C72
330
C70
100
AcDbEntity
  8
0
100
AcDbBlockEnd
  0
BLOCK
  5
C7F
330
C7E
100
AcDbEntity
  8
0
100
AcDbBlockBegin
  2
*D66
 70
     1
 10
0.0
 20
0.0
 30
0.0
  3
*D66
  1

  0
LINE
  5
C81
330
C7E
100
AcDbEntity
  8
Dimensions
 62
     0
440
 16777216
370
    -2
100
AcDbLine
 10
38.53969780398465
 20
17.41495654404911
 30
0.0
 11
39.73609735173023
 21
17.41495654404911
 31
0.0
  0
LINE
  5
C82
330
C7E
100
AcDbEntity
  8
Dimensions
 62
     0
440
 16777216
370
    -2
100
AcDbLine
 10
38.53969780398536
 20
17.90235654405005
 30
0.0
 11
39.73609735173023
 21
17.90235654405005
 31
0.0
  0
LINE
  5
C83
330
C7E
100
AcDbEntity
  8
Dimensions
 62
     0
440
 16777216
370
    -2
100
AcDbLine
 10
39.55609735173023
 20
17.53495654404911
 30
0.0
 11
39.55609735173023
 21
17.78235654405005
 31
0.0
  0
LINE
  5
C84
330
C7E
100
AcDbEntity
  8
Dimensions
 62
     0
440
 16777216
370
    -2
100
AcDbLine
 10
39.55609735173023
 20
17.90235654405005
 30
0.0
 11
39.55609735173023
 21
18.02235654405005
 31
0.0
  0
LINE
  5
C85
330
C7E
100
AcDbEntity
  8
Dimensions
 62
     0
440
 16777216
370
    -2
100
AcDbLine
 10
39.55609735173023
 20
18.02235654405005
 30
0.0
 11
39.67609735173023
 21
18.02235654405005
 31
0.0
  0
SOLID
  5
C86
330
C7E
100
AcDbEntity
  8
Dimensions
 62
     0
440
 16777216
100
AcDbTrace
 10
39.53609735173023
 20
17.53495654404911
 30
0.0
 11
39.57609735173024
 21
17.53495654404911
 31
0.0
 12
39.55609735173023
 22
17.41495654404911
 32
0.0
 13
39.55609735173023
 23
17.41495654404911
 33
0.0
  0
SOLID
  5
C87
330
C7E
100
AcDbEntity
  8
Dimensions
 62
     0
440
 16777216
100
AcDbTrace
 10
39.53609735173023
 20
17.78235654405005
 30
0.0
 11
39.57609735173024
 21
17.78235654405005
 31
0.0
 12
39.55609735173023
 22
17.90235654405005
 32
0.0
 13
39.55609735173023
 23
17.90235654405005
 33
0.0
  0
MTEXT
  5
C88
330
C7E
100
AcDbEntity
  8
Dimensions
 62
     0
440
 16777216
100
AcDbMText
 10
40.01493773372204
 20
18.02235654405004
 30
0.0
 40
0.12
 41
0.0
 46
0.0
 71
     5
 72
     1
  1
\A1;0.4874
 73
     1
 44
1.0
  0
POINT
  5
C89
330
C7E
100
AcDbEntity
  8
Defpoints
 62
     0
440
 16777216
100
AcDbPoint
 10
38.47719780398465
 20
17.41495654404911
 30
0.0
  0
POINT
  5
C8A
330
C7E
100
AcDbEntity
  8
Defpoints
 62
     0
440
 16777216
100
AcDbPoint
 10
38.47719780398536
 20
17.90235654405005
 30
0.0
  0
POINT
  5
C8B
330
C7E
100
AcDbEntity
  8
Defpoints
 62
     0
440
 16777216
100
AcDbPoint
 10
39.55609735173023
 20
17.90235654405005
 30
0.0
  0
ENDBLK
  5
C80
330
C7E
100
AcDbEntity
  8
0
100
AcDbBlockEnd
  0
BLOCK
  5
C8D
330
C8C
100
AcDbEntity
  8
0
100
AcDbBlockBegin
  2
*D67
 70
     1
 10
0.0
 20
0.0
 30
0.0
  3
*D67
  1

  0
LINE
  5
CD1
330
C8C
100
AcDbEntity
  8
Dimensions
 62
     0
440
 16777216
370
    -2
100
AcDbLine
 10
38.34218360263361
 20
18.03490026459706
 30
0.0
 11
38.22218360263362
 21
18.03490026459706
 31
0.0
  0
LINE
  5
CD2
330
C8C
100
AcDbEntity
  8
Dimensions
 62
     0
440
 16777216
370
    -2
100
AcDbLine
 10
38.22218360263362
 20
18.03490026459706
 30
0.0
 11
37.84770387859299
 21
17.79276947456735
 31
0.0
  0
MTEXT
  5
CD3
330
C8C
100
AcDbEntity
  8
Dimensions
 62
     0
440
 16777216
100
AcDbMText
 10
38.74634458489828
 20
18.03490026459706
 30
0.0
 40
0.12
 41
0.0
 46
0.0
 71
     5
 72
     1
  1
\A1;∅0.2540
 73
     1
 44
1.0
  0
SOLID
  5
CD4
330
C8C
100
AcDbEntity
  8
Dimensions
 62
     0
440
 16777216
100
AcDbTrace
 10
37.83684453199239
 20
17.80956455097111
 30
0.0
 11
37.85856322519358
 21
17.77597439816359
 31
0.0
 12
37.74693342017043
 22
17.72761339496378
 32
0.0
 13
37.74693342017043
 23
17.72761339496378
 33
0.0
  0
LINE
  5
CD5
330
C8C
100
AcDbEntity
  8
Dimensions
 62
     0
440
 16777216
370
    -2
100
AcDbLine
 10
37.55028468500643
 20
17.65865654404995
 30
0.0
 11
37.73028468500643
 21
17.65865654404994
 31
0.0
  0
LINE
  5
CD6
330
C8C
100
AcDbEntity
  8
Dimensions
 62
     0
440
 16777216
370
    -2
100
AcDbLine
 10
37.64028468500644
 20
17.56865654404994
 30
0.0
 11
37.64028468500644
 21
17.74865654404994
 31
0.0
  0
POINT
  5
CD7
330
C8C
100
AcDbEntity
  8
Defpoints
 62
     0
440
 16777216
100
AcDbPoint
 10
37.74693342017043
 20
17.72761339496378
 30
0.0
  0
POINT
  5
CD8
330
C8C
100
AcDbEntity
  8
Defpoints
 62
     0
440
 16777216
100
AcDbPoint
 10
37.53363594984244
 20
17.58969969313609
 30
0.0
  0
ENDBLK
  5
C8E
330
C8C
100
AcDbEntity
  8
0
100
AcDbBlockEnd
  0
BLOCK
  5
C98
330
C97
100
AcDbEntity
  8
0
100
AcDbBlockBegin
  2
*D68
 70
     1
 10
0.0
 20
0.0
 30
0.0
  3
*D68
  1

  0
LINE
  5
C9A
330
C97
100
AcDbEntity
  8
Dimensions
 62
     0
440
 16777216
370
    -2
100
AcDbLine
 10
36.61192227572658
 20
18.30955981152067
 30
0.0
 11
35.95089528126083
 21
18.57317000598277
 31
0.0
  0
LINE
  5
C9B
330
C97
100
AcDbEntity
  8
Dimensions
 62
     0
440
 16777216
370
    -2
100
AcDbLine
 10
36.77186991280836
 20
18.71064333572884
 30
0.0
 11
36.1108429183426
 21
18.97425353019094
 31
0.0
  0
LINE
  5
C9C
330
C97
100
AcDbEntity
  8
Dimensions
 62
     0
440
 16777216
370
    -2
100
AcDbLine
 10
36.34471417594423
 20
19.07477335344901
 30
0.0
 11
36.411389893116
 21
19.24196889387886
 31
0.0
  0
LINE
  5
C9D
330
C97
100
AcDbEntity
  8
Dimensions
 62
     0
440
 16777216
370
    -2
100
AcDbLine
 10
36.0514151045189
 20
18.33929874838115
 30
0.0
 11
35.98473938734712
 21
18.1721032079513
 31
0.0
  0
LINE
  5
C9E
330
C97
100
AcDbEntity
  8
Dimensions
 62
     0
440
 16777216
370
    -2
100
AcDbLine
 10
35.98473938734712
 20
18.1721032079513
 30
0.0
 11
35.80473938734712
 21
18.1721032079513
 31
0.0
  0
SOLID
  5
C9F
330
C97
100
AcDbEntity
  8
Dimensions
 62
     0
440
 16777216
100
AcDbTrace
 10
36.31684825253925
 20
19.08588597297764
 30
0.0
 11
36.37258009934921
 21
19.06366073392038
 31
0.0
 12
36.27803845877244
 22
18.90757781301917
 32
0.0
 13
36.27803845877244
 23
18.90757781301917
 33
0.0
  0
SOLID
  5
CA0
330
C97
100
AcDbEntity
  8
Dimensions
 62
     0
440
 16777216
100
AcDbTrace
 10
36.02354918111392
 20
18.35041136790978
 30
0.0
 11
36.07928102792388
 21
18.32818612885252
 31
0.0
 12
36.11809082169067
 22
18.506494288811
 32
0.0
 13
36.11809082169067
 23
18.506494288811
 33
0.0
  0
MTEXT
  5
CA1
330
C97
100
AcDbEntity
  8
Dimensions
 62
     0
440
 16777216
100
AcDbMText
 10
34.92733147465953
 20
18.1721032079513
 30
0.0
 40
0.12
 41
0.0
 46
0.0
 71
     5
 72
     1
  1
\A1;4x Transmission Line
 73
     1
 44
1.0
  0
POINT
  5
CA2
330
C97
100
AcDbEntity
  8
Defpoints
 62
     0
440
 16777216
100
AcDbPoint
 10
36.66997628282028
 20
18.28640852083603
 30
0.0
  0
POINT
  5
CA3
330
C97
100
AcDbEntity
  8
Defpoints
 62
     0
440
 16777216
100
AcDbPoint
 10
36.82992391990205
 20
18.68749204504419
 30
0.0
  0
POINT
  5
CA4
330
C97
100
AcDbEntity
  8
Defpoints
 62
     0
440
 16777216
100
AcDbPoint
 10
36.27803845877244
 20
18.90757781301917
 30
0.0
  0
ENDBLK
  5
C99
330
C97
100
AcDbEntity
  8
0
100
AcDbBlockEnd
  0
BLOCK
  5
CA6
330
CA5
100
AcDbEntity
  8
0
100
AcDbBlockBegin
  2
*D69
 70
     1
 10
0.0
 20
0.0
 30
0.0
  3
*D69
  1

  0
LINE
  5
CA8
330
CA5
100
AcDbEntity
  8
Dimensions
 62
     0
440
 16777216
370
    -2
100
AcDbLine
 10
38.36318468500635
 20
17.86185654404947
 30
0.0
 11
39.39702829482834
 21
17.86185654404947
 31
0.0
  0
LINE
  5
CA9
330
CA5
100
AcDbEntity
  8
Dimensions
 62
     0
440
 16777216
370
    -2
100
AcDbLine
 10
38.36318468500635
 20
17.45545654404969
 30
0.0
 11
39.39702829482834
 21
17.45545654404969
 31
0.0
  0
LINE
  5
CAA
330
CA5
100
AcDbEntity
  8
Dimensions
 62
     0
440
 16777216
370
    -2
100
AcDbLine
 10
39.21702829482834
 20
17.98185654404948
 30
0.0
 11
39.21702829482834
 21
18.10185654404947
 31
0.0
  0
LINE
  5
CAB
330
CA5
100
AcDbEntity
  8
Dimensions
 62
     0
440
 16777216
370
    -2
100
AcDbLine
 10
39.21702829482834
 20
17.33545654404969
 30
0.0
 11
39.21702829482834
 21
17.21545654404969
 31
0.0
  0
SOLID
  5
CAC
330
CA5
100
AcDbEntity
  8
Dimensions
 62
     0
440
 16777216
100
AcDbTrace
 10
39.19702829482833
 20
17.98185654404948
 30
0.0
 11
39.23702829482834
 21
17.98185654404948
 31
0.0
 12
39.21702829482834
 22
17.86185654404947
 32
0.0
 13
39.21702829482834
 23
17.86185654404947
 33
0.0
  0
SOLID
  5
CAD
330
CA5
100
AcDbEntity
  8
Dimensions
 62
     0
440
 16777216
100
AcDbTrace
 10
39.19702829482833
 20
17.33545654404969
 30
0.0
 11
39.23702829482834
 21
17.33545654404969
 31
0.0
 12
39.21702829482834
 22
17.45545654404969
 32
0.0
 13
39.21702829482834
 23
17.45545654404969
 33
0.0
  0
MTEXT
  5
CAE
330
CA5
100
AcDbEntity
  8
Dimensions
 62
     0
440
 16777216
100
AcDbMText
 10
39.21702829482834
 20
17.65865654404957
 30
0.0
 40
0.12
 41
0.0
 46
0.0
 71
     5
 72
     1
  1
\A1;0.4064
 73
     1
 44
1.0
  0
POINT
  5
CAF
330
CA5
100
AcDbEntity
  8
Defpoints
 62
     0
440
 16777216
100
AcDbPoint
 10
38.30068468500634
 20
17.86185654404947
 30
0.0
  0
POINT
  5
CB0
330
CA5
100
AcDbEntity
  8
Defpoints
 62
     0
440
 16777216
100
AcDbPoint
 10
38.30068468500634
 20
17.45545654404969
 30
0.0
  0
POINT
  5
CB1
330
CA5
100
AcDbEntity
  8
Defpoints
 62
     0
440
 16777216
100
AcDbPoint
 10
39.21702829482834
 20
17.45545654404969
 30
0.0
  0
ENDBLK
  5
CA7
330
CA5
100
AcDbEntity
  8
0
100
AcDbBlockEnd
  0
BLOCK
  5
CB3
330
CB2
100
AcDbEntity
  8
0
100
AcDbBlockBegin
  2
*D70
 70
     1
 10
0.0
 20
0.0
 30
0.0
  3
*D70
  1

  0
LINE
  5
CB5
330
CB2
100
AcDbEntity
  8
Dimensions
 62
     0
440
 16777216
370
    -2
100
AcDbLine
 10
37.37258468500595
 20
17.20145654404922
 30
0.0
 11
37.77269636699418
 21
17.20145654404922
 31
0.0
  0
LINE
  5
CB6
330
CB2
100
AcDbEntity
  8
Dimensions
 62
     0
440
 16777216
370
    -2
100
AcDbLine
 10
37.37258468500595
 20
16.79505654404943
 30
0.0
 11
37.77269636699418
 21
16.79505654404943
 31
0.0
  0
LINE
  5
CB7
330
CB2
100
AcDbEntity
  8
Dimensions
 62
     0
440
 16777216
370
    -2
100
AcDbLine
 10
37.59269636699418
 20
17.32145654404922
 30
0.0
 11
37.59269636699418
 21
17.44145654404922
 31
0.0
  0
LINE
  5
CB8
330
CB2
100
AcDbEntity
  8
Dimensions
 62
     0
440
 16777216
370
    -2
100
AcDbLine
 10
37.59269636699418
 20
16.67505654404943
 30
0.0
 11
37.59269636699418
 21
16.55505654404943
 31
0.0
  0
SOLID
  5
CB9
330
CB2
100
AcDbEntity
  8
Dimensions
 62
     0
440
 16777216
100
AcDbTrace
 10
37.57269636699418
 20
17.32145654404922
 30
0.0
 11
37.61269636699418
 21
17.32145654404922
 31
0.0
 12
37.59269636699418
 22
17.20145654404922
 32
0.0
 13
37.59269636699418
 23
17.20145654404922
 33
0.0
  0
SOLID
  5
CBA
330
CB2
100
AcDbEntity
  8
Dimensions
 62
     0
440
 16777216
100
AcDbTrace
 10
37.57269636699418
 20
16.67505654404943
 30
0.0
 11
37.61269636699418
 21
16.67505654404943
 31
0.0
 12
37.59269636699418
 22
16.79505654404943
 32
0.0
 13
37.59269636699418
 23
16.79505654404943
 33
0.0
  0
MTEXT
  5
CBB
330
CB2
100
AcDbEntity
  8
Dimensions
 62
     0
440
 16777216
100
AcDbMText
 10
37.59269636699418
 20
16.99825654404931
 30
0.0
 40
0.12
 41
0.0
 46
0.0
 71
     5
 72
     1
  1
\A1;0.4064
 73
     1
 44
1.0
  0
POINT
  5
CBC
330
CB2
100
AcDbEntity
  8
Defpoints
 62
     0
440
 16777216
100
AcDbPoint
 10
37.31008468500595
 20
17.20145654404922
 30
0.0
  0
POINT
  5
CBD
330
CB2
100
AcDbEntity
  8
Defpoints
 62
     0
440
 16777216
100
AcDbPoint
 10
37.31008468500595
 20
16.79505654404943
 30
0.0
  0
POINT
  5
CBE
330
CB2
100
AcDbEntity
  8
Defpoints
 62
     0
440
 16777216
100
AcDbPoint
 10
37.59269636699418
 20
16.79505654404943
 30
0.0
  0
ENDBLK
  5
CB4
330
CB2
100
AcDbEntity
  8
0
100
AcDbBlockEnd
  0
BLOCK
  5
D07
330
D06
100
AcDbEntity
  8
0
100
AcDbBlockBegin
  2
*D71
 70
     1
 10
0.0
 20
0.0
 30
0.0
  3
*D71
  1

  0
LINE
  5
D09
330
D06
100
AcDbEntity
  8
Dimensions
 62
     0
440
 16777216
370
    -2
100
AcDbLine
 10
49.58156563996714
 20
18.3066536467712
 30
0.0
 11
47.8091091117106
 21
18.3066536467712
 31
0.0
  0
LINE
  5
D0A
330
D06
100
AcDbEntity
  8
Dimensions
 62
     0
440
 16777216
370
    -2
100
AcDbLine
 10
49.58156563996714
 20
17.77665364677122
 30
0.0
 11
47.8091091117106
 21
17.77665364677122
 31
0.0
  0
LINE
  5
D0B
330
D06
100
AcDbEntity
  8
Dimensions
 62
     0
440
 16777216
370
    -2
100
AcDbLine
 10
47.86910911171061
 20
18.2066536467712
 30
0.0
 11
47.86910911171061
 21
18.18021503139901
 31
0.0
  0
LINE
  5
D0C
330
D06
100
AcDbEntity
  8
Dimensions
 62
     0
440
 16777216
370
    -2
100
AcDbLine
 10
47.86910911171061
 20
17.87665364677122
 30
0.0
 11
47.86910911171061
 21
17.94021503139901
 31
0.0
  0
MTEXT
  5
D0D
330
D06
100
AcDbEntity
  8
Dimensions
 62
     0
440
 16777216
100
AcDbMText
 10
47.85859284936099
 20
18.06021503139899
 30
0.0
 40
0.12
 41
0.0
 46
0.0
 71
     5
 72
     1
  1
\A1;CIRCUIT SECTION
  7
RomanS
 73
     1
 44
1.0
  0
SOLID
  5
D0E
330
D06
100
AcDbEntity
  8
Dimensions
 62
     0
440
 16777216
100
AcDbTrace
 10
47.85244244504394
 20
18.2066536467712
 30
0.0
 11
47.88577577837727
 21
18.2066536467712
 31
0.0
 12
47.86910911171061
 22
18.3066536467712
 32
0.0
 13
47.86910911171061
 23
18.3066536467712
 33
0.0
  0
SOLID
  5
D0F
330
D06
100
AcDbEntity
  8
Dimensions
 62
     0
440
 16777216
100
AcDbTrace
 10
47.85244244504394
 20
17.87665364677122
 30
0.0
 11
47.88577577837727
 21
17.87665364677122
 31
0.0
 12
47.86910911171061
 22
17.77665364677122
 32
0.0
 13
47.86910911171061
 23
17.77665364677122
 33
0.0
  0
POINT
  5
D10
330
D06
100
AcDbEntity
  8
Defpoints
 62
     0
440
 16777216
100
AcDbPoint
 10
49.64406563996714
 20
18.3066536467712
 30
0.0
  0
POINT
  5
D11
330
D06
100
AcDbEntity
  8
Defpoints
 62
     0
440
 16777216
100
AcDbPoint
 10
49.64406563996714
 20
17.77665364677122
 30
0.0
  0
POINT
  5
D12
330
D06
100
AcDbEntity
  8
Defpoints
 62
     0
440
 16777216
100
AcDbPoint
 10
47.86910911171061
 20
17.77665364677122
 30
0.0
  0
ENDBLK
  5
D08
330
D06
100
AcDbEntity
  8
0
100
AcDbBlockEnd
  0
BLOCK
  5
D14
330
D13
100
AcDbEntity
  8
0
100
AcDbBlockBegin
  2
*D72
 70
     1
 10
0.0
 20
0.0
 30
0.0
  3
*D72
  1

  0
LINE
  5
D16
330
D13
100
AcDbEntity
  8
Dimensions
 62
     0
440
 16777216
370
    -2
100
AcDbLine
 10
49.58156563996714
 20
17.77665364677122
 30
0.0
 11
48.34953831764766
 21
17.77665364677122
 31
0.0
  0
LINE
  5
D17
330
D13
100
AcDbEntity
  8
Dimensions
 62
     0
440
 16777216
370
    -2
100
AcDbLine
 10
49.58156563996714
 20
16.52165364677111
 30
0.0
 11
48.34953831764766
 21
16.52165364677111
 31
0.0
  0
LINE
  5
D18
330
D13
100
AcDbEntity
  8
Dimensions
 62
     0
440
 16777216
370
    -2
100
AcDbLine
 10
48.40953831764767
 20
17.67665364677122
 30
0.0
 11
48.40953831764767
 21
17.28420462334086
 31
0.0
  0
LINE
  5
D19
330
D13
100
AcDbEntity
  8
Dimensions
 62
     0
440
 16777216
370
    -2
100
AcDbLine
 10
48.40953831764767
 20
16.62165364677111
 30
0.0
 11
48.40953831764767
 21
17.04420462334086
 31
0.0
  0
MTEXT
  5
D1A
330
D13
100
AcDbEntity
  8
Dimensions
 62
     0
440
 16777216
100
AcDbMText
 10
48.48663161614338
 20
17.16420462334085
 30
0.0
 40
0.12
 41
0.0
 46
0.0
 71
     5
 72
     1
  1
\A1;STIFFENER SECTION
  7
RomanS
 73
     1
 44
1.0
  0
SOLID
  5
D1B
330
D13
100
AcDbEntity
  8
Dimensions
 62
     0
440
 16777216
100
AcDbTrace
 10
48.392871650981
 20
17.67665364677122
 30
0.0
 11
48.42620498431433
 21
17.67665364677122
 31
0.0
 12
48.40953831764767
 22
17.77665364677122
 32
0.0
 13
48.40953831764767
 23
17.77665364677122
 33
0.0
  0
SOLID
  5
D1C
330
D13
100
AcDbEntity
  8
Dimensions
 62
     0
440
 16777216
100
AcDbTrace
 10
48.392871650981
 20
16.62165364677111
 30
0.0
 11
48.42620498431433
 21
16.62165364677111
 31
0.0
 12
48.40953831764767
 22
16.52165364677111
 32
0.0
 13
48.40953831764767
 23
16.52165364677111
 33
0.0
  0
POINT
  5
D1D
330
D13
100
AcDbEntity
  8
Defpoints
 62
     0
440
 16777216
100
AcDbPoint
 10
49.64406563996714
 20
17.77665364677122
 30
0.0
  0
POINT
  5
D1E
330
D13
100
AcDbEntity
  8
Defpoints
 62
     0
440
 16777216
100
AcDbPoint
 10
49.64406563996714
 20
16.52165364677111
 30
0.0
  0
POINT
  5
D1F
330
D13
100
AcDbEntity
  8
Defpoints
 62
     0
440
 16777216
100
AcDbPoint
 10
48.40953831764767
 20
16.52165364677111
 30
0.0
  0
ENDBLK
  5
D15
330
D13
100
AcDbEntity
  8
0
100
AcDbBlockEnd
  0
ENDSEC
  0
SECTION
  2
ENTITIES
  0
MTEXT
  5
B9D
330
1F
100
AcDbEntity
  8
0
100
AcDbMText
 10
36.28110332562676
 20
16.15459410691756
 30
0.0
 40
0.18
 41
3.067924739999312
 46
0.0
 71
     1
 72
     5
  1
Dimensions are in Milliners
 73
     1
 44
1.0
101
Embedded Object
 70
     1
 10
1.0
 20
0.0
 30
0.0
 11
36.28110332562676
 21
16.15459410691756
 31
0.0
 40
3.067924739999312
 41
0.0
 42
2.975402455661664
 43
0.1829467939972715
 71
     2
 72
     1
 44
3.067924739999312
 45
0.6
 73
     0
 74
     0
 46
0.0
  0
MTEXT
  5
B9E
330
1F
100
AcDbEntity
  8
0
100
AcDbMText
 10
41.82084806186702
 20
16.15459410691756
 30
0.0
 40
0.18
 41
3.82736840727631
 46
0.0
 71
     1
 72
     5
  1
Tolerances are Non-Cumulative
 73
     1
 44
1.0
101
Embedded Object
 70
     1
 10
1.0
 20
0.0
 30
0.0
 11
41.82084806186702
 21
16.15459410691756
 31
0.0
 40
3.82736840727631
 41
0.0
 42
3.533574351978172
 43
0.1861391541609823
 71
     2
 72
     1
 44
3.82736840727631
 45
0.6
 73
     0
 74
     0
 46
0.0
  0
LWPOLYLINE
  5
B9F
102
{ACAD_REACTORS
330
BAC
102
}
330
1F
100
AcDbEntity
  8
M1 Cu Feature
100
AcDbPolyline
 90
        6
 70
     1
 43
0.0
 10
44.72901860258379
 20
17.90235654405005
 10
44.38873262337075
 20
17.90235654405005
 10
44.21221950439174
 20
17.86185654404947
 10
44.21221950439174
 20
17.45545654404968
 10
44.38873262337004
 20
17.4149565440491
 10
44.72901860258305
 20
17.4149565440491
  0
LWPOLYLINE
  5
BA0
102
{ACAD_REACTORS
330
BA9
330
BB5
330
BB8
102
}
330
1F
100
AcDbEntity
  8
M1 Cu Feature
100
AcDbPolyline
 90
        4
 70
     1
 43
0.0
 10
44.21221950439174
 20
17.45545654404968
 10
44.21221950439174
 20
17.86185654404947
 10
42.89141950439194
 20
17.86185654404947
 10
42.89141950439194
 20
17.45545654404968
  0
CIRCLE
  5
BA1
330
1F
100
AcDbEntity
  8
M1-M3 PlatedThruHole
100
AcDbCircle
 10
44.50807561297667
 20
17.65865654404994
 30
0.0
 40
0.1270000000001372
  0
LWPOLYLINE
  5
BA2
102
{ACAD_REACTORS
330
BB8
330
BBB
330
BBE
102
}
330
1F
100
AcDbEntity
  8
M1 Cu Feature
100
AcDbPolyline
 90
        6
 70
     1
 43
0.0
 10
42.37462040619989
 20
17.90235654405005
 10
42.71490638541293
 20
17.90235654405005
 10
42.89141950439194
 20
17.86185654404947
 10
42.89141950439121
 20
17.45545654404968
 10
42.71490638541293
 20
17.4149565440491
 10
42.37462040619989
 20
17.4149565440491
  0
CIRCLE
  5
BA3
102
{ACAD_REACTORS
330
BB2
102
}
330
1F
100
AcDbEntity
  8
M1-M3 PlatedThruHole
100
AcDbCircle
 10
42.59556339580628
 20
17.65865654404994
 30
0.0
 40
0.1270000000001372
  0
CIRCLE
  5
BA4
102
{ACAD_REACTORS
330
BC1
102
}
330
1F
100
AcDbEntity
  8
M1-M3 PlatedThruHole
100
AcDbCircle
 10
43.55181950439184
 20
17.65865654404994
 30
0.0
 40
0.1270000000001372
  0
CIRCLE
  5
BA5
330
1F
100
AcDbEntity
  8
M1-M3 PlatedThruHole
100
AcDbCircle
 10
43.07369145009924
 20
17.65865654404994
 30
0.0
 40
0.1270000000001372
  0
CIRCLE
  5
BA6
102
{ACAD_REACTORS
330
BAF
102
}
330
1F
100
AcDbEntity
  8
M1-M3 PlatedThruHole
100
AcDbCircle
 10
44.02994755868443
 20
17.65865654404994
 30
0.0
 40
0.1270000000001372
  0
DIMENSION
  5
BA7
102
{ACAD_XDICTIONARY
360
BA8
102
}
102
{ACAD_REACTORS
330
BA9
102
}
330
1F
100
AcDbEntity
  8
Dimensions
100
AcDbDimension
280
     0
  2
*D55
 10
44.86949820804831
 20
17.86185654404947
 30
0.0
 11
44.86949820804831
 21
17.65865654404956
 31
0.0
 70
    32
 71
     5
 42
0.4063999999997848
 73
     0
 74
     0
 75
     0
  3
Standard
100
AcDbAlignedDimension
 13
43.55181950439184
 23
17.45545654404968
 33
0.0
 14
43.55181950439184
 24
17.86185654404947
 34
0.0
 50
90.0
100
AcDbRotatedDimension
1001
ACAD
1000
DSTYLE
1002
{
1070
    41
1040
0.12
1070
   140
1040
0.12
1002
}
  0
DIMENSION
  5
BAA
102
{ACAD_XDICTIONARY
360
BAB
102
}
102
{ACAD_REACTORS
330
BAC
102
}
330
1F
100
AcDbEntity
  8
Dimensions
100
AcDbDimension
280
     0
  2
*D56
 10
45.14625469690812
 20
17.90235654405005
 30
0.0
 11
45.60509507889992
 21
18.02235654405004
 31
0.0
 70
    32
 71
     5
 42
0.487400000000946
 73
     0
 74
     0
 75
     0
  3
Standard
100
AcDbAlignedDimension
 13
44.38873262337004
 23
17.4149565440491
 33
0.0
 14
44.38873262337075
 24
17.90235654405005
 34
0.0
 50
90.0
100
AcDbRotatedDimension
1001
ACAD
1000
DSTYLE
1002
{
1070
    41
1040
0.12
1070
   140
1040
0.12
1002
}
  0
DIMENSION
  5
BAD
102
{ACAD_XDICTIONARY
360
BAE
102
}
102
{ACAD_REACTORS
330
BAF
102
}
330
1F
100
AcDbEntity
  8
Dimensions
100
AcDbDimension
280
     0
  2
*D57
 10
43.55181950439184
 20
18.27752901327058
 30
0.0
 11
42.99008689866196
 21
18.27752901327058
 31
0.0
 70
    32
  1
4x 0.4781
 71
     5
 42
0.478128054292597
 73
     0
 74
     0
 75
     0
  3
Copy(2) of Standard
100
AcDbAlignedDimension
 13
44.02994755868443
 23
17.65865654404994
 33
0.0
 14
43.55181950439184
 24
17.65865654404994
 34
0.0
 50
180.0
100
AcDbRotatedDimension
  0
DIMENSION
  5
BB0
102
{ACAD_XDICTIONARY
360
BB1
102
}
102
{ACAD_REACTORS
330
BB2
102
}
330
1F
100
AcDbEntity
  8
Dimensions
100
AcDbDimension
280
     0
  2
*D58
 10
42.71109006373008
 20
17.60590629288033
 30
0.0
 11
41.15501635632882
 21
18.07708456205677
 31
0.0
 70
   163
 71
     5
 42
0.2540000000002678
 73
     0
 74
     0
 75
     0
  3
Copy(2) of Standard
100
AcDbDiametricDimension
 15
42.48003672788247
 25
17.71140679521954
 35
0.0
 40
0.0
1001
ACAD_DSTYLE_DIMRADIAL_EXTENSION
1070
   387
1070
     1
1070
   388
1040
0.0
1070
   390
1040
0.0
1001
ACAD
1000
DSTYLE
1002
{
1070
   288
1070
     1
1002
}
  0
DIMENSION
  5
BB3
102
{ACAD_XDICTIONARY
360
BB4
102
}
102
{ACAD_REACTORS
330
BB5
102
}
330
1F
100
AcDbEntity
  8
Dimensions
100
AcDbDimension
280
     0
  2
*D59
 10
44.21221950439174
 20
16.89820717250093
 30
0.0
 11
43.55181950439184
 21
16.89820717250093
 31
0.0
 70
    32
 71
     5
 42
1.320799999999792
 73
     0
 74
     0
 75
     0
  3
Copy(2) of Standard
100
AcDbAlignedDimension
 13
42.89141950439194
 23
17.45545654404968
 33
0.0
 14
44.21221950439174
 24
17.45545654404968
 34
0.0
 50
180.0
100
AcDbRotatedDimension
  0
DIMENSION
  5
BB6
102
{ACAD_XDICTIONARY
360
BB7
102
}
102
{ACAD_REACTORS
330
BB8
102
}
330
1F
100
AcDbEntity
  8
Dimensions
100
AcDbDimension
280
     0
  2
*D60
 10
42.71490638541293
 20
17.07820717250094
 30
0.0
 11
43.47095565718867
 21
17.07820717250094
 31
0.0
 70
   160
 71
     5
 42
0.1765131189790168
 73
     0
 74
     0
 75
     0
  3
Copy(2) of Standard
100
AcDbAlignedDimension
 13
42.89141950439194
 23
17.45545654404985
 33
0.0
 14
42.71490638541293
 24
17.41495654404911
 34
0.0
 50
180.0
100
AcDbRotatedDimension
  0
DIMENSION
  5
BB9
102
{ACAD_XDICTIONARY
360
BBA
102
}
102
{ACAD_REACTORS
330
BBB
102
}
330
1F
100
AcDbEntity
  8
Dimensions
100
AcDbDimension
280
     0
  2
*D61
 10
42.37462040619989
 20
16.64984995993253
 30
0.0
 11
41.79553445804164
 21
16.64984995993253
 31
0.0
 70
    32
 71
     5
 42
0.3402859792130357
 73
     0
 74
     0
 75
     0
  3
Copy(2) of Standard
100
AcDbAlignedDimension
 13
42.71490638541293
 23
17.4149565440491
 33
0.0
 14
42.37462040619989
 24
17.4149565440491
 34
0.0
 50
180.0
100
AcDbRotatedDimension
  0
DIMENSION
  5
BBC
102
{ACAD_XDICTIONARY
360
BBD
102
}
102
{ACAD_REACTORS
330
BBE
102
}
330
1F
100
AcDbEntity
  8
Dimensions
100
AcDbDimension
280
     0
  2
*D62
 10
42.37462040619989
 20
18.79954433075929
 30
0.0
 11
41.80257402147956
 21
18.79954433075929
 31
0.0
 70
    32
  1
2x 0.5168
 71
     5
 42
0.5167990981916831
 73
     0
 74
     0
 75
     0
  3
Copy(2) of Standard
100
AcDbAlignedDimension
 13
42.89141950439158
 23
17.6586565440494
 33
0.0
 14
42.37462040619989
 24
17.6586565440494
 34
0.0
 50
180.0
100
AcDbRotatedDimension
  0
MULTILEADER
  5
BBF
102
{ACAD_XDICTIONARY
360
BC0
102
}
102
{ACAD_REACTORS
330
BC1
102
}
330
1F
100
AcDbEntity
  8
Dimensions
160
               860
310
5C030000190000000C00000016000000000000C00C00000033000000000000000C00000013000000993A0000D4000000260000007943A95CC8814640BC90EABBAA8B3040000000000000000000000000000000000000000000000000000000000000F03F000000000000F03F0000000000000000000000000000000050006C
310
00610074006500640020005400680072007500200048006F006C0065000000852C1000000001000000B81E85EB51B8BE3F000000000000F03F0000000000000000000000000000F03F00000000000000000000000000000000000000000000000000000000010000002200000041007200690061006C000000000000120000
310
0000C400000026000000098F4C980F834640A2EA136CF1573040000000000000000000000000000000000000000000000000000000000000F03F000000000000F03F0000000000000000000000000000000074006F002000470072006F0075006E00640000000900000001000000B81E85EB51B8BE3F000000000000F03F00
310
00000000000000000000000000F03F00000000000000000000000000000000000000000000000000000000010000002200000041007200690061006C000000000000000000F9A40C00000033000000000000000C00000010000000020000000C00000016000000000000C00C00000012000000FF7F00000C00000013000000
310
010000000C00000014000000010000005400000007000000030000003D19918EDBDB4540D69B55E72E7931400000000000000000957CBC748FD14540A0A30DA88B90314000000000000000006249B1EA16DF4540A86943172081314000000000000000000C00000014000000010000000C00000013000000891300003C0000
310
0006000000020000004F31A13C79DD4540BF824C7F277D31400000000000000000E2661EE08E684640D8998ED6C39A304000000000000000000C00000013000000112700003C0000000600000002000000E2661EE08E684640D8998ED6C39A3040000000000000000071291409EB774640D8998ED6C39A3040000000000000
310
00000C00000016000000000000C00C00000012000000FF7F00000C00000017000000000000000C000000130000009A3A00000C00000016000000000000C00C00000012000000FF7F00000C00000017000000FFFFFFFF0C0000003300000000000000
100
AcDbMLeader
270
     2
300
CONTEXT_DATA{
 40
1.0
 10
44.93686021313158
 20
16.60455075246304
 30
0.0
 41
0.12
140
0.12
145
0.09
174
     1
175
     1
176
     0
177
     0
290
     1
304
Plated Thru Hole \Pto Ground
 11
0.0
 21
0.0
 31
1.0
340
11
 12
45.02686021313158
 22
16.6655739448232
 32
0.0
 13
1.0
 23
0.0
 33
0.0
 42
0.0
 43
1.269061133046122
 44
0.0
 45
1.0
170
     1
 90
-1073741824
171
     1
172
     5
 91
-1073741824
141
0.0
 92
        0
291
     0
292
     0
173
     0
293
     0
142
0.0
143
0.0
294
     0
295
     0
296
     0
110
43.6371904297204
120
17.56463098843562
130
0.0
111
1.0
121
0.0
131
0.0
112
0.0
122
1.0
132
0.0
297
     0
302
LEADER{
290
     1
291
     1
 10
44.81686021313159
 20
16.60455075246304
 30
0.0
 11
1.0
 21
0.0
 31
0.0
 90
        0
 40
0.12
304
LEADER_LINE{
 10
43.63719042972039
 20
17.56463098843562
 30
0.0
 91
        0
305
}
271
     0
303
}
272
     9
273
     9
301
}
340
D8
 90
   345728
170
     1
 91
-1056964608
341
14
171
    -2
290
     1
291
     1
 41
0.12
 42
0.12
172
     2
343
11
173
     1
 95
        1
174
     1
175
     0
 92
-1056964608
292
     0
 93
-1056964608
 10
1.0
 20
1.0
 30
1.0
 43
0.0
176
     0
293
     0
294
     0
178
     0
179
     1
 45
1.0
271
     0
272
     9
273
     9
295
     0
  0
LWPOLYLINE
  5
BC2
102
{ACAD_REACTORS
330
BDD
102
}
330
1F
100
AcDbEntity
  8
M1 Cu Feature
100
AcDbPolyline
 90
        6
 70
     1
 43
0.0
 10
38.81748378319839
 20
17.90235654405005
 10
38.47719780398535
 20
17.90235654405005
 10
38.30068468500633
 20
17.86185654404947
 10
38.30068468500633
 20
17.45545654404968
 10
38.47719780398464
 20
17.41495654404911
 10
38.81748378319765
 20
17.41495654404911
  0
LWPOLYLINE
  5
BC3
102
{ACAD_REACTORS
330
BD4
330
BE9
102
}
330
1F
100
AcDbEntity
  8
M1 Cu Feature
100
AcDbPolyline
 90
        4
 70
     1
 43
0.0
 10
37.31008468500593
 20
16.79505654404942
 10
37.31008468500593
 20
17.20145654404921
 10
36.97988468500654
 20
17.20145654404921
 10
36.97988468500654
 20
16.79505654404942
  0
LWPOLYLINE
  5
BC4
102
{ACAD_REACTORS
330
BE6
102
}
330
1F
100
AcDbEntity
  8
M1 Cu Feature
100
AcDbPolyline
 90
        4
 70
     1
 43
0.0
 10
38.30068468500633
 20
17.45545654404968
 10
38.30068468500633
 20
17.86185654404947
 10
36.97988468500654
 20
17.86185654404947
 10
36.97988468500654
 20
17.45545654404968
  0
LWPOLYLINE
  5
BC5
330
1F
100
AcDbEntity
  8
M1 Cu Feature
100
AcDbPolyline
 90
        4
 70
     1
 43
0.0
 10
38.30068468500633
 20
16.79505654404942
 10
38.30068468500633
 20
17.20145654404921
 10
37.9704846850062
 20
17.20145654404921
 10
37.9704846850062
 20
16.79505654404942
  0
LWPOLYLINE
  5
BC6
102
{ACAD_REACTORS
330
BD7
330
BDA
102
}
330
1F
100
AcDbEntity
  8
M1 Cu Feature
100
AcDbPolyline
 90
        4
 70
     1
 43
0.0
 10
37.31008468500593
 20
18.11585654404927
 10
37.31008468500593
 20
18.52225654404974
 10
36.97988468500654
 20
18.52225654404974
 10
36.97988468500654
 20
18.11585654404927
  0
LWPOLYLINE
  5
BC7
102
{ACAD_REACTORS
330
BD7
102
}
330
1F
100
AcDbEntity
  8
M1 Cu Feature
100
AcDbPolyline
 90
        4
 70
     1
 43
0.0
 10
38.30068468500633
 20
18.11585654404927
 10
38.30068468500633
 20
18.52225654404974
 10
37.9704846850062
 20
18.52225654404974
 10
37.9704846850062
 20
18.11585654404927
  0
CIRCLE
  5
BC8
330
1F
100
AcDbEntity
  8
M1-M3 PlatedThruHole
100
AcDbCircle
 10
38.59654079359126
 20
17.65865654404994
 30
0.0
 40
0.1270000000001372
  0
LWPOLYLINE
  5
BC9
102
{ACAD_REACTORS
330
BDA
102
}
330
1F
100
AcDbEntity
  8
M1 Cu Feature
100
AcDbPolyline
 90
        6
 70
     1
 43
0.0
 10
36.46308558681449
 20
17.90235654405005
 10
36.80337156602752
 20
17.90235654405005
 10
36.97988468500654
 20
17.86185654404947
 10
36.9798846850058
 20
17.45545654404968
 10
36.80337156602752
 20
17.41495654404911
 10
36.46308558681449
 20
17.41495654404911
  0
CIRCLE
  5
BCA
330
1F
100
AcDbEntity
  8
M1-M3 PlatedThruHole
100
AcDbCircle
 10
36.68402857642087
 20
17.65865654404994
 30
0.0
 40
0.1270000000001372
  0
CIRCLE
  5
BCB
102
{ACAD_REACTORS
330
BE0
102
}
330
1F
100
AcDbEntity
  8
M1-M3 PlatedThruHole
100
AcDbCircle
 10
37.64028468500644
 20
17.65865654404994
 30
0.0
 40
0.1270000000001372
  0
CIRCLE
  5
BCC
330
1F
100
AcDbEntity
  8
M1-M3 PlatedThruHole
100
AcDbCircle
 10
37.16215663071384
 20
17.65865654404994
 30
0.0
 40
0.1270000000001372
  0
CIRCLE
  5
BCD
330
1F
100
AcDbEntity
  8
M1-M3 PlatedThruHole
100
AcDbCircle
 10
38.11841273929903
 20
17.65865654404994
 30
0.0
 40
0.1270000000001372
  0
LWPOLYLINE
  5
BCE
330
1F
100
AcDbEntity
  8
M1 Cu Feature
100
AcDbPolyline
 90
        7
 70
     1
 43
0.0
 10
38.54587285374518
 20
18.72546767175921
 10
38.22071481372674
 20
18.59579827114808
 10
38.04951295342196
 20
18.52225650904907
 10
38.30068468500483
 20
18.52225650904907
 10
38.30068468500483
 20
18.16846120120922
 10
38.38066245080788
 20
18.1947147469397
 10
38.8405237235755
 20
18.37810229473232
 42
0.081923635363632
  0
LWPOLYLINE
  5
BCF
102
{ACAD_REACTORS
330
BE3
102
}
330
1F
100
AcDbEntity
  8
M1 Cu Feature
100
AcDbPolyline
 90
        7
 70
     1
 43
0.0
 10
36.73469651626678
 20
18.72546767175926
 42
0.0819236353636319
 10
36.44004564643646
 20
18.37810229473235
 10
36.89990691920409
 20
18.1947147469397
 10
36.97988468500714
 20
18.16846120120922
 10
36.97988468500714
 20
18.52225650904907
 10
37.23105641659001
 20
18.52225650904907
 10
37.05985455628522
 20
18.59579827114808
  0
LWPOLYLINE
  5
BD0
102
{ACAD_REACTORS
330
BD4
102
}
330
1F
100
AcDbEntity
  8
M1 Cu Feature
100
AcDbPolyline
 90
        7
 70
     1
 43
0.0
 10
36.73469651626667
 20
16.59184534633862
 10
37.05985455628522
 20
16.72151474694979
 10
37.23105641659001
 20
16.79505650904926
 10
36.97988468500714
 20
16.79505650904926
 10
36.97988468500714
 20
17.1488518168882
 10
36.89990691920409
 20
17.12259827115864
 10
36.44004564643623
 20
16.9392107233659
 42
0.0819236353636944
  0
LWPOLYLINE
  5
BD1
330
1F
100
AcDbEntity
  8
M1 Cu Feature
100
AcDbPolyline
 90
        7
 70
     1
 43
0.0
 10
38.5458728537453
 20
16.59184534633865
 42
0.0819236353636943
 10
38.84052372357573
 20
16.93921072336587
 10
38.38066245080788
 20
17.12259827115864
 10
38.30068468500483
 20
17.1488518168882
 10
38.30068468500483
 20
16.79505650904926
 10
38.04951295342196
 20
16.79505650904926
 10
38.22071481372674
 20
16.72151474694979
  0
DIMENSION
  5
BD2
102
{ACAD_XDICTIONARY
360
BD3
102
}
102
{ACAD_REACTORS
330
BD4
102
}
330
1F
100
AcDbEntity
  8
Dimensions
100
AcDbDimension
280
     0
  2
*D63
 10
37.31008468500593
 20
16.40606803659698
 30
0.0
 11
36.26458303010593
 21
16.40606803659698
 31
0.0
 70
   160
  1
4x0.3302
 71
     5
 42
0.3301999999993939
 73
     0
 74
     0
 75
     0
  3
Standard
100
AcDbAlignedDimension
 13
36.97988468500654
 23
16.79505650904926
 33
0.0
 14
37.31008468500593
 24
16.79505650904926
 34
0.0
 50
180.0
100
AcDbRotatedDimension
1001
ACAD
1000
DSTYLE
1002
{
1070
    41
1040
0.12
1070
   140
1040
0.12
1002
}
  0
DIMENSION
  5
BD5
102
{ACAD_XDICTIONARY
360
BD6
102
}
102
{ACAD_REACTORS
330
BD7
102
}
330
1F
100
AcDbEntity
  8
Dimensions
100
AcDbDimension
280
     0
  2
*D64
 10
37.9704846850062
 20
19.02575946879643
 30
0.0
 11
38.42932506699801
 21
19.02575946879643
 31
0.0
 70
    32
 71
     5
 42
0.6604000000002657
 73
     0
 74
     0
 75
     0
  3
Standard
100
AcDbAlignedDimension
 13
37.31008468500593
 23
18.52225654404974
 33
0.0
 14
37.9704846850062
 24
18.52225654404974
 34
0.0
 50
180.0
100
AcDbRotatedDimension
1001
ACAD
1000
DSTYLE
1002
{
1070
    41
1040
0.12
1070
   140
1040
0.12
1002
}
  0
DIMENSION
  5
BD8
102
{ACAD_XDICTIONARY
360
BD9
102
}
102
{ACAD_REACTORS
330
BDA
102
}
330
1F
100
AcDbEntity
  8
Dimensions
100
AcDbDimension
280
     0
  2
*D65
 10
36.30023999309744
 20
18.11585654404927
 30
0.0
 11
35.75041734643986
 21
17.30050314222658
 31
0.0
 70
   160
  1
4x0.2540
 71
     5
 42
0.2539999999997988
 73
     0
 74
     0
 75
     0
  3
Standard
100
AcDbAlignedDimension
 13
36.97988468500654
 23
17.86185654404947
 33
0.0
 14
36.97988468500654
 24
18.11585654404927
 34
0.0
 50
90.0
100
AcDbRotatedDimension
1001
ACAD
1000
DSTYLE
1002
{
1070
    41
1040
0.12
1070
   140
1040
0.12
1002
}
  0
DIMENSION
  5
BDB
102
{ACAD_XDICTIONARY
360
BDC
102
}
102
{ACAD_REACTORS
330
BDD
102
}
330
1F
100
AcDbEntity
  8
Dimensions
100
AcDbDimension
280
     0
  2
*D66
 10
39.55609735173023
 20
17.90235654405005
 30
0.0
 11
40.01493773372204
 21
18.02235654405004
 31
0.0
 70
    32
 71
     5
 42
0.4874000000009389
 73
     0
 74
     0
 75
     0
  3
Standard
100
AcDbAlignedDimension
 13
38.47719780398464
 23
17.41495654404911
 33
0.0
 14
38.47719780398535
 24
17.90235654405005
 34
0.0
 50
90.0
100
AcDbRotatedDimension
1001
ACAD
1000
DSTYLE
1002
{
1070
    41
1040
0.12
1070
   140
1040
0.12
1002
}
  0
DIMENSION
  5
BDE
102
{ACAD_XDICTIONARY
360
BDF
102
}
102
{ACAD_REACTORS
330
BE0
102
}
330
1F
100
AcDbEntity
  8
Dimensions
100
AcDbDimension
280
     0
  2
*D67
 10
37.53363594984244
 20
17.58969969313609
 30
0.0
 11
38.74634458489828
 21
18.03490026459706
 31
0.0
 70
   163
 71
     5
 42
0.2540000000002678
 73
     0
 74
     0
 75
     0
  3
Standard
100
AcDbDiametricDimension
 15
37.74693342017043
 25
17.72761339496378
 35
0.0
 40
0.0
1001
ACAD_DSTYLE_DIMRADIAL_EXTENSION
1070
   387
1070
     1
1070
   388
1040
0.0
1070
   390
1040
0.0
1001
ACAD
1000
DSTYLE
1002
{
1070
    41
1040
0.12
1070
   140
1040
0.12
1070
   288
1070
     1
1002
}
  0
DIMENSION
  5
BE1
102
{ACAD_XDICTIONARY
360
BE2
102
}
102
{ACAD_REACTORS
330
BE3
102
}
330
1F
100
AcDbEntity
  8
Dimensions
100
AcDbDimension
280
     0
  2
*D68
 10
36.27803845877244
 20
18.90757781301917
 30
0.0
 11
34.92733147465953
 21
18.1721032079513
 31
0.0
 70
   161
  1
4x Transmission Line
 71
     5
 42
0.4317999999991749
 73
     0
 74
     0
 75
     0
  3
Standard
100
AcDbAlignedDimension
 13
36.66997628282028
 23
18.28640852083602
 33
0.0
 14
36.82992391990204
 24
18.68749204504419
 34
0.0
1001
ACAD
1000
DSTYLE
1002
{
1070
   140
1040
0.12
1002
}
  0
DIMENSION
  5
BE4
102
{ACAD_XDICTIONARY
360
BE5
102
}
102
{ACAD_REACTORS
330
BE6
102
}
330
1F
100
AcDbEntity
  8
Dimensions
100
AcDbDimension
280
     0
  2
*D69
 10
39.21702829482834
 20
17.45545654404969
 30
0.0
 11
39.21702829482834
 21
17.65865654404957
 31
0.0
 70
    32
 71
     5
 42
0.4063999999997848
 73
     0
 74
     0
 75
     0
  3
Copy(2) of Standard
100
AcDbAlignedDimension
 13
38.30068468500633
 23
17.86185654404947
 33
0.0
 14
38.30068468500633
 24
17.45545654404968
 34
0.0
 50
90.0
100
AcDbRotatedDimension
  0
DIMENSION
  5
BE7
102
{ACAD_XDICTIONARY
360
BE8
102
}
102
{ACAD_REACTORS
330
BE9
102
}
330
1F
100
AcDbEntity
  8
Dimensions
100
AcDbDimension
280
     0
  2
*D70
 10
37.59269636699418
 20
16.79505654404943
 30
0.0
 11
37.59269636699418
 21
16.99825654404931
 31
0.0
 70
    32
 71
     5
 42
0.4063999999997848
 73
     0
 74
     0
 75
     0
  3
Copy(2) of Standard
100
AcDbAlignedDimension
 13
37.31008468500593
 23
17.20145654404921
 33
0.0
 14
37.31008468500593
 24
16.79505654404942
 34
0.0
 50
90.0
100
AcDbRotatedDimension
  0
MULTILEADER
  5
BEA
330
1F
100
AcDbEntity
  8
Dimensions
160
               860
310
5C030000190000000C00000016000000000000C00C00000033000000000000000C00000013000000993A0000D400000026000000AB100751199A43404D353A3384E93040000000000000000000000000000000000000000000000000000000000000F03F000000000000F03F0000000000000000000000000000000050006C
310
00610074006500640020005400680072007500200048006F006C006500000069001000000001000000B81E85EB51B8BE3F000000000000F03F0000000000000000000000000000F03F00000000000000000000000000000000000000000000000000000000010000002200000041007200690061006C000000000000000000
310
0000C4000000260000003B5CAA8C609B4340338F63E3CAB53040000000000000000000000000000000000000000000000000000000000000F03F000000000000F03F0000000000000000000000000000000074006F002000470072006F0075006E00640000000900000001000000B81E85EB51B8BE3F000000000000F03F00
310
00000000000000000000000000F03F00000000000000000000000000000000000000000000000000000000010000002200000041007200690061006C00000000006400000066000C00000033000000000000000C00000010000000020000000C00000016000000000000C00C00000012000000FF7F00000C00000013000000
310
010000000C00000014000000010000005400000007000000030000007CFD2092A7EC42409B8041D31D86314000000000000000006E33684B09E042403BBB26BD5D983140000000000000000027F5A391EEEE4240DD59E8AC498F314000000000000000000C00000014000000010000000C00000013000000891300003C0000
310
0006000000020000005179E211CBED42403CED14C0B38A3140000000000000000016347CD4DF804340693EDE4D9DF8304000000000000000000C00000013000000112700003C000000060000000200000016347CD4DF804340693EDE4D9DF830400000000000000000A5F671FD3B904340693EDE4D9DF83040000000000000
310
00000C00000016000000000000C00C00000012000000FF7F00000C00000017000000000000000C000000130000009A3A00000C00000016000000000000C00C00000012000000FF7F00000C00000017000000FFFFFFFF0C0000003300000000000000
100
AcDbMLeader
270
     2
300
CONTEXT_DATA{
 40
1.0
 10
39.126830750128
 20
16.97115027118562
 30
0.0
 41
0.12
140
0.12
145
0.09
174
     1
175
     1
176
     0
177
     0
290
     1
304
Plated Thru Hole to Ground
 11
0.0
 21
0.0
 31
1.0
340
11
 12
39.216830750128
 22
17.03217346354579
 32
0.0
 13
1.0
 23
0.0
 33
0.0
 42
0.0
 43
1.330597481572866
 44
0.0
 45
1.0
170
     1
 90
-1073741824
171
     1
172
     5
 91
-1073741824
141
0.0
 92
        0
291
     0
292
     0
173
     0
293
     0
142
0.0
143
0.0
294
     0
295
     0
296
     0
110
37.70942058345863
120
17.55212379065811
130
0.0
111
1.0
121
0.0
131
0.0
112
0.0
122
1.0
132
0.0
297
     0
302
LEADER{
290
     1
291
     1
 10
39.006830750128
 20
16.97115027118562
 30
0.0
 11
1.0
 21
0.0
 31
0.0
 90
        0
 40
0.12
304
LEADER_LINE{
 10
37.75028364742217
 20
17.59518034167852
 30
0.0
 91
        0
305
}
271
     0
303
}
272
     9
273
     9
301
}
340
2B5
 90
   279552
170
     1
 91
-1056964608
341
14
171
    -2
290
     1
291
     1
 41
0.12
 42
0.12
172
     2
343
11
173
     1
 95
        1
174
     1
175
     0
 92
-1056964608
292
     0
 93
-1056964608
 10
1.0
 20
1.0
 30
1.0
 43
0.0
176
     0
293
     0
294
     0
178
     0
179
     1
 45
1.0
271
     0
272
     9
273
     9
295
     0
  0
MTEXT
  5
BEB
102
{ACAD_XDICTIONARY
360
BEC
102
}
330
1F
100
AcDbEntity
  8
Notes
100
AcDbMText
 10
44.6542729471871
 20
23.40700018835461
 30
0.0
 40
0.5
 41
16.10184481843498
 46
0.0
 71
     5
 72
     5
  1
\pxqc;X4C 0805 Size Coupler  \PData sheet Suggested Mounting  footprint\P\pq*;(all units in mm) (6/16/2023)
  7
RomanS
 73
     1
 44
1.0
101
Embedded Object
 70
     5
 10
1.0
 20
0.0
 30
0.0
 11
44.6542729471871
 21
23.40700018835461
 31
0.0
 40
16.10184481843498
 41
0.0
 42
14.72142857142857
 43
2.428571428571428
 71
     2
 72
     1
 44
16.10184481843498
 45
1.0
 73
     0
 74
     0
 46
3.279462943050596
  0
MTEXT
  5
BED
102
{ACAD_XDICTIONARY
360
BEE
102
}
330
1F
100
AcDbEntity
  8
Notes
100
AcDbMText
 10
41.26361839109293
 20
20.38799036859759
 30
0.0
 40
0.3
 41
10.59819518440616
 46
0.0
 71
     5
 72
     5
  1
\pxqc;Footprint for X4C 0805 Coupler
  7
RomanS
 73
     1
 44
1.0
101
Embedded Object
 70
     5
 10
1.0
 20
0.0
 30
0.0
 11
41.26361839109293
 21
20.38799036859759
 31
0.0
 40
10.59819518440616
 41
0.0
 42
6.685714285714288
 43
0.4
 71
     2
 72
     1
 44
10.59819518440616
 45
1.0
 73
     0
 74
     0
 46
0.4881810958123154
  0
MTEXT
  5
CD9
102
{ACAD_XDICTIONARY
360
CDA
102
}
330
1F
100
AcDbEntity
  8
Notes
100
AcDbMText
 10
51.59989266570103
 20
19.74598882520149
 30
0.0
 40
0.3
 41
9.587954479385757
 46
0.0
 71
     5
 72
     5
  1
\pxqc;BOARD CROSS-SECTION (STACK-UP)\PSCALE: 50/1\P(SOLDER MASK OMITTED FOR CLARITY)
  7
RomanS
 73
     1
 44
1.0
101
Embedded Object
 70
     5
 10
1.0
 20
0.0
 30
0.0
 11
51.59989266570103
 21
19.74598882520149
 31
0.0
 40
9.587954479385757
 41
0.0
 42
7.881428571428571
 43
1.571428571428571
 71
     2
 72
     1
 44
9.587954479385757
 45
1.0
 73
     0
 74
     0
 46
0.0
  0
LWPOLYLINE
  5
CDB
330
1F
100
AcDbEntity
  8
M2 Cu Feature
100
AcDbPolyline
 90
        4
 70
     1
 43
0.0
 10
51.01466637166239
 20
17.77665364677099
 10
51.7533071848339
 20
17.77665364677122
 10
51.7533071848339
 20
17.81165364677107
 10
51.01466637166239
 20
17.81165364677107
  0
LWPOLYLINE
  5
CDC
330
1F
100
AcDbEntity
  8
RO4003
100
AcDbPolyline
 90
        4
 70
     1
 43
0.0
 10
51.01466637166239
 20
17.59665364677115
 10
51.7533071848339
 20
17.59665364677115
 10
51.7533071848339
 20
16.61665364677113
 10
51.01466637166239
 20
16.61665364677113
  0
HATCH
  5
CDD
330
1F
100
AcDbEntity
  8
M2 Cu Feature
 62
   202
100
AcDbHatch
 10
0.0
 20
0.0
 30
0.0
210
0.0
220
0.0
230
1.0
  2
ANSI31
 70
     0
 71
     1
 91
        2
 92
        7
 72
     0
 73
     1
 93
        4
 10
50.21466637166243
 20
17.77665364677122
 10
49.6440656399671
 20
17.77665364677122
 10
49.6440656399671
 20
17.59665364677115
 10
50.21466637166243
 20
17.59665364677115
 97
        1
330
CE5
 92
        7
 72
     0
 73
     1
 93
        4
 10
51.7533071848339
 20
17.77665364677122
 10
51.01466637166239
 20
17.77665364677122
 10
51.01466637166239
 20
17.59665364677115
 10
51.7533071848339
 20
17.59665364677115
 97
        4
330
D04
330
CE2
330
CDF
330
CEA
 75
     1
 76
     1
 52
0.0
 41
0.3
 77
     0
 78
     1
 53
45.0
 43
-6.271373302157694
 44
12.67151399312794
 45
-0.0265165042944955
 46
0.0265165042944955
 79
     0
 47
0.0037016171899164
 98
        2
 10
50.03262703805084
 20
17.67864621194721
 10
51.44746011643857
 20
17.65643650006876
1001
GradientColor1ACI
1070
     5
1001
GradientColor2ACI
1070
     2
1001
ACAD
1010
0.0
1020
0.0
1030
0.0
  0
HATCH
  5
CDE
330
1F
100
AcDbEntity
  8
0
 62
    11
100
AcDbHatch
 10
0.0
 20
0.0
 30
0.0
210
0.0
220
0.0
230
1.0
  2
CROSS
 70
     0
 71
     1
 91
        4
 92
        7
 72
     0
 73
     1
 93
        4
 10
50.21466637166243
 20
18.21165364677116
 10
49.6440656399671
 20
18.21165364677116
 10
49.6440656399671
 20
17.81165364677107
 10
50.21466637166243
 20
17.81165364677107
 97
        2
330
CE6
330
CEA
 92
        7
 72
     0
 73
     1
 93
        4
 10
51.7533071848339
 20
18.21165364677094
 10
51.01466637166239
 20
18.21165364677116
 10
51.01466637166239
 20
17.81165364677107
 10
51.7533071848339
 20
17.81165364677107
 97
        4
330
CE0
330
CE2
330
D04
330
CEA
 92
        7
 72
     0
 73
     1
 93
        4
 10
51.7533071848339
 20
17.59665364677115
 10
51.01466637166239
 20
17.59665364677115
 10
51.01466637166239
 20
16.61665364677113
 10
51.7533071848339
 20
16.61665364677113
 97
        4
330
CDF
330
CE2
330
CFE
330
CEA
 92
        7
 72
     0
 73
     1
 93
        4
 10
50.21466637166243
 20
17.59665364677115
 10
49.6440656399671
 20
17.59665364677115
 10
49.6440656399671
 20
16.61665364677113
 10
50.21466637166243
 20
16.61665364677113
 97
        2
330
CE4
330
CE7
 75
     1
 76
     1
 52
0.0
 41
0.2
 77
     0
 78
     2
 53
0.0
 43
7.605004269035354
 44
0.9025480545415334
 45
0.05
 46
0.05
 79
     2
 49
0.025
 49
-0.075
 53
90.0
 43
7.617504269035354
 44
0.8900480545415334
 45
-0.05
 46
0.05
 79
     2
 49
0.025
 49
-0.075
 47
0.006303835207959
 98
        4
 10
49.88031855698315
 20
18.01359735050617
 10
51.34995909423651
 20
18.08293954652078
 10
51.34995909423651
 20
17.21931402519548
 10
49.99385307029367
 20
17.18149111775378
1001
GradientColor1ACI
1070
     5
1001
GradientColor2ACI
1070
     2
1001
ACAD
1010
0.0
1020
0.0
1030
0.0
  0
LWPOLYLINE
  5
CDF
102
{ACAD_REACTORS
330
CDD
330
CDE
102
}
330
1F
100
AcDbEntity
  8
Laminate
100
AcDbPolyline
 90
        4
 70
     1
 43
0.0
 10
51.01466637166239
 20
17.59665364677115
 10
51.7533071848339
 20
17.59665364677115
 10
51.7533071848339
 20
17.77665364677122
 10
51.01466637166239
 20
17.77665364677122
  0
LWPOLYLINE
  5
CE0
102
{ACAD_REACTORS
330
CDE
102
}
330
1F
100
AcDbEntity
  8
RO4003
100
AcDbPolyline
 90
        4
 70
     1
 43
0.0
 10
51.01466637166239
 20
18.21165364677116
 10
51.7533071848339
 20
18.21165364677094
 10
51.7533071848339
 20
17.81165364677107
 10
51.01466637166239
 20
17.81165364677107
  0
HATCH
  5
CE1
330
1F
100
AcDbEntity
  8
M2 Cu Feature
 62
    40
100
AcDbHatch
 10
0.0
 20
0.0
 30
0.0
210
0.0
220
0.0
230
1.0
  2
SOLID
 70
     1
 71
     1
 91
        2
 92
        7
 72
     0
 73
     1
 93
       10
 10
50.26466637166215
 20
18.30665364677119
 10
49.6440656399671
 20
18.30665364677119
 10
49.6440656399671
 20
18.24665372506578
 10
50.2146663716624
 20
18.24665372506578
 10
50.21466637166243
 20
18.24665364677125
 10
50.2146663716624
 20
18.2116537250657
 10
50.21466637166243
 20
16.58165364677105
 10
49.6440656399671
 20
16.58165364677105
 10
49.6440656399671
 20
16.52165364677111
 10
50.26466637166215
 20
16.52165364677111
 97
        5
330
CEA
330
D01
330
CE7
330
CFC
330
CFA
 92
        7
 72
     0
 73
     1
 93
       10
 10
51.7533071848339
 20
18.30665364677119
 10
50.96466637166243
 20
18.30665364677119
 10
50.96466637166243
 20
16.52165364677111
 10
51.7533071848339
 20
16.52165364677111
 10
51.7533071848339
 20
16.58165364677105
 10
51.01466637166239
 20
16.58165364677105
 10
51.01466637166239
 20
16.61665364677113
 10
51.01466637166239
 20
18.24665364677125
 10
51.01466637166236
 20
18.24665372506578
 10
51.7533071848339
 20
18.24665372506578
 97
        5
330
CEA
330
CF9
330
CFE
330
CE2
330
D00
 75
     1
 76
     1
 47
0.0014506737675792
 98
        2
 10
49.78995675202227
 20
18.28051294355018
 10
51.0755760460325
 20
18.28733576441367
450
        0
451
        0
460
0.0
461
0.0
452
        0
462
0.0
453
        2
463
0.0
 63
     5
421
      255
463
1.0
 63
     2
421
 16776960
470
LINEAR
1001
GradientColor1ACI
1070
     5
1001
GradientColor2ACI
1070
     2
1001
ACAD
1010
0.0
1020
0.0
1030
0.0
  0
LWPOLYLINE
  5
CE2
102
{ACAD_REACTORS
330
CDD
330
CE1
330
CDE
102
}
330
1F
100
AcDbEntity
  8
ED_Cu_plating
370
    -3
100
AcDbPolyline
 90
        8
 70
     1
 43
0.0
 10
51.7533071848339
 20
16.58165364677105
 10
51.7533071848339
 20
16.52165364677111
 10
50.96466637166243
 20
16.52165364677111
 10
50.96466637166243
 20
18.30665364677119
 10
51.7533071848339
 20
18.30665364677119
 10
51.7533071848339
 20
18.24665364677125
 10
51.01466637166239
 20
18.24665364677125
 10
51.01466637166239
 20
16.58165364677105
  0
LWPOLYLINE
  5
CE3
330
1F
100
AcDbEntity
  8
M2 Cu Feature
100
AcDbPolyline
 90
        4
 70
     1
 43
0.0
 10
50.21466637166243
 20
17.77665364677099
 10
49.6440656399671
 20
17.77665364677122
 10
49.6440656399671
 20
17.81165364677107
 10
50.21466637166243
 20
17.81165364677107
  0
LWPOLYLINE
  5
CE4
102
{ACAD_REACTORS
330
CDE
102
}
330
1F
100
AcDbEntity
  8
RO4003
100
AcDbPolyline
 90
        4
 70
     1
 43
0.0
 10
50.21466637166243
 20
17.59665364677115
 10
49.6440656399671
 20
17.59665364677115
 10
49.6440656399671
 20
16.61665364677113
 10
50.21466637166243
 20
16.61665364677113
  0
LWPOLYLINE
  5
CE5
102
{ACAD_REACTORS
330
CDD
102
}
330
1F
100
AcDbEntity
  8
Laminate
100
AcDbPolyline
 90
        4
 70
     1
 43
0.0
 10
50.21466637166243
 20
17.59665364677115
 10
49.6440656399671
 20
17.59665364677115
 10
49.6440656399671
 20
17.77665364677122
 10
50.21466637166243
 20
17.77665364677122
  0
LWPOLYLINE
  5
CE6
102
{ACAD_REACTORS
330
CDE
102
}
330
1F
100
AcDbEntity
  8
RO4003
100
AcDbPolyline
 90
        4
 70
     1
 43
0.0
 10
50.21466637166243
 20
18.21165364677116
 10
49.6440656399671
 20
18.21165364677116
 10
49.6440656399671
 20
17.81165364677107
 10
50.21466637166243
 20
17.81165364677107
  0
LWPOLYLINE
  5
CE7
102
{ACAD_REACTORS
330
CE1
330
CDE
102
}
330
1F
100
AcDbEntity
  8
ED_Cu_plating
370
    -3
100
AcDbPolyline
 90
        8
 70
     1
 43
0.0
 10
49.6440656399671
 20
16.58165364677105
 10
49.6440656399671
 20
16.52165364677111
 10
50.26466637166215
 20
16.52165364677111
 10
50.26466637166215
 20
18.30665364677119
 10
49.6440656399671
 20
18.30665364677119
 10
49.6440656399671
 20
18.24665364677125
 10
50.21466637166243
 20
18.24665364677125
 10
50.21466637166243
 20
16.58165364677105
  0
LINE
  5
CE8
330
1F
100
AcDbEntity
  8
ED_Cu_plating
370
    -3
100
AcDbLine
 10
50.26466637166215
 20
18.30665364677119
 30
0.0
 11
50.96466637166243
 21
18.30665364677119
 31
0.0
  0
LINE
  5
CE9
330
1F
100
AcDbEntity
  8
ED_Cu_plating
370
    -3
100
AcDbLine
 10
50.26466637166215
 20
16.52165364677111
 30
0.0
 11
50.96466637166243
 21
16.52165364677111
 31
0.0
  0
LWPOLYLINE
  5
CEA
102
{ACAD_REACTORS
330
CED
330
CF1
330
CDD
330
CE1
330
CDE
102
}
330
1F
100
AcDbEntity
  8
Board Outline
100
AcDbPolyline
 90
        4
 70
     1
 43
0.0
 10
49.6440656399671
 20
18.30665364677119
 10
51.7533071848339
 20
18.30665364677119
 10
51.7533071848339
 20
16.52165364677111
 10
49.6440656399671
 20
16.52165364677111
  0
DIMENSION
  5
CEB
102
{ACAD_XDICTIONARY
360
CEC
102
}
102
{ACAD_REACTORS
330
CED
102
}
330
1F
100
AcDbEntity
  8
Dimensions
100
AcDbDimension
280
     0
  2
*D71
 10
47.86910911171061
 20
17.77665364677122
 30
0.0
 11
47.85859284936099
 21
18.06021503139899
 31
0.0
 70
   160
  1
CIRCUIT SECTION
 71
     5
 42
0.5299999999999728
 73
     0
 74
     0
 75
     0
  3
PRC_No_Tol
100
AcDbAlignedDimension
 13
49.6440656399671
 23
18.30665364677119
 33
0.0
 14
49.6440656399671
 24
17.77665364677122
 34
0.0
 50
90.0
100
AcDbRotatedDimension
1001
ACAD
1000
DSTYLE
1002
{
1070
    41
1040
0.1
1070
   279
1070
     2
1002
}
  0
MTEXT
  5
CEE
330
1F
100
AcDbEntity
  8
Dimensions
100
AcDbMText
 10
49.55334267052339
 20
18.62518247484883
 30
0.0
 40
0.12
 41
1.478045572598531
 46
0.0
 71
     1
 72
     5
  1
PRIMARY SIDE
  7
RomanS
 73
     1
 44
1.0
101
Embedded Object
 70
     1
 10
1.0
 20
0.0
 30
0.0
 11
49.55334267052339
 21
18.62518247484883
 31
0.0
 40
1.478045572598531
 41
0.0
 42
1.100571428571428
 43
0.1200000000000001
 71
     2
 72
     1
 44
1.478045572598531
 45
1.0
 73
     0
 74
     0
 46
0.0
  0
DIMENSION
  5
CEF
102
{ACAD_XDICTIONARY
360
CF0
102
}
102
{ACAD_REACTORS
330
CF1
102
}
330
1F
100
AcDbEntity
  8
Dimensions
100
AcDbDimension
280
     0
  2
*D72
 10
48.40953831764767
 20
16.52165364677111
 30
0.0
 11
48.48663161614338
 21
17.16420462334085
 31
0.0
 70
   160
  1
STIFFENER SECTION
 71
     5
 42
1.255000000000112
 73
     0
 74
     0
 75
     0
  3
PRC_No_Tol
100
AcDbAlignedDimension
 13
49.6440656399671
 23
17.77665364677122
 33
0.0
 14
49.6440656399671
 24
16.52165364677111
 34
0.0
 50
90.0
100
AcDbRotatedDimension
1001
ACAD
1000
DSTYLE
1002
{
1070
    41
1040
0.1
1070
   279
1070
     2
1002
}
  0
MTEXT
  5
CF2
330
1F
100
AcDbEntity
  8
Dimensions
100
AcDbMText
 10
49.6280926413701
 20
16.36406510434672
 30
0.0
 40
0.12
 41
1.748830674918849
 46
0.0
 71
     1
 72
     5
  1
SECONDARY SIDE
  7
RomanS
 73
     1
 44
1.0
101
Embedded Object
 70
     1
 10
1.0
 20
0.0
 30
0.0
 11
49.6280926413701
 21
16.36406510434672
 31
0.0
 40
1.748830674918849
 41
0.0
 42
1.368
 43
0.1200000000000001
 71
     2
 72
     1
 44
1.748830674918849
 45
1.0
 73
     0
 74
     0
 46
0.0
  0
LEADER
  5
CF3
330
1F
100
AcDbEntity
  8
Dimensions
100
AcDbLeader
  3
PRC_No_Tol
 76
     2
 10
51.82314725922781
 20
18.24482580179696
 30
0.0
 10
52.31541572463938
 20
18.279526017057
 30
0.0
  0
LEADER
  5
CF4
330
1F
100
AcDbEntity
  8
Dimensions
100
AcDbLeader
  3
PRC_No_Tol
 76
     2
 10
51.82314725922781
 20
18.07292716271589
 30
0.0
 10
52.31541572463938
 20
18.07189620268113
 30
0.0
  0
LEADER
  5
CF5
330
1F
100
AcDbEntity
  8
Dimensions
100
AcDbLeader
  3
PRC_No_Tol
 76
     2
 10
51.82314725922781
 20
17.79467777009389
 30
0.0
 10
52.31541572463938
 20
17.8588630488899
 30
0.0
213
0.0
223
0.0454484830951856
233
0.0
  0
LEADER
  5
CF6
330
1F
100
AcDbEntity
  8
Dimensions
100
AcDbLeader
  3
PRC_No_Tol
 76
     2
 10
51.82314725922781
 20
17.69921639769162
 30
0.0
 10
52.31541572463938
 20
17.6817525049033
 30
0.0
  0
LEADER
  5
CF7
330
1F
100
AcDbEntity
  8
Dimensions
100
AcDbLeader
  3
PRC_No_Tol
 76
     2
 10
51.82314725922781
 20
17.0478079466271
 30
0.0
 10
52.24086718682108
 20
16.8318370850655
 30
0.0
  0
LEADER
  5
CF8
330
1F
100
AcDbEntity
  8
Dimensions
100
AcDbLeader
  3
PRC_No_Tol
 76
     2
 10
51.82314725922781
 20
16.58948373226993
 30
0.0
 10
52.21782492469602
 20
16.4015140610146
 30
0.0
213
0.0
223
0.090895537254923
233
0.0
  0
LINE
  5
CF9
102
{ACAD_REACTORS
330
CE1
102
}
330
1F
100
AcDbEntity
  8
M1-M3 PlatedThruHole
100
AcDbLine
 10
50.96466637166243
 20
18.30665364677119
 30
0.0
 11
50.96466637166243
 21
16.52165364677111
 31
0.0
  0
LINE
  5
CFA
102
{ACAD_REACTORS
330
CE1
102
}
330
1F
100
AcDbEntity
  8
M1-M3 PlatedThruHole
100
AcDbLine
 10
50.26466637166215
 20
18.30665364677119
 30
0.0
 11
50.26466637166215
 21
16.52165364677111
 31
0.0
  0
HATCH
  5
CFB
330
1F
100
AcDbEntity
  8
Dimensions
 62
     4
100
AcDbHatch
 10
0.0
 20
0.0
 30
0.0
210
0.0
220
0.0
230
1.0
  2
SOLID
 70
     1
 71
     0
 91
        1
 92
        7
 72
     0
 73
     1
 93
        4
 10
50.21466637166243
 20
16.61665364677113
 10
49.6440656399671
 20
16.61665364677113
 10
49.6440656399671
 20
16.58165364677105
 10
50.21466637166243
 20
16.58165364677105
 97
        0
 75
     0
 76
     1
 47
0.0020679122012095
 98
        1
 10
49.88883285172746
 20
16.59673744279265
450
        0
451
        0
460
0.0
461
0.0
452
        1
462
1.0
453
        2
463
0.0
 63
     5
421
      255
463
1.0
 63
     7
421
 16777215
470
LINEAR
1001
ACAD
1010
0.0
1020
0.0
1030
0.0
  0
LWPOLYLINE
  5
CFC
102
{ACAD_REACTORS
330
CE1
102
}
330
1F
100
AcDbEntity
  8
M3 Cu Feature
100
AcDbPolyline
 90
        4
 70
     1
 43
0.0
 10
49.6440656399671
 20
16.61665364677113
 10
49.6440656399671
 20
16.58165364677105
 10
50.21466637166243
 20
16.58165364677105
 10
50.21466637166243
 20
16.61665364677113
  0
HATCH
  5
CFD
330
1F
100
AcDbEntity
  8
Dimensions
 62
     4
100
AcDbHatch
 10
0.0
 20
0.0
 30
0.0
210
0.0
220
0.0
230
1.0
  2
SOLID
 70
     1
 71
     0
 91
        1
 92
        7
 72
     0
 73
     1
 93
        4
 10
51.7533071848339
 20
16.61665364677113
 10
51.01466637166239
 20
16.61665364677113
 10
51.01466637166239
 20
16.58165364677105
 10
51.7533071848339
 20
16.58165364677105
 97
        0
 75
     0
 76
     1
 47
0.0020679122012095
 98
        1
 10
51.26147366964723
 20
16.60090982195364
450
        0
451
        0
460
0.0
461
0.0
452
        1
462
1.0
453
        2
463
0.0
 63
     5
421
      255
463
1.0
 63
     7
421
 16777215
470
LINEAR
1001
ACAD
1010
0.0
1020
0.0
1030
0.0
  0
LWPOLYLINE
  5
CFE
102
{ACAD_REACTORS
330
CE1
330
CDE
102
}
330
1F
100
AcDbEntity
  8
M3 Cu Feature
100
AcDbPolyline
 90
        4
 70
     1
 43
0.0
 10
51.01466637166239
 20
16.61665364677113
 10
51.01466637166239
 20
16.58165364677105
 10
51.7533071848339
 20
16.58165364677105
 10
51.7533071848339
 20
16.61665364677113
  0
HATCH
  5
CFF
330
1F
100
AcDbEntity
  8
0
 62
     5
100
AcDbHatch
 10
0.0
 20
0.0
 30
0.0
210
0.0
220
0.0
230
1.0
  2
SOLID
 70
     1
 71
     1
 91
        2
 92
        1
 93
        4
 72
     1
 10
50.2146663716624
 20
18.2116537250657
 11
49.64406563996708
 21
18.2116537250657
 72
     1
 10
49.64406563996708
 20
18.2116537250657
 11
49.64406563996708
 21
18.24665372506578
 72
     1
 10
49.64406563996708
 20
18.24665372506578
 11
50.2146663716624
 21
18.24665372506578
 72
     1
 10
50.2146663716624
 20
18.24665372506578
 11
50.2146663716624
 21
18.2116537250657
 97
        1
330
D01
 92
        1
 93
        4
 72
     1
 10
51.01466637166236
 20
18.2116537250657
 11
51.75330718483387
 21
18.2116537250657
 72
     1
 10
51.75330718483387
 20
18.2116537250657
 11
51.75330718483387
 21
18.24665372506578
 72
     1
 10
51.75330718483387
 20
18.24665372506578
 11
51.01466637166236
 21
18.24665372506578
 72
     1
 10
51.01466637166236
 20
18.24665372506578
 11
51.01466637166236
 21
18.2116537250657
 97
        1
330
D00
 75
     1
 76
     1
 98
        1
 10
-6.271373302157694
 20
12.67151399312794
450
        0
451
        0
460
0.0
461
0.0
452
        0
462
0.0
453
        2
463
0.0
 63
     5
421
      255
463
1.0
 63
     2
421
 16776960
470
LINEAR
1001
GradientColor1ACI
1070
     5
1001
GradientColor2ACI
1070
     2
1001
ACAD
1010
0.0
1020
0.0
1030
0.0
  0
LWPOLYLINE
  5
D00
102
{ACAD_REACTORS
330
CFF
330
CE1
102
}
330
1F
100
AcDbEntity
  8
M1 Cu Feature
100
AcDbPolyline
 90
        4
 70
     1
 43
0.0
 10
51.01466637166236
 20
18.2116537250657
 10
51.75330718483387
 20
18.2116537250657
 10
51.75330718483387
 20
18.24665372506578
 10
51.01466637166236
 20
18.24665372506578
  0
LWPOLYLINE
  5
D01
102
{ACAD_REACTORS
330
CFF
330
CE1
102
}
330
1F
100
AcDbEntity
  8
M1 Cu Feature
100
AcDbPolyline
 90
        4
 70
     1
 43
0.0
 10
50.2146663716624
 20
18.2116537250657
 10
49.64406563996708
 20
18.2116537250657
 10
49.64406563996708
 20
18.24665372506578
 10
50.2146663716624
 20
18.24665372506578
  0
MTEXT
  5
D02
330
1F
100
AcDbEntity
  8
Dimensions
100
AcDbMText
 10
52.40218200207796
 20
18.36148152248014
 30
0.0
 40
0.12
 41
4.545505412418847
 46
0.0
 71
     1
 72
     5
  1
M1 Cu FEATURES\P.008 RO4003 1/2 oz Cu\PM2 Cu FEATURES\P.Prepreg, Nelco P-6FC-106-1824-A4205-6FC 106 1824G (or same property replacement).    Tooled, .002 Nominal THK\P\P.020 RO4003 1/2 oz Cu\P\PM3 Cu FEATURE
  7
RomanS
 73
     1
 44
1.0
101
Embedded Object
 70
     1
 10
1.0
 20
0.0
 30
0.0
 11
52.40218200207796
 21
18.36148152248014
 31
0.0
 40
4.545505412418847
 41
0.0
 42
4.366285714285709
 43
1.988571428571428
 71
     2
 72
     1
 44
4.545505412418847
 45
1.0
 73
     0
 74
     0
 46
2.371992789385963
  0
HATCH
  5
D03
330
1F
100
AcDbEntity
  8
M2 Cu Feature
 62
   191
100
AcDbHatch
 10
0.0
 20
0.0
 30
0.0
210
0.0
220
0.0
230
1.0
  2
SOLID
 70
     1
 71
     1
 91
        2
 92
        7
 72
     0
 73
     1
 93
        4
 10
50.21466637166243
 20
17.81165364677107
 10
49.6440656399671
 20
17.81165364677107
 10
49.6440656399671
 20
17.77665364677122
 10
50.21466637166243
 20
17.77665364677122
 97
        1
330
D05
 92
        7
 72
     0
 73
     1
 93
        4
 10
51.7533071848339
 20
17.81165364677107
 10
51.01466637166239
 20
17.81165364677107
 10
51.01466637166239
 20
17.77665364677122
 10
51.7533071848339
 20
17.77665364677122
 97
        1
330
D04
 75
     1
 76
     1
 47
0.0009041954929262
 98
        2
 10
49.74120722628608
 20
17.80023016474907
 10
51.19387493387634
 20
17.79915376527863
450
        0
451
        0
460
0.0
461
0.0
452
        0
462
0.0
453
        2
463
0.0
 63
     5
421
      255
463
1.0
 63
     2
421
 16776960
470
LINEAR
1001
GradientColor1ACI
1070
     5
1001
GradientColor2ACI
1070
     2
1001
ACAD
1010
0.0
1020
0.0
1030
0.0
  0
LWPOLYLINE
  5
D04
102
{ACAD_REACTORS
330
D03
330
CDD
330
CDE
102
}
330
1F
100
AcDbEntity
  8
M2 Cu Feature
100
AcDbPolyline
 90
        4
 70
     1
 43
0.0
 10
51.01466637166239
 20
17.81165364677107
 10
51.7533071848339
 20
17.81165364677107
 10
51.7533071848339
 20
17.77665364677122
 10
51.01466637166239
 20
17.77665364677122
  0
LWPOLYLINE
  5
D05
102
{ACAD_REACTORS
330
D03
102
}
330
1F
100
AcDbEntity
  8
M2 Cu Feature
100
AcDbPolyline
 90
        4
 70
     1
 43
0.0
 10
49.6440656399671
 20
17.81165364677107
 10
50.21466637166243
 20
17.81165364677107
 10
50.21466637166243
 20
17.77665364677122
 10
49.6440656399671
 20
17.77665364677122
  0
ENDSEC
  0
SECTION
  2
OBJECTS
  0
DICTIONARY
  5
C
330
0
100
AcDbDictionary
281
     1
  3
ACAD_CIP_PREVIOUS_PRODUCT_INFO
350
1A5
  3
ACAD_COLOR
350
73
  3
ACAD_DETAILVIEWSTYLE
350
1AB
  3
ACAD_GROUP
350
D
  3
ACAD_LAYOUT
350
1A
  3
ACAD_MATERIAL
350
72
  3
ACAD_MLEADERSTYLE
350
D7
  3
ACAD_MLINESTYLE
350
17
  3
ACAD_PLOTSETTINGS
350
19
  3
ACAD_PLOTSTYLENAME
350
E
  3
ACAD_SCALELIST
350
B6
  3
ACAD_SECTIONVIEWSTYLE
350
1A8
  3
ACAD_TABLESTYLE
350
86
  3
ACAD_VISUALSTYLE
350
99
  3
ACDB_RECOMPOSE_DATA
350
D2B
  3
AcDbVariableDictionary
350
66
  0
DICTIONARY
  5
18E
330
2
100
AcDbDictionary
280
     1
281
     1
  3
ACAD_LAYERSTATES
360
18F
  0
DICTIONARY
  5
E6
330
10
100
AcDbDictionary
280
     1
281
     1
  0
DICTIONARY
  5
29F
330
29E
100
AcDbDictionary
280
     1
281
     1
  0
DICTIONARY
  5
2A9
330
2A8
100
AcDbDictionary
280
     1
281
     1
  0
DICTIONARY
  5
2AB
330
2AA
100
AcDbDictionary
280
     1
281
     1
  0
DICTIONARY
  5
2AD
330
2AC
100
AcDbDictionary
280
     1
281
     1
  0
DICTIONARY
  5
48D
330
48C
100
AcDbDictionary
280
     1
281
     1
  0
DICTIONARY
  5
15D
330
1F
100
AcDbDictionary
280
     1
281
     1
  3
ACAD_SORTENTS
360
428
  0
DICTIONARY
  5
BA8
330
BA7
100
AcDbDictionary
280
     1
281
     1
  3
ACAD_DIMASSOC
360
BA9
  0
DICTIONARY
  5
BAB
330
BAA
100
AcDbDictionary
280
     1
281
     1
  3
ACAD_DIMASSOC
360
BAC
  0
DICTIONARY
  5
BAE
330
BAD
100
AcDbDictionary
280
     1
281
     1
  3
ACAD_DIMASSOC
360
BAF
  0
DICTIONARY
  5
BB1
330
BB0
100
AcDbDictionary
280
     1
281
     1
  3
ACAD_DIMASSOC
360
BB2
  0
DICTIONARY
  5
BB4
330
BB3
100
AcDbDictionary
280
     1
281
     1
  3
ACAD_DIMASSOC
360
BB5
  0
DICTIONARY
  5
BB7
330
BB6
100
AcDbDictionary
280
     1
281
     1
  3
ACAD_DIMASSOC
360
BB8
  0
DICTIONARY
  5
BBA
330
BB9
100
AcDbDictionary
280
     1
281
     1
  3
ACAD_DIMASSOC
360
BBB
  0
DICTIONARY
  5
BBD
330
BBC
100
AcDbDictionary
280
     1
281
     1
  3
ACAD_DIMASSOC
360
BBE
  0
DICTIONARY
  5
BC0
330
BBF
100
AcDbDictionary
280
     1
281
     1
  3
ACAD_DIMASSOC
360
BC1
  0
DICTIONARY
  5
BD3
330
BD2
100
AcDbDictionary
280
     1
281
     1
  3
ACAD_DIMASSOC
360
BD4
  0
DICTIONARY
  5
BD6
330
BD5
100
AcDbDictionary
280
     1
281
     1
  3
ACAD_DIMASSOC
360
BD7
  0
DICTIONARY
  5
BD9
330
BD8
100
AcDbDictionary
280
     1
281
     1
  3
ACAD_DIMASSOC
360
BDA
  0
DICTIONARY
  5
BDC
330
BDB
100
AcDbDictionary
280
     1
281
     1
  3
ACAD_DIMASSOC
360
BDD
  0
DICTIONARY
  5
BDF
330
BDE
100
AcDbDictionary
280
     1
281
     1
  3
ACAD_DIMASSOC
360
BE0
  0
DICTIONARY
  5
BE2
330
BE1
100
AcDbDictionary
280
     1
281
     1
  3
ACAD_DIMASSOC
360
BE3
  0
DICTIONARY
  5
BE5
330
BE4
100
AcDbDictionary
280
     1
281
     1
  3
ACAD_DIMASSOC
360
BE6
  0
DICTIONARY
  5
BE8
330
BE7
100
AcDbDictionary
280
     1
281
     1
  3
ACAD_DIMASSOC
360
BE9
  0
DICTIONARY
  5
BEC
330
BEB
100
AcDbDictionary
280
     1
281
     1
  0
DICTIONARY
  5
BEE
330
BED
100
AcDbDictionary
280
     1
281
     1
  0
DICTIONARY
  5
CDA
330
CD9
100
AcDbDictionary
280
     1
281
     1
  0
DICTIONARY
  5
CEC
330
CEB
100
AcDbDictionary
280
     1
281
     1
  3
ACAD_DIMASSOC
360
CED
  0
DICTIONARY
  5
CF0
330
CEF
100
AcDbDictionary
280
     1
281
     1
  3
ACAD_DIMASSOC
360
CF1
  0
XRECORD
  5
1A5
102
{ACAD_REACTORS
330
C
102
}
330
C
100
AcDbXrecord
280
     1
300
ACD
300
2021
300

  0
DICTIONARY
  5
73
102
{ACAD_REACTORS
330
C
102
}
330
C
100
AcDbDictionary
281
     1
  0
DICTIONARY
  5
1AB
102
{ACAD_REACTORS
330
C
102
}
330
C
100
AcDbDictionary
281
     1
  3
Imperial24
350
1AC
  0
DICTIONARY
  5
D
102
{ACAD_REACTORS
330
C
102
}
330
C
100
AcDbDictionary
281
     1
  0
DICTIONARY
  5
1A
102
{ACAD_REACTORS
330
C
102
}
330
C
100
AcDbDictionary
281
     1
  3
Layout1
350
59
  3
Layout2
350
5E
  3
Model
350
22
  0
DICTIONARY
  5
72
102
{ACAD_REACTORS
330
C
102
}
330
C
100
AcDbDictionary
281
     1
  3
ByBlock
350
97
  3
ByLayer
350
96
  3
Global
350
98
  0
DICTIONARY
  5
D7
102
{ACAD_REACTORS
330
C
102
}
330
C
100
AcDbDictionary
281
     1
  3
Annotative
350
E5
  3
Copy of Standard
350
2B5
  3
Standard
350
D8
  0
DICTIONARY
  5
17
102
{ACAD_REACTORS
330
C
102
}
330
C
100
AcDbDictionary
281
     1
  3
Standard
350
18
  0
DICTIONARY
  5
19
102
{ACAD_REACTORS
330
C
102
}
330
C
100
AcDbDictionary
281
     1
  0
ACDBDICTIONARYWDFLT
  5
E
102
{ACAD_REACTORS
330
C
102
}
330
C
100
AcDbDictionary
281
     1
  3
Normal
350
F
100
AcDbDictionaryWithDefault
340
F
  0
DICTIONARY
  5
B6
102
{ACAD_REACTORS
330
C
102
}
330
C
100
AcDbDictionary
281
     1
  3
A0
350
B7
  3
A1
350
124
  3
A2
350
125
  3
A3
350
126
  3
A4
350
127
  3
A5
350
128
  3
A6
350
129
  3
A7
350
12A
  3
A8
350
12B
  3
A9
350
12C
  3
B0
350
12D
  3
B1
350
12E
  3
B2
350
12F
  3
B3
350
130
  3
B4
350
131
  3
B5
350
132
  3
B6
350
133
  3
B7
350
134
  3
B8
350
135
  3
B9
350
136
  3
C0
350
137
  3
C1
350
138
  3
C2
350
139
  3
C3
350
13A
  3
C4
350
13B
  3
C5
350
13C
  3
C6
350
13D
  3
C7
350
13E
  3
C8
350
13F
  3
C9
350
140
  3
D0
350
141
  3
D1
350
142
  3
D2
350
143
  0
DICTIONARY
  5
1A8
102
{ACAD_REACTORS
330
C
102
}
330
C
100
AcDbDictionary
281
     1
  3
Imperial24
350
1AA
  0
DICTIONARY
  5
86
102
{ACAD_REACTORS
330
C
102
}
330
C
100
AcDbDictionary
281
     1
  3
Standard
350
87
  0
DICTIONARY
  5
99
102
{ACAD_REACTORS
330
C
102
}
330
C
100
AcDbDictionary
281
     1
  3
2dWireframe
350
9F
  3
Basic
350
9E
  3
Brighten
350
A5
  3
ColorChange
350
A9
  3
Conceptual
350
A2
  3
Dim
350
A4
  3
EdgeColorOff
350
175
  3
Facepattern
350
A8
  3
Flat
350
9A
  3
FlatWithEdges
350
9B
  3
Gouraud
350
9C
  3
GouraudWithEdges
350
9D
  3
Hidden
350
A1
  3
JitterOff
350
173
  3
Linepattern
350
A7
  3
OverhangOff
350
174
  3
Realistic
350
A3
  3
Shaded
350
182
  3
Shaded with edges
350
181
  3
Shades of Gray
350
17E
  3
Sketchy
350
17F
  3
Thicken
350
A6
  3
Wireframe
350
A0
  3
X-Ray
350
180
  0
XRECORD
  5
D2B
102
{ACAD_REACTORS
330
C
102
}
330
C
100
AcDbXrecord
280
     1
 90
        1
330
87
330
CEB
330
CEF
  0
DICTIONARY
  5
66
102
{ACAD_REACTORS
330
C
102
}
330
C
100
AcDbDictionary
281
     1
  3
CANNOSCALE
350
F0
  3
CMLEADERSTYLE
350
EF
  3
CTABLESTYLE
350
89
  3
CVIEWDETAILSTYLE
350
1B7
  3
CVIEWSECTIONSTYLE
350
1B8
  3
DIMASSOC
350
67
  3
HIDETEXT
350
6B
  3
HPCOLOR
350
426
  3
HPTRANSPARENCY
350
42F
  3
LAYEREVAL
350
14D
  3
LAYERNOTIFY
350
14E
  0
DICTIONARY
  5
18F
102
{ACAD_REACTORS
330
18E
102
}
330
18E
100
AcDbDictionary
281
     1
  0
SORTENTSTABLE
  5
428
102
{ACAD_REACTORS
330
15D
102
}
330
15D
100
AcDbSortentsTable
330
1F
  0
DIMASSOC
  5
BA9
102
{ACAD_REACTORS
330
BA8
102
}
330
BA8
100
AcDbDimAssoc
330
BA7
 90
        3
 70
     0
 71
     0
  1
AcDbOsnapPointRef
 72
     2
331
BA0
 73
     2
 91
        4
 40
0.5
 10
0.0
 20
0.0
 30
0.0
 75
     0
  1
AcDbOsnapPointRef
 72
     2
331
BA0
 73
     2
 91
        2
 40
0.5
 10
0.0
 20
0.0
 30
0.0
 75
     0
  0
DIMASSOC
  5
BAC
102
{ACAD_REACTORS
330
BAB
102
}
330
BAB
100
AcDbDimAssoc
330
BAA
 90
        3
 70
     0
 71
     0
  1
AcDbOsnapPointRef
 72
     1
331
B9F
 73
     2
 91
        4
 40
1.0
 10
0.0
 20
0.0
 30
2.000000000000000E+50
 75
     0
  1
AcDbOsnapPointRef
 72
     1
331
B9F
 73
     2
 91
        1
 40
1.0
 10
0.0
 20
0.0
 30
2.000000000000000E+50
 75
     0
  0
DIMASSOC
  5
BAF
102
{ACAD_REACTORS
330
BAE
102
}
330
BAE
100
AcDbDimAssoc
330
BAD
 90
        1
 70
     0
 71
     0
  1
AcDbOsnapPointRef
 72
     3
331
BA6
 73
     2
 91
        0
 40
0.0
 10
0.0
 20
0.0
 30
0.0
 75
     0
  0
DIMASSOC
  5
BB2
102
{ACAD_REACTORS
330
BB1
102
}
330
BB1
100
AcDbDimAssoc
330
BB0
 90
        2
 70
     0
 71
     0
  1
AcDbOsnapPointRef
 72
     3
331
BA3
 73
     2
 91
        0
 40
0.0
 10
0.0
 20
0.0
 30
0.0
 75
     0
  0
DIMASSOC
  5
BB5
102
{ACAD_REACTORS
330
BB4
102
}
330
BB4
100
AcDbDimAssoc
330
BB3
 90
        3
 70
     0
 71
     0
  1
AcDbOsnapPointRef
 72
     1
331
BA0
 73
     2
 91
        3
 40
1.0
 10
0.0
 20
0.0
 30
2.000000000000000E+50
 75
     0
  1
AcDbOsnapPointRef
 72
    13
331
BA0
 73
     2
 91
        1
 40
0.0
 10
0.0
 20
0.0
 30
2.000000000000000E+50
 75
     0
  0
DIMASSOC
  5
BB8
102
{ACAD_REACTORS
330
BB7
102
}
330
BB7
100
AcDbDimAssoc
330
BB6
 90
        3
 70
     0
 71
     0
  1
AcDbOsnapPointRef
 72
    11
331
BA2
 73
     2
 91
        4
 40
0.0
 10
0.0
 20
0.0
 30
0.0
332
BA0
 74
     2
 92
        3
 75
     0
  1
AcDbOsnapPointRef
 72
     1
331
BA2
 73
     2
 91
        4
 40
1.0
 10
0.0
 20
0.0
 30
2.000000000000000E+50
 75
     0
  0
DIMASSOC
  5
BBB
102
{ACAD_REACTORS
330
BBA
102
}
330
BBA
100
AcDbDimAssoc
330
BB9
 90
        2
 70
     0
 71
     0
  1
AcDbOsnapPointRef
 72
     1
331
BA2
 73
     2
 91
        5
 40
1.0
 10
0.0
 20
0.0
 30
2.000000000000000E+50
 75
     0
  0
DIMASSOC
  5
BBE
102
{ACAD_REACTORS
330
BBD
102
}
330
BBD
100
AcDbDimAssoc
330
BBC
 90
        3
 70
     0
 71
     0
  1
AcDbOsnapPointRef
 72
     8
331
BA2
 73
     2
 91
        3
 40
0.5000000000004155
 10
0.0
 20
0.0
 30
0.0
 75
     1
  1
AcDbOsnapPointRef
 72
     0
 40
0.0
 10
14.24379641413491
 20
19.97327273163915
 30
0.0
 75
     0
  1
AcDbOsnapPointRef
 72
     8
331
BA2
 73
     2
 91
        6
 40
0.4999999999996538
 10
0.0
 20
0.0
 30
0.0
 75
     1
  1
AcDbOsnapPointRef
 72
     8
331
BA2
 73
     2
 91
        3
 40
0.5000000000004155
 10
0.0
 20
0.0
 30
0.0
 75
     1
  1
AcDbOsnapPointRef
 72
     0
 40
0.0
 10
14.24379641413491
 20
19.97327273163915
 30
0.0
 75
     0
  0
DIMASSOC
  5
BC1
102
{ACAD_REACTORS
330
BC0
102
}
330
BC0
100
AcDbDimAssoc
330
BBF
 90
        1
 70
     0
 71
     0
  1
AcDbOsnapPointRef
 72
     8
331
BA4
 73
     2
 91
        0
 40
5.449581485751169
 10
0.0
 20
0.0
 30
0.0
 75
     0
  0
DIMASSOC
  5
BD4
102
{ACAD_REACTORS
330
BD3
102
}
330
BD3
100
AcDbDimAssoc
330
BD2
 90
        3
 70
     0
 71
     0
  1
AcDbOsnapPointRef
 72
    11
331
BD0
 73
     2
 91
        3
 40
1.0
 10
0.0
 20
0.0
 30
0.0
332
BC3
 74
     2
 92
        3
 75
     0
  1
AcDbOsnapPointRef
 72
     8
331
BC3
 73
     2
 91
        1
 40
0.0
 10
0.0
 20
0.0
 30
0.0
 75
     1
  1
AcDbOsnapPointRef
 72
    11
331
BD0
 73
     2
 91
        3
 40
1.0
 10
0.0
 20
0.0
 30
0.0
332
BC3
 74
     2
 92
        3
 75
     0
  0
DIMASSOC
  5
BD7
102
{ACAD_REACTORS
330
BD6
102
}
330
BD6
100
AcDbDimAssoc
330
BD5
 90
        3
 70
     0
 71
     0
  1
AcDbOsnapPointRef
 72
     1
331
BC6
 73
     2
 91
        1
 40
1.0
 10
0.0
 20
0.0
 30
2.000000000000000E+50
 75
     0
  1
AcDbOsnapPointRef
 72
     1
331
BC7
 73
     2
 91
        2
 40
1.0
 10
0.0
 20
0.0
 30
2.000000000000000E+50
 75
     0
  0
DIMASSOC
  5
BDA
102
{ACAD_REACTORS
330
BD9
102
}
330
BD9
100
AcDbDimAssoc
330
BD8
 90
        3
 70
     0
 71
     0
  1
AcDbOsnapPointRef
 72
     1
331
BC9
 73
     2
 91
        2
 40
1.0
 10
0.0
 20
0.0
 30
2.000000000000000E+50
 75
     0
  1
AcDbOsnapPointRef
 72
     1
331
BC6
 73
     2
 91
        3
 40
1.0
 10
0.0
 20
0.0
 30
2.000000000000000E+50
 75
     0
  0
DIMASSOC
  5
BDD
102
{ACAD_REACTORS
330
BDC
102
}
330
BDC
100
AcDbDimAssoc
330
BDB
 90
        3
 70
     0
 71
     0
  1
AcDbOsnapPointRef
 72
     1
331
BC2
 73
     2
 91
        4
 40
1.0
 10
0.0
 20
0.0
 30
2.000000000000000E+50
 75
     0
  1
AcDbOsnapPointRef
 72
     1
331
BC2
 73
     2
 91
        1
 40
1.0
 10
0.0
 20
0.0
 30
2.000000000000000E+50
 75
     0
  0
DIMASSOC
  5
BE0
102
{ACAD_REACTORS
330
BDF
102
}
330
BDF
100
AcDbDimAssoc
330
BDE
 90
        2
 70
     0
 71
     0
  1
AcDbOsnapPointRef
 72
     3
331
BCB
 73
     2
 91
        0
 40
0.0
 10
0.0
 20
0.0
 30
0.0
 75
     0
  0
DIMASSOC
  5
BE3
102
{ACAD_REACTORS
330
BE2
102
}
330
BE2
100
AcDbDimAssoc
330
BE1
 90
        3
 70
     0
 71
     0
  1
AcDbOsnapPointRef
 72
     2
331
BCF
 73
     2
 91
        2
 40
0.5
 10
0.0
 20
0.0
 30
0.0
 75
     0
  1
AcDbOsnapPointRef
 72
     8
331
BCF
 73
     2
 91
        7
 40
0.7071350176982732
 10
0.0
 20
0.0
 30
0.0
 75
     1
  1
AcDbOsnapPointRef
 72
     2
331
BCF
 73
     2
 91
        2
 40
0.5
 10
0.0
 20
0.0
 30
0.0
 75
     0
  0
DIMASSOC
  5
BE6
102
{ACAD_REACTORS
330
BE5
102
}
330
BE5
100
AcDbDimAssoc
330
BE4
 90
        3
 70
     0
 71
     0
  1
AcDbOsnapPointRef
 72
     1
331
BC4
 73
     2
 91
        1
 40
1.0
 10
0.0
 20
0.0
 30
2.000000000000000E+50
 75
     0
  1
AcDbOsnapPointRef
 72
    13
331
BC4
 73
     2
 91
        1
 40
0.0
 10
0.0
 20
0.0
 30
2.000000000000000E+50
 75
     0
  0
DIMASSOC
  5
BE9
102
{ACAD_REACTORS
330
BE8
102
}
330
BE8
100
AcDbDimAssoc
330
BE7
 90
        3
 70
     0
 71
     0
  1
AcDbOsnapPointRef
 72
     1
331
BC3
 73
     2
 91
        1
 40
1.0
 10
0.0
 20
0.0
 30
2.000000000000000E+50
 75
     0
  1
AcDbOsnapPointRef
 72
    13
331
BC3
 73
     2
 91
        1
 40
0.0
 10
0.0
 20
0.0
 30
2.000000000000000E+50
 75
     0
  0
DIMASSOC
  5
CED
102
{ACAD_REACTORS
330
CEC
102
}
330
CEC
100
AcDbDimAssoc
330
CEB
 90
        1
 70
     0
 71
     0
  1
AcDbOsnapPointRef
 72
    13
331
CEA
 73
     2
 91
        1
 40
0.0
 10
0.0
 20
0.0
 30
2.000000000000000E+50
 75
     0
  0
DIMASSOC
  5
CF1
102
{ACAD_REACTORS
330
CF0
102
}
330
CF0
100
AcDbDimAssoc
330
CEF
 90
        2
 70
     0
 71
     0
  1
AcDbOsnapPointRef
 72
     1
331
CEA
 73
     2
 91
        3
 40
1.0
 10
0.0
 20
0.0
 30
2.000000000000000E+50
 75
     0
  0
ACDBDETAILVIEWSTYLE
  5
1AC
102
{ACAD_REACTORS
330
1AB
102
}
330
1AB
100
AcDbModelDocViewStyle
 70
     0
  3
Imperial24
290
     0
300
Imperial24
 90
        0
100
AcDbDetailViewStyle
 70
     0
 71
     0
 90
        3
 71
     1
340
11
 62
   256
 40
0.24
340
0
 62
   256
 40
0.24
300

 40
0.36
280
     3
 71
     2
340
16
 90
       25
 62
   256
 71
     3
340
11
 62
   256
 40
0.24
 90
        1
 40
0.75
 90
        1
300
%<\AcVar ViewType \f "%tc1">% %<\AcVar ViewDetailId>%\PSCALE %<\AcVar ViewScale \f "%sn">%
 71
     4
340
16
 90
       25
 62
   256
340
16
 90
       25
 62
   256
280
     0
  0
LAYOUT
  5
59
102
{ACAD_REACTORS
330
1A
102
}
330
1A
100
AcDbPlotSettings
  1

  2
None
  4

  6

 40
0.0
 41
0.0
 42
0.0
 43
0.0
 44
0.0
 45
0.0
 46
0.0
 47
0.0
 48
0.0
 49
0.0
140
0.0
141
0.0
142
1.0
143
1.0
 70
   688
 72
     0
 73
     0
 74
     5
  7

 75
    16
147
1.0
 76
     0
 77
     2
 78
   300
148
0.0
149
0.0
100
AcDbLayout
  1
Layout1
 70
     1
 71
     1
 10
0.0
 20
0.0
 11
12.0
 21
9.0
 12
0.0
 22
0.0
 32
0.0
 14
0.0
 24
0.0
 34
0.0
 15
0.0
 25
0.0
 35
0.0
146
0.0
 13
0.0
 23
0.0
 33
0.0
 16
1.0
 26
0.0
 36
0.0
 17
0.0
 27
1.0
 37
0.0
 76
     0
330
58
  0
LAYOUT
  5
5E
102
{ACAD_REACTORS
330
1A
102
}
330
1A
100
AcDbPlotSettings
  1

  2
None
  4

  6

 40
0.0
 41
0.0
 42
0.0
 43
0.0
 44
0.0
 45
0.0
 46
0.0
 47
0.0
 48
0.0
 49
0.0
140
0.0
141
0.0
142
1.0
143
1.0
 70
   688
 72
     0
 73
     0
 74
     5
  7

 75
    16
147
1.0
 76
     0
 77
     2
 78
   300
148
0.0
149
0.0
100
AcDbLayout
  1
Layout2
 70
     1
 71
     2
 10
0.0
 20
0.0
 11
12.0
 21
9.0
 12
0.0
 22
0.0
 32
0.0
 14
0.0
 24
0.0
 34
0.0
 15
0.0
 25
0.0
 35
0.0
146
0.0
 13
0.0
 23
0.0
 33
0.0
 16
1.0
 26
0.0
 36
0.0
 17
0.0
 27
1.0
 37
0.0
 76
     0
330
5D
  0
LAYOUT
  5
22
102
{ACAD_XDICTIONARY
360
194
102
}
102
{ACAD_REACTORS
330
1A
102
}
330
1A
100
AcDbPlotSettings
  1

  2
none_device
  4
ANSI_A_(8.50_x_11.00_Inches)
  6

 40
6.349999904632568
 41
19.04999923706055
 42
6.350006103515625
 43
19.04998779296875
 44
215.8999938964844
 45
279.3999938964844
 46
0.0
 47
0.0
 48
0.0
 49
0.0
140
0.0
141
0.0
142
1.0
143
2.584895464708373
 70
 11952
 72
     0
 73
     1
 74
     0
  7

 75
     0
147
0.3868628397755418
 76
     0
 77
     2
 78
   300
148
0.0
149
0.0
100
AcDbLayout
  1
Model
 70
     1
 71
     0
 10
0.0
 20
0.0
 11
12.0
 21
9.0
 12
0.0
 22
0.0
 32
0.0
 14
0.0
 24
0.0
 34
0.0
 15
0.0
 25
0.0
 35
0.0
146
0.0
 13
0.0
 23
0.0
 33
0.0
 16
1.0
 26
0.0
 36
0.0
 17
0.0
 27
1.0
 37
0.0
 76
     0
330
1F
331
94
  0
MATERIAL
  5
97
102
{ACAD_XDICTIONARY
360
188
102
}
102
{ACAD_REACTORS
330
72
102
}
330
72
100
AcDbMaterial
  1
ByBlock
 94
       63
  0
MATERIAL
  5
96
102
{ACAD_XDICTIONARY
360
186
102
}
102
{ACAD_REACTORS
330
72
102
}
330
72
100
AcDbMaterial
  1
ByLayer
 94
       63
  0
MATERIAL
  5
98
102
{ACAD_XDICTIONARY
360
110
102
}
102
{ACAD_REACTORS
330
72
102
}
330
72
100
AcDbMaterial
  1
Global
 43
0.0208000000566244
 43
0.0
 43
0.0
 43
0.0
 43
0.0
 43
0.0208000000566244
 43
0.0
 43
0.0
 43
0.0
 43
0.0
 43
1.0
 43
0.0
 43
0.0
 43
0.0
 43
0.0
 43
1.0
 49
0.0208000000566244
 49
0.0
 49
0.0
 49
0.0
 49
0.0
 49
0.0208000000566244
 49
0.0
 49
0.0
 49
0.0
 49
0.0
 49
1.0
 49
0.0
 49
0.0
 49
0.0
 49
0.0
 49
1.0
142
0.0208000000566244
142
0.0
142
0.0
142
0.0
142
0.0
142
0.0208000000566244
142
0.0
142
0.0
142
0.0
142
0.0
142
1.0
142
0.0
142
0.0
142
0.0
142
0.0
142
1.0
144
0.0208000000566244
144
0.0
144
0.0
144
0.0
144
0.0
144
0.0208000000566244
144
0.0
144
0.0
144
0.0
144
0.0
144
1.0
144
0.0
144
0.0
144
0.0
144
0.0
144
1.0
 94
       63
1001
ACAD
1070
    -1
1070
     3
1070
     0
1000

1071
        0
1070
     0
  0
MLEADERSTYLE
  5
E5
102
{ACAD_REACTORS
330
D7
102
}
330
D7
100
AcDbMLeaderStyle
179
     2
170
     2
171
     1
172
     0
 90
        2
 40
0.0
 41
0.0
173
     1
 91
-1056964608
340
14
 92
       -2
290
     1
 42
0.09
291
     1
 43
0.36
  3
Standard
 44
0.18
300

342
11
174
     1
178
     1
175
     1
176
     0
 93
-1056964608
 45
0.18
292
     0
297
     0
 46
0.18
 94
-1056964608
 47
1.0
 49
1.0
140
1.0
293
     1
141
0.0
294
     1
177
     0
142
1.0
295
     0
296
     1
143
0.125
271
     0
272
     9
273
     9
298
     0
  0
MLEADERSTYLE
  5
2B5
102
{ACAD_REACTORS
330
D7
330
B93
330
BEA
102
}
330
D7
100
AcDbMLeaderStyle
179
     2
170
     2
171
     1
172
     0
 90
        2
 40
0.0
 41
0.0
173
     1
 91
-1056964608
340
14
 92
       -2
290
     1
 42
0.09
291
     1
 43
0.12
  3
Standard
 44
0.12
300

342
11
174
     1
178
     1
175
     1
176
     0
 93
-1056964608
 45
0.12
292
     0
297
     0
 46
0.18
 94
-1056964608
 47
1.0
 49
1.0
140
1.0
293
     1
141
0.0
294
     1
177
     0
142
1.0
295
     0
296
     0
143
0.125
271
     0
272
     9
273
     9
298
     0
  0
MLEADERSTYLE
  5
D8
102
{ACAD_REACTORS
330
D7
330
B68
330
BBF
102
}
330
D7
100
AcDbMLeaderStyle
179
     2
170
     2
171
     1
172
     0
 90
        2
 40
0.0
 41
0.0
173
     1
 91
-1056964608
340
14
 92
       -2
290
     1
 42
0.09
291
     1
 43
0.36
  3
Standard
 44
0.18
300

342
11
174
     1
178
     1
175
     1
176
     0
 93
-1056964608
 45
0.18
292
     0
297
     0
 46
0.18
 94
-1056964608
 47
1.0
 49
1.0
140
1.0
293
     1
141
0.0
294
     1
177
     0
142
1.0
295
     0
296
     0
143
0.125
271
     0
272
     9
273
     9
298
     0
  0
MLINESTYLE
  5
18
102
{ACAD_REACTORS
330
17
102
}
330
17
100
AcDbMlineStyle
  2
STANDARD
 70
     0
  3

 62
   256
 51
90.0
 52
90.0
 71
     2
 49
0.5
 62
   256
  6
BYLAYER
 49
-0.5
 62
   256
  6
BYLAYER
  0
ACDBPLACEHOLDER
  5
F
102
{ACAD_REACTORS
330
E
102
}
330
E
  0
SCALE
  5
B7
102
{ACAD_REACTORS
330
B6
102
}
330
B6
100
AcDbScale
 70
     0
300
1:1
140
1.0
141
1.0
290
     1
  0
SCALE
  5
124
102
{ACAD_REACTORS
330
B6
102
}
330
B6
100
AcDbScale
 70
     0
300
1:2
140
1.0
141
2.0
290
     0
  0
SCALE
  5
125
102
{ACAD_REACTORS
330
B6
102
}
330
B6
100
AcDbScale
 70
     0
300
1:4
140
1.0
141
4.0
290
     0
  0
SCALE
  5
126
102
{ACAD_REACTORS
330
B6
102
}
330
B6
100
AcDbScale
 70
     0
300
1:5
140
1.0
141
5.0
290
     0
  0
SCALE
  5
127
102
{ACAD_REACTORS
330
B6
102
}
330
B6
100
AcDbScale
 70
     0
300
1:8
140
1.0
141
8.0
290
     0
  0
SCALE
  5
128
102
{ACAD_REACTORS
330
B6
102
}
330
B6
100
AcDbScale
 70
     0
300
1:10
140
1.0
141
10.0
290
     0
  0
SCALE
  5
129
102
{ACAD_REACTORS
330
B6
102
}
330
B6
100
AcDbScale
 70
     0
300
1:16
140
1.0
141
16.0
290
     0
  0
SCALE
  5
12A
102
{ACAD_REACTORS
330
B6
102
}
330
B6
100
AcDbScale
 70
     0
300
1:20
140
1.0
141
20.0
290
     0
  0
SCALE
  5
12B
102
{ACAD_REACTORS
330
B6
102
}
330
B6
100
AcDbScale
 70
     0
300
1:30
140
1.0
141
30.0
290
     0
  0
SCALE
  5
12C
102
{ACAD_REACTORS
330
B6
102
}
330
B6
100
AcDbScale
 70
     0
300
1:40
140
1.0
141
40.0
290
     0
  0
SCALE
  5
12D
102
{ACAD_REACTORS
330
B6
102
}
330
B6
100
AcDbScale
 70
     0
300
1:50
140
1.0
141
50.0
290
     0
  0
SCALE
  5
12E
102
{ACAD_REACTORS
330
B6
102
}
330
B6
100
AcDbScale
 70
     0
300
1:100
140
1.0
141
100.0
290
     0
  0
SCALE
  5
12F
102
{ACAD_REACTORS
330
B6
102
}
330
B6
100
AcDbScale
 70
     0
300
2:1
140
2.0
141
1.0
290
     0
  0
SCALE
  5
130
102
{ACAD_REACTORS
330
B6
102
}
330
B6
100
AcDbScale
 70
     0
300
4:1
140
4.0
141
1.0
290
     0
  0
SCALE
  5
131
102
{ACAD_REACTORS
330
B6
102
}
330
B6
100
AcDbScale
 70
     0
300
8:1
140
8.0
141
1.0
290
     0
  0
SCALE
  5
132
102
{ACAD_REACTORS
330
B6
102
}
330
B6
100
AcDbScale
 70
     0
300
10:1
140
10.0
141
1.0
290
     0
  0
SCALE
  5
133
102
{ACAD_REACTORS
330
B6
102
}
330
B6
100
AcDbScale
 70
     0
300
100:1
140
100.0
141
1.0
290
     0
  0
SCALE
  5
134
102
{ACAD_REACTORS
330
B6
102
}
330
B6
100
AcDbScale
 70
     0
300
1/128" = 1'-0"
140
0.0078125
141
12.0
290
     0
  0
SCALE
  5
135
102
{ACAD_REACTORS
330
B6
102
}
330
B6
100
AcDbScale
 70
     0
300
1/64" = 1'-0"
140
0.015625
141
12.0
290
     0
  0
SCALE
  5
136
102
{ACAD_REACTORS
330
B6
102
}
330
B6
100
AcDbScale
 70
     0
300
1/32" = 1'-0"
140
0.03125
141
12.0
290
     0
  0
SCALE
  5
137
102
{ACAD_REACTORS
330
B6
102
}
330
B6
100
AcDbScale
 70
     0
300
1/16" = 1'-0"
140
0.0625
141
12.0
290
     0
  0
SCALE
  5
138
102
{ACAD_REACTORS
330
B6
102
}
330
B6
100
AcDbScale
 70
     0
300
3/32" = 1'-0"
140
0.09375
141
12.0
290
     0
  0
SCALE
  5
139
102
{ACAD_REACTORS
330
B6
102
}
330
B6
100
AcDbScale
 70
     0
300
1/8" = 1'-0"
140
0.125
141
12.0
290
     0
  0
SCALE
  5
13A
102
{ACAD_REACTORS
330
B6
102
}
330
B6
100
AcDbScale
 70
     0
300
3/16" = 1'-0"
140
0.1875
141
12.0
290
     0
  0
SCALE
  5
13B
102
{ACAD_REACTORS
330
B6
102
}
330
B6
100
AcDbScale
 70
     0
300
1/4" = 1'-0"
140
0.25
141
12.0
290
     0
  0
SCALE
  5
13C
102
{ACAD_REACTORS
330
B6
102
}
330
B6
100
AcDbScale
 70
     0
300
3/8" = 1'-0"
140
0.375
141
12.0
290
     0
  0
SCALE
  5
13D
102
{ACAD_REACTORS
330
B6
102
}
330
B6
100
AcDbScale
 70
     0
300
1/2" = 1'-0"
140
0.5
141
12.0
290
     0
  0
SCALE
  5
13E
102
{ACAD_REACTORS
330
B6
102
}
330
B6
100
AcDbScale
 70
     0
300
3/4" = 1'-0"
140
0.75
141
12.0
290
     0
  0
SCALE
  5
13F
102
{ACAD_REACTORS
330
B6
102
}
330
B6
100
AcDbScale
 70
     0
300
1" = 1'-0"
140
1.0
141
12.0
290
     0
  0
SCALE
  5
140
102
{ACAD_REACTORS
330
B6
102
}
330
B6
100
AcDbScale
 70
     0
300
1-1/2" = 1'-0"
140
1.5
141
12.0
290
     0
  0
SCALE
  5
141
102
{ACAD_REACTORS
330
B6
102
}
330
B6
100
AcDbScale
 70
     0
300
3" = 1'-0"
140
3.0
141
12.0
290
     0
  0
SCALE
  5
142
102
{ACAD_REACTORS
330
B6
102
}
330
B6
100
AcDbScale
 70
     0
300
6" = 1'-0"
140
6.0
141
12.0
290
     0
  0
SCALE
  5
143
102
{ACAD_REACTORS
330
B6
102
}
330
B6
100
AcDbScale
 70
     0
300
1'-0" = 1'-0"
140
12.0
141
12.0
290
     0
  0
ACDBSECTIONVIEWSTYLE
  5
1AA
102
{ACAD_REACTORS
330
1A8
102
}
330
1A8
100
AcDbModelDocViewStyle
 70
     0
  3
Imperial24
290
     0
300
Imperial24
 90
        0
100
AcDbSectionViewStyle
 70
     0
 71
     0
 90
       78
 71
     1
340
11
 62
   256
 40
0.24
340
0
340
0
 62
   256
 40
0.24
300
I, O, Q, S, X, Z
 40
0.48
 90
        3
 40
0.18
 90
        1
 71
     2
340
16
 90
       25
 62
   256
340
16
 90
       50
 62
   256
 40
0.24
 40
0.0
 40
0.24
 71
     3
340
11
 62
   256
 40
0.24
 90
        1
 40
0.75
 90
        1
300
%<\AcVar ViewType \f "%tc1">% %<\AcVar ViewSectionStartId>%-%<\AcVar ViewSectionEndId>%\PSCALE %<\AcVar ViewScale \f "%sn">%
 71
     4
 62
   256
 62
   257
300
ANSI31
 40
1.0
 90
        0
290
     0
290
     0
 90
        6
 40
0.0
 40
1.570796326794896
 40
0.2617993877991494
 40
1.308996938995747
 40
-0.2617993877991494
 40
1.832595714594046
  0
TABLESTYLE
  5
87
102
{ACAD_XDICTIONARY
360
104
102
}
102
{ACAD_REACTORS
330
86
102
}
330
86
100
AcDbTableStyle
280
     0
  3
Standard
 70
     0
 71
     0
 40
0.06
 41
0.06
280
     0
281
     0
  7
Standard
140
0.18
170
     2
 62
     0
 63
     7
283
     0
 90
      512
 91
        0
  1

274
    -2
284
     1
 64
     0
275
    -2
285
     1
 65
     0
276
    -2
286
     1
 66
     0
277
    -2
287
     1
 67
     0
278
    -2
288
     1
 68
     0
279
    -2
289
     1
 69
     0
  7
Standard
140
0.25
170
     5
 62
     0
 63
     7
283
     0
 90
      512
 91
        0
  1

274
    -2
284
     1
 64
     0
275
    -2
285
     1
 65
     0
276
    -2
286
     1
 66
     0
277
    -2
287
     1
 67
     0
278
    -2
288
     1
 68
     0
279
    -2
289
     1
 69
     0
  7
Standard
140
0.18
170
     5
 62
     0
 63
     7
283
     0
 90
      512
 91
        0
  1

274
    -2
284
     1
 64
     0
275
    -2
285
     1
 65
     0
276
    -2
286
     1
 66
     0
277
    -2
287
     1
 67
     0
278
    -2
288
     1
 68
     0
279
    -2
289
     1
 69
     0
  0
VISUALSTYLE
  5
9F
102
{ACAD_REACTORS
330
99
102
}
330
99
100
AcDbVisualStyle
  2
2dWireframe
 70
     4
177
     3
291
     0
 70
    58
 90
        0
176
     1
 90
        2
176
     1
 90
        1
176
     1
 90
        0
176
     1
 40
0.6
176
     1
 40
30.0
176
     1
 62
     7
420
 16777215
176
     1
 90
        1
176
     1
 90
        4
176
     1
 62
     7
176
     1
 62
   257
176
     1
 90
        1
176
     1
 90
        1
176
     1
 40
1.0
176
     1
 90
        0
176
     1
 62
   257
176
     1
 40
1.0
176
     1
 90
        1
176
     1
 90
        6
176
     1
 90
        2
176
     1
 62
     7
176
     1
 90
        5
176
     1
 90
        0
176
     1
 90
        0
176
     1
290
     0
176
     1
 90
        1
176
     1
 40
0.0
176
     1
 90
        0
176
     1
290
     1
176
     1
290
     1
176
     1
290
     0
176
     1
290
     0
176
     1
290
     0
176
     1
290
     0
176
     1
290
     0
176
     1
290
     0
176
     1
290
     0
176
     1
 90
       50
176
     1
 40
0.0
176
     1
 40
1.0
176
     1
 90
        0
176
     1
 62
    18
420
        0
176
     1
 90
       50
176
     1
 90
        3
176
     1
 62
     5
420
      255
176
     1
290
     0
176
     1
 90
       50
176
     1
 90
       50
176
     1
 90
       50
176
     1
290
     0
176
     1
 90
       50
176
     1
 62
   256
176
     0
 40
1.0
176
     0
 90
        2
176
     1
  1
strokes_ogs.tif
176
     1
290
     0
176
     1
 40
1.0
176
     1
 40
1.0
176
     1
  0
VISUALSTYLE
  5
9E
102
{ACAD_REACTORS
330
99
102
}
330
99
100
AcDbVisualStyle
  2
Basic
 70
     7
177
     3
291
     1
 70
    58
 90
        1
176
     1
 90
        0
176
     1
 90
        1
176
     1
 90
        0
176
     1
 40
0.6
176
     1
 40
30.0
176
     1
 62
     7
420
 16777215
176
     1
 90
        0
176
     1
 90
        4
176
     1
 62
     7
176
     1
 62
   257
176
     1
 90
        1
176
     1
 90
        1
176
     1
 40
1.0
176
     1
 90
        8
176
     1
 62
     7
176
     1
 40
1.0
176
     1
 90
        1
176
     1
 90
        6
176
     1
 90
        2
176
     1
 62
     7
176
     1
 90
        5
176
     1
 90
        0
176
     1
 90
        0
176
     1
290
     0
176
     1
 90
        1
176
     1
 40
0.0
176
     1
 90
        0
176
     1
290
     0
176
     1
290
     1
176
     1
290
     1
176
     1
290
     0
176
     1
290
     0
176
     1
290
     0
176
     1
290
     0
176
     1
290
     0
176
     1
290
     0
176
     1
 90
       50
176
     1
 40
0.0
176
     1
 40
1.0
176
     1
 90
        0
176
     1
 62
    18
420
        0
176
     1
 90
       50
176
     1
 90
        3
176
     1
 62
     5
420
      255
176
     1
290
     0
176
     1
 90
       50
176
     1
 90
       50
176
     1
 90
       50
176
     1
290
     0
176
     1
 90
       50
176
     1
 62
   256
176
     0
 40
1.0
176
     0
 90
        2
176
     1
  1
strokes_ogs.tif
176
     1
290
     0
176
     1
 40
1.0
176
     1
 40
1.0
176
     1
  0
VISUALSTYLE
  5
A5
102
{ACAD_REACTORS
330
99
102
}
330
99
100
AcDbVisualStyle
  2
Brighten
 70
    12
177
     3
291
     1
 70
    58
 90
        2
176
     1
 90
        2
176
     1
 90
        1
176
     1
 90
        0
176
     1
 40
0.6
176
     1
 40
30.0
176
     1
 62
     7
420
 16777215
176
     1
 90
        1
176
     1
 90
        4
176
     1
 62
     7
176
     1
 62
   257
176
     1
 90
        1
176
     1
 90
        1
176
     1
 40
1.0
176
     1
 90
        8
176
     1
 62
     7
176
     1
 40
1.0
176
     1
 90
        1
176
     1
 90
        6
176
     1
 90
        2
176
     1
 62
     7
176
     1
 90
        5
176
     1
 90
        0
176
     1
 90
        0
176
     1
290
     0
176
     1
 90
        1
176
     1
 40
50.0
176
     1
 90
        0
176
     1
290
     0
176
     1
290
     1
176
     1
290
     1
176
     1
290
     0
176
     1
290
     0
176
     1
290
     0
176
     1
290
     0
176
     1
290
     0
176
     1
290
     0
176
     1
 90
       50
176
     1
 40
0.0
176
     1
 40
1.0
176
     1
 90
        0
176
     1
 62
    18
420
        0
176
     1
 90
       50
176
     1
 90
        3
176
     1
 62
     5
420
      255
176
     1
290
     0
176
     1
 90
       50
176
     1
 90
       50
176
     1
 90
       50
176
     1
290
     0
176
     1
 90
       50
176
     1
 62
   256
176
     0
 40
1.0
176
     0
 90
        2
176
     1
  1
strokes_ogs.tif
176
     1
290
     0
176
     1
 40
1.0
176
     1
 40
1.0
176
     1
  0
VISUALSTYLE
  5
A9
102
{ACAD_REACTORS
330
99
102
}
330
99
100
AcDbVisualStyle
  2
ColorChange
 70
    16
177
     3
291
     1
 70
    58
 90
        2
176
     1
 90
        2
176
     1
 90
        3
176
     1
 90
        0
176
     1
 40
0.6
176
     1
 40
30.0
176
     1
 62
     8
420
  8421504
176
     1
 90
        1
176
     1
 90
        4
176
     1
 62
     7
176
     1
 62
   257
176
     1
 90
        1
176
     1
 90
        1
176
     1
 40
1.0
176
     1
 90
        8
176
     1
 62
     8
420
  8421504
176
     1
 40
1.0
176
     1
 90
        1
176
     1
 90
        6
176
     1
 90
        2
176
     1
 62
     7
176
     1
 90
        5
176
     1
 90
        0
176
     1
 90
        0
176
     1
290
     0
176
     1
 90
        1
176
     1
 40
0.0
176
     1
 90
        0
176
     1
290
     0
176
     1
290
     1
176
     1
290
     1
176
     1
290
     0
176
     1
290
     0
176
     1
290
     0
176
     1
290
     0
176
     1
290
     0
176
     1
290
     0
176
     1
 90
       50
176
     1
 40
0.0
176
     1
 40
1.0
176
     1
 90
        0
176
     1
 62
    18
420
        0
176
     1
 90
       50
176
     1
 90
        3
176
     1
 62
     5
420
      255
176
     1
290
     0
176
     1
 90
       50
176
     1
 90
       50
176
     1
 90
       50
176
     1
290
     0
176
     1
 90
       50
176
     1
 62
   256
176
     0
 40
1.0
176
     0
 90
        2
176
     1
  1
strokes_ogs.tif
176
     1
290
     0
176
     1
 40
1.0
176
     1
 40
1.0
176
     1
  0
VISUALSTYLE
  5
A2
102
{ACAD_REACTORS
330
99
102
}
330
99
100
AcDbVisualStyle
  2
Conceptual
 70
     9
177
     3
291
     0
 70
    58
 90
        3
176
     1
 90
        2
176
     1
 90
        1
176
     1
 90
        0
176
     1
 40
0.6
176
     1
 40
30.0
176
     1
 62
     7
420
 16777215
176
     1
 90
        2
176
     1
 90
        2
176
     1
 62
     7
176
     1
 62
   257
176
     1
 90
        1
176
     1
 90
        1
176
     1
 40
40.0
176
     1
 90
        8
176
     1
 62
     7
176
     1
 40
1.0
176
     1
 90
        1
176
     1
 90
        6
176
     1
 90
        2
176
     1
 62
     7
176
     1
 90
        3
176
     1
 90
        0
176
     1
 90
        0
176
     1
290
     0
176
     1
 90
        1
176
     1
 40
0.0
176
     1
 90
        0
176
     1
290
     0
176
     1
290
     1
176
     1
290
     1
176
     1
290
     0
176
     1
290
     0
176
     1
290
     0
176
     1
290
     0
176
     1
290
     0
176
     1
290
     0
176
     1
 90
       50
176
     1
 40
0.0
176
     1
 40
1.0
176
     1
 90
        0
176
     1
 62
    18
420
        0
176
     1
 90
       50
176
     1
 90
        3
176
     1
 62
     5
420
      255
176
     1
290
     0
176
     1
 90
       50
176
     1
 90
       50
176
     1
 90
       50
176
     1
290
     0
176
     1
 90
       50
176
     1
 62
   256
176
     0
 40
1.0
176
     0
 90
        2
176
     1
  1
strokes_ogs.tif
176
     1
290
     0
176
     1
 40
1.0
176
     1
 40
1.0
176
     1
  0
VISUALSTYLE
  5
A4
102
{ACAD_REACTORS
330
99
102
}
330
99
100
AcDbVisualStyle
  2
Dim
 70
    11
177
     3
291
     1
 70
    58
 90
        2
176
     1
 90
        2
176
     1
 90
        1
176
     1
 90
        0
176
     1
 40
0.6
176
     1
 40
30.0
176
     1
 62
     7
420
 16777215
176
     1
 90
        1
176
     1
 90
        4
176
     1
 62
     7
176
     1
 62
   257
176
     1
 90
        1
176
     1
 90
        1
176
     1
 40
1.0
176
     1
 90
        8
176
     1
 62
     7
176
     1
 40
1.0
176
     1
 90
        1
176
     1
 90
        6
176
     1
 90
        2
176
     1
 62
     7
176
     1
 90
        5
176
     1
 90
        0
176
     1
 90
        0
176
     1
290
     0
176
     1
 90
        1
176
     1
 40
-50.0
176
     1
 90
        0
176
     1
290
     0
176
     1
290
     1
176
     1
290
     1
176
     1
290
     0
176
     1
290
     0
176
     1
290
     0
176
     1
290
     0
176
     1
290
     0
176
     1
290
     0
176
     1
 90
       50
176
     1
 40
0.0
176
     1
 40
1.0
176
     1
 90
        0
176
     1
 62
    18
420
        0
176
     1
 90
       50
176
     1
 90
        3
176
     1
 62
     5
420
      255
176
     1
290
     0
176
     1
 90
       50
176
     1
 90
       50
176
     1
 90
       50
176
     1
290
     0
176
     1
 90
       50
176
     1
 62
   256
176
     0
 40
1.0
176
     0
 90
        2
176
     1
  1
strokes_ogs.tif
176
     1
290
     0
176
     1
 40
1.0
176
     1
 40
1.0
176
     1
  0
VISUALSTYLE
  5
175
102
{ACAD_REACTORS
330
99
102
}
330
99
100
AcDbVisualStyle
  2
EdgeColorOff
 70
    22
177
     3
291
     1
 70
    58
 90
        2
176
     0
 90
        2
176
     0
 90
        0
176
     0
 90
        0
176
     0
 40
0.6
176
     0
 40
30.0
176
     0
 62
     7
420
 16777215
176
     0
 90
        1
176
     0
 90
        4
176
     0
 62
     7
176
     0
 62
   257
176
     0
 90
        1
176
     0
 90
        1
176
     0
 40
1.0
176
     0
 90
        8
176
     2
 62
     7
176
     0
 40
1.0
176
     0
 90
        1
176
     0
 90
        6
176
     0
 90
        2
176
     0
 62
     7
176
     0
 90
        5
176
     0
 90
        0
176
     0
 90
        0
176
     0
290
     0
176
     0
 90
        1
176
     0
 40
0.0
176
     0
 90
        0
176
     0
290
     0
176
     1
290
     1
176
     1
290
     1
176
     1
290
     0
176
     1
290
     0
176
     1
290
     0
176
     1
290
     0
176
     1
290
     0
176
     1
290
     0
176
     1
 90
       50
176
     1
 40
0.0
176
     1
 40
1.0
176
     1
 90
        0
176
     1
 62
    18
420
        0
176
     1
 90
       50
176
     1
 90
        3
176
     1
 62
     5
420
      255
176
     1
290
     0
176
     1
 90
       50
176
     1
 90
       50
176
     1
 90
       50
176
     1
290
     0
176
     1
 90
       50
176
     1
 62
   256
176
     0
 40
1.0
176
     0
 90
        2
176
     1
  1
strokes_ogs.tif
176
     1
290
     0
176
     1
 40
1.0
176
     1
 40
1.0
176
     1
  0
VISUALSTYLE
  5
A8
102
{ACAD_REACTORS
330
99
102
}
330
99
100
AcDbVisualStyle
  2
Facepattern
 70
    15
177
     3
291
     1
 70
    58
 90
        2
176
     1
 90
        2
176
     1
 90
        1
176
     1
 90
        0
176
     1
 40
0.6
176
     1
 40
30.0
176
     1
 62
     7
420
 16777215
176
     1
 90
        1
176
     1
 90
        4
176
     1
 62
     7
176
     1
 62
   257
176
     1
 90
        1
176
     1
 90
        1
176
     1
 40
1.0
176
     1
 90
        8
176
     1
 62
     7
176
     1
 40
1.0
176
     1
 90
        1
176
     1
 90
        6
176
     1
 90
        2
176
     1
 62
     7
176
     1
 90
        5
176
     1
 90
        0
176
     1
 90
        0
176
     1
290
     0
176
     1
 90
        1
176
     1
 40
0.0
176
     1
 90
        0
176
     1
290
     0
176
     1
290
     1
176
     1
290
     1
176
     1
290
     0
176
     1
290
     0
176
     1
290
     0
176
     1
290
     0
176
     1
290
     0
176
     1
290
     0
176
     1
 90
       50
176
     1
 40
0.0
176
     1
 40
1.0
176
     1
 90
        0
176
     1
 62
    18
420
        0
176
     1
 90
       50
176
     1
 90
        3
176
     1
 62
     5
420
      255
176
     1
290
     0
176
     1
 90
       50
176
     1
 90
       50
176
     1
 90
       50
176
     1
290
     0
176
     1
 90
       50
176
     1
 62
   256
176
     0
 40
1.0
176
     0
 90
        2
176
     1
  1
strokes_ogs.tif
176
     1
290
     0
176
     1
 40
1.0
176
     1
 40
1.0
176
     1
  0
VISUALSTYLE
  5
9A
102
{ACAD_REACTORS
330
99
102
}
330
99
100
AcDbVisualStyle
  2
Flat
 70
     0
177
     3
291
     1
 70
    58
 90
        2
176
     1
 90
        1
176
     1
 90
        1
176
     1
 90
        2
176
     1
 40
0.6
176
     1
 40
30.0
176
     1
 62
     7
420
 16777215
176
     1
 90
        0
176
     1
 90
        0
176
     1
 62
     7
176
     1
 62
   257
176
     1
 90
        1
176
     1
 90
        1
176
     1
 40
1.0
176
     1
 90
        8
176
     1
 62
     7
176
     1
 40
1.0
176
     1
 90
        1
176
     1
 90
        6
176
     1
 90
        2
176
     1
 62
     7
176
     1
 90
        5
176
     1
 90
        0
176
     1
 90
        0
176
     1
290
     0
176
     1
 90
       13
176
     1
 40
0.0
176
     1
 90
        0
176
     1
290
     0
176
     1
290
     1
176
     1
290
     1
176
     1
290
     0
176
     1
290
     0
176
     1
290
     0
176
     1
290
     0
176
     1
290
     0
176
     1
290
     0
176
     1
 90
       50
176
     1
 40
0.0
176
     1
 40
1.0
176
     1
 90
        0
176
     1
 62
    18
420
        0
176
     1
 90
       50
176
     1
 90
        3
176
     1
 62
     5
420
      255
176
     1
290
     0
176
     1
 90
       50
176
     1
 90
       50
176
     1
 90
       50
176
     1
290
     0
176
     1
 90
       50
176
     1
 62
   256
176
     0
 40
1.0
176
     0
 90
        2
176
     1
  1
strokes_ogs.tif
176
     1
290
     0
176
     1
 40
1.0
176
     1
 40
1.0
176
     1
  0
VISUALSTYLE
  5
9B
102
{ACAD_REACTORS
330
99
102
}
330
99
100
AcDbVisualStyle
  2
FlatWithEdges
 70
     1
177
     3
291
     1
 70
    58
 90
        2
176
     1
 90
        1
176
     1
 90
        1
176
     1
 90
        2
176
     1
 40
0.6
176
     1
 40
30.0
176
     1
 62
     7
420
 16777215
176
     1
 90
        1
176
     1
 90
        0
176
     1
 62
     7
176
     1
 62
   257
176
     1
 90
        1
176
     1
 90
        1
176
     1
 40
1.0
176
     1
 90
        0
176
     1
 62
   257
176
     1
 40
1.0
176
     1
 90
        1
176
     1
 90
        6
176
     1
 90
        2
176
     1
 62
     7
176
     1
 90
        5
176
     1
 90
        0
176
     1
 90
        0
176
     1
290
     0
176
     1
 90
       13
176
     1
 40
0.0
176
     1
 90
        0
176
     1
290
     0
176
     1
290
     1
176
     1
290
     1
176
     1
290
     0
176
     1
290
     0
176
     1
290
     0
176
     1
290
     0
176
     1
290
     0
176
     1
290
     0
176
     1
 90
       50
176
     1
 40
0.0
176
     1
 40
1.0
176
     1
 90
        0
176
     1
 62
    18
420
        0
176
     1
 90
       50
176
     1
 90
        3
176
     1
 62
     5
420
      255
176
     1
290
     0
176
     1
 90
       50
176
     1
 90
       50
176
     1
 90
       50
176
     1
290
     0
176
     1
 90
       50
176
     1
 62
   256
176
     0
 40
1.0
176
     0
 90
        2
176
     1
  1
strokes_ogs.tif
176
     1
290
     0
176
     1
 40
1.0
176
     1
 40
1.0
176
     1
  0
VISUALSTYLE
  5
9C
102
{ACAD_REACTORS
330
99
102
}
330
99
100
AcDbVisualStyle
  2
Gouraud
 70
     2
177
     3
291
     1
 70
    58
 90
        2
176
     1
 90
        2
176
     1
 90
        1
176
     1
 90
        2
176
     1
 40
0.6
176
     1
 40
30.0
176
     1
 62
     7
420
 16777215
176
     1
 90
        0
176
     1
 90
        0
176
     1
 62
     7
176
     1
 62
   257
176
     1
 90
        1
176
     1
 90
        1
176
     1
 40
1.0
176
     1
 90
        0
176
     1
 62
     7
176
     1
 40
1.0
176
     1
 90
        1
176
     1
 90
        6
176
     1
 90
        2
176
     1
 62
     7
176
     1
 90
        5
176
     1
 90
        0
176
     1
 90
        0
176
     1
290
     0
176
     1
 90
       13
176
     1
 40
0.0
176
     1
 90
        0
176
     1
290
     0
176
     1
290
     1
176
     1
290
     1
176
     1
290
     0
176
     1
290
     0
176
     1
290
     0
176
     1
290
     0
176
     1
290
     0
176
     1
290
     0
176
     1
 90
       50
176
     1
 40
0.0
176
     1
 40
1.0
176
     1
 90
        0
176
     1
 62
    18
420
        0
176
     1
 90
       50
176
     1
 90
        3
176
     1
 62
     5
420
      255
176
     1
290
     0
176
     1
 90
       50
176
     1
 90
       50
176
     1
 90
       50
176
     1
290
     0
176
     1
 90
       50
176
     1
 62
   256
176
     0
 40
1.0
176
     0
 90
        2
176
     1
  1
strokes_ogs.tif
176
     1
290
     0
176
     1
 40
1.0
176
     1
 40
1.0
176
     1
  0
VISUALSTYLE
  5
9D
102
{ACAD_REACTORS
330
99
102
}
330
99
100
AcDbVisualStyle
  2
GouraudWithEdges
 70
     3
177
     3
291
     1
 70
    58
 90
        2
176
     1
 90
        2
176
     1
 90
        1
176
     1
 90
        2
176
     1
 40
0.6
176
     1
 40
30.0
176
     1
 62
     7
420
 16777215
176
     1
 90
        1
176
     1
 90
        0
176
     1
 62
     7
176
     1
 62
   257
176
     1
 90
        1
176
     1
 90
        1
176
     1
 40
1.0
176
     1
 90
        0
176
     1
 62
   257
176
     1
 40
1.0
176
     1
 90
        1
176
     1
 90
        6
176
     1
 90
        2
176
     1
 62
     7
176
     1
 90
        5
176
     1
 90
        0
176
     1
 90
        0
176
     1
290
     0
176
     1
 90
       13
176
     1
 40
0.0
176
     1
 90
        0
176
     1
290
     0
176
     1
290
     1
176
     1
290
     1
176
     1
290
     0
176
     1
290
     0
176
     1
290
     0
176
     1
290
     0
176
     1
290
     0
176
     1
290
     0
176
     1
 90
       50
176
     1
 40
0.0
176
     1
 40
1.0
176
     1
 90
        0
176
     1
 62
    18
420
        0
176
     1
 90
       50
176
     1
 90
        3
176
     1
 62
     5
420
      255
176
     1
290
     0
176
     1
 90
       50
176
     1
 90
       50
176
     1
 90
       50
176
     1
290
     0
176
     1
 90
       50
176
     1
 62
   256
176
     0
 40
1.0
176
     0
 90
        2
176
     1
  1
strokes_ogs.tif
176
     1
290
     0
176
     1
 40
1.0
176
     1
 40
1.0
176
     1
  0
VISUALSTYLE
  5
A1
102
{ACAD_REACTORS
330
99
102
}
330
99
100
AcDbVisualStyle
  2
Hidden
 70
     6
177
     3
291
     0
 70
    58
 90
        1
176
     1
 90
        2
176
     1
 90
        2
176
     1
 90
        0
176
     1
 40
0.6
176
     1
 40
30.0
176
     1
 62
     7
420
 16777215
176
     1
 90
        2
176
     1
 90
        2
176
     1
 62
     7
176
     1
 62
   257
176
     1
 90
        2
176
     1
 90
        1
176
     1
 40
40.0
176
     1
 90
        0
176
     1
 62
   257
176
     1
 40
1.0
176
     1
 90
        1
176
     1
 90
        6
176
     1
 90
        2
176
     1
 62
     7
176
     1
 90
        3
176
     1
 90
        0
176
     1
 90
        0
176
     1
290
     0
176
     1
 90
        1
176
     1
 40
0.0
176
     1
 90
        0
176
     1
290
     0
176
     1
290
     1
176
     1
290
     1
176
     1
290
     0
176
     1
290
     0
176
     1
290
     0
176
     1
290
     0
176
     1
290
     0
176
     1
290
     0
176
     1
 90
       50
176
     1
 40
0.0
176
     1
 40
1.0
176
     1
 90
        0
176
     1
 62
    18
420
        0
176
     1
 90
       50
176
     1
 90
        3
176
     1
 62
     5
420
      255
176
     1
290
     0
176
     1
 90
       50
176
     1
 90
       50
176
     1
 90
       50
176
     1
290
     0
176
     1
 90
       50
176
     1
 62
   256
176
     0
 40
1.0
176
     0
 90
        2
176
     1
  1
strokes_ogs.tif
176
     1
290
     0
176
     1
 40
1.0
176
     1
 40
1.0
176
     1
  0
VISUALSTYLE
  5
173
102
{ACAD_REACTORS
330
99
102
}
330
99
100
AcDbVisualStyle
  2
JitterOff
 70
    20
177
     3
291
     1
 70
    58
 90
        2
176
     0
 90
        2
176
     0
 90
        0
176
     0
 90
        0
176
     0
 40
0.6
176
     0
 40
30.0
176
     0
 62
     7
420
 16777215
176
     0
 90
        1
176
     0
 90
        4
176
     0
 62
     7
176
     0
 62
   257
176
     0
 90
        1
176
     0
 90
        1
176
     0
 40
1.0
176
     0
 90
       10
176
     2
 62
     7
176
     0
 40
1.0
176
     0
 90
        1
176
     0
 90
        6
176
     0
 90
        2
176
     0
 62
     7
176
     0
 90
        5
176
     0
 90
        0
176
     0
 90
        0
176
     0
290
     0
176
     0
 90
        1
176
     0
 40
0.0
176
     0
 90
        0
176
     0
290
     0
176
     1
290
     1
176
     1
290
     1
176
     1
290
     0
176
     1
290
     0
176
     1
290
     0
176
     1
290
     0
176
     1
290
     0
176
     1
290
     0
176
     1
 90
       50
176
     1
 40
0.0
176
     1
 40
1.0
176
     1
 90
        0
176
     1
 62
    18
420
        0
176
     1
 90
       50
176
     1
 90
        3
176
     1
 62
     5
420
      255
176
     1
290
     0
176
     1
 90
       50
176
     1
 90
       50
176
     1
 90
       50
176
     1
290
     0
176
     1
 90
       50
176
     1
 62
   256
176
     0
 40
1.0
176
     0
 90
        2
176
     1
  1
strokes_ogs.tif
176
     1
290
     0
176
     1
 40
1.0
176
     1
 40
1.0
176
     1
  0
VISUALSTYLE
  5
A7
102
{ACAD_REACTORS
330
99
102
}
330
99
100
AcDbVisualStyle
  2
Linepattern
 70
    14
177
     3
291
     1
 70
    58
 90
        2
176
     1
 90
        2
176
     1
 90
        1
176
     1
 90
        0
176
     1
 40
0.6
176
     1
 40
30.0
176
     1
 62
     7
420
 16777215
176
     1
 90
        1
176
     1
 90
        4
176
     1
 62
     7
176
     1
 62
   257
176
     1
 90
        7
176
     1
 90
        7
176
     1
 40
1.0
176
     1
 90
        8
176
     1
 62
     7
176
     1
 40
1.0
176
     1
 90
        1
176
     1
 90
        6
176
     1
 90
        2
176
     1
 62
     7
176
     1
 90
        5
176
     1
 90
        0
176
     1
 90
        0
176
     1
290
     0
176
     1
 90
        1
176
     1
 40
0.0
176
     1
 90
        0
176
     1
290
     0
176
     1
290
     1
176
     1
290
     1
176
     1
290
     0
176
     1
290
     0
176
     1
290
     0
176
     1
290
     0
176
     1
290
     0
176
     1
290
     0
176
     1
 90
       50
176
     1
 40
0.0
176
     1
 40
1.0
176
     1
 90
        0
176
     1
 62
    18
420
        0
176
     1
 90
       50
176
     1
 90
        3
176
     1
 62
     5
420
      255
176
     1
290
     0
176
     1
 90
       50
176
     1
 90
       50
176
     1
 90
       50
176
     1
290
     0
176
     1
 90
       50
176
     1
 62
   256
176
     0
 40
1.0
176
     0
 90
        2
176
     1
  1
strokes_ogs.tif
176
     1
290
     0
176
     1
 40
1.0
176
     1
 40
1.0
176
     1
  0
VISUALSTYLE
  5
174
102
{ACAD_REACTORS
330
99
102
}
330
99
100
AcDbVisualStyle
  2
OverhangOff
 70
    21
177
     3
291
     1
 70
    58
 90
        2
176
     0
 90
        2
176
     0
 90
        0
176
     0
 90
        0
176
     0
 40
0.6
176
     0
 40
30.0
176
     0
 62
     7
420
 16777215
176
     0
 90
        1
176
     0
 90
        4
176
     0
 62
     7
176
     0
 62
   257
176
     0
 90
        1
176
     0
 90
        1
176
     0
 40
1.0
176
     0
 90
        9
176
     2
 62
     7
176
     0
 40
1.0
176
     0
 90
        1
176
     0
 90
        6
176
     0
 90
        2
176
     0
 62
     7
176
     0
 90
        5
176
     0
 90
        0
176
     0
 90
        0
176
     0
290
     0
176
     0
 90
        1
176
     0
 40
0.0
176
     0
 90
        0
176
     0
290
     0
176
     1
290
     1
176
     1
290
     1
176
     1
290
     0
176
     1
290
     0
176
     1
290
     0
176
     1
290
     0
176
     1
290
     0
176
     1
290
     0
176
     1
 90
       50
176
     1
 40
0.0
176
     1
 40
1.0
176
     1
 90
        0
176
     1
 62
    18
420
        0
176
     1
 90
       50
176
     1
 90
        3
176
     1
 62
     5
420
      255
176
     1
290
     0
176
     1
 90
       50
176
     1
 90
       50
176
     1
 90
       50
176
     1
290
     0
176
     1
 90
       50
176
     1
 62
   256
176
     0
 40
1.0
176
     0
 90
        2
176
     1
  1
strokes_ogs.tif
176
     1
290
     0
176
     1
 40
1.0
176
     1
 40
1.0
176
     1
  0
VISUALSTYLE
  5
A3
102
{ACAD_REACTORS
330
99
102
}
330
99
100
AcDbVisualStyle
  2
Realistic
 70
     8
177
     3
291
     0
 70
    58
 90
        2
176
     1
 90
        3
176
     1
 90
        0
176
     1
 90
        2
176
     1
 40
0.6
176
     1
 40
30.0
176
     1
 62
     7
420
 16777215
176
     1
 90
        0
176
     1
 90
        0
176
     1
 62
     7
176
     1
 62
   257
176
     1
 90
        1
176
     1
 90
        1
176
     1
 40
1.0
176
     1
 90
        8
176
     1
 62
   257
176
     1
 40
1.0
176
     1
 90
        1
176
     1
 90
        6
176
     1
 90
        2
176
     1
 62
     7
176
     1
 90
        3
176
     1
 90
        0
176
     1
 90
        0
176
     1
290
     0
176
     1
 90
       13
176
     1
 40
0.0
176
     1
 90
        0
176
     1
290
     0
176
     1
290
     1
176
     1
290
     1
176
     1
290
     0
176
     1
290
     0
176
     1
290
     0
176
     1
290
     0
176
     1
290
     0
176
     1
290
     0
176
     1
 90
       50
176
     1
 40
0.0
176
     1
 40
1.0
176
     1
 90
        0
176
     1
 62
    18
420
        0
176
     1
 90
       50
176
     1
 90
        3
176
     1
 62
     5
420
      255
176
     1
290
     0
176
     1
 90
       50
176
     1
 90
       50
176
     1
 90
       50
176
     1
290
     0
176
     1
 90
       50
176
     1
 62
   256
176
     0
 40
1.0
176
     0
 90
        2
176
     1
  1
strokes_ogs.tif
176
     1
290
     0
176
     1
 40
1.0
176
     1
 40
1.0
176
     1
  0
VISUALSTYLE
  5
182
102
{ACAD_REACTORS
330
99
102
}
330
99
100
AcDbVisualStyle
  2
Shaded
 70
    27
177
     3
291
     0
 70
    58
 90
        2
176
     1
 90
        2
176
     1
 90
        1
176
     1
 90
        2
176
     1
 40
0.6
176
     1
 40
30.0
176
     1
 62
     7
420
 16777215
176
     1
 90
        0
176
     1
 90
        4
176
     1
 62
     7
176
     1
 62
   257
176
     1
 90
        1
176
     1
 90
        1
176
     1
 40
1.0
176
     1
 90
        8
176
     1
 62
   257
176
     1
 40
1.0
176
     1
 90
        1
176
     1
 90
        6
176
     1
 90
        2
176
     1
 62
     8
420
  7895160
176
     1
 90
        3
176
     1
 90
        0
176
     1
 90
        0
176
     1
290
     0
176
     1
 90
        5
176
     1
 40
0.0
176
     1
 90
        0
176
     1
290
     0
176
     1
290
     1
176
     1
290
     1
176
     1
290
     0
176
     1
290
     0
176
     1
290
     0
176
     1
290
     0
176
     1
290
     0
176
     1
290
     0
176
     1
 90
       50
176
     1
 40
0.0
176
     1
 40
1.0
176
     1
 90
        0
176
     1
 62
    18
420
        0
176
     1
 90
       50
176
     1
 90
        3
176
     1
 62
     5
420
      255
176
     1
290
     0
176
     1
 90
       50
176
     1
 90
       50
176
     1
 90
       50
176
     1
290
     0
176
     1
 90
       50
176
     1
 62
   256
176
     0
 40
1.0
176
     0
 90
        2
176
     1
  1
strokes_ogs.tif
176
     1
290
     0
176
     1
 40
1.0
176
     1
 40
1.0
176
     1
  0
VISUALSTYLE
  5
181
102
{ACAD_REACTORS
330
99
102
}
330
99
100
AcDbVisualStyle
  2
Shaded with edges
 70
    26
177
     3
291
     0
 70
    58
 90
        2
176
     1
 90
        2
176
     1
 90
        1
176
     1
 90
        2
176
     1
 40
0.6
176
     1
 40
30.0
176
     1
 62
     7
420
 16777215
176
     1
 90
        1
176
     1
 90
        2
176
     1
 62
     7
176
     1
 62
   257
176
     1
 90
        2
176
     1
 90
        1
176
     1
 40
1.0
176
     1
 90
        8
176
     1
 62
   257
176
     1
 40
1.0
176
     1
 90
        1
176
     1
 90
        6
176
     1
 90
        2
176
     1
 62
     7
176
     1
 90
        3
176
     1
 90
        0
176
     1
 90
        0
176
     1
290
     0
176
     1
 90
        5
176
     1
 40
0.0
176
     1
 90
        0
176
     1
290
     0
176
     1
290
     1
176
     1
290
     1
176
     1
290
     0
176
     1
290
     0
176
     1
290
     0
176
     1
290
     0
176
     1
290
     0
176
     1
290
     0
176
     1
 90
       50
176
     1
 40
0.0
176
     1
 40
1.0
176
     1
 90
        0
176
     1
 62
    18
420
        0
176
     1
 90
       50
176
     1
 90
        3
176
     1
 62
     5
420
      255
176
     1
290
     0
176
     1
 90
       50
176
     1
 90
       50
176
     1
 90
       50
176
     1
290
     0
176
     1
 90
       50
176
     1
 62
   256
176
     0
 40
1.0
176
     0
 90
        2
176
     1
  1
strokes_ogs.tif
176
     1
290
     0
176
     1
 40
1.0
176
     1
 40
1.0
176
     1
  0
VISUALSTYLE
  5
17E
102
{ACAD_REACTORS
330
99
102
}
330
99
100
AcDbVisualStyle
  2
Shades of Gray
 70
    23
177
     3
291
     0
 70
    58
 90
        2
176
     1
 90
        2
176
     1
 90
        3
176
     1
 90
        0
176
     1
 40
0.6
176
     1
 40
30.0
176
     1
 62
     7
420
 16777215
176
     1
 90
        2
176
     1
 90
        2
176
     1
 62
     7
176
     1
 62
     7
176
     1
 90
        1
176
     1
 90
        1
176
     1
 40
40.0
176
     1
 90
        8
176
     1
 62
     7
176
     1
 40
1.0
176
     1
 90
        1
176
     1
 90
        6
176
     1
 90
        2
176
     1
 62
     7
176
     1
 90
        3
176
     1
 90
        0
176
     1
 90
        0
176
     1
290
     0
176
     1
 90
        1
176
     1
 40
0.0
176
     1
 90
        0
176
     1
290
     0
176
     1
290
     1
176
     1
290
     1
176
     1
290
     0
176
     1
290
     0
176
     1
290
     0
176
     1
290
     0
176
     1
290
     0
176
     1
290
     0
176
     1
 90
       50
176
     1
 40
0.0
176
     1
 40
1.0
176
     1
 90
        0
176
     1
 62
    18
420
        0
176
     1
 90
       50
176
     1
 90
        3
176
     1
 62
     5
420
      255
176
     1
290
     0
176
     1
 90
       50
176
     1
 90
       50
176
     1
 90
       50
176
     1
290
     0
176
     1
 90
       50
176
     1
 62
   256
176
     0
 40
1.0
176
     0
 90
        2
176
     1
  1
strokes_ogs.tif
176
     1
290
     0
176
     1
 40
1.0
176
     1
 40
1.0
176
     1
  0
VISUALSTYLE
  5
17F
102
{ACAD_REACTORS
330
99
102
}
330
99
100
AcDbVisualStyle
  2
Sketchy
 70
    24
177
     3
291
     0
 70
    58
 90
        1
176
     1
 90
        2
176
     1
 90
        2
176
     1
 90
        0
176
     1
 40
0.6
176
     1
 40
30.0
176
     1
 62
     7
420
 16777215
176
     1
 90
        2
176
     1
 90
        2
176
     1
 62
     7
176
     1
 62
     7
176
     1
 90
        1
176
     1
 90
        1
176
     1
 40
40.0
176
     1
 90
       11
176
     1
 62
     7
176
     1
 40
1.0
176
     1
 90
        1
176
     1
 90
        6
176
     1
 90
        2
176
     1
 62
     7
176
     1
 90
        6
176
     1
 90
        0
176
     1
 90
        0
176
     1
290
     0
176
     1
 90
        1
176
     1
 40
0.0
176
     1
 90
        0
176
     1
290
     0
176
     1
290
     1
176
     1
290
     1
176
     1
290
     0
176
     1
290
     0
176
     1
290
     0
176
     1
290
     0
176
     1
290
     0
176
     1
290
     0
176
     1
 90
       50
176
     1
 40
0.0
176
     1
 40
1.0
176
     1
 90
        0
176
     1
 62
    18
420
        0
176
     1
 90
       50
176
     1
 90
        3
176
     1
 62
     5
420
      255
176
     1
290
     0
176
     1
 90
       50
176
     1
 90
       50
176
     1
 90
       50
176
     1
290
     0
176
     1
 90
       50
176
     1
 62
   256
176
     0
 40
1.0
176
     0
 90
        2
176
     1
  1
strokes_ogs.tif
176
     1
290
     0
176
     1
 40
1.0
176
     1
 40
1.0
176
     1
  0
VISUALSTYLE
  5
A6
102
{ACAD_REACTORS
330
99
102
}
330
99
100
AcDbVisualStyle
  2
Thicken
 70
    13
177
     3
291
     1
 70
    58
 90
        2
176
     1
 90
        2
176
     1
 90
        1
176
     1
 90
        0
176
     1
 40
0.6
176
     1
 40
30.0
176
     1
 62
     7
420
 16777215
176
     1
 90
        1
176
     1
 90
        4
176
     1
 62
     7
176
     1
 62
   257
176
     1
 90
        1
176
     1
 90
        1
176
     1
 40
1.0
176
     1
 90
       12
176
     1
 62
     7
176
     1
 40
1.0
176
     1
 90
        1
176
     1
 90
        6
176
     1
 90
        2
176
     1
 62
     7
176
     1
 90
        5
176
     1
 90
        0
176
     1
 90
        0
176
     1
290
     0
176
     1
 90
        1
176
     1
 40
0.0
176
     1
 90
        0
176
     1
290
     0
176
     1
290
     1
176
     1
290
     1
176
     1
290
     0
176
     1
290
     0
176
     1
290
     0
176
     1
290
     0
176
     1
290
     0
176
     1
290
     0
176
     1
 90
       50
176
     1
 40
0.0
176
     1
 40
1.0
176
     1
 90
        0
176
     1
 62
    18
420
        0
176
     1
 90
       50
176
     1
 90
        3
176
     1
 62
     5
420
      255
176
     1
290
     0
176
     1
 90
       50
176
     1
 90
       50
176
     1
 90
       50
176
     1
290
     0
176
     1
 90
       50
176
     1
 62
   256
176
     0
 40
1.0
176
     0
 90
        2
176
     1
  1
strokes_ogs.tif
176
     1
290
     0
176
     1
 40
1.0
176
     1
 40
1.0
176
     1
  0
VISUALSTYLE
  5
A0
102
{ACAD_REACTORS
330
99
102
}
330
99
100
AcDbVisualStyle
  2
Wireframe
 70
     5
177
     3
291
     0
 70
    58
 90
        0
176
     1
 90
        2
176
     1
 90
        0
176
     1
 90
        0
176
     1
 40
0.6
176
     1
 40
30.0
176
     1
 62
     7
420
 16777215
176
     1
 90
        1
176
     1
 90
        4
176
     1
 62
     7
176
     1
 62
   257
176
     1
 90
        1
176
     1
 90
        1
176
     1
 40
1.0
176
     1
 90
        0
176
     1
 62
   257
176
     1
 40
1.0
176
     1
 90
        1
176
     1
 90
        6
176
     1
 90
        2
176
     1
 62
     7
176
     1
 90
        3
176
     1
 90
        0
176
     1
 90
        0
176
     1
290
     0
176
     1
 90
        1
176
     1
 40
0.0
176
     1
 90
        0
176
     1
290
     0
176
     1
290
     1
176
     1
290
     1
176
     1
290
     0
176
     1
290
     0
176
     1
290
     0
176
     1
290
     0
176
     1
290
     0
176
     1
290
     0
176
     1
 90
       50
176
     1
 40
0.0
176
     1
 40
1.0
176
     1
 90
        0
176
     1
 62
    18
420
        0
176
     1
 90
       50
176
     1
 90
        3
176
     1
 62
     5
420
      255
176
     1
290
     0
176
     1
 90
       50
176
     1
 90
       50
176
     1
 90
       50
176
     1
290
     0
176
     1
 90
       50
176
     1
 62
   256
176
     0
 40
1.0
176
     0
 90
        2
176
     1
  1
strokes_ogs.tif
176
     1
290
     0
176
     1
 40
1.0
176
     1
 40
1.0
176
     1
  0
VISUALSTYLE
  5
180
102
{ACAD_REACTORS
330
99
102
}
330
99
100
AcDbVisualStyle
  2
X-Ray
 70
    25
177
     3
291
     0
 70
    58
 90
        2
176
     1
 90
        2
176
     1
 90
        1
176
     1
 90
        1
176
     1
 40
0.5
176
     1
 40
30.0
176
     1
 62
     7
420
 16777215
176
     1
 90
        1
176
     1
 90
        0
176
     1
 62
     7
176
     1
 62
   257
176
     1
 90
        1
176
     1
 90
        1
176
     1
 40
1.0
176
     1
 90
        8
176
     1
 62
     7
176
     1
 40
1.0
176
     1
 90
        1
176
     1
 90
        6
176
     1
 90
        2
176
     1
 62
     7
176
     1
 90
        3
176
     1
 90
        0
176
     1
 90
        0
176
     1
290
     0
176
     1
 90
       13
176
     1
 40
0.0
176
     1
 90
        0
176
     1
290
     0
176
     1
290
     1
176
     1
290
     1
176
     1
290
     0
176
     1
290
     0
176
     1
290
     0
176
     1
290
     0
176
     1
290
     0
176
     1
290
     0
176
     1
 90
       50
176
     1
 40
0.0
176
     1
 40
1.0
176
     1
 90
        0
176
     1
 62
    18
420
        0
176
     1
 90
       50
176
     1
 90
        3
176
     1
 62
     5
420
      255
176
     1
290
     0
176
     1
 90
       50
176
     1
 90
       50
176
     1
 90
       50
176
     1
290
     0
176
     1
 90
       50
176
     1
 62
   256
176
     0
 40
1.0
176
     0
 90
        2
176
     1
  1
strokes_ogs.tif
176
     1
290
     0
176
     1
 40
1.0
176
     1
 40
1.0
176
     1
  0
DICTIONARYVAR
  5
F0
102
{ACAD_REACTORS
330
66
102
}
330
66
100
DictionaryVariables
280
     0
  1
1:1
  0
DICTIONARYVAR
  5
EF
102
{ACAD_REACTORS
330
66
102
}
330
66
100
DictionaryVariables
280
     0
  1
STANDARD
  0
DICTIONARYVAR
  5
89
102
{ACAD_REACTORS
330
66
102
}
330
66
100
DictionaryVariables
280
     0
  1
STANDARD
  0
DICTIONARYVAR
  5
1B7
102
{ACAD_REACTORS
330
66
102
}
330
66
100
DictionaryVariables
280
     0
  1
Imperial24
  0
DICTIONARYVAR
  5
1B8
102
{ACAD_REACTORS
330
66
102
}
330
66
100
DictionaryVariables
280
     0
  1
Imperial24
  0
DICTIONARYVAR
  5
67
102
{ACAD_REACTORS
330
66
102
}
330
66
100
DictionaryVariables
280
     0
  1
2
  0
DICTIONARYVAR
  5
6B
102
{ACAD_REACTORS
330
66
102
}
330
66
100
DictionaryVariables
280
     0
  1
1
  0
DICTIONARYVAR
  5
426
102
{ACAD_REACTORS
330
66
102
}
330
66
100
DictionaryVariables
280
     0
  1
11
  0
DICTIONARYVAR
  5
42F
102
{ACAD_REACTORS
330
66
102
}
330
66
100
DictionaryVariables
280
     0
  1
ByLayer
  0
DICTIONARYVAR
  5
14D
102
{ACAD_REACTORS
330
66
102
}
330
66
100
DictionaryVariables
280
     0
  1
0
  0
DICTIONARYVAR
  5
14E
102
{ACAD_REACTORS
330
66
102
}
330
66
100
DictionaryVariables
280
     0
  1
0
  0
DICTIONARY
  5
194
330
22
100
AcDbDictionary
280
     1
281
     1
  0
DICTIONARY
  5
188
330
97
100
AcDbDictionary
280
     1
281
     1
  3
FBXASSET
360
189
  0
DICTIONARY
  5
186
330
96
100
AcDbDictionary
280
     1
281
     1
  3
FBXASSET
360
187
  0
DICTIONARY
  5
110
330
98
100
AcDbDictionary
280
     1
281
     1
  3
BUMPTILE
360
112
  3
DIFFUSETILE
360
111
  3
FBXASSET
360
18A
  3
OPACITYTILE
360
113
  3
REFLECTIONTILE
360
114
  0
DICTIONARY
  5
104
330
87
100
AcDbDictionary
280
     1
281
     1
  3
ACAD_ROUNDTRIP_2008_TABLESTYLE_CELLSTYLEMAP
360
D2A
  0
XRECORD
  5
189
102
{ACAD_REACTORS
330
188
102
}
330
188
100
AcDbXrecord
280
     1
 70
     1
 90
429727718
  1
508B35C9-AEE7-456F-BE74-D52651303AC6
310
504B03040A0000080000B670623B3DEE336E79000000790000001B0000006175746F6465736B2D64657369676E2D7061636B6167652E786D6C3C3F786D6C2076657273696F6E3D22312E302220656E636F64696E673D227574662D3822203F3E3C666F726D6174733E3C666F726D61743E687474703A2F2F736368656D612E
310
6175746F6465736B2E636F6D2F64657369676E2D7061636B6167652F323030393C2F666F726D61743E3C2F666F726D6174733E504B0304140006080800B670623BD486FD9CA0000000F4000000130000005B436F6E74656E745F54797065735D2E786D6C7D8EC10E82300C865F65E91D8A1E8C310C0EEA1BF002731658846E
310
D98AC1B77784ABF1D8FE5FBFBF75BBCE937A534CCEB38643598122B6FEE978D0B0485F9C41B54DDD7D022595594E1A469170414C76A4D9A4D207E29CF43ECE46F218070CC6BECC4078ACAA135ACF422C856C0E68EA1BF5669944DDD7BCDE7B1F8E415D77AECB980613C2E4AC91FC167A2B244592486606FC29C8FD7F045B9A
310
EF7053A7E60B504B0304140006080800B670623B28ED286BEB0000007C01000008000000636F72652E786D6C8D90416EC3201045AF82665B6183218D6D61A254764FD00B204C5C94182C03558F5F9C3852BBEB6A467FFE9B197D71FA9E6FE8CBACC17AD7012D0820E3B41FAD9B3A48F1826B40272956EFE32F1B20A766D3C1
310
268314D3EAD3B24BDABB685CCCAAF3A3D94515828980F42D371D04FD696655A814B3235C8B45E9AB9A4C419F5D8653B2237A1CB163DE672FD6AC209BF3C08E0D1B30EB19C3FC9D72FCC6EB231EFA33EDE96BDD341517E5064B11EDFCBCAF57A3A2194156843498524CAA0FCA5B7268F9E185D42D21A2DCEC7FA0B48CFF8492
310
759155FBBB0F2C80A4F991FB408A72CB22977B50B96EB9C91F504B0304140006080800B670623B55019EA25F0000007C00000007000000636E782E786D6C4DCB3B0E80201045D1AD90E915ED2CF8AC45050C11660C8261F98AB1B07AC9C97D42D718D865D3E909258CFD00CCE24AC6E326A164D74DC0B4128928FF32603847
310
2BA13128B1252AC747C6BAB984FC68F0B87FE8960A5C09FE86CFB69FBA01504B0304140006080800B670623B7BC41AC871010000D40300000C0000006662782F636F72652E786D6CC553ED6E8320147D15C2DF4501B56B6D90A64BBB27D80B50A5CE54C120983EFEAE1F4DD7A56BBA5FF3879273EEE59E7310BE393735EA95
310
ED2AA333CC428A91D2B9292A5D66D8BB63B0C26823B835C67D2BC348CB46657880B1E0A535BE9DA1DC68A7B403549B42CDA0EC3AE530CA6B5864B8CB3F552343E91D5474A7B095F949962A6421D0502778E72C0840D390E18DC5F170E664C205F7BE2A66B62A605A75AC94C522DDEEE3651AEF837817C741F2CE92E02D592D
310
83FD6ECB76EC7595A651C2C9D02CB8AB9A8BBADC2AE954814544691A3016D0E883256BBA58278B17BA5A53CAC9507ED3E4DBE2C9265F691747B3DCA9ADC382819091F8E1162272A8933DE82182932144F88C09DF060D8140C84E1EEA8B8F1340BDCA9DB1093085F157AA97B557309586747CD0EF0B4EA64E983A6E0EAEEFCE
310
889E9EF17847386AA94B30211D2C0FDE0D3AF9A4610EAD5536E8DD1969631B593F67E381C33F5157F17725E5A636F6BF1491F980C8FC7B90E13E8A2F504B0304140006080800B670623B70102A487D0000009D0000000B0000006662782F636E782E786D6C4DCCD10A83201886E15B91FFDC95A5C30335ACCDFB886521330D
310
A76397BF1A1DECE883878F57749FD5A3B74D2F17830472A901D9F088930B8B849267CC01754AA418F3DF0D5018572BE160506249B16C274D761E8BCFBB7A179E27F65CB39A0F14D396184C9921B81F34C3ACA1B4B99ABB6E6F062A25AA5F69DF23ACBE504B0304140006080800B670623B3610CA3329010000120200003100
310
00006662782F42384135303843342D343331462D343546312D424341352D3532343432364645413344462F636F72652E786D6C8D515B6EC32010BC0AE22B55850D0E446E848992B43E412FE000495162B07854397EA176A4F62F3F2C9A9D991D58BEBB8F37F0AD7D30CE76905418026DA553C65E3A98E219B510EC04F7CEC5
310
3F3408EC30EA0E16180A7EF12E4D0B249D8DDAC68C5AA7F4020E21E80881BCE54B0783FCD2E3500D296646B856D320AFC34557A4CAEDCC133C449F0380794839A138B47B86DB2345744D7A44594FD0E1B867883594369BFE63BF7EEF793D0B054FC9A8456E548E63CE46FB674D8A58F068C6477CE9F510B582A2C1F80D1182
310
70F349E816B32D65AFB8DD62CCEB42FF274A937A52948C8DEB66893BCB021484D7734370E5D2E9F608A3EF93F3119479ABA0E50B14B8C298119A43CCC4FCFCECB8A18B6388CEE7EF5D5D4F994BD86CBBA182D76543B9FCAE2FD7B24DF103504B0304140006080800B670623B1B8617914E0100003303000030000000666278
310
2F42384135303843342D343331462D343546312D424341352D3532343432364645413344462F636E782E786D6CD593C16EC32010447F0571AD6CE3D489D20813A9877E410FBD62D82434182CC055F3F75D1292E692438FBD206B7698593D61BEFD1E2DF982108D773D6D6B460938E5B571FB9ECE6957AD29D90A1EBC4F7736
310
4A9C1CA1A759A682EF839FA72269D8C9D92654AD71C72206887E0E0A22CAF926B15E498B01E0AA19451807D01A34B919F16B070157417138917400F2F6FA41FCF0092A45DEE414C19BDC21783E4BD39D891265658C3D8DEA00A3ACE59CBC8678ACB54CB26EEB6BD7839D7E9348BE70AD9C8321B9BCA7F9A4A26C542347DEE0
310
50F09802D22BA6749A800A394DD62899107273365E3C82CFC6A55557BC06C10774B7ABE7AEC3B0F34CF06446280E154026D0542C187BA9DAB6628BF7B6DBB0E5A65B3EB1F58631DE64BBE083F7B65CC218087E22CABB042E51D1F2268F1FE12B3EA24D40D63E9CFE00120194D60B9D5BC67FE6D39CDF37E20AF817881F504B
310
0304140006080800B670623BBFEF2E3B690500003C100000340000006662782F42384135303843342D343331462D343546312D424341352D3532343432364645413344462F6F626A656374732E786D6CAD575D739B3814FD2B0CFB0C98D84E931D4227B6938EA793B6534F3BFB90198F0099B001899144EAECAFDF231018B0
310
D37A3FFC609090EEE7B94757C1FB7D915B2F54C88CB31BDB7727B64559CC938CA53776A576CE956DBD0F03C1B9EA2DB32D460A7A63EB693B0C52C1ABD24C257447AA5C8D66EF177F5832A68CDA569C13296F6C193FD182B8A4523CA1F2D94D88226EBADBBBBEDB2C1C8A4D05299F46424B222853B014F30C52ACC6287F389C
310
D85E1878FA7B18E87FB36AFAF62AAFF667A83F635211161F291B8999FAB3D5DDC5FCDA99CF6653677679E13B8BFBC5CAF1DF4D27CBCBE5F2FAF6EE1A8AA51290642C117467871F101B91C581D77CEA2C36869F3229E68CD1B8F61F1ED6361B89092D294B90C78C4A68EB793D190E7D1D9BDEE7A91E1B95FDE9F3BCEAEFE809
310
6A6D6F9F7D4B79F4275C90E7A04248AA51D5C4C738DAE06F72885AC4796EBE65D22A88A22223B995679120E2D50EB1542F098381188D4EA111AE3DB043FF20AF6F2B4AE3D7D83D65E5AECA730D4D3BAC91BD05FEA992B565D95F549CD6069B90AB2A63EACA38A45E4B6A87D781574F86817E4C2FCCC72690D62E2729520E37
310
9BAF234797BAF6D62B3BFC781FED37BA1E4F2B2F052FA9501A3E80569BB8F6A9A364D4FA67654E6F803383981F82F21591FF84F23D9882BC896C3FDBCF8C162508933B2E0AE4C69DD43F6BD2BE38DDDBF10BF86CB4FA784D37F3AF16075E67EC9030DECA1FC0A55373F5DFF3378C591FA9BDF485C10B0A8C8BA909E5262639
310
A8E72163488806A595734C81CB77D1DE0ED7604A303B76913CEC0272F412782FF88EFF4636D8AA56DF7B322474C4B767303F625997056C7B032C473C592B36CEBD15F3F9FF5233B7ABCDC74D257624A60F8658567497B14CE1EC3C80B76FD02011038F9EE9EB0F2E12387A9C844D3F09855125116D1D731DF8B43D2CF4E0A0
310
79A020C6BE946BCE0B7EA1E1219331CD73C228AF5A2DDD31A4B1DA918CE91350854D40A71723140BFA92E94E62B0626016CEFA5864A50E5977E8753CEDBEE1CBB7F52780D20E17AF0BA0F5F9B02A3AD07DCC732EB6D1EBB661421BE0C39E21BABF0FE16D22EA6929407C8DE596724C88B749B6DB5512BC7B228ADFD7CB7EA6
310
3A22397E690BA8D5D8D4E40CEC8CDA23C2C0B7D5898640101CEC9C6D331CE328CB93CAFBBAC70A642DF70DF95155945B52F08AA973C23469FD69ADEF84F7BB18F983A8F8C90E37F5D35980B2139A1C523540813E824EF83448CF7C72B598CE97D7CEEDDDDD3B6736BFBC771677EF66CE6A7E7139F7A793E9EDF2B2B3A8B624
310
0CDA13AA5F8388264EC4A0129909F3B7F5A16CEDF08128E97D680ACA4B9BE7B7B58BB638F0B00700EF36AE8B32A705658A68F83EE897FC2B41573190D1CCAF0B92D233A47CFEB019D9809933F67DD1A5467F8CF69AD9A5AE859342D45355448C64F968A371DC2D596ADC6E43D93D1B466F877A64E2893E54F23C4B40388995
310
525E5005DA3983ED45412510D3EFCA13737B3863F74BD30F2A12E5B4B5E489A025CE25500DB855B11ACE5BBFA185D35DD48D8DC3CE7DC69F2944DB42AA6F6CF09BCA622ADD08C7A36E7C6AE18000BAB08E040135C2D21C9D75B3A91B77BB746C403F38018DFE6EC939DD92F16B40BC05294B9CDA035AAD6D330AE27FE4786B
310
8E45145EA34A75BE1C263A676A35A8ACC6297337400BF16C54EF515F3F77CB77EB3583889C754FFA29081AA98E2222ADEF05DA3E63D2EDEA8B8756C05A7FB6CABC4A91CBF325398202CC952E70A008A830324BA200D5E5EF8F5F04C75DB4B0EE3340E071C98B823333B83577596BF3849B69F2085AA0FAFA212F26BEFF5877
310
FDE622B28D88A42E49E43326DA82D31E8CB006401E1DA726059ECEC168F97A6599036306A135688F9AD2E61A6EA178F4CD51974A9F2CCB9F36FE5EBD14601068D9C3BF01504B0304140006080000B670623B000000000000000000000000350000006662782F42384135303843342D343331462D343546312D424341352D35
310
32343432364645413344462F76657274696365732E62696E504B0304140006080800B670623BF270F1330600000004000000360000006662782F42384135303843342D343331462D343546312D424341352D3532343432364645413344462F747269616E676C65732E62696E636660600000504B0304140006080000B67062
310
3B000000000000000000000000370000006662782F42384135303843342D343331462D343546312D424341352D3532343432364645413344462F617474726962757465732E62696E504B0304140006080800B670623B08DA0BD19000000041010000360000006662782F42384135303843342D343331462D343546312D4243
310
41352D3532343432364645413344462F6469726563746F72792E786D6C858F410AC3201045AF22B36F53E9A60B35CBEEBAE80D244E44489C6234F4F835464A48035D0DF398FF9F8AF63D0E6CC63039F212F8F9020C7D47C6792B21C5FE7403D62A1188E2E60C98D7234A5830286103A55745067B9D86B8A3CF9C7F90C11DE6
310
07FB144396D7B6A82D282E9A152AD114D5EF2CB866EEE831B8EEA07A7BB5A8D7D61A2BAAEB7FD5F70921FF497D00504B0304140006080800B670623B3B4606F3FE000000A00100003B0000006662782F42384135303843342D343331462D343546312D424341352D3532343432364645413344462F7265736F75726365732F
310
636F72652E786D6C8D504B6E833010BD0A9A6D65B08134808CA354A427E8052C332156828DFCA97AFC9A40A576D7CDCCE87D344F8F9FBEE647F689CE6B6B7A6039850C8DB2A336530F315C4903D94970676DF82583CCC8197B5861107C72362E3BA4AC096842428D1D7107A5F71820538F74F4E0D50D6799CB1892C2DFF345
310
AABB9C306779A2934E701F5C0A906D4FD609C2A1B7D129F4BCD858C163D4E3AED163FAA9AF1A1D88F67CA98E6D35906AA82A52BFB39ABCD5CD915C86331BD86BD3B665CD8BD52C78D0F34F46E550061C419494B6843142CB0F5677F4D0D58717DA7494F26295FF31C565FCA7296A13AA728FBBD93C0896823C09C18BB5AFB4
310
9E65A6BD762BBE01504B010214000A0000080000B670623B3DEE336E79000000790000001B00000000000000000000000000000000006175746F6465736B2D64657369676E2D7061636B6167652E786D6C504B01021400140006080800B670623BD486FD9CA0000000F40000001300000000000000000000000000B2000000
310
5B436F6E74656E745F54797065735D2E786D6C504B01021400140006080800B670623B28ED286BEB0000007C010000080000000000000000000000000083010000636F72652E786D6C504B01021400140006080800B670623B55019EA25F0000007C000000070000000000000000000000000094020000636E782E786D6C50
310
4B01021400140006080800B670623B7BC41AC871010000D40300000C00000000000000000000000000180300006662782F636F72652E786D6C504B01021400140006080800B670623B70102A487D0000009D0000000B00000000000000000000000000B30400006662782F636E782E786D6C504B01021400140006080800B6
310
70623B3610CA3329010000120200003100000000000000000000000000590500006662782F42384135303843342D343331462D343546312D424341352D3532343432364645413344462F636F72652E786D6C504B01021400140006080800B670623B1B8617914E010000330300003000000000000000000000000000D10600
310
006662782F42384135303843342D343331462D343546312D424341352D3532343432364645413344462F636E782E786D6C504B01021400140006080800B670623BBFEF2E3B690500003C10000034000000000000000000000000006D0800006662782F42384135303843342D343331462D343546312D424341352D35323434
310
32364645413344462F6F626A656374732E786D6C504B01021400140006080000B670623B0000000000000000000000003500000000000000000000000000280E00006662782F42384135303843342D343331462D343546312D424341352D3532343432364645413344462F76657274696365732E62696E504B010214001400
310
06080800B670623BF270F133060000000400000036000000000000000000000000007B0E00006662782F42384135303843342D343331462D343546312D424341352D3532343432364645413344462F747269616E676C65732E62696E504B01021400140006080000B670623B00000000000000000000000037000000000000
310
00000000000000D50E00006662782F42384135303843342D343331462D343546312D424341352D3532343432364645413344462F617474726962757465732E62696E504B01021400140006080800B670623B08DA0BD1900000004101000036000000000000000000000000002A0F00006662782F42384135303843342D3433
310
31462D343546312D424341352D3532343432364645413344462F6469726563746F72792E786D6C504B01021400140006080800B670623B3B4606F3FE000000A00100003B000000000000000000000000000E1000006662782F42384135303843342D343331462D343546312D424341352D3532343432364645413344462F72
310
65736F75726365732F636F72652E786D6C504B0506000000000E000E0080040000651100000000
  0
XRECORD
  5
187
102
{ACAD_REACTORS
330
186
102
}
330
186
100
AcDbXrecord
280
     1
 70
     1
 90
429727718
  1
887D55A9-D0DD-414E-B741-A7DCD4DA2B4C
310
504B03040A0000080000B670623B3DEE336E79000000790000001B0000006175746F6465736B2D64657369676E2D7061636B6167652E786D6C3C3F786D6C2076657273696F6E3D22312E302220656E636F64696E673D227574662D3822203F3E3C666F726D6174733E3C666F726D61743E687474703A2F2F736368656D612E
310
6175746F6465736B2E636F6D2F64657369676E2D7061636B6167652F323030393C2F666F726D61743E3C2F666F726D6174733E504B0304140006080800B670623BD486FD9CA0000000F4000000130000005B436F6E74656E745F54797065735D2E786D6C7D8EC10E82300C865F65E91D8A1E8C310C0EEA1BF002731658846E
310
D98AC1B77784ABF1D8FE5FBFBF75BBCE937A534CCEB38643598122B6FEE978D0B0485F9C41B54DDD7D022595594E1A469170414C76A4D9A4D207E29CF43ECE46F218070CC6BECC4078ACAA135ACF422C856C0E68EA1BF5669944DDD7BCDE7B1F8E415D77AECB980613C2E4AC91FC167A2B244592486606FC29C8FD7F045B9A
310
EF7053A7E60B504B0304140006080800B670623BBC1638F5EC0000007C01000008000000636F72652E786D6C8D90416EC3201045AF82665B61836BE2D8C24471DB9CA01740401C94182C03558F5F9C3852BBEB6A467FFE9B197D7EF89E6EE8CB2CC17AD7032D0820E394D7D68D3DA478C67B4007C117EFE32F1B202727D3C3
310
2A83E0E3E2D3BC49CABB685CCCAAF3DA6CA20CC14440EA969B1E82BA98491632C5EC08D76296EA2A4753D06797E194AC468F2356E77DF66CCD02825543D50CACC62D39ED70FDC68EB8FD68F6F8787A6784342D1DDA1D2F5758F068A7E77DB518198D065111D2624A31A93E69DD11D6D5EC85EC3B4278B9DAFF4069D6FF8492
310
75F1B5DADE7D600104CD8FDC0782976B16B9DC83CA75CD4DFC00504B0304140006080800B670623B55019EA25F0000007C00000007000000636E782E786D6C4DCB3B0E80201045D1AD90E915ED2CF8AC45050C11660C8261F98AB1B07AC9C97D42D718D865D3E909258CFD00CCE24AC6E326A164D74DC0B4128928FF326038
310
472BA13128B1252AC747C6BAB984FC68F0B87FE8960A5C09FE86CFB69FBA01504B0304140006080800B670623B3586FFB671010000D40300000C0000006662782F636F72652E786D6CC553ED6E8320147D15C2DF4541A76D6D90A6DDD627D80B50A4CE54C120983EFEAE1F4DD7A55BBA5FF3879273EEE59E7310B6393735EA
310
95ED2AA3731C851423A5A5292A5DE6D8BB63B0C268C39935C67D29C3488B46E578803167A535BE9D2169B453DA01AA4DA16650749D7218C91A1639EEE4876A4428BC838AEE14B6429E44A9C228041AEA38EB9C0501681A32BC313F1ECE8C4C3867DE57C5CC56054CAB8E95B298A7F12E5EEED224C8E87E11242FE936C8DE96
310
AB60BB7F4D295D66D12E5B30323473E6AAE6A24E5A259C2A308F29CD82280A68FC1E256B9AAE93F489AED694323294DF34F9B678B0C957DA3DC7B3DCA9ADC33C022123F1CD2D44E450277AD04338234388F01913BE0D1A0281909D38D4171F27807A259DB1093085F157AA17B557309586747CD0CF0B46A64E983A6E0EAEEF
310
CE881F9EF1FB8E70D44297604238581EBC1B74B249C31C5AAB6CD0BB33D2C636A27ECCC62F0EFF445DC5DF95244D6DEC7F2922F30191F9F720C37DE49F504B0304140006080800B670623B4220A0FF7D0000009D0000000B0000006662782F636E782E786D6C4DCCD10A83201886E15B91FFDCE542CB0335D0EC3E6259C84A
310
C3E9D8E5AF46073BFAE0E1E315DD675BD1DBA5978F41C2FD4600B9F088930F8B849267CC01754AA418F3DF0D50183727E164506249B1EC174D6E1ECB9A0F5D7D785E68DB8151CD286E5A5363CA6B8A39E90D36D40E96B086F55A43A544F52B1D7B86D517504B0304140006080800B670623B2FA3FEDE290100001202000031
310
0000006662782F45374635344235342D363743322D343832342D383044432D4334454645303536354442422F636F72652E786D6C8D515B6EC32010BC0AE22B55850D2E386E848994D7097A0117488A1283C5A3CAF10BB523B57FF961D1ECCCECC0F2ED7DBC816FED8371B687A4C210682B9D32F6D2C314CFA883602BB8772E
310
FEA141608751F7B0C050F08B77695A20E96CD43666D43AA5177008414708E42D5F7A18E4971E876A483133C2B59A06791D2EBA22556E679EE021FA1C00CC43CA09C5717D6274C7286AD7FB06D1AEA1A8C3873DDAD3E3E98859CB0EBB1DAF67A1E02919B5C88DCA71CCD968FFAC49110B1ECDF8882FBD1EA256503418BF2342
310
106E3E08DD60B6A1EC15771B8C795DE8FF4469524F8A92B1F1AD59E2CEB20005E1F5DC105CB9F4797B84D1F7C9F908CABC55D0F2050A5C61CC1AD2F27A26E6E767C7962E8E213A9FBF7775FDCC5CC266DB960A5E970DE5F2BBBE5CCB36C50F504B0304140006080800B670623B1B8617914E01000033030000300000006662
310
782F45374635344235342D363743322D343832342D383044432D4334454645303536354442422F636E782E786D6CD593C16EC32010447F0571AD6CE3D489D20813A9877E410FBD62D82434182CC055F3F75D1292E692438FBD206B7698593D61BEFD1E2DF982108D773D6D6B460938E5B571FB9ECE6957AD29D90A1EBC4F77
310
364A9C1CA1A759A682EF839FA72269D8C9D92654AD71C72206887E0E0A22CAF926B15E498B01E0AA19451807D01A34B919F16B070157417138917400F2F6FA41FCF0092A45DEE414C19BDC21783E4BD39D891265658C3D8DEA00A3ACE59CBC8678ACB54CB26EEB6BD7839D7E9348BE70AD9C8321B9BCA7F9A4A26C542347DE
310
E050F09802D22BA6749A800A394DD62899107273365E3C82CFC6A55557BC06C10774B7ABE7AEC3B0F34CF06446280E154026D0542C187BA9DAB6628BF7B6DBB0E5A65B3EB1F58631DE64BBE083F7B65CC218087E22CABB042E51D1F2268F1FE12B3EA24D40D63E9CFE00120194D60B9D5BC67FE6D39CDF37E20AF817881F50
310
4B0304140006080800B670623B29652116630500003C100000340000006662782F45374635344235342D363743322D343832342D383044432D4334454645303536354442422F6F626A656374732E786D6CAD575D739B3814FD2B0CFB0C989834C90EA1639B24E3E9A6EDD4D3CE3E64C623834CD8006224913AFDF57B040203
310
B65BEF871F0C12D2FD3CF7E8CA7FBFCB33E3957291B2E2D674ED8969D02262715A24B76625B7D6B569BC0F7CCE98EC2D338D82E4F4D654D366E0279C55A59E8AE99654991CCDDECFFF3444440B6A1A514684B83545F44C7362934AB2988A173B2692D8C97667BB76B3702836E1A47C1E092D09A78584A5982F20C5688C7287
310
C389E904BEA3BE07BEFAD7ABA6A75739B53F43FD69212429A20365233153D70BEF2E2E6FAC4BCF9B5ADEBB0BD79ADFCF43CBBD9A4E16EF168B9BD9DD0D140BC921495BC2E9D60C1E101B9E46BED37CEA2CD6861F3329624541A3DA7F7858DBAC25C6B4A4458C3CA654405BCFEBC970E8AAD8F43E4FD558ABEC4F9FE7557F47
310
4F506B7BFBEC5BCA367FC105710E2AB8A00A554D7CB4A30DFE26FBA86D18CBF4B75418399194A72433B274C3097F33032C554B027F2046A1932B842B0FCCC0DDCBEBDB8AD2F835768F59B9ADB24C41D30C6A64AF817F2A456D59FA83F2E3DA60137255A585BCD60EC9B7929AC18DEFD49381AF1ED30BFDB109A4B1CD488294
310
C3CDE6EBC8D185AABD6568061FEE37BB95AAC7E3CA4BCE4ACAA5820FA0D526AE7DAA2869B5EE5999531BE0CC20E6FBA07C41E43FA27CF7A6206F3CDD793B4F6B919C1462CB788EDCD893FA674CDA17AB7B3B7C019F8D561FAEE966FED562DFE98C1D12C6A9FC015C2A35D7FF3D7FC398F591DA4B5FE0BFA2C0189FEA50AE22
310
92817A1ED3020951A03432862970F976B33383259812CC8E5D240BBA801CBCF8CE2BBEE3BF910DB6AAD5F79E05123AE2DB33981FB1ACCB02B69D00CB014FD68AB573A7627EF9BFD4CC2C5C7D58557C4B22FAA88925A4DBB44825CECE3D78FB060D1231F0E885BE7D673C86A3874958F593906B5502D1563157814FDAC3420D
310
F69A070A22EC4B98E23CFF171A1E5311D12C23056555ABA53B8614563B92D17D02AAB009E8F46284624E5F53D5490C560CCCC2591FF1B45421EB0EBD8EA7ED13BE7C5D7E0428CD60FEF60779EB13E6664FF711CB185F6FDED60D139A001FF60CD1FD6D086F1D51474901E26B2CB794A343BC8ED3EDB612E0DD2351FCB65CF4
310
33D511C9E14B5B40ADC6A6263DB0336A8F700DDF56271A024E70B0B3629DE21847591E55DED73D56206AB927E46FAABC5C939C55853C274C93D69FD6FA4E78BF8B11DF898C9ECD60553FAD39283BA6F18984AA23E8884F83F45C5F5F859797B31B2B9C84A1E5B9DE9D35BFF25C6B76152E422F9C5DCC3D847F5801ED09D5AF
310
41441327A25FF15487F9EB725FB666F048A4701E9A827292E6F97569A32DF61DEC01C0BB8DCBBCCC684E0B49147C1FD54BF685A0AB18C868E6973949E819523E3DAC463660E68C7D9F55A9D1EFA3BD7A76A16AE1A810F95CE59B82A4D968A376DC2E8B44BBDD86B27B368CDE0ED548C7137DA860591A83706223A12CA712B4
310
7306DBF39C0A20A6DF95C7FAF670C6EED7A61F946493D1D6926782963813403548A78AE470DEF80D2D9CEAA26E4D1C76F60BFE74219A06527D6B82DF641A51616F703CAAC6A7160E08A00BEB4810A0274592A1B36E3675E36E978A0DE80727A0D6DF2D39A75BD27E0D8837276589537B40ABB56D5A41F48F1C6FCD3188C4EB
310
A6929D2FFB89CE995A4D00AE813BDD032DC48B56BD437DFDDC2DD7AED70C2272D63DE9A72068A45A92F0A4BE17A8A06B9366E16707AD80B1FC649459952097E74BB23805982B55E0401150A165964402AA8BDF9F3E7386BB686EDCA780C0D382E5392BF460A6EFB2C6EA1937D3F809B440D5F5435C4C5CF7A9EEFAF54564BD
310
2182DA24162F98680B4E7930C21A0079709CEAEB99A372305ABE0C0D7D6078105A83F6A0296DAEE1068A47DD1C55A9F4C9B2FC69E3EFD44B81028E963DF81B504B0304140006080000B670623B000000000000000000000000350000006662782F45374635344235342D363743322D343832342D383044432D433445464530
310
3536354442422F76657274696365732E62696E504B0304140006080800B670623BF270F1330600000004000000360000006662782F45374635344235342D363743322D343832342D383044432D4334454645303536354442422F747269616E676C65732E62696E636660600000504B0304140006080000B670623B00000000
310
0000000000000000370000006662782F45374635344235342D363743322D343832342D383044432D4334454645303536354442422F617474726962757465732E62696E504B0304140006080800B670623B08DA0BD19000000041010000360000006662782F45374635344235342D363743322D343832342D383044432D4334
310
454645303536354442422F6469726563746F72792E786D6C858F410AC3201045AF22B36F53E9A60B35CBEEBAE80D244E44489C6234F4F835464A48035D0DF398FF9F8AF63D0E6CC63039F212F8F9020C7D47C6792B21C5FE7403D62A1188E2E60C98D7234A5830286103A55745067B9D86B8A3CF9C7F90C11DE607FB144396
310
D7B6A82D282E9A152AD114D5EF2CB866EEE831B8EEA07A7BB5A8D7D61A2BAAEB7FD5F70921FF497D00504B0304140006080800B670623B6378F24DFF000000A00100003B0000006662782F45374635344235342D363743322D343832342D383044432D4334454645303536354442422F7265736F75726365732F636F72652E
310
786D6C8D504B6E833010BD0A9A6D65B0094E42641C85B639412F6099496225D8C89FAAC7AF09546A77DDCC8CDE47F3F4C4F16B7C149FE88371B603565228D06A37187BED20C50BD9437194C23B177FC9A0B06AC40E6618A4B87A97A615D2CE46B431A3D60DB8822A048C50E8473E3A08FA86A32A558A5911EEE5A4F45D5DB1
310
6465A6B34E8A107D0E502C4FE609D26370C96B0CA25A58295232C3AA3143FE692E063D485EF7F5AEE71BD2D2F39634AFFC44DAF7DD9E9CCE6F9CD25DCBFA762BAAD92C4534E34F46ED51451C40D694B6843142EB0FD61C283F34FC85EE0F948A6A96FF31A569F8A729191B37F51A77B105902C0779125254735F793DCBCC7B
310
EE567E03504B010214000A0000080000B670623B3DEE336E79000000790000001B00000000000000000000000000000000006175746F6465736B2D64657369676E2D7061636B6167652E786D6C504B01021400140006080800B670623BD486FD9CA0000000F40000001300000000000000000000000000B20000005B436F6E
310
74656E745F54797065735D2E786D6C504B01021400140006080800B670623BBC1638F5EC0000007C010000080000000000000000000000000083010000636F72652E786D6C504B01021400140006080800B670623B55019EA25F0000007C000000070000000000000000000000000095020000636E782E786D6C504B010214
310
00140006080800B670623B3586FFB671010000D40300000C00000000000000000000000000190300006662782F636F72652E786D6C504B01021400140006080800B670623B4220A0FF7D0000009D0000000B00000000000000000000000000B40400006662782F636E782E786D6C504B01021400140006080800B670623B2F
310
A3FEDE290100001202000031000000000000000000000000005A0500006662782F45374635344235342D363743322D343832342D383044432D4334454645303536354442422F636F72652E786D6C504B01021400140006080800B670623B1B8617914E010000330300003000000000000000000000000000D2060000666278
310
2F45374635344235342D363743322D343832342D383044432D4334454645303536354442422F636E782E786D6C504B01021400140006080800B670623B29652116630500003C10000034000000000000000000000000006E0800006662782F45374635344235342D363743322D343832342D383044432D4334454645303536
310
354442422F6F626A656374732E786D6C504B01021400140006080000B670623B0000000000000000000000003500000000000000000000000000230E00006662782F45374635344235342D363743322D343832342D383044432D4334454645303536354442422F76657274696365732E62696E504B01021400140006080800
310
B670623BF270F13306000000040000003600000000000000000000000000760E00006662782F45374635344235342D363743322D343832342D383044432D4334454645303536354442422F747269616E676C65732E62696E504B01021400140006080000B670623B0000000000000000000000003700000000000000000000
310
000000D00E00006662782F45374635344235342D363743322D343832342D383044432D4334454645303536354442422F617474726962757465732E62696E504B01021400140006080800B670623B08DA0BD190000000410100003600000000000000000000000000250F00006662782F45374635344235342D363743322D34
310
3832342D383044432D4334454645303536354442422F6469726563746F72792E786D6C504B01021400140006080800B670623B6378F24DFF000000A00100003B00000000000000000000000000091000006662782F45374635344235342D363743322D343832342D383044432D4334454645303536354442422F7265736F75
310
726365732F636F72652E786D6C504B0506000000000E000E0080040000611100000000
  0
XRECORD
  5
112
102
{ACAD_REACTORS
330
110
102
}
330
110
100
AcDbXrecord
280
     1
270
     1
271
     1
  0
XRECORD
  5
111
102
{ACAD_REACTORS
330
110
102
}
330
110
100
AcDbXrecord
280
     1
270
     1
271
     1
  0
XRECORD
  5
18A
102
{ACAD_REACTORS
330
110
102
}
330
110
100
AcDbXrecord
280
     1
 70
     0
 90
1778669749
  1
9BF507EE-FAF7-4A99-A33D-4EE51894BC40
310
504B03040A0000080000B670623B3DEE336E79000000790000001B0000006175746F6465736B2D64657369676E2D7061636B6167652E786D6C3C3F786D6C2076657273696F6E3D22312E302220656E636F64696E673D227574662D3822203F3E3C666F726D6174733E3C666F726D61743E687474703A2F2F736368656D612E
310
6175746F6465736B2E636F6D2F64657369676E2D7061636B6167652F323030393C2F666F726D61743E3C2F666F726D6174733E504B0304140006080800B670623BD486FD9CA0000000F4000000130000005B436F6E74656E745F54797065735D2E786D6C7D8EC10E82300C865F65E91D8A1E8C310C0EEA1BF002731658846E
310
D98AC1B77784ABF1D8FE5FBFBF75BBCE937A534CCEB38643598122B6FEE978D0B0485F9C41B54DDD7D022595594E1A469170414C76A4D9A4D207E29CF43ECE46F218070CC6BECC4078ACAA135ACF422C856C0E68EA1BF5669944DDD7BCDE7B1F8E415D77AECB980613C2E4AC91FC167A2B244592486606FC29C8FD7F045B9A
310
EF7053A7E60B504B0304140006080800B670623BCA089DFFEC0000007C01000008000000636F72652E786D6C8D90416E83301045AF62CDB632D8402020E32882F604BD80653BC44AB011B6AB1EBF262152BBEB6A467FFE9B197D76FA9EEFE84BAFDE38DB03CD08206DA553C64E3DC470C1474027CE56E7C22F1B202B66DDC3
310
260367D3EAE2B24BD2D9A06D48AA754AEFA2F05E0740F29E9A1EBCBCEA59642286E4F0B76C11F226269DD15797E0188D42CF2346A57DE662F40ABCAEC77628C6120F654571D50C04B7F5B9C1E3997CD4F550BE3745C3F20DE62C98F9755FAE5A04AD801784B498524C8A4F5A75E4D055873772EC0861F966FF03C545FD138A
310
C686B2D8DF7D621E384D8F3C069CE55B16A93C824A75CB8DFF00504B0304140006080800B670623B55019EA25F0000007C00000007000000636E782E786D6C4DCB3B0E80201045D1AD90E915ED2CF8AC45050C11660C8261F98AB1B07AC9C97D42D718D865D3E909258CFD00CCE24AC6E326A164D74DC0B4128928FF326038
310
472BA13128B1252AC747C6BAB984FC68F0B87FE8960A5C09FE86CFB69FBA01504B0304140006080800B670623B68FC0B7272010000D40300000C0000006662782F636F72652E786D6CC5535B6E833010BC8AE5DF0A6C1E8124328E22D29EA01770C0A128602363A31CBFCB234A53A555FA553EC09AD9F5CE8C31DB5DDA060D
310
D2F4B556190E7C8A9154852E6B5565D8D993B7C668C799D1DA7E29C3488956667884316795D1AE5BA0422B2B950554E9522EA0E87B69312A1A5864B82F3E642B7CE12C54F467BF13C55954D20F7CA0A18EB3DE1A1080E621E31BF3D3F1C2C88C73E65C5D2E6C5DC2B4FA544B8379921C36797888BC3C8A032F4E73EA6D927D
310
EA1DF6F42D49F2E8350D5346C666CE6CDD5ED515460A2B4BCC434A375E1078347C0FE22D5D6DE3D50B5D6F2965642CBF6B725DF96493AB958DC245EEDCD6631E809089F8E61622B2A81703E8219C913144F84C09DF070D8140C8561C9BAB8F3340832CAC363130A576376A108D933095FA747AD0CF0B46E64E983A6D0EAE1F
310
CE089F9EF1FB8E70D44255604258581E9D1D75B259C3125A278D37D80B52DAB4A279CEC62F0EFF44DDC43F9454E8469BFF5244960322CBEF41C6FBC83F01504B0304140006080800B670623B0F71DDB67E0000009D0000000B0000006662782F636E782E786D6C4DCCD10A83201886E15B91FFDCA54DB73F502386BB8F5816
310
32D3703976F9ABD1C18E3E78F87855FB990379BBFCF2296AE02706C4C5471A7C9C349475A408A4352AA7B4FEDD80C47E761A7606A3A69CCA72D0E0C6BE8475D3E0E3F3409428EA6B27A84079A782899AA2EC1A7AE3ECCC2FD858CB2D544655BFD2B67BD87C01504B0304140006080800B670623BE134B4FB28010000120200
310
00310000006662782F38353834323741342D343835462D343034322D383541392D4331303331363839454531452F636F72652E786D6C8D515B6EC32010BC0AE22B55850D0EA424C24451959EA0172086A42831583CAA1CBF503B52FB971F16CDCECC0EACD8DFC71BF836215AEF7A481A0C817183D7D65D7A98D3197108F652
310
04EFD31F1A044E8DA6871586525C82CFD3020DDE25E352419DD76601558C264130DCCAA58771F832A36A544E8511AFCDA486ABBA988634A55D7852C4144A00300FA927949C71DABD1D28A29C7D208A6987383B6CD13BC16BB2E1DBE3911C453B0BA5C8D9EA456E758963CFD684674DAA588A64C747FC2118958C86B2C3788B
310
0841B8FB247487D98EB257CC77188BB6D2FF89F2A49F1465EBD2BA5BE2CEB2082511EDDC9042FB7CBA3DC298FBE4430275DE2A9AE1054ADC60CC08E3A29D89E5F9C5714317C7987C28DFBBBA9E0A97B0D97643A568EB864AF95D5FA9759BF207504B0304140006080800B670623B1B8617914E010000330300003000000066
310
62782F38353834323741342D343835462D343034322D383541392D4331303331363839454531452F636E782E786D6CD593C16EC32010447F0571AD6CE3D489D20813A9877E410FBD62D82434182CC055F3F75D1292E692438FBD206B7698593D61BEFD1E2DF982108D773D6D6B460938E5B571FB9ECE6957AD29D90A1EBC4F
310
77364A9C1CA1A759A682EF839FA72269D8C9D92654AD71C72206887E0E0A22CAF926B15E498B01E0AA19451807D01A34B919F16B070157417138917400F2F6FA41FCF0092A45DEE414C19BDC21783E4BD39D891265658C3D8DEA00A3ACE59CBC8678ACB54CB26EEB6BD7839D7E9348BE70AD9C8321B9BCA7F9A4A26C542347
310
DEE050F09802D22BA6749A800A394DD62899107273365E3C82CFC6A55557BC06C10774B7ABE7AEC3B0F34CF06446280E154026D0542C187BA9DAB6628BF7B6DBB0E5A65B3EB1F58631DE64BBE083F7B65CC218087E22CABB042E51D1F2268F1FE12B3EA24D40D63E9CFE00120194D60B9D5BC67FE6D39CDF37E20AF817881F
310
504B0304140006080800B670623B5933D422630500003B100000340000006662782F38353834323741342D343835462D343034322D383541392D4331303331363839454531452F6F626A656374732E786D6CAD575B6FA33814FE2B887D0642934E9B156594264D158D3A534DD4D13E548A0C38942D60649B4EBABF7E3F8321
310
40924EF6928780CDF1B97EE762EFF32E4B8D37CA45C2F21BD3B547A641F39045491EDF98A5DC5AD7A6F1D9F73863B243661A39C9E88DA9B64DDF8B392B0BBD15D12D295339D85DDEFE618890E6D434C2940871638AF08566C426A5641115AF764424B1E3EDCE76ED9AB0CF36E6A47819302D08A7B984A6D8CFC1C5A89572FB
310
CB91E9F89EA3BEFB9EFAD754E3D3544E654F5F7E920B49F2F040D880CDD89D2CEE2E2EA7D6E56432B6269F2E5CEB7679BBB0DCABF168FE693E9FCEEEA6102C240727AD09A75BD3BF876F78127A4EFDA9D5582B7E4CA590E5390D2BFB6161A5B3E618D182E611E2985001691DAB47FDA5AB7CD3F93C566B2DB2BB7D9E55DD13
310
1D468DEECDB3AB290BFE8409E21C54704115AA6AFF68436BFC8DF65E0B184BF5B74418199194272435D224E084BF9B3E481589EFF5D828747285706581E9BB7B7E5D5D911ABFC6EE312DB7659A2A689A7E85EC0DF04FA5A8344BFEA2FCB834E8845895492EAFB541F2BDA0A63FF59C6AD3F7D4637CA13FD68E34B629891172
310
98597F1D183A57B9B75A98FE9765B05BAB7C3C2EBCE0ACA05C2AF8005A4DE09AA7F29216EB9E15397500C6F47CBE77CA7778FE2BD277AF0AE2C693DD6437D1522427B9D8329E2136F6A8FA19A3E6C56ADF0E5F50CF06D48734EDCEBF22F69C56D97EC138153F804B85E6FABFC7AFEFB32E523BE1F3BD372418E363EDCA7548
310
52949E8724474014288D94610BB57C1BEC4C7F854A89CA8E5324F55B871CBC78CE1BBEE3BFE68D6A5589EF3C730474506FCFA8FCF0659516D0ED04580EEA6425581B77CAE797FF4BCECC16EB2FEB926F49481F746159D06D922712BD730FDEAE42BD40F42C7AA5EF3F198F60E86110D6DD20645A9480B795CF95E3E3A659A8
310
C55E724F408873315335CFFB8584874484344D494E59D94869DB90C26A5B64F49C802CAC1D3ABE18A098D3B7444D123D8A9E5AE8F5214F0AE5B2B6E9B575DA3E61CBD3EA2B4009FA940524DD1305FB6A1FB294F14DF0BEA90BA109ECE1481FDC3FFAE8D60E75141700BE82725371B4873751B2DD960265F788137FACE6DD40
310
B575E4F0A5C99F46629D92131467A41EE11ABD8D4CCC039CA0AFB37C93A08B232B8F0AEFCA1E0A1015DF13FC83322B362463652ECF71D3A8B1A7D1BE65DE1D62C44F22C317D35F574FEB16153BA2D13E543D10A80E74C4A65E78A6B7CBCBD1D5DD9DB59C2DAFACC96C3AB566E3F1C29ADCDD5DBAD7D3C9ED7C822ED74F80A6
310
41755310DE4443F44A9E68373FADF6596BFA0F440AE7BECE2727AE9F4F2B1B53B1E7E00CF0DD1E5C65454A339A4BA2D0FBA05ED2EF0443458F47BDBFCA484CCFE0F2ED7E3DD0013B679C7B5499467F0ECEEADDB9CA85A34CE44B99053949D2C1416DB85DE4B136BB7165FBAC0B7AB3542BED4F8CA182A549847A1319316519
310
95A83A67147B9E5101C47487F2485F1ECE38FD568F839204296D3479219888530154036E6528FBFBC66F98E0D4107563A2D7D9AFF8D389681A08F58D89F22693900A3B407754734FC51C10C010D6D640809EE4718AC1BA3ED4AEDB53CA37283F68805A7E4B72CEB0A4EDEAD5DD8C14059A76AFAA56BA6901E13F32BC51C720
310
12AF41295B5BF61BAD3195181FB506E6B40F4C10AF5AF40EF9F5B159AE5DD1F43C72D635E94310D45C2D49785C5D0B94D3B54AB3C5A38349C0587D338AB48C11CBF339599C02CCA54A70A008A8D03C0B2201D5F9EFCF8F9CE12A9A19CB0410789EB32C63B95ECCF455D658BFE0621A3DA32C5075FB101723D77DAE867E7D0F
310
D90444509B44E2151B4DC2290B065803200FBAA9BE9D392A0603F2D5C2D00D6302A615680F66D2FA166E2079D4C551A54AB758161FCEFD4E450A14704CECFEDF504B0304140006080000B670623B000000000000000000000000350000006662782F38353834323741342D343835462D343034322D383541392D4331303331
310
363839454531452F76657274696365732E62696E504B0304140006080800B670623BF270F1330600000004000000360000006662782F38353834323741342D343835462D343034322D383541392D4331303331363839454531452F747269616E676C65732E62696E636660600000504B0304140006080000B670623B000000
310
000000000000000000370000006662782F38353834323741342D343835462D343034322D383541392D4331303331363839454531452F617474726962757465732E62696E504B0304140006080800B670623B08DA0BD19000000041010000360000006662782F38353834323741342D343835462D343034322D383541392D43
310
31303331363839454531452F6469726563746F72792E786D6C858F410AC3201045AF22B36F53E9A60B35CBEEBAE80D244E44489C6234F4F835464A48035D0DF398FF9F8AF63D0E6CC63039F212F8F9020C7D47C6792B21C5FE7403D62A1188E2E60C98D7234A5830286103A55745067B9D86B8A3CF9C7F90C11DE607FB1443
310
96D7B6A82D282E9A152AD114D5EF2CB866EEE831B8EEA07A7BB5A8D7D61A2BAAEB7FD5F70921FF497D00504B0304140006080800B670623BD9A3B367FE000000A00100003B0000006662782F38353834323741342D343835462D343034322D383541392D4331303331363839454531452F7265736F75726365732F636F7265
310
2E786D6C8D504B6E833010BD0A9A6D65B01D0201194711694FD00B586642AD043BF2A7EAF16B122AB5BB6E6646EFA3797AE2F8B5DC8A4FF4C1383B002B291468B59B8C9D0748F1420E501CA5F0CEC55F3228AC5A708015062966EFD27D83B4B3116DCCA875136EA00A012314FA968F0182FEC045952AC5AC08D7F2AEF455CD
310
58B232D3592745883E07289E4FD609D26370C96B0CA27AB252A464A64D63A6FCD35C0C7A904D73EE467EE664DCD58CD4ED4849D79C5A723ED1B7A61977AF2D6F45B59AA58866F9C9A83DAA8813484E6947182394BFB3BAA7FBBEDEBFD0434FA9A856F91F53BA4FFF342563E38E6F719FB60092E5200F428A6AED2BAF479979
310
AFDDCA6F504B010214000A0000080000B670623B3DEE336E79000000790000001B00000000000000000000000000000000006175746F6465736B2D64657369676E2D7061636B6167652E786D6C504B01021400140006080800B670623BD486FD9CA0000000F40000001300000000000000000000000000B20000005B436F6E
310
74656E745F54797065735D2E786D6C504B01021400140006080800B670623BCA089DFFEC0000007C010000080000000000000000000000000083010000636F72652E786D6C504B01021400140006080800B670623B55019EA25F0000007C000000070000000000000000000000000095020000636E782E786D6C504B010214
310
00140006080800B670623B68FC0B7272010000D40300000C00000000000000000000000000190300006662782F636F72652E786D6C504B01021400140006080800B670623B0F71DDB67E0000009D0000000B00000000000000000000000000B50400006662782F636E782E786D6C504B01021400140006080800B670623BE1
310
34B4FB280100001202000031000000000000000000000000005C0500006662782F38353834323741342D343835462D343034322D383541392D4331303331363839454531452F636F72652E786D6C504B01021400140006080800B670623B1B8617914E010000330300003000000000000000000000000000D3060000666278
310
2F38353834323741342D343835462D343034322D383541392D4331303331363839454531452F636E782E786D6C504B01021400140006080800B670623B5933D422630500003B10000034000000000000000000000000006F0800006662782F38353834323741342D343835462D343034322D383541392D4331303331363839
310
454531452F6F626A656374732E786D6C504B01021400140006080000B670623B0000000000000000000000003500000000000000000000000000240E00006662782F38353834323741342D343835462D343034322D383541392D4331303331363839454531452F76657274696365732E62696E504B01021400140006080800
310
B670623BF270F13306000000040000003600000000000000000000000000770E00006662782F38353834323741342D343835462D343034322D383541392D4331303331363839454531452F747269616E676C65732E62696E504B01021400140006080000B670623B0000000000000000000000003700000000000000000000
310
000000D10E00006662782F38353834323741342D343835462D343034322D383541392D4331303331363839454531452F617474726962757465732E62696E504B01021400140006080800B670623B08DA0BD190000000410100003600000000000000000000000000260F00006662782F38353834323741342D343835462D34
310
3034322D383541392D4331303331363839454531452F6469726563746F72792E786D6C504B01021400140006080800B670623BD9A3B367FE000000A00100003B000000000000000000000000000A1000006662782F38353834323741342D343835462D343034322D383541392D4331303331363839454531452F7265736F75
310
726365732F636F72652E786D6C504B0506000000000E000E0080040000611100000000
  0
XRECORD
  5
113
102
{ACAD_REACTORS
330
110
102
}
330
110
100
AcDbXrecord
280
     1
270
     1
271
     1
  0
XRECORD
  5
114
102
{ACAD_REACTORS
330
110
102
}
330
110
100
AcDbXrecord
280
     1
270
     1
271
     1
  0
CELLSTYLEMAP
  5
D2A
102
{ACAD_REACTORS
330
104
102
}
330
104
100
AcDbCellStyleMap
 90
        3
300
CELLSTYLE
  1
TABLEFORMAT_BEGIN
 90
        5
170
     1
 91
        0
 92
    32768
 62
   257
 93
        1
300
CONTENTFORMAT
  1
CONTENTFORMAT_BEGIN
 90
        0
 91
        0
 92
      512
 93
        0
300

 40
0.0
140
1.0
 94
        5
 62
     0
340
11
144
0.25
309
CONTENTFORMAT_END
171
     1
301
MARGIN
  1
CELLMARGIN_BEGIN
 40
0.06
 40
0.06
 40
0.06
 40
0.06
 40
0.18
 40
0.18
309
CELLMARGIN_END
 94
        6
 95
        1
302
GRIDFORMAT
  1
GRIDFORMAT_BEGIN
 90
        0
 91
        1
 62
     0
 92
       -2
340
0
 93
        0
 40
0.045
309
GRIDFORMAT_END
 95
        2
302
GRIDFORMAT
  1
GRIDFORMAT_BEGIN
 90
        0
 91
        1
 62
     0
 92
       -2
340
0
 93
        0
 40
0.045
309
GRIDFORMAT_END
 95
        4
302
GRIDFORMAT
  1
GRIDFORMAT_BEGIN
 90
        0
 91
        1
 62
     0
 92
       -2
340
0
 93
        0
 40
0.045
309
GRIDFORMAT_END
 95
        8
302
GRIDFORMAT
  1
GRIDFORMAT_BEGIN
 90
        0
 91
        1
 62
     0
 92
       -2
340
0
 93
        0
 40
0.045
309
GRIDFORMAT_END
 95
       16
302
GRIDFORMAT
  1
GRIDFORMAT_BEGIN
 90
        0
 91
        1
 62
     0
 92
       -2
340
0
 93
        0
 40
0.045
309
GRIDFORMAT_END
 95
       32
302
GRIDFORMAT
  1
GRIDFORMAT_BEGIN
 90
        0
 91
        1
 62
     0
 92
       -2
340
0
 93
        0
 40
0.045
309
GRIDFORMAT_END
309
TABLEFORMAT_END
  1
CELLSTYLE_BEGIN
 90
        1
 91
        1
300
_TITLE
309
CELLSTYLE_END
300
CELLSTYLE
  1
TABLEFORMAT_BEGIN
 90
        5
170
     1
 91
        0
 92
        0
 62
   257
 93
        1
300
CONTENTFORMAT
  1
CONTENTFORMAT_BEGIN
 90
        0
 91
        0
 92
      512
 93
        0
300

 40
0.0
140
1.0
 94
        5
 62
     0
340
11
144
0.18
309
CONTENTFORMAT_END
171
     1
301
MARGIN
  1
CELLMARGIN_BEGIN
 40
0.06
 40
0.06
 40
0.06
 40
0.06
 40
0.18
 40
0.18
309
CELLMARGIN_END
 94
        6
 95
        1
302
GRIDFORMAT
  1
GRIDFORMAT_BEGIN
 90
        0
 91
        1
 62
     0
 92
       -2
340
0
 93
        0
 40
0.045
309
GRIDFORMAT_END
 95
        2
302
GRIDFORMAT
  1
GRIDFORMAT_BEGIN
 90
        0
 91
        1
 62
     0
 92
       -2
340
0
 93
        0
 40
0.045
309
GRIDFORMAT_END
 95
        4
302
GRIDFORMAT
  1
GRIDFORMAT_BEGIN
 90
        0
 91
        1
 62
     0
 92
       -2
340
0
 93
        0
 40
0.045
309
GRIDFORMAT_END
 95
        8
302
GRIDFORMAT
  1
GRIDFORMAT_BEGIN
 90
        0
 91
        1
 62
     0
 92
       -2
340
0
 93
        0
 40
0.045
309
GRIDFORMAT_END
 95
       16
302
GRIDFORMAT
  1
GRIDFORMAT_BEGIN
 90
        0
 91
        1
 62
     0
 92
       -2
340
0
 93
        0
 40
0.045
309
GRIDFORMAT_END
 95
       32
302
GRIDFORMAT
  1
GRIDFORMAT_BEGIN
 90
        0
 91
        1
 62
     0
 92
       -2
340
0
 93
        0
 40
0.045
309
GRIDFORMAT_END
309
TABLEFORMAT_END
  1
CELLSTYLE_BEGIN
 90
        2
 91
        1
300
_HEADER
309
CELLSTYLE_END
300
CELLSTYLE
  1
TABLEFORMAT_BEGIN
 90
        5
170
     1
 91
        0
 92
        0
 62
   257
 93
        1
300
CONTENTFORMAT
  1
CONTENTFORMAT_BEGIN
 90
        0
 91
        0
 92
      512
 93
        0
300

 40
0.0
140
1.0
 94
        2
 62
     0
340
11
144
0.18
309
CONTENTFORMAT_END
171
     1
301
MARGIN
  1
CELLMARGIN_BEGIN
 40
0.06
 40
0.06
 40
0.06
 40
0.06
 40
0.18
 40
0.18
309
CELLMARGIN_END
 94
        6
 95
        1
302
GRIDFORMAT
  1
GRIDFORMAT_BEGIN
 90
        0
 91
        1
 62
     0
 92
       -2
340
0
 93
        0
 40
0.045
309
GRIDFORMAT_END
 95
        2
302
GRIDFORMAT
  1
GRIDFORMAT_BEGIN
 90
        0
 91
        1
 62
     0
 92
       -2
340
0
 93
        0
 40
0.045
309
GRIDFORMAT_END
 95
        4
302
GRIDFORMAT
  1
GRIDFORMAT_BEGIN
 90
        0
 91
        1
 62
     0
 92
       -2
340
0
 93
        0
 40
0.045
309
GRIDFORMAT_END
 95
        8
302
GRIDFORMAT
  1
GRIDFORMAT_BEGIN
 90
        0
 91
        1
 62
     0
 92
       -2
340
0
 93
        0
 40
0.045
309
GRIDFORMAT_END
 95
       16
302
GRIDFORMAT
  1
GRIDFORMAT_BEGIN
 90
        0
 91
        1
 62
     0
 92
       -2
340
0
 93
        0
 40
0.045
309
GRIDFORMAT_END
 95
       32
302
GRIDFORMAT
  1
GRIDFORMAT_BEGIN
 90
        0
 91
        1
 62
     0
 92
       -2
340
0
 93
        0
 40
0.045
309
GRIDFORMAT_END
309
TABLEFORMAT_END
  1
CELLSTYLE_BEGIN
 90
        3
 91
        2
300
_DATA
309
CELLSTYLE_END
  0
ENDSEC
  0
SECTION
  2
ACDSDATA
 70
     2
 71
     8
  0
ACDSSCHEMA
 90
        0
  1
AcDb_Thumbnail_Schema
  2
AcDbDs::ID
280
    10
 91
        8
  2
Thumbnail_Data
280
    15
 91
        0
101
ACDSRECORD
 95
        0
 90
        1
  2
AcDbDs::TreatedAsObjectData
280
     1
291
     1
101
ACDSRECORD
 95
        0
 90
        2
  2
AcDbDs::Legacy
280
     1
291
     1
101
ACDSRECORD
  1
AcDbDs::ID
 90
        3
  2
AcDs:Indexable
280
     1
291
     1
101
ACDSRECORD
  1
AcDbDs::ID
 90
        4
  2
AcDbDs::HandleAttribute
280
     7
282
     1
  0
ACDSSCHEMA
 90
        1
  1
AcDbDs::TreatedAsObjectDataSchema
  2
AcDbDs::TreatedAsObjectData
280
     1
 91
        0
  0
ACDSSCHEMA
 90
        2
  1
AcDbDs::LegacySchema
  2
AcDbDs::Legacy
280
     1
 91
        0
  0
ACDSSCHEMA
 90
        3
  1
AcDbDs::IndexedPropertySchema
  2
AcDs:Indexable
280
     1
 91
        0
  0
ACDSSCHEMA
 90
        4
  1
AcDbDs::HandleAttributeSchema
  2
AcDbDs::HandleAttribute
280
     7
 91
        1
284
     1
  0
ACDSRECORD
 90
        0
  2
AcDbDs::ID
280
    10
320
22
  2
Thumbnail_Data
280
    15
 94
     1995
310
89504E470D0A1A0A0000000D49484452000001000000008D08030000006FF554E600000300504C5445000000FFFFFF0000000000000000000000000000000000000000000000000000000000330000660000990000CC0000FF0033000033330033660033990033CC0033FF0066000066330066660066990066CC0066FF0099
310
000099330099660099990099CC0099FF00CC0000CC3300CC6600CC9900CCCC00CCFF00FF0000FF3300FF6600FF9900FFCC00FFFF3300003300333300663300993300CC3300FF3333003333333333663333993333CC3333FF3366003366333366663366993366CC3366FF3399003399333399663399993399CC3399FF33CC00
310
33CC3333CC6633CC9933CCCC33CCFF33FF0033FF3333FF6633FF9933FFCC33FFFF6600006600336600666600996600CC6600FF6633006633336633666633996633CC6633FF6666006666336666666666996666CC6666FF6699006699336699666699996699CC6699FF66CC0066CC3366CC6666CC9966CCCC66CCFF66FF0066
310
FF3366FF6666FF9966FFCC66FFFF9900009900339900669900999900CC9900FF9933009933339933669933999933CC9933FF9966009966339966669966999966CC9966FF9999009999339999669999999999CC9999FF99CC0099CC3399CC6699CC9999CCCC99CCFF99FF0099FF3399FF6699FF9999FFCC99FFFFCC0000CC00
310
33CC0066CC0099CC00CCCC00FFCC3300CC3333CC3366CC3399CC33CCCC33FFCC6600CC6633CC6666CC6699CC66CCCC66FFCC9900CC9933CC9966CC9999CC99CCCC99FFCCCC00CCCC33CCCC66CCCC99CCCCCCCCCCFFCCFF00CCFF33CCFF66CCFF99CCFFCCCCFFFFFF0000FF0033FF0066FF0099FF00CCFF00FFFF3300FF3333
310
FF3366FF3399FF33CCFF33FFFF6600FF6633FF6666FF6699FF66CCFF66FFFF9900FF9933FF9966FF9999FF99CCFF99FFFFCC00FFCC33FFCC66FFCC99FFCCCCFFCCFFFFFF00FFFF33FFFF66FFFF99FFFFCCFFFFFF0000000D0D0D1A1A1A2828283535354343435050505D5D5D6B6B6B787878868686939393A1A1A1AEAEAEBB
310
BBBBC9C9C9D6D6D6E4E4E4F1F1F1FFFFFF0000000000000000000000000000000000000000000000000000000000003AE5ACE9000003064944415478DAED994992DB300C4579039E2417F495720C6CBDCE4A47C036FB88F320CA435C5D45CAEFD96D51325D4D7C0220281903000000000000000000000000000000F019125E
310
12DBCD49E9D337AEA580B7D91D32510C0922F8633E17B99E0B4871806468D34C1A6475AE18028D07D427CDF50B0AF05EB0C0E25318D35B3BA392BF69E75A9AA5406A0788BD25B5659D781F05B63984F9612DE832C0B0EF3505185B5A4B62164A8C9217B4AAEA31D5544BBA942F171325FFB2AA98CAE7654A82B71602593A21
310
9ACADC3AABB5A92ED542079758BD20C8B1DB573FE592C991920528C6AF2F4095E74C11C0E459AF05C8FB85BA6E5C3CF06B0F78558026FBAFEF012F76A9EA1CA1320600000058BD024CA5BC986E83579E8AFC5F79BD40A5D814F3DD2380F6EED783DF8E5AEDD579778BFDDDACA3079C6F758666B7467FF70384AFDB2C95AC51
310
DD2FFCAE848A00F5BD34F91A834BC6ABEE128EAE4C84B61F9FAEA066F080A52C27CD338449EC0FB67B7E4E80E629FB540244B3B30AA75EA26F2C736FAE8A33681055B076F4AD9A8FDC636ABC5DD6DA20C0C0FE173DA0536C21C1F6915AE35E4E0827857D20C04B3A1C04509D5993DDFE204112E0C4039E444231529D8876DB
310
36F10DAD9968D63B82DD3625C47AA87EDC9D07B43D4C6BE076BFDFFDC6FACFDED80EFF6AC21048B366D576038D47DF41FBE9D4970468E49E33095823FBDB8D538C151F0C3A5C0AC47B80EB6B0F3D2A2B7F3B9C00BEA167985924511B1E6E7A13F7A31D8D4BBD3C7B1F5191B35410AF6DB7DB2D78C0DED862FA3895610601AC
310
B8B75A7B3E309F29C53E1E7A12A00B0133AF07682A8182EDFE30DE1294AC1793C2795E7D24C0ACB580AD96C1F128ABF1EB9385A55F05E62F85BCF9D67B4094E0385F29901FFAED3804B45925A6D4C31A4D21E0EB8181912104EA92E06501CCE4754028804CDC0E0D0408F36EB42B8E06D6C4B35F0E27806F2CB127E8ED1B26
310
C1E71B9E6A9AC5FFEDF5F0367B1D942253DFFF993E2DB4D7D80EFE3DF0BCC7A0D3BA7CBD0000000000000000000000000000000000000000000000000000000053F00F41867854E6A966FC0000000049454E44AE426082F8BE71EB88FD8FD43B0E5DDD03B6099062887783C304A031BEDDC6997E2B1531B9205802617C9A06
310
DD5355011A9A02DDC8AE14A0AB52838F162B62C06F4F12E037514C27EB04647FEC234C7796AA0708C3880E0DED01AB5757F4F8F9F9C91EF0D3E36300C5785C54883606DC4A0CA818135E5821C5A753C0878B8ADDFB08A04D1B85083AF4A5349893C33B35F5AC00F4CC05761260F904C9FC4180F50B646FCBB2003B47C1D567
310
CDA5F020403FFFD749B04E80834B80E5B3AAC5509A02435858EF06F4B4106A7F959897C3318C75CFAA4D82B53120C6A66FEE27E6F7293096CAF795EDB2A52018DBA9046743E360E620403168BD1B2873FEF52401FE251ADE0B2AE310462FB002ACDA2BF291300930AC0647017C25D8CCC0A77C97CAE3A24BF42E9DDC20BCF0
310
CE95691E9B13200F7ED0E667012A578FC23BF6B71CFD65CCF516C9EC826DF305B47677496782035D81AA8B66012E7BE769DC7AFB3AE0D6DBB8F5360000000000000080F3F11FFB207247D819356A0000000049454E44AE426082
  0
ENDSEC
  0
EOF
