  0
SECTION
  2
HEADER
  9
$ACADVER
  1
AC1032
  9
$ACADMAINTVER
 90
      179
  9
$DWGCODEPAGE
  3
ANSI_1252
  9
$LASTSAVEDBY
  1
mgortner
  9
$REQUIREDVERSIONS
160
                 0
  9
$INSBASE
 10
0.0
 20
0.0
 30
0.0
  9
$EXTMIN
 10
-0.867370578538825
 20
-1.817825298544281
 30
-0.0015258207003583
  9
$EXTMAX
 10
1.183410659878759
 20
1.011840831967816
 30
0.0000000349246037
  9
$LIMMIN
 10
0.0
 20
0.0
  9
$LIMMAX
 10
12.0
 20
9.0
  9
$ORTHOMODE
 70
     0
  9
$REGENMODE
 70
     1
  9
$FILLMODE
 70
     1
  9
$QTEXTMODE
 70
     0
  9
$MIRRTEXT
 70
     0
  9
$LTSCALE
 40
1.0
  9
$ATTMODE
 70
     1
  9
$TEXTSIZE
 40
0.2
  9
$TRACEWID
 40
0.05
  9
$TEXTSTYLE
  7
Standard
  9
$CLAYER
  8
0
  9
$CELTYPE
  6
ByLayer
  9
$CECOLOR
 62
   256
  9
$CELTSCALE
 40
1.0
  9
$DISPSILH
 70
     0
  9
$DIMSCALE
 40
1.0
  9
$DIMASZ
 40
0.18
  9
$DIMEXO
 40
0.0625
  9
$DIMDLI
 40
0.38
  9
$DIMRND
 40
0.0
  9
$DIMDLE
 40
0.0
  9
$DIMEXE
 40
0.18
  9
$DIMTP
 40
0.0
  9
$DIMTM
 40
0.0
  9
$DIMTXT
 40
0.18
  9
$DIMCEN
 40
0.09
  9
$DIMTSZ
 40
0.0
  9
$DIMTOL
 70
     0
  9
$DIMLIM
 70
     0
  9
$DIMTIH
 70
     1
  9
$DIMTOH
 70
     1
  9
$DIMSE1
 70
     0
  9
$DIMSE2
 70
     0
  9
$DIMTAD
 70
     0
  9
$DIMZIN
 70
     0
  9
$DIMBLK
  1

  9
$DIMASO
 70
     1
  9
$DIMSHO
 70
     1
  9
$DIMPOST
  1

  9
$DIMAPOST
  1

  9
$DIMALT
 70
     0
  9
$DIMALTD
 70
     2
  9
$DIMALTF
 40
25.4
  9
$DIMLFAC
 40
1.0
  9
$DIMTOFL
 70
     0
  9
$DIMTVP
 40
0.0
  9
$DIMTIX
 70
     0
  9
$DIMSOXD
 70
     0
  9
$DIMSAH
 70
     0
  9
$DIMBLK1
  1

  9
$DIMBLK2
  1

  9
$DIMSTYLE
  2
Standard
  9
$DIMCLRD
 70
     0
  9
$DIMCLRE
 70
     0
  9
$DIMCLRT
 70
     0
  9
$DIMTFAC
 40
1.0
  9
$DIMGAP
 40
0.09
  9
$DIMJUST
 70
     0
  9
$DIMSD1
 70
     0
  9
$DIMSD2
 70
     0
  9
$DIMTOLJ
 70
     1
  9
$DIMTZIN
 70
     0
  9
$DIMALTZ
 70
     0
  9
$DIMALTTZ
 70
     0
  9
$DIMUPT
 70
     0
  9
$DIMDEC
 70
     4
  9
$DIMTDEC
 70
     4
  9
$DIMALTU
 70
     2
  9
$DIMALTTD
 70
     2
  9
$DIMTXSTY
  7
Standard
  9
$DIMAUNIT
 70
     0
  9
$DIMADEC
 70
     0
  9
$DIMALTRND
 40
0.0
  9
$DIMAZIN
 70
     0
  9
$DIMDSEP
 70
    46
  9
$DIMATFIT
 70
     3
  9
$DIMFRAC
 70
     0
  9
$DIMLDRBLK
  1

  9
$DIMLUNIT
 70
     2
  9
$DIMLWD
 70
    -2
  9
$DIMLWE
 70
    -2
  9
$DIMTMOVE
 70
     0
  9
$DIMFXL
 40
1.0
  9
$DIMFXLON
 70
     0
  9
$DIMJOGANG
 40
0.7853981633974483
  9
$DIMTFILL
 70
     0
  9
$DIMTFILLCLR
 70
     0
  9
$DIMARCSYM
 70
     0
  9
$DIMLTYPE
  6

  9
$DIMLTEX1
  6

  9
$DIMLTEX2
  6

  9
$DIMTXTDIRECTION
 70
     0
  9
$LUNITS
 70
     2
  9
$LUPREC
 70
     8
  9
$SKETCHINC
 40
0.1
  9
$FILLETRAD
 40
0.0
  9
$AUNITS
 70
     0
  9
$AUPREC
 70
     0
  9
$MENU
  1
.
  9
$ELEVATION
 40
0.0
  9
$PELEVATION
 40
0.0
  9
$THICKNESS
 40
0.0
  9
$LIMCHECK
 70
     0
  9
$CHAMFERA
 40
0.0
  9
$CHAMFERB
 40
0.0
  9
$CHAMFERC
 40
0.0
  9
$CHAMFERD
 40
0.0
  9
$SKPOLY
 70
     0
  9
$TDCREATE
 40
2460914.622060185
  9
$TDUCREATE
 40
2460914.788726852
  9
$TDUPDATE
 40
2460914.623344907
  9
$TDUUPDATE
 40
2460914.790011574
  9
$TDINDWG
 40
0.0012847222
  9
$TDUSRTIMER
 40
0.0012847222
  9
$USRTIMER
 70
     1
  9
$ANGBASE
 50
0.0
  9
$ANGDIR
 70
     0
  9
$PDMODE
 70
     0
  9
$PDSIZE
 40
0.0
  9
$PLINEWID
 40
0.0
  9
$SPLFRAME
 70
     0
  9
$SPLINETYPE
 70
     6
  9
$SPLINESEGS
 70
     8
  9
$HANDSEED
  5
458
  9
$SURFTAB1
 70
     6
  9
$SURFTAB2
 70
     6
  9
$SURFTYPE
 70
     6
  9
$SURFU
 70
     6
  9
$SURFV
 70
     6
  9
$UCSBASE
  2

  9
$UCSNAME
  2

  9
$UCSORG
 10
0.0
 20
0.0
 30
0.0
  9
$UCSXDIR
 10
1.0
 20
0.0
 30
0.0
  9
$UCSYDIR
 10
0.0
 20
1.0
 30
0.0
  9
$UCSORTHOREF
  2

  9
$UCSORTHOVIEW
 70
     0
  9
$UCSORGTOP
 10
0.0
 20
0.0
 30
0.0
  9
$UCSORGBOTTOM
 10
0.0
 20
0.0
 30
0.0
  9
$UCSORGLEFT
 10
0.0
 20
0.0
 30
0.0
  9
$UCSORGRIGHT
 10
0.0
 20
0.0
 30
0.0
  9
$UCSORGFRONT
 10
0.0
 20
0.0
 30
0.0
  9
$UCSORGBACK
 10
0.0
 20
0.0
 30
0.0
  9
$PUCSBASE
  2

  9
$PUCSNAME
  2

  9
$PUCSORG
 10
0.0
 20
0.0
 30
0.0
  9
$PUCSXDIR
 10
1.0
 20
0.0
 30
0.0
  9
$PUCSYDIR
 10
0.0
 20
1.0
 30
0.0
  9
$PUCSORTHOREF
  2

  9
$PUCSORTHOVIEW
 70
     0
  9
$PUCSORGTOP
 10
0.0
 20
0.0
 30
0.0
  9
$PUCSORGBOTTOM
 10
0.0
 20
0.0
 30
0.0
  9
$PUCSORGLEFT
 10
0.0
 20
0.0
 30
0.0
  9
$PUCSORGRIGHT
 10
0.0
 20
0.0
 30
0.0
  9
$PUCSORGFRONT
 10
0.0
 20
0.0
 30
0.0
  9
$PUCSORGBACK
 10
0.0
 20
0.0
 30
0.0
  9
$USERI1
 70
     0
  9
$USERI2
 70
     0
  9
$USERI3
 70
     0
  9
$USERI4
 70
     0
  9
$USERI5
 70
     0
  9
$USERR1
 40
0.0
  9
$USERR2
 40
0.0
  9
$USERR3
 40
0.0
  9
$USERR4
 40
0.0
  9
$USERR5
 40
0.0
  9
$WORLDVIEW
 70
     1
  9
$SHADEDGE
 70
     3
  9
$SHADEDIF
 70
    70
  9
$TILEMODE
 70
     1
  9
$MAXACTVP
 70
    64
  9
$PINSBASE
 10
0.0
 20
0.0
 30
0.0
  9
$PLIMCHECK
 70
     0
  9
$PEXTMIN
 10
0.0
 20
0.0
 30
0.0
  9
$PEXTMAX
 10
0.0
 20
0.0
 30
0.0
  9
$PLIMMIN
 10
0.0
 20
0.0
  9
$PLIMMAX
 10
12.0
 20
9.0
  9
$UNITMODE
 70
     0
  9
$VISRETAIN
 70
     1
  9
$PLINEGEN
 70
     0
  9
$PSLTSCALE
 70
     1
  9
$TREEDEPTH
 70
  3020
  9
$CMLSTYLE
  2
Standard
  9
$CMLJUST
 70
     0
  9
$CMLSCALE
 40
1.0
  9
$PROXYGRAPHICS
 70
     1
  9
$MEASUREMENT
 70
     0
  9
$CELWEIGHT
370
    -1
  9
$ENDCAPS
280
     0
  9
$JOINSTYLE
280
     0
  9
$LWDISPLAY
290
     0
  9
$INSUNITS
 70
     1
  9
$HYPERLINKBASE
  1

  9
$STYLESHEET
  1

  9
$XEDIT
290
     1
  9
$CEPSNTYPE
380
     0
  9
$PSTYLEMODE
290
     1
  9
$FINGERPRINTGUID
  2
{B5587C22-2483-0242-82EF-2283F152A5EC}
  9
$VERSIONGUID
  2
{45C8DC90-CAEB-9C45-A0BC-D93EF42EF92D}
  9
$EXTNAMES
290
     1
  9
$PSVPSCALE
 40
0.0
  9
$OLESTARTUP
290
     0
  9
$SORTENTS
280
   127
  9
$INDEXCTL
280
     0
  9
$HIDETEXT
280
     1
  9
$XCLIPFRAME
280
     2
  9
$HALOGAP
280
     0
  9
$OBSCOLOR
 70
   257
  9
$OBSLTYPE
280
     0
  9
$INTERSECTIONDISPLAY
280
     0
  9
$INTERSECTIONCOLOR
 70
   257
  9
$DIMASSOC
280
     2
  9
$PROJECTNAME
  1

  9
$CAMERADISPLAY
290
     0
  9
$LENSLENGTH
 40
50.0
  9
$CAMERAHEIGHT
 40
0.0
  9
$STEPSPERSEC
 40
2.0
  9
$STEPSIZE
 40
6.0
  9
$3DDWFPREC
 40
2.0
  9
$PSOLWIDTH
 40
0.25
  9
$PSOLHEIGHT
 40
4.0
  9
$LOFTANG1
 40
1.570796326794896
  9
$LOFTANG2
 40
1.570796326794896
  9
$LOFTMAG1
 40
0.0
  9
$LOFTMAG2
 40
0.0
  9
$LOFTPARAM
 70
     7
  9
$LOFTNORMALS
280
     1
  9
$LATITUDE
 40
37.795
  9
$LONGITUDE
 40
-122.394
  9
$NORTHDIRECTION
 40
0.0
  9
$TIMEZONE
 70
 -8000
  9
$LIGHTGLYPHDISPLAY
280
     1
  9
$TILEMODELIGHTSYNCH
280
     1
  9
$CMATERIAL
347
96
  9
$SOLIDHIST
280
     0
  9
$SHOWHIST
280
     1
  9
$DWFFRAME
280
     2
  9
$DGNFRAME
280
     0
  9
$REALWORLDSCALE
290
     1
  9
$INTERFERECOLOR
 62
     1
  9
$INTERFEREOBJVS
345
A3
  9
$INTERFEREVPVS
346
A0
  9
$CSHADOW
280
     0
  9
$SHADOWPLANELOCATION
 40
0.0
  0
ENDSEC
  0
SECTION
  2
CLASSES
  0
CLASS
  1
ACDBDICTIONARYWDFLT
  2
AcDbDictionaryWithDefault
  3
ObjectDBX Classes
 90
        0
 91
        1
280
     0
281
     0
  0
CLASS
  1
DICTIONARYVAR
  2
AcDbDictionaryVar
  3
ObjectDBX Classes
 90
        0
 91
        9
280
     0
281
     0
  0
CLASS
  1
TABLESTYLE
  2
AcDbTableStyle
  3
ObjectDBX Classes
 90
     4095
 91
        1
280
     0
281
     0
  0
CLASS
  1
MATERIAL
  2
AcDbMaterial
  3
ObjectDBX Classes
 90
     1153
 91
        3
280
     0
281
     0
  0
CLASS
  1
VISUALSTYLE
  2
AcDbVisualStyle
  3
ObjectDBX Classes
 90
     4095
 91
       24
280
     0
281
     0
  0
CLASS
  1
SCALE
  2
AcDbScale
  3
ObjectDBX Classes
 90
     1153
 91
       33
280
     0
281
     0
  0
CLASS
  1
MLEADERSTYLE
  2
AcDbMLeaderStyle
  3
ACDB_MLEADERSTYLE_CLASS
 90
     4095
 91
        3
280
     0
281
     0
  0
CLASS
  1
CELLSTYLEMAP
  2
AcDbCellStyleMap
  3
ObjectDBX Classes
 90
     1152
 91
        1
280
     0
281
     0
  0
CLASS
  1
EXACXREFPANELOBJECT
  2
ExAcXREFPanelObject
  3
EXAC_ESW
 90
     1025
 91
        0
280
     0
281
     0
  0
CLASS
  1
NPOCOLLECTION
  2
AcDbImpNonPersistentObjectsCollection
  3
ObjectDBX Classes
 90
     1153
 91
        0
280
     0
281
     0
  0
CLASS
  1
LAYER_INDEX
  2
AcDbLayerIndex
  3
ObjectDBX Classes
 90
        0
 91
        0
280
     0
281
     0
  0
CLASS
  1
SPATIAL_INDEX
  2
AcDbSpatialIndex
  3
ObjectDBX Classes
 90
        0
 91
        0
280
     0
281
     0
  0
CLASS
  1
IDBUFFER
  2
AcDbIdBuffer
  3
ObjectDBX Classes
 90
        0
 91
        0
280
     0
281
     0
  0
CLASS
  1
ACDBSECTIONVIEWSTYLE
  2
AcDbSectionViewStyle
  3
ObjectDBX Classes
 90
     1025
 91
        1
280
     0
281
     0
  0
CLASS
  1
ACDBDETAILVIEWSTYLE
  2
AcDbDetailViewStyle
  3
ObjectDBX Classes
 90
     1025
 91
        1
280
     0
281
     0
  0
CLASS
  1
MULTILEADER
  2
AcDbMLeader
  3
ACDB_MLEADER_CLASS
 90
     1025
 91
        2
280
     0
281
     1
  0
CLASS
  1
SORTENTSTABLE
  2
AcDbSortentsTable
  3
ObjectDBX Classes
 90
        0
 91
        1
280
     0
281
     0
  0
ENDSEC
  0
SECTION
  2
TABLES
  0
TABLE
  2
VPORT
  5
8
330
0
100
AcDbSymbolTable
 70
     1
  0
VPORT
  5
94
330
8
100
AcDbSymbolTableRecord
100
AcDbViewportTableRecord
  2
*Active
 70
     0
 10
0.0
 20
0.0
 11
1.0
 21
1.0
 12
0.1580200406699674
 22
-0.4029922332882326
 13
0.0
 23
0.0
 14
0.5
 24
0.5
 15
0.5
 25
0.5
 16
0.0
 26
0.0
 36
1.0
 17
0.0
 27
0.0
 37
0.0
 40
2.839844785657825
 41
1.699460107978404
 42
50.0
 43
0.0
 44
0.0
 50
0.0
 51
0.0
 71
     0
 72
  1000
 73
     1
 74
     3
 75
     0
 76
     1
 77
     0
 78
     0
281
     0
 65
     1
110
0.0
120
0.0
130
0.0
111
1.0
121
0.0
131
0.0
112
0.0
122
1.0
132
0.0
 79
     0
146
0.0
348
9F
 60
     3
 61
     5
292
     1
282
     1
141
0.0
142
0.0
 63
   250
421
  3355443
1001
ACAD_NAV_VCDISPLAY
1070
     3
  0
ENDTAB
  0
TABLE
  2
LTYPE
  5
5
330
0
100
AcDbSymbolTable
 70
     2
  0
LTYPE
  5
14
330
5
100
AcDbSymbolTableRecord
100
AcDbLinetypeTableRecord
  2
ByBlock
 70
     0
  3

 72
    65
 73
     0
 40
0.0
  0
LTYPE
  5
15
330
5
100
AcDbSymbolTableRecord
100
AcDbLinetypeTableRecord
  2
ByLayer
 70
     0
  3

 72
    65
 73
     0
 40
0.0
  0
LTYPE
  5
16
330
5
100
AcDbSymbolTableRecord
100
AcDbLinetypeTableRecord
  2
Continuous
 70
     0
  3
Solid line
 72
    65
 73
     0
 40
0.0
  0
ENDTAB
  0
TABLE
  2
LAYER
  5
2
102
{ACAD_XDICTIONARY
360
18E
102
}
330
0
100
AcDbSymbolTable
 70
    10
  0
LAYER
  5
10
102
{ACAD_XDICTIONARY
360
E6
102
}
330
2
100
AcDbSymbolTableRecord
100
AcDbLayerTableRecord
  2
0
 70
     0
 62
     7
  6
Continuous
370
    -3
390
F
347
98
348
0
  0
LAYER
  5
264
330
2
100
AcDbSymbolTableRecord
100
AcDbLayerTableRecord
  2
Defpoints
 70
     0
 62
     7
  6
Continuous
290
     0
370
    -3
390
F
347
98
348
0
  0
LAYER
  5
265
102
{ACAD_XDICTIONARY
360
266
102
}
330
2
100
AcDbSymbolTableRecord
100
AcDbLayerTableRecord
  2
PCB_Top
 70
     0
 62
   130
  6
Continuous
370
    -3
390
F
347
98
348
0
  0
LAYER
  5
267
330
2
100
AcDbSymbolTableRecord
100
AcDbLayerTableRecord
  2
Notes
 70
     0
 62
     7
  6
Continuous
370
    -3
390
F
347
98
348
0
  0
LAYER
  5
268
330
2
100
AcDbSymbolTableRecord
100
AcDbLayerTableRecord
  2
Component_Pads
 70
     0
 62
    40
  6
Continuous
370
    -3
390
F
347
98
348
0
1001
AcAecLayerStandard
1000

1000

1001
AcCmTransparency
1071
        0
  0
LAYER
  5
269
330
2
100
AcDbSymbolTableRecord
100
AcDbLayerTableRecord
  2
Component_Outline
 70
     0
 62
    10
  6
Continuous
370
    35
390
F
347
98
348
0
1001
AcAecLayerStandard
1000

1000

  0
LAYER
  5
26A
330
2
100
AcDbSymbolTableRecord
100
AcDbLayerTableRecord
  2
PCB_Solder_Mask
 70
     0
 62
     3
  6
Continuous
370
    -3
390
F
347
98
348
0
1001
AcAecLayerStandard
1000

1000

1001
AcCmTransparency
1071
        0
  0
LAYER
  5
26B
102
{ACAD_XDICTIONARY
360
26C
102
}
330
2
100
AcDbSymbolTableRecord
100
AcDbLayerTableRecord
  2
PCB_Plated_Holes
 70
     0
 62
     6
  6
Continuous
370
    -3
390
F
347
98
348
0
  0
LAYER
  5
26D
330
2
100
AcDbSymbolTableRecord
100
AcDbLayerTableRecord
  2
PCB_Land_Pattern
 70
     0
 62
   190
  6
Continuous
370
    -3
390
F
347
98
348
0
1001
AcAecLayerStandard
1000

1000

1001
AcCmTransparency
1071
        0
  0
LAYER
  5
26E
330
2
100
AcDbSymbolTableRecord
100
AcDbLayerTableRecord
  2
PCB_Solder_Stencil
 70
     0
 62
     8
  6
Continuous
370
    -3
390
F
347
98
348
0
1001
AcAecLayerStandard
1000

1000

1001
AcCmTransparency
1071
        0
  0
ENDTAB
  0
TABLE
  2
STYLE
  5
3
330
0
100
AcDbSymbolTable
 70
     5
  0
STYLE
  5
11
330
3
100
AcDbSymbolTableRecord
100
AcDbTextStyleTableRecord
  2
Standard
 70
     0
 40
0.0
 41
1.0
 50
0.0
 71
     0
 42
0.2
  3
arial.ttf
  4

1001
ACAD
1000
Arial
1071
       34
  0
STYLE
  5
DC
330
3
100
AcDbSymbolTableRecord
100
AcDbTextStyleTableRecord
  2
Annotative
 70
     0
 40
0.0
 41
1.0
 50
0.0
 71
     0
 42
0.2
  3
arial.ttf
  4

1001
AcadAnnotative
1000
AnnotativeData
1002
{
1070
     1
1070
     1
1002
}
1001
ACAD
1000
Arial
1071
       34
  0
STYLE
  5
26F
330
3
100
AcDbSymbolTableRecord
100
AcDbTextStyleTableRecord
  2
wireless-tscat-v1
 70
     0
 40
0.0
 41
1.0
 50
0.0
 71
     0
 42
0.1
  3
arial.ttf
  4

1001
ACAD
1000
Arial
1071
       34
  0
STYLE
  5
270
330
3
100
AcDbSymbolTableRecord
100
AcDbTextStyleTableRecord
  2
Arial
 70
     0
 40
0.0
 41
1.0
 50
0.0
 71
     0
 42
0.2
  3
arial.ttf
  4

1001
ACAD
1000
Arial
1071
       34
  0
STYLE
  5
271
330
3
100
AcDbSymbolTableRecord
100
AcDbTextStyleTableRecord
  2
RomanS
 70
     0
 40
0.0
 41
0.9
 50
0.0
 71
     0
 42
0.2
  3
romans.shx
  4

  0
ENDTAB
  0
TABLE
  2
VIEW
  5
6
330
0
100
AcDbSymbolTable
 70
     0
  0
ENDTAB
  0
TABLE
  2
UCS
  5
7
330
0
100
AcDbSymbolTable
 70
     0
  0
ENDTAB
  0
TABLE
  2
APPID
  5
9
330
0
100
AcDbSymbolTable
 70
    11
  0
APPID
  5
12
330
9
100
AcDbSymbolTableRecord
100
AcDbRegAppTableRecord
  2
ACAD
 70
     0
  0
APPID
  5
DD
330
9
100
AcDbSymbolTableRecord
100
AcDbRegAppTableRecord
  2
AcadAnnoPO
 70
     0
  0
APPID
  5
DE
330
9
100
AcDbSymbolTableRecord
100
AcDbRegAppTableRecord
  2
AcadAnnotative
 70
     0
  0
APPID
  5
DF
330
9
100
AcDbSymbolTableRecord
100
AcDbRegAppTableRecord
  2
ACAD_DSTYLE_DIMJAG
 70
     0
  0
APPID
  5
E0
330
9
100
AcDbSymbolTableRecord
100
AcDbRegAppTableRecord
  2
ACAD_DSTYLE_DIMTALN
 70
     0
  0
APPID
  5
107
330
9
100
AcDbSymbolTableRecord
100
AcDbRegAppTableRecord
  2
ACAD_MLEADERVER
 70
     0
  0
APPID
  5
1A6
330
9
100
AcDbSymbolTableRecord
100
AcDbRegAppTableRecord
  2
ACAD_NAV_VCDISPLAY
 70
     0
  0
APPID
  5
274
330
9
100
AcDbSymbolTableRecord
100
AcDbRegAppTableRecord
  2
AcAecLayerStandard
 70
     0
  0
APPID
  5
275
330
9
100
AcDbSymbolTableRecord
100
AcDbRegAppTableRecord
  2
AcCmTransparency
 70
     0
  0
APPID
  5
276
330
9
100
AcDbSymbolTableRecord
100
AcDbRegAppTableRecord
  2
ACAD_DSTYLE_DIMBREAK
 70
     0
  0
APPID
  5
454
330
9
100
AcDbSymbolTableRecord
100
AcDbRegAppTableRecord
  2
ACAD_EXEMPT_FROM_CAD_STANDARDS
 70
     0
  0
ENDTAB
  0
TABLE
  2
DIMSTYLE
  5
A
330
0
100
AcDbSymbolTable
 70
     4
100
AcDbDimStyleTable
 71
     2
340
27
340
E1
  0
DIMSTYLE
105
27
330
A
100
AcDbSymbolTableRecord
100
AcDbDimStyleTableRecord
  2
Standard
 70
     0
340
11
  0
DIMSTYLE
105
E1
330
A
100
AcDbSymbolTableRecord
100
AcDbDimStyleTableRecord
  2
Annotative
 70
     0
 40
0.0
340
11
1001
AcadAnnotative
1000
AnnotativeData
1002
{
1070
     1
1070
     1
1002
}
1001
ACAD_DSTYLE_DIMJAG
1070
   388
1040
1.5
1001
ACAD_DSTYLE_DIMTALN
1070
   392
1070
     0
  0
DIMSTYLE
105
272
330
A
100
AcDbSymbolTableRecord
100
AcDbDimStyleTableRecord
  2
wireless-dscat-v1
 70
     0
 41
0.1
 42
0.05
 43
0.3
 44
0.1
 47
0.01
 48
0.01
 78
     4
 79
     2
140
0.1
141
0.0
146
0.71
147
0.05
170
     1
176
     7
177
     7
178
     7
271
     3
272
     3
284
     7
285
     1
340
26F
371
    -1
372
    -1
  0
DIMSTYLE
105
273
102
{ACAD_REACTORS
330
281
330
282
330
284
330
285
330
344
330
345
330
347
330
348
102
}
330
A
100
AcDbSymbolTableRecord
100
AcDbDimStyleTableRecord
  2
Mounting
 70
     0
  3
\X
 40
0.15
 44
0.06
 49
0.18
 78
     4
140
0.12
146
0.71
147
0.03
170
     1
271
     3
272
     3
284
     4
340
270
1001
ACAD_DSTYLE_DIMBREAK
1070
   391
1040
0.125
1001
ACAD_DSTYLE_DIMJAG
1070
   388
1040
1.5
1001
ACAD_DSTYLE_DIMTALN
1070
   392
1070
     0
  0
ENDTAB
  0
TABLE
  2
BLOCK_RECORD
  5
1
330
0
100
AcDbSymbolTable
 70
    10
  0
BLOCK_RECORD
  5
1F
102
{ACAD_XDICTIONARY
360
15D
102
}
330
1
100
AcDbSymbolTableRecord
100
AcDbBlockTableRecord
  2
*Model_Space
340
22
 70
     0
280
     1
281
     0
  0
BLOCK_RECORD
  5
58
330
1
100
AcDbSymbolTableRecord
100
AcDbBlockTableRecord
  2
*Paper_Space
340
59
 70
     0
280
     1
281
     0
  0
BLOCK_RECORD
  5
5D
330
1
100
AcDbSymbolTableRecord
100
AcDbBlockTableRecord
  2
*Paper_Space0
340
5E
 70
     0
280
     1
281
     0
  0
BLOCK_RECORD
  5
230
330
1
100
AcDbSymbolTableRecord
100
AcDbBlockTableRecord
  2
*D1
340
0
 70
     0
280
     1
281
     0
  0
BLOCK_RECORD
  5
23D
330
1
100
AcDbSymbolTableRecord
100
AcDbBlockTableRecord
  2
*D2
340
0
 70
     0
280
     1
281
     0
  0
BLOCK_RECORD
  5
24A
330
1
100
AcDbSymbolTableRecord
100
AcDbBlockTableRecord
  2
*D3
340
0
 70
     0
280
     1
281
     0
  0
BLOCK_RECORD
  5
257
330
1
100
AcDbSymbolTableRecord
100
AcDbBlockTableRecord
  2
*D4
340
0
 70
     0
280
     1
281
     0
  0
BLOCK_RECORD
  5
3F8
330
1
100
AcDbSymbolTableRecord
100
AcDbBlockTableRecord
  2
*D6
340
0
 70
     0
280
     1
281
     0
  0
BLOCK_RECORD
  5
405
330
1
100
AcDbSymbolTableRecord
100
AcDbBlockTableRecord
  2
*D7
340
0
 70
     0
280
     1
281
     0
  0
BLOCK_RECORD
  5
412
330
1
100
AcDbSymbolTableRecord
100
AcDbBlockTableRecord
  2
*D8
340
0
 70
     0
280
     1
281
     0
  0
BLOCK_RECORD
  5
41F
330
1
100
AcDbSymbolTableRecord
100
AcDbBlockTableRecord
  2
*D9
340
0
 70
     0
280
     1
281
     0
  0
ENDTAB
  0
ENDSEC
  0
SECTION
  2
BLOCKS
  0
BLOCK
  5
20
330
1F
100
AcDbEntity
  8
0
100
AcDbBlockBegin
  2
*Model_Space
 70
     0
 10
0.0
 20
0.0
 30
0.0
  3
*Model_Space
  1

  0
ENDBLK
  5
21
330
1F
100
AcDbEntity
  8
0
100
AcDbBlockEnd
  0
BLOCK
  5
5A
330
58
100
AcDbEntity
 67
     1
  8
0
100
AcDbBlockBegin
  2
*Paper_Space
 70
     0
 10
0.0
 20
0.0
 30
0.0
  3
*Paper_Space
  1

  0
ENDBLK
  5
5B
330
58
100
AcDbEntity
 67
     1
  8
0
100
AcDbBlockEnd
  0
BLOCK
  5
5F
330
5D
100
AcDbEntity
 67
     1
  8
0
100
AcDbBlockBegin
  2
*Paper_Space0
 70
     0
 10
0.0
 20
0.0
 30
0.0
  3
*Paper_Space0
  1

  0
ENDBLK
  5
60
330
5D
100
AcDbEntity
 67
     1
  8
0
100
AcDbBlockEnd
  0
BLOCK
  5
231
330
230
100
AcDbEntity
  8
0
100
AcDbBlockBegin
  2
*D1
 70
     1
 10
0.0
 20
0.0
 30
0.0
  3
*D1
  1

  0
LINE
  5
232
330
230
100
AcDbEntity
  8
Notes
 62
     0
440
 16777216
370
    -2
100
AcDbLine
 10
29.43809383583289
 20
-4.863775695503464
 30
0.0
 11
29.43809383583289
 21
-4.559334209311868
 31
0.0
  0
LINE
  5
233
330
230
100
AcDbEntity
  8
Notes
 62
     0
440
 16777216
370
    -2
100
AcDbLine
 10
29.39309383583289
 20
-4.863775695503464
 30
0.0
 11
29.39309383583289
 21
-4.559334209311868
 31
0.0
  0
LINE
  5
234
330
230
100
AcDbEntity
  8
Notes
 62
     0
440
 16777216
370
    -2
100
AcDbLine
 10
29.47559383583289
 20
-4.596834209311868
 30
0.0
 11
29.51309383583289
 21
-4.596834209311868
 31
0.0
  0
LINE
  5
235
330
230
100
AcDbEntity
  8
Notes
 62
     0
440
 16777216
370
    -2
100
AcDbLine
 10
29.35559383583289
 20
-4.596834209311868
 30
0.0
 11
29.06883704873657
 21
-4.596834209311868
 31
0.0
  0
SOLID
  5
236
330
230
100
AcDbEntity
  8
Notes
 62
     0
440
 16777216
100
AcDbTrace
 10
29.47559383583289
 20
-4.590584209311868
 30
0.0
 11
29.47559383583289
 21
-4.603084209311868
 31
0.0
 12
29.43809383583289
 22
-4.596834209311868
 32
0.0
 13
29.43809383583289
 23
-4.596834209311868
 33
0.0
  0
SOLID
  5
237
330
230
100
AcDbEntity
  8
Notes
 62
     0
440
 16777216
100
AcDbTrace
 10
29.35559383583289
 20
-4.590584209311868
 30
0.0
 11
29.35559383583289
 21
-4.603084209311868
 31
0.0
 12
29.39309383583289
 22
-4.596834209311868
 32
0.0
 13
29.39309383583289
 23
-4.596834209311868
 33
0.0
  0
MTEXT
  5
238
330
230
100
AcDbEntity
  8
Notes
 62
     0
440
 16777216
100
AcDbMText
 10
29.05601109698696
 20
-4.596834209311868
 30
0.0
 40
0.027
 41
0.352959965532154
 46
0.0
 71
     6
 72
     1
  1
\A1;1x 50 Ohm\PTransmission Line
  7
Arial
 73
     1
 44
1.0
  0
POINT
  5
239
330
230
100
AcDbEntity
  8
Defpoints
 62
     0
440
 16777216
100
AcDbPoint
 10
29.43809383583289
 20
-4.893775695503464
 30
0.0
  0
POINT
  5
23A
330
230
100
AcDbEntity
  8
Defpoints
 62
     0
440
 16777216
100
AcDbPoint
 10
29.39309383583289
 20
-4.893775695503464
 30
0.0
  0
POINT
  5
23B
330
230
100
AcDbEntity
  8
Defpoints
 62
     0
440
 16777216
100
AcDbPoint
 10
29.39309383583289
 20
-4.596834209311868
 30
0.0
  0
ENDBLK
  5
23C
330
230
100
AcDbEntity
  8
0
100
AcDbBlockEnd
  0
BLOCK
  5
23E
330
23D
100
AcDbEntity
  8
0
100
AcDbBlockBegin
  2
*D2
 70
     1
 10
0.0
 20
0.0
 30
0.0
  3
*D2
  1

  0
LINE
  5
23F
330
23D
100
AcDbEntity
  8
Notes
 62
     0
440
 16777216
370
    -2
100
AcDbLine
 10
29.00014383583221
 20
-6.247104413486069
 30
0.0
 11
29.00014383583221
 21
-6.444229257764456
 31
0.0
  0
LINE
  5
240
330
23D
100
AcDbEntity
  8
Notes
 62
     0
440
 16777216
370
    -2
100
AcDbLine
 10
28.93514383583221
 20
-6.247104413486069
 30
0.0
 11
28.93514383583221
 21
-6.444229257764456
 31
0.0
  0
LINE
  5
241
330
23D
100
AcDbEntity
  8
Notes
 62
     0
440
 16777216
370
    -2
100
AcDbLine
 10
29.03764383583221
 20
-6.406729257764457
 30
0.0
 11
29.07514383583221
 21
-6.406729257764457
 31
0.0
  0
LINE
  5
242
330
23D
100
AcDbEntity
  8
Notes
 62
     0
440
 16777216
370
    -2
100
AcDbLine
 10
28.89764383583221
 20
-6.406729257764457
 30
0.0
 11
28.84491927413624
 21
-6.406729257764457
 31
0.0
  0
SOLID
  5
243
330
23D
100
AcDbEntity
  8
Notes
 62
     0
440
 16777216
100
AcDbTrace
 10
29.03764383583221
 20
-6.400479257764457
 30
0.0
 11
29.03764383583221
 21
-6.412979257764456
 31
0.0
 12
29.00014383583221
 22
-6.406729257764457
 32
0.0
 13
29.00014383583221
 23
-6.406729257764457
 33
0.0
  0
SOLID
  5
244
330
23D
100
AcDbEntity
  8
Notes
 62
     0
440
 16777216
100
AcDbTrace
 10
28.89764383583221
 20
-6.400479257764457
 30
0.0
 11
28.89764383583221
 21
-6.412979257764456
 31
0.0
 12
28.93514383583221
 22
-6.406729257764457
 32
0.0
 13
28.93514383583221
 23
-6.406729257764457
 33
0.0
  0
MTEXT
  5
245
330
23D
100
AcDbEntity
  8
Notes
 62
     0
440
 16777216
100
AcDbMText
 10
28.83209332238662
 20
-6.406729257764457
 30
0.0
 40
0.027
 41
0.352959965532154
 46
0.0
 71
     6
 72
     1
  1
\A1;2x 25 Ohm\PTransmission Line
  7
Arial
 73
     1
 44
1.0
  0
POINT
  5
246
330
23D
100
AcDbEntity
  8
Defpoints
 62
     0
440
 16777216
100
AcDbPoint
 10
29.00014383583221
 20
-6.217104413486069
 30
0.0
  0
POINT
  5
247
330
23D
100
AcDbEntity
  8
Defpoints
 62
     0
440
 16777216
100
AcDbPoint
 10
28.93514383583221
 20
-6.217104413486069
 30
0.0
  0
POINT
  5
248
330
23D
100
AcDbEntity
  8
Defpoints
 62
     0
440
 16777216
100
AcDbPoint
 10
28.93514383583221
 20
-6.406729257764457
 30
0.0
  0
ENDBLK
  5
249
330
23D
100
AcDbEntity
  8
0
100
AcDbBlockEnd
  0
BLOCK
  5
24B
330
24A
100
AcDbEntity
  8
0
100
AcDbBlockBegin
  2
*D3
 70
     1
 10
0.0
 20
0.0
 30
0.0
  3
*D3
  1

  0
LINE
  5
24C
330
24A
100
AcDbEntity
  8
Notes
 62
     0
440
 16777216
370
    -2
100
AcDbLine
 10
29.73614383583362
 20
-6.247104413486076
 30
0.0
 11
29.73614383583362
 21
-6.410355392332343
 31
0.0
  0
LINE
  5
24D
330
24A
100
AcDbEntity
  8
Notes
 62
     0
440
 16777216
370
    -2
100
AcDbLine
 10
29.77014383583366
 20
-6.244480386945652
 30
0.0
 11
29.77014383583366
 21
-6.410355392332343
 31
0.0
  0
LINE
  5
24E
330
24A
100
AcDbEntity
  8
Notes
 62
     0
440
 16777216
370
    -2
100
AcDbLine
 10
29.80764383583366
 20
-6.372855392332343
 30
0.0
 11
29.84514383583365
 21
-6.372855392332343
 31
0.0
  0
LINE
  5
24F
330
24A
100
AcDbEntity
  8
Notes
 62
     0
440
 16777216
370
    -2
100
AcDbLine
 10
29.69864383583362
 20
-6.372855392332343
 30
0.0
 11
29.59924845762785
 21
-6.372855392332343
 31
0.0
  0
SOLID
  5
250
330
24A
100
AcDbEntity
  8
Notes
 62
     0
440
 16777216
100
AcDbTrace
 10
29.80764383583366
 20
-6.366605392332344
 30
0.0
 11
29.80764383583366
 21
-6.379105392332343
 31
0.0
 12
29.77014383583366
 22
-6.372855392332343
 32
0.0
 13
29.77014383583366
 23
-6.372855392332343
 33
0.0
  0
SOLID
  5
251
330
24A
100
AcDbEntity
  8
Notes
 62
     0
440
 16777216
100
AcDbTrace
 10
29.69864383583362
 20
-6.366605392332344
 30
0.0
 11
29.69864383583362
 21
-6.379105392332343
 31
0.0
 12
29.73614383583362
 22
-6.372855392332343
 32
0.0
 13
29.73614383583362
 23
-6.372855392332343
 33
0.0
  0
MTEXT
  5
252
330
24A
100
AcDbEntity
  8
Notes
 62
     0
440
 16777216
100
AcDbMText
 10
29.62934395395598
 20
-6.372855392332343
 30
0.0
 40
0.027
 41
0.5206316474993891
 46
0.0
 71
     6
 72
     1
  1
\A1;4x 25 Ohm\PTransmission Line Gap
  7
Arial
 73
     1
 44
1.0
  0
POINT
  5
253
330
24A
100
AcDbEntity
  8
Defpoints
 62
     0
440
 16777216
100
AcDbPoint
 10
29.73614383583362
 20
-6.217104413486076
 30
0.0
  0
POINT
  5
254
330
24A
100
AcDbEntity
  8
Defpoints
 62
     0
440
 16777216
100
AcDbPoint
 10
29.77014383583366
 20
-6.214480386945652
 30
0.0
  0
POINT
  5
255
330
24A
100
AcDbEntity
  8
Defpoints
 62
     0
440
 16777216
100
AcDbPoint
 10
29.77014383583366
 20
-6.372855392332343
 30
0.0
  0
ENDBLK
  5
256
330
24A
100
AcDbEntity
  8
0
100
AcDbBlockEnd
  0
BLOCK
  5
258
330
257
100
AcDbEntity
  8
0
100
AcDbBlockBegin
  2
*D4
 70
     1
 10
0.0
 20
0.0
 30
0.0
  3
*D4
  1

  0
LINE
  5
259
330
257
100
AcDbEntity
  8
Notes
 62
     0
440
 16777216
370
    -2
100
AcDbLine
 10
29.43809383583289
 20
-4.863775695503449
 30
0.0
 11
29.43809383583289
 21
-4.692493437918853
 31
0.0
  0
LINE
  5
25A
330
257
100
AcDbEntity
  8
Notes
 62
     0
440
 16777216
370
    -2
100
AcDbLine
 10
29.46841916535272
 20
-4.893387498866219
 30
0.0
 11
29.46841916535272
 21
-4.692493437918853
 31
0.0
  0
LINE
  5
25B
330
257
100
AcDbEntity
  8
Notes
 62
     0
440
 16777216
370
    -2
100
AcDbLine
 10
29.40059383583289
 20
-4.729993437918853
 30
0.0
 11
29.36309383583289
 21
-4.729993437918853
 31
0.0
  0
LINE
  5
25C
330
257
100
AcDbEntity
  8
Notes
 62
     0
440
 16777216
370
    -2
100
AcDbLine
 10
29.50591916535272
 20
-4.729993437918853
 30
0.0
 11
29.58609383583291
 21
-4.729993437918853
 31
0.0
  0
SOLID
  5
25D
330
257
100
AcDbEntity
  8
Notes
 62
     0
440
 16777216
100
AcDbTrace
 10
29.40059383583289
 20
-4.723743437918853
 30
0.0
 11
29.40059383583289
 21
-4.736243437918853
 31
0.0
 12
29.43809383583289
 22
-4.729993437918853
 32
0.0
 13
29.43809383583289
 23
-4.729993437918853
 33
0.0
  0
SOLID
  5
25E
330
257
100
AcDbEntity
  8
Notes
 62
     0
440
 16777216
100
AcDbTrace
 10
29.50591916535272
 20
-4.723743437918853
 30
0.0
 11
29.50591916535272
 21
-4.736243437918853
 31
0.0
 12
29.46841916535272
 22
-4.729993437918853
 32
0.0
 13
29.46841916535272
 23
-4.729993437918853
 33
0.0
  0
MTEXT
  5
25F
330
257
100
AcDbEntity
  8
Notes
 62
     0
440
 16777216
100
AcDbMText
 10
30.07662998700416
 20
-4.729993437918853
 30
0.0
 40
0.027
 41
0.5206316474993891
 46
0.0
 71
     6
 72
     1
  1
\A1;2x 50 Ohm\PTransmission Line Gap
  7
Arial
 73
     1
 44
1.0
  0
POINT
  5
260
330
257
100
AcDbEntity
  8
Defpoints
 62
     0
440
 16777216
100
AcDbPoint
 10
29.43809383583289
 20
-4.89377569550345
 30
0.0
  0
POINT
  5
261
330
257
100
AcDbEntity
  8
Defpoints
 62
     0
440
 16777216
100
AcDbPoint
 10
29.46841916535272
 20
-4.923387498866219
 30
0.0
  0
POINT
  5
262
330
257
100
AcDbEntity
  8
Defpoints
 62
     0
440
 16777216
100
AcDbPoint
 10
29.46841916535272
 20
-4.729993437918853
 30
0.0
  0
ENDBLK
  5
263
330
257
100
AcDbEntity
  8
0
100
AcDbBlockEnd
  0
BLOCK
  5
3F9
330
3F8
100
AcDbEntity
  8
0
100
AcDbBlockBegin
  2
*D6
 70
     1
 10
0.0
 20
0.0
 30
0.0
  3
*D6
  1

  0
LINE
  5
42C
330
3F8
100
AcDbEntity
  8
Notes
 62
     0
440
 16777216
370
    -2
100
AcDbLine
 10
0.0432712709592202
 20
0.701049792878205
 30
0.0
 11
0.0432712709592203
 21
1.0054912790698
 31
0.0
  0
LINE
  5
42D
330
3F8
100
AcDbEntity
  8
Notes
 62
     0
440
 16777216
370
    -2
100
AcDbLine
 10
-0.0017287290407815
 20
0.701049792878205
 30
0.0
 11
-0.0017287290407815
 21
1.0054912790698
 31
0.0
  0
LINE
  5
42E
330
3F8
100
AcDbEntity
  8
Notes
 62
     0
440
 16777216
370
    -2
100
AcDbLine
 10
0.0807712709592203
 20
0.9679912790698006
 30
0.0
 11
0.1182712709592202
 21
0.9679912790698006
 31
0.0
  0
LINE
  5
42F
330
3F8
100
AcDbEntity
  8
Notes
 62
     0
440
 16777216
370
    -2
100
AcDbLine
 10
-0.0392287290407815
 20
0.9679912790698006
 30
0.0
 11
-0.3259855161370968
 21
0.9679912790698006
 31
0.0
  0
SOLID
  5
430
330
3F8
100
AcDbEntity
  8
Notes
 62
     0
440
 16777216
100
AcDbTrace
 10
0.0807712709592203
 20
0.9742412790698006
 30
0.0
 11
0.0807712709592203
 21
0.9617412790698006
 31
0.0
 12
0.0432712709592203
 22
0.9679912790698006
 32
0.0
 13
0.0432712709592203
 23
0.9679912790698006
 33
0.0
  0
SOLID
  5
431
330
3F8
100
AcDbEntity
  8
Notes
 62
     0
440
 16777216
100
AcDbTrace
 10
-0.0392287290407815
 20
0.9742412790698006
 30
0.0
 11
-0.0392287290407815
 21
0.9617412790698006
 31
0.0
 12
-0.0017287290407815
 22
0.9679912790698006
 32
0.0
 13
-0.0017287290407815
 23
0.9679912790698006
 33
0.0
  0
MTEXT
  5
432
330
3F8
100
AcDbEntity
  8
Notes
 62
     0
440
 16777216
100
AcDbMText
 10
-0.3388114678867087
 20
0.9679912790698006
 30
0.0
 40
0.027
 41
0.352959965532154
 46
0.0
 71
     6
 72
     1
  1
\A1;1x 50 Ohm\PTransmission Line
  7
Arial
 73
     1
 44
1.0
  0
POINT
  5
433
330
3F8
100
AcDbEntity
  8
Defpoints
 62
     0
440
 16777216
100
AcDbPoint
 10
0.0432712709592202
 20
0.6710497928782049
 30
0.0
  0
POINT
  5
434
330
3F8
100
AcDbEntity
  8
Defpoints
 62
     0
440
 16777216
100
AcDbPoint
 10
-0.0017287290407815
 20
0.6710497928782049
 30
0.0
  0
POINT
  5
435
330
3F8
100
AcDbEntity
  8
Defpoints
 62
     0
440
 16777216
100
AcDbPoint
 10
-0.0017287290407815
 20
0.9679912790698006
 30
0.0
  0
ENDBLK
  5
3FA
330
3F8
100
AcDbEntity
  8
0
100
AcDbBlockEnd
  0
BLOCK
  5
406
330
405
100
AcDbEntity
  8
0
100
AcDbBlockBegin
  2
*D7
 70
     1
 10
0.0
 20
0.0
 30
0.0
  3
*D7
  1

  0
LINE
  5
436
330
405
100
AcDbEntity
  8
Notes
 62
     0
440
 16777216
370
    -2
100
AcDbLine
 10
-0.3946787290414555
 20
-0.6822789251044002
 30
0.0
 11
-0.3946787290414555
 21
-0.8794037693827879
 31
0.0
  0
LINE
  5
437
330
405
100
AcDbEntity
  8
Notes
 62
     0
440
 16777216
370
    -2
100
AcDbLine
 10
-0.4596787290414568
 20
-0.6822789251044002
 30
0.0
 11
-0.4596787290414568
 21
-0.8794037693827879
 31
0.0
  0
LINE
  5
438
330
405
100
AcDbEntity
  8
Notes
 62
     0
440
 16777216
370
    -2
100
AcDbLine
 10
-0.3571787290414555
 20
-0.8419037693827879
 30
0.0
 11
-0.3196787290414555
 21
-0.8419037693827879
 31
0.0
  0
LINE
  5
439
330
405
100
AcDbEntity
  8
Notes
 62
     0
440
 16777216
370
    -2
100
AcDbLine
 10
-0.4971787290414568
 20
-0.8419037693827879
 30
0.0
 11
-0.5499032907374346
 21
-0.8419037693827879
 31
0.0
  0
SOLID
  5
43A
330
405
100
AcDbEntity
  8
Notes
 62
     0
440
 16777216
100
AcDbTrace
 10
-0.3571787290414555
 20
-0.8356537693827879
 30
0.0
 11
-0.3571787290414555
 21
-0.8481537693827879
 31
0.0
 12
-0.3946787290414555
 22
-0.8419037693827879
 32
0.0
 13
-0.3946787290414555
 23
-0.8419037693827879
 33
0.0
  0
SOLID
  5
43B
330
405
100
AcDbEntity
  8
Notes
 62
     0
440
 16777216
100
AcDbTrace
 10
-0.4971787290414568
 20
-0.8356537693827879
 30
0.0
 11
-0.4971787290414568
 21
-0.8481537693827879
 31
0.0
 12
-0.4596787290414568
 22
-0.8419037693827879
 32
0.0
 13
-0.4596787290414568
 23
-0.8419037693827879
 33
0.0
  0
MTEXT
  5
43C
330
405
100
AcDbEntity
  8
Notes
 62
     0
440
 16777216
100
AcDbMText
 10
-0.5627292424870465
 20
-0.8419037693827879
 30
0.0
 40
0.027
 41
0.352959965532154
 46
0.0
 71
     6
 72
     1
  1
\A1;2x 25 Ohm\PTransmission Line
  7
Arial
 73
     1
 44
1.0
  0
POINT
  5
43D
330
405
100
AcDbEntity
  8
Defpoints
 62
     0
440
 16777216
100
AcDbPoint
 10
-0.3946787290414555
 20
-0.6522789251044001
 30
0.0
  0
POINT
  5
43E
330
405
100
AcDbEntity
  8
Defpoints
 62
     0
440
 16777216
100
AcDbPoint
 10
-0.4596787290414568
 20
-0.6522789251044001
 30
0.0
  0
POINT
  5
43F
330
405
100
AcDbEntity
  8
Defpoints
 62
     0
440
 16777216
100
AcDbPoint
 10
-0.4596787290414568
 20
-0.8419037693827879
 30
0.0
  0
ENDBLK
  5
407
330
405
100
AcDbEntity
  8
0
100
AcDbBlockEnd
  0
BLOCK
  5
413
330
412
100
AcDbEntity
  8
0
100
AcDbBlockBegin
  2
*D8
 70
     1
 10
0.0
 20
0.0
 30
0.0
  3
*D8
  1

  0
LINE
  5
440
330
412
100
AcDbEntity
  8
Notes
 62
     0
440
 16777216
370
    -2
100
AcDbLine
 10
0.3413212709599556
 20
-0.6822789251044073
 30
0.0
 11
0.3413212709599556
 21
-0.8455299039506746
 31
0.0
  0
LINE
  5
441
330
412
100
AcDbEntity
  8
Notes
 62
     0
440
 16777216
370
    -2
100
AcDbLine
 10
0.3753212709599865
 20
-0.6796548985639833
 30
0.0
 11
0.3753212709599865
 21
-0.8455299039506746
 31
0.0
  0
LINE
  5
442
330
412
100
AcDbEntity
  8
Notes
 62
     0
440
 16777216
370
    -2
100
AcDbLine
 10
0.4128212709599865
 20
-0.8080299039506746
 30
0.0
 11
0.4503212709599865
 21
-0.8080299039506746
 31
0.0
  0
LINE
  5
443
330
412
100
AcDbEntity
  8
Notes
 62
     0
440
 16777216
370
    -2
100
AcDbLine
 10
0.3038212709599556
 20
-0.8080299039506746
 30
0.0
 11
0.2044258927541764
 21
-0.8080299039506746
 31
0.0
  0
SOLID
  5
444
330
412
100
AcDbEntity
  8
Notes
 62
     0
440
 16777216
100
AcDbTrace
 10
0.4128212709599865
 20
-0.8017799039506746
 30
0.0
 11
0.4128212709599865
 21
-0.8142799039506746
 31
0.0
 12
0.3753212709599865
 22
-0.8080299039506746
 32
0.0
 13
0.3753212709599865
 23
-0.8080299039506746
 33
0.0
  0
SOLID
  5
445
330
412
100
AcDbEntity
  8
Notes
 62
     0
440
 16777216
100
AcDbTrace
 10
0.3038212709599556
 20
-0.8017799039506746
 30
0.0
 11
0.3038212709599556
 21
-0.8142799039506746
 31
0.0
 12
0.3413212709599556
 22
-0.8080299039506746
 32
0.0
 13
0.3413212709599556
 23
-0.8080299039506746
 33
0.0
  0
MTEXT
  5
446
330
412
100
AcDbEntity
  8
Notes
 62
     0
440
 16777216
100
AcDbMText
 10
0.2345213890823157
 20
-0.8080299039506746
 30
0.0
 40
0.027
 41
0.5206316474993891
 46
0.0
 71
     6
 72
     1
  1
\A1;4x 25 Ohm\PTransmission Line Gap
  7
Arial
 73
     1
 44
1.0
  0
POINT
  5
447
330
412
100
AcDbEntity
  8
Defpoints
 62
     0
440
 16777216
100
AcDbPoint
 10
0.3413212709599556
 20
-0.6522789251044073
 30
0.0
  0
POINT
  5
448
330
412
100
AcDbEntity
  8
Defpoints
 62
     0
440
 16777216
100
AcDbPoint
 10
0.3753212709599865
 20
-0.6496548985639832
 30
0.0
  0
POINT
  5
449
330
412
100
AcDbEntity
  8
Defpoints
 62
     0
440
 16777216
100
AcDbPoint
 10
0.3753212709599865
 20
-0.8080299039506746
 30
0.0
  0
ENDBLK
  5
414
330
412
100
AcDbEntity
  8
0
100
AcDbBlockEnd
  0
BLOCK
  5
420
330
41F
100
AcDbEntity
  8
0
100
AcDbBlockBegin
  2
*D9
 70
     1
 10
0.0
 20
0.0
 30
0.0
  3
*D9
  1

  0
LINE
  5
44A
330
41F
100
AcDbEntity
  8
Notes
 62
     0
440
 16777216
370
    -2
100
AcDbLine
 10
0.0432712709592202
 20
0.7010497928782192
 30
0.0
 11
0.0432712709592203
 21
0.8723320504628157
 31
0.0
  0
LINE
  5
44B
330
41F
100
AcDbEntity
  8
Notes
 62
     0
440
 16777216
370
    -2
100
AcDbLine
 10
0.0735966004790463
 20
0.6714379895154499
 30
0.0
 11
0.0735966004790463
 21
0.8723320504628157
 31
0.0
  0
LINE
  5
44C
330
41F
100
AcDbEntity
  8
Notes
 62
     0
440
 16777216
370
    -2
100
AcDbLine
 10
0.0057712709592202
 20
0.8348320504628157
 30
0.0
 11
-0.0317287290407798
 21
0.8348320504628157
 31
0.0
  0
LINE
  5
44D
330
41F
100
AcDbEntity
  8
Notes
 62
     0
440
 16777216
370
    -2
100
AcDbLine
 10
0.1110966004790463
 20
0.8348320504628157
 30
0.0
 11
0.1912712709592417
 21
0.8348320504628157
 31
0.0
  0
SOLID
  5
44E
330
41F
100
AcDbEntity
  8
Notes
 62
     0
440
 16777216
100
AcDbTrace
 10
0.0057712709592202
 20
0.8410820504628157
 30
0.0
 11
0.0057712709592202
 21
0.8285820504628157
 31
0.0
 12
0.0432712709592203
 22
0.8348320504628157
 32
0.0
 13
0.0432712709592203
 23
0.8348320504628157
 33
0.0
  0
SOLID
  5
44F
330
41F
100
AcDbEntity
  8
Notes
 62
     0
440
 16777216
100
AcDbTrace
 10
0.1110966004790463
 20
0.8410820504628157
 30
0.0
 11
0.1110966004790463
 21
0.8285820504628157
 31
0.0
 12
0.0735966004790463
 22
0.8348320504628157
 32
0.0
 13
0.0735966004790463
 23
0.8348320504628157
 33
0.0
  0
MTEXT
  5
450
330
41F
100
AcDbEntity
  8
Notes
 62
     0
440
 16777216
100
AcDbMText
 10
0.6818074221304915
 20
0.8348320504628157
 30
0.0
 40
0.027
 41
0.5206316474993891
 46
0.0
 71
     6
 72
     1
  1
\A1;2x 50 Ohm\PTransmission Line Gap
  7
Arial
 73
     1
 44
1.0
  0
POINT
  5
451
330
41F
100
AcDbEntity
  8
Defpoints
 62
     0
440
 16777216
100
AcDbPoint
 10
0.0432712709592202
 20
0.6710497928782191
 30
0.0
  0
POINT
  5
452
330
41F
100
AcDbEntity
  8
Defpoints
 62
     0
440
 16777216
100
AcDbPoint
 10
0.0735966004790463
 20
0.6414379895154499
 30
0.0
  0
POINT
  5
453
330
41F
100
AcDbEntity
  8
Defpoints
 62
     0
440
 16777216
100
AcDbPoint
 10
0.0735966004790463
 20
0.8348320504628157
 30
0.0
  0
ENDBLK
  5
421
330
41F
100
AcDbEntity
  8
0
100
AcDbBlockEnd
  0
ENDSEC
  0
SECTION
  2
ENTITIES
  0
LWPOLYLINE
  5
33C
330
1F
100
AcDbEntity
  8
Component_Outline
100
AcDbPolyline
 90
       24
 70
     1
 43
0.0
 10
-0.4937787290407805
 20
0.3556510900186449
 10
-0.4937787290407805
 20
-0.3368802222406177
 42
-0.198621765862758
 10
-0.4858963477886356
 20
-0.3576145661099037
 10
-0.3949971350874897
 20
-0.3576145661099037
 42
-0.192582403581305
 10
-0.3749971350863497
 20
-0.3656145661109864
 10
-0.1796169535309602
 20
-0.3656145661109864
 42
-0.3833007060639017
 10
-0.0987405045507366
 20
-0.3656145661109864
 10
-0.0196169535309636
 20
-0.3656145661109864
 42
-0.3833007060639017
 10
0.06125949544926
 20
-0.3656145661109864
 10
0.2574396770047898
 20
-0.3656145661109864
 42
-0.1925824035813129
 10
0.2774396770059333
 20
-0.3576145661099037
 10
0.3683388897070756
 20
-0.3576145661099037
 42
-0.1986217658627532
 10
0.3762212709592205
 20
-0.3368802222406177
 10
0.3762212709592205
 20
0.3556510900186449
 42
-0.1986217658627528
 10
0.3683388897070756
 20
0.3763854338879309
 10
0.2774396770059333
 20
0.3763854338879309
 42
-0.1925824035813129
 10
0.2574396770047898
 20
0.3843854338890136
 10
0.0612594954514201
 20
0.3843854338890136
 42
-0.3833007060913899
 10
-0.0196169535331201
 20
0.3843854338890136
 10
-0.0987405045485765
 20
0.3843854338890136
 42
-0.3833007060913899
 10
-0.1796169535331167
 20
0.3843854338890136
 10
-0.3749971350863497
 20
0.3843854338890136
 42
-0.192582403581305
 10
-0.3949971350874897
 20
0.3763854338879309
 10
-0.4858963477886356
 20
0.3763854338879309
 42
-0.1986217658627598
  0
CIRCLE
  5
33D
330
1F
100
AcDbEntity
  8
Component_Outline
100
AcDbCircle
 10
0.137321270958946
 20
0.3533854338886275
 30
0.0
 40
0.01
  0
LWPOLYLINE
  5
33E
330
1F
100
AcDbEntity
  8
Component_Pads
100
AcDbPolyline
 90
       13
 70
     1
 43
0.0
 10
-0.4937787290407805
 20
-0.3251659207097237
 10
-0.4937787290407805
 20
-0.3368802222406177
 42
-0.198621765862758
 10
-0.4858963477886356
 20
-0.3576145661099037
 10
-0.3949971350874897
 20
-0.3576145661099037
 42
-0.192582403581305
 10
-0.3749971350863497
 20
-0.3656145661109864
 10
-0.3633269598425421
 20
-0.3656145661109864
 42
0.0087824814470431
 10
-0.3640840568509951
 20
-0.3645152087901895
 10
-0.3640840568509951
 20
-0.3596145661109862
 10
-0.3621787290414566
 20
-0.3596145661109862
 10
-0.3621787290414566
 20
-0.3216145661151959
 10
-0.4877787290407803
 20
-0.3216145661151959
 10
-0.4877787290407803
 20
-0.325413581553784
 10
-0.4934127858800821
 20
-0.325413581553784
 42
0.0029054312825411
  0
LWPOLYLINE
  5
33F
330
1F
100
AcDbEntity
  8
Component_Pads
100
AcDbPolyline
 90
       13
 70
     0
 43
0.0
 10
0.3762212709592241
 20
-0.3251659207097237
 10
0.3762212709592241
 20
-0.3249339388544374
 10
0.3702212709592239
 20
-0.3249339388544374
 10
0.3702212709592239
 20
-0.321614566115203
 10
0.243821270959959
 20
-0.321614566115203
 10
0.243821270959959
 20
-0.3596145661109862
 10
0.2457695017623642
 20
-0.3596145661109862
 10
0.2457695017606944
 20
-0.3656145661109864
 10
0.2574396770047898
 20
-0.3656145661109864
 42
-0.1925824035813129
 10
0.2774396770059333
 20
-0.3576145661099037
 10
0.3683388897070756
 20
-0.3576145661099037
 42
-0.1986217658627532
 10
0.3762212709592205
 20
-0.3368802222406177
 10
0.3762212709592205
 20
-0.3249339388544365
  0
LWPOLYLINE
  5
340
330
1F
100
AcDbEntity
  8
Component_Pads
100
AcDbPolyline
 90
       46
 70
     1
 43
0.0
 10
0.3762212709592205
 20
0.3439367884877491
 10
0.3762212709592205
 20
0.3556510900186449
 42
-0.1986217658627528
 10
0.3683388897070756
 20
0.3763854338879309
 10
0.2774396770059333
 20
0.3763854338879309
 42
-0.1925824035813129
 10
0.2574396770047898
 20
0.3843854338890136
 10
0.2457695017609822
 20
0.3843854338890136
 42
0.0512265874042831
 10
0.2507001930905908
 20
0.3783854338890134
 10
0.1123212709592281
 20
0.3783854338890134
 10
0.1123212709592281
 20
0.2933854338890125
 10
-0.0707787290407858
 20
0.2933854338890125
 10
-0.0707787290407858
 20
0.3783854338890134
 10
-0.086214118213551
 20
0.3783854338890134
 10
-0.086214118213551
 20
0.3843854338890136
 10
-0.0987405045485765
 20
0.3843854338890136
 42
-0.3833007060913899
 10
-0.1796169535331167
 20
0.3843854338890136
 10
-0.1921433398681493
 20
0.3843854338890136
 10
-0.1921433398681493
 20
0.3783854338890134
 10
-0.3682576511721471
 20
0.3783854338890134
 42
0.0512265874042831
 10
-0.3633269598425421
 20
0.3843854338890136
 10
-0.3749971350863497
 20
0.3843854338890136
 42
-0.192582403581305
 10
-0.3949971350874897
 20
0.3763854338879309
 10
-0.4858963477886356
 20
0.3763854338879309
 42
-0.1986217658627598
 10
-0.4937787290407805
 20
0.3556510900186449
 10
-0.4937787290407805
 20
0.3439367884877509
 42
0.0513638969697442
 10
-0.4877787290407803
 20
0.3489069300745466
 10
-0.4877787290407803
 20
-0.2986145661151997
 10
-0.3391787290414605
 20
-0.2986145661151997
 10
-0.3391787290414605
 20
-0.3596145661109862
 10
-0.1921433398665009
 20
-0.3596145661109862
 10
-0.1921433398665009
 20
-0.3656145661109864
 10
-0.1796169535309602
 20
-0.3656145661109864
 42
-0.3833007060639017
 10
-0.0987405045507366
 20
-0.3656145661109864
 10
-0.0862141182151959
 20
-0.3656145661109864
 10
-0.0862141182151959
 20
-0.3596145661109862
 10
-0.0321433398665043
 20
-0.3596145661109862
 10
-0.0321433398665043
 20
-0.3656145661109864
 10
-0.0321433398665043
 20
-0.3656145661109864
 10
-0.0196169535309636
 20
-0.3656145661109864
 42
-0.3833007060639017
 10
0.06125949544926
 20
-0.3656145661109864
 10
0.0737858817848007
 20
-0.3656145661109864
 10
0.0737858817848007
 20
-0.3656145661109864
 10
0.0737858817848007
 20
-0.3596145661109862
 10
0.2208212709599628
 20
-0.3596145661109862
 10
0.2208212709599628
 20
-0.2986145661151997
 10
0.3702212709592239
 20
-0.2986145661151997
 10
0.3702212709592239
 20
0.3489069300745466
 42
0.0513638969697322
  0
LWPOLYLINE
  5
341
330
1F
100
AcDbEntity
  8
Component_Pads
100
AcDbPolyline
 90
       10
 70
     1
 43
0.0
 10
0.0737858817864456
 20
0.3843854338890136
 10
0.0612594954514201
 20
0.3843854338890136
 42
-0.3833007060913899
 10
-0.0196169535331201
 20
0.3843854338890136
 10
-0.0321433398681528
 20
0.3843854338890136
 10
-0.0321433398681528
 20
0.3783854338890134
 10
-0.0437787290407776
 20
0.3783854338890134
 10
-0.0437787290407776
 20
0.3203854338890135
 10
0.0853212709592164
 20
0.3203854338890135
 10
0.0853212709592164
 20
0.3783854338890134
 10
0.0737858817864456
 20
0.3783854338890134
  0
LWPOLYLINE
  5
342
330
1F
100
AcDbEntity
  8
PCB_Top
100
AcDbPolyline
 90
        5
 70
     1
 43
0.0
 10
0.0432712709592202
 20
0.6710497928782191
 10
0.0432712709592202
 20
0.3893854338890135
 10
-0.0017287290407815
 20
0.3893854338890135
 10
-0.0017287290407815
 20
0.6710497928782191
 42
-0.6578187733730747
 10
0.0211490295033414
 20
0.6710497928782191
 42
0.7115521451456692
  0
LWPOLYLINE
  5
343
330
1F
100
AcDbEntity
  8
PCB_Top
100
AcDbPolyline
 90
        5
 70
     1
 43
0.0
 10
-0.4596787290414568
 20
-0.6522789251044001
 10
-0.4596787290414568
 20
-0.3706145661151963
 10
-0.3946787290414555
 20
-0.3706145661151963
 10
-0.3946787290414555
 20
-0.6522789251044001
 42
-0.4813247739323174
 10
-0.4266703174282327
 20
-0.6551746241667092
 42
0.3836105632872154
  0
DIMENSION
  5
344
330
1F
100
AcDbEntity
  8
Notes
 62
     7
100
AcDbDimension
280
     0
  2
*D6
 10
-0.0017287290407815
 20
0.9679912790698006
 30
0.0
 11
-0.5152914506527857
 21
0.9679912790698006
 31
0.0
 70
   160
  1
1x 50 Ohm\PTransmission Line
 71
     6
 42
0.0450000000000017
 73
     0
 74
     0
 75
     0
  3
Mounting
100
AcDbAlignedDimension
 13
0.0432712709592202
 23
0.6710497928782049
 33
0.0
 14
-0.0017287290407815
 24
0.6710497928782049
 34
0.0
100
AcDbRotatedDimension
1001
ACAD
1000
DSTYLE
1002
{
1070
    41
1040
0.25
1070
    42
1040
0.2
1070
    44
1040
0.25
1070
   140
1040
0.18
1070
   147
1040
0.25
1002
}
  0
DIMENSION
  5
345
330
1F
100
AcDbEntity
  8
Notes
 62
     7
100
AcDbDimension
280
     0
  2
*D7
 10
-0.4596787290414568
 20
-0.8419037693827879
 30
0.0
 11
-0.7392092252531235
 21
-0.8419037693827879
 31
0.0
 70
   160
  1
2x 25 Ohm\PTransmission Line
 71
     6
 42
0.0650000000000013
 73
     0
 74
     0
 75
     0
  3
Mounting
100
AcDbAlignedDimension
 13
-0.3946787290414555
 23
-0.6522789251044001
 33
0.0
 14
-0.4596787290414568
 24
-0.6522789251044001
 34
0.0
100
AcDbRotatedDimension
1001
ACAD
1000
DSTYLE
1002
{
1070
    41
1040
0.25
1070
    42
1040
0.2
1070
    44
1040
0.25
1070
   140
1040
0.18
1070
   147
1040
0.25
1002
}
  0
MULTILEADER
  5
346
330
1F
100
AcDbEntity
  8
Notes
160
               852
310
54030000190000000C00000016000000000000C00C00000033000000000000000C00000013000000993A0000D800000026000000AAB7C672EE44EB3F26A60611E7CCBABF000000000000000000000000000000000000000000000000000000000000F03F000000000000F03F0000000000000000000000000000000050006C
310
00610074006500640020005400680072007500200048006F006C006500200054006F00000013000000010000009A9999999999993F000000000000F03F0000000000000000000000000000F03F00000000000000000000000000000000000000000000000000000000010000002200000041007200690061006C0000000000
310
6D0000000000B800000026000000BB3FEBD7C64BEB3F284BDF2EC1C9C2BF000000000000000000000000000000000000000000000000000000000000F03F000000000000F03F0000000000000000000000000000000047004E004400000003000000010000009A9999999999993F000000000000F03F000000000000000000
310
0000000000F03F00000000000000000000000000000000000000000000000000000000010000002200000041007200690061006C00000000007300000000000C00000033000000000000000C00000010000000030000000C00000016000000000000C00C00000012000000FF7F00000C00000013000000010000000C000000
310
140000000100000054000000070000000300000020511AB30BA5E03FE725E3383B00D4BF0000000000000000809D02F2BCFADF3FC04282D01EF5D4BF0000000000000000589F82364574E03F3F0A0591B4A0D3BF00000000000000000C00000014000000010000000C00000013000000891300003C00000006000000020000
310
003C78CE74A88CE03F1318F4E477D0D3BF000000000000000040F64607015BE73FC015DA2EACA7B7BF00000000000000000C00000013000000112700003C000000060000000200000040F64607015BE73FC015DA2EACA7B7BF000000000000000073297A3A348EEA3FC015DA2EACA7B7BF00000000000000000C0000001600
310
0000000000C00C00000012000000FF7F00000C00000017000000000000000C000000130000009A3A00000C00000016000000000000C00C00000012000000FF7F00000C00000017000000FFFFFFFF0C0000003300000000000000
100
AcDbMLeader
270
     2
300
CONTEXT_DATA{
 40
1.0
 10
0.8298588888294901
 20
-0.0924022306808956
 30
0.0
 41
0.025
140
0.025
145
0.025
174
     1
175
     1
176
     0
177
     0
290
     1
304
Plated Thru Hole To GND
 11
0.0
 21
0.0
 31
1.0
340
DC
 12
0.8548588888294901
 22
-0.0796890656058613
 32
0.0
 13
1.0
 23
0.0
 33
0.0
 42
0.0
 43
0.3698292346132204
 44
0.0
 45
1.0
170
     1
 90
-1073741824
171
     1
172
     5
 91
-1073741824
141
0.0
 92
        0
291
     0
292
     0
173
     0
293
     0
142
0.0
143
0.0
294
     0
295
     0
296
     0
110
0.6159306759656574
120
0.2116664239166566
130
0.0
111
1.0
121
0.0
131
0.0
112
0.0
122
1.0
132
0.0
297
     0
302
LEADER{
290
     1
291
     1
 10
0.7298588888294902
 20
-0.0924022306808956
 30
0.0
 11
1.0
 21
0.0
 31
0.0
 90
        0
 40
0.1
304
LEADER_LINE{
 10
0.4996788371449484
 20
-0.3274609600276044
 30
0.0
 91
        0
305
}
271
     0
303
}
272
     9
273
     9
301
}
340
277
 90
   345632
170
     1
 91
-1056964608
341
14
171
    -2
290
     1
291
     1
 41
0.1
 42
0.025
172
     2
343
DC
173
     1
 95
        1
174
     1
175
     0
 92
-1056964608
292
     0
 93
-1056964608
 10
1.0
 20
1.0
 30
1.0
 43
0.0
176
     0
293
     0
294
     0
178
     0
179
     1
 45
1.0
271
     0
272
     9
273
     9
295
     0
  0
DIMENSION
  5
347
330
1F
100
AcDbEntity
  8
Notes
 62
     7
100
AcDbDimension
280
     0
  2
*D8
 10
0.3753212709599865
 20
-0.8080299039506746
 30
0.0
 11
-0.0257944346673789
 21
-0.8080299039506746
 31
0.0
 70
   160
  1
4x 25 Ohm\PTransmission Line Gap
 71
     6
 42
0.0340000000000309
 73
     0
 74
     0
 75
     0
  3
Mounting
100
AcDbAlignedDimension
 13
0.3413212709599556
 23
-0.6522789251044073
 33
0.0
 14
0.3753212709599865
 24
-0.6496548985639832
 34
0.0
 50
180.0
100
AcDbRotatedDimension
1001
ACAD
1000
DSTYLE
1002
{
1070
    41
1040
0.25
1070
    42
1040
0.2
1070
    44
1040
0.25
1070
   140
1040
0.18
1070
   147
1040
0.25
1002
}
  0
DIMENSION
  5
348
330
1F
100
AcDbEntity
  8
Notes
 62
     7
100
AcDbDimension
280
     0
  2
*D9
 10
0.0735966004790463
 20
0.8348320504628157
 30
0.0
 11
0.421491598380797
 21
0.8348320504628157
 31
0.0
 70
   160
  1
2x 50 Ohm\PTransmission Line Gap
 71
     6
 42
0.030325329519826
 73
     0
 74
     0
 75
     0
  3
Mounting
100
AcDbAlignedDimension
 13
0.0432712709592202
 23
0.6710497928782191
 33
0.0
 14
0.0735966004790463
 24
0.6414379895154499
 34
0.0
 50
180.0
100
AcDbRotatedDimension
1001
ACAD
1000
DSTYLE
1002
{
1070
    41
1040
0.25
1070
    42
1040
0.2
1070
    44
1040
0.25
1070
   140
1040
0.18
1070
   147
1040
0.25
1002
}
  0
LWPOLYLINE
  5
349
330
1F
100
AcDbEntity
  8
PCB_Top
100
AcDbPolyline
 90
        5
 70
     1
 43
0.0
 10
0.2763212709599543
 20
-0.6522789251044073
 10
0.2763212709599543
 20
-0.3706145661152034
 10
0.3413212709599556
 20
-0.3706145661152034
 10
0.3413212709599556
 20
-0.6522789251044073
 42
-0.4813247739323174
 10
0.3093296825731784
 20
-0.6551746241667163
 42
0.3836105632872154
  0
LWPOLYLINE
  5
34A
330
1F
100
AcDbEntity
  8
PCB_Land_Pattern
100
AcDbPolyline
 90
       12
 70
     1
 43
0.0
 10
-0.5047787290407762
 20
0.3893854338890135
 10
-0.0707787290407609
 20
0.3893854338890135
 10
-0.0707787290407893
 20
0.2933854338890125
 10
0.1123212709592281
 20
0.2933854338890125
 10
0.1123212709592281
 20
0.3893854338890135
 10
0.3872212709592091
 20
0.3893854338890135
 10
0.387221270959305
 20
-0.2986145661152042
 10
0.2208212709599699
 20
-0.2986145661151793
 10
0.2208212709599771
 20
-0.3706145661152034
 10
-0.3391787290414463
 20
-0.3706145661152034
 10
-0.3391787290414605
 20
-0.2986145661151997
 10
-0.5047787290407975
 20
-0.2986145661151997
  0
LWPOLYLINE
  5
34B
330
1F
100
AcDbEntity
  8
PCB_Solder_Stencil
100
AcDbPolyline
 90
       12
 70
     1
 43
0.0
 10
-0.5027787290407773
 20
0.3873854338890137
 10
-0.0727787290407598
 20
0.3873854338890137
 10
-0.0727787290407882
 20
0.2913854338890127
 10
0.1143212709592269
 20
0.2913854338890127
 10
0.1143212709592269
 20
0.3873854338890137
 10
0.3852212709592102
 20
0.3873854338890137
 10
0.3852212709593061
 20
-0.2966145661152044
 10
0.2188212709599711
 20
-0.2966145661151795
 10
0.2188212709599782
 20
-0.3686145661152036
 10
-0.3371787290414474
 20
-0.3686145661152036
 10
-0.3371787290414616
 20
-0.2966145661152
 10
-0.5027787290407986
 20
-0.2966145661152
  0
LWPOLYLINE
  5
34C
330
1F
100
AcDbEntity
  8
PCB_Solder_Mask
100
AcDbPolyline
 90
       12
 70
     1
 43
0.0
 10
-0.5067787290407751
 20
0.3913854338890132
 10
-0.068778729040762
 20
0.3913854338890132
 10
-0.0687787290407904
 20
0.2953854338890123
 10
0.1103212709592292
 20
0.2953854338890123
 10
0.1103212709592292
 20
0.3913854338890132
 10
0.389221270959208
 20
0.3913854338890132
 10
0.3892212709593039
 20
-0.300614566115204
 10
0.2228212709599688
 20
-0.3006145661151791
 10
0.2228212709599759
 20
-0.3726145661152032
 10
-0.3411787290414452
 20
-0.3726145661152032
 10
-0.3411787290414594
 20
-0.3006145661151995
 10
-0.5067787290407964
 20
-0.3006145661151995
  0
LWPOLYLINE
  5
34D
330
1F
100
AcDbEntity
  8
PCB_Land_Pattern
100
AcDbPolyline
 90
        4
 70
     1
 43
0.0
 10
-0.3621787290414566
 20
-0.3216145661151959
 10
-0.4921787290414557
 20
-0.3216145661151959
 10
-0.4921787290414557
 20
-0.3706145661151963
 10
-0.3621787290414566
 20
-0.3706145661151963
  0
LWPOLYLINE
  5
34E
330
1F
100
AcDbEntity
  8
PCB_Solder_Mask
100
AcDbPolyline
 90
        4
 70
     1
 43
0.0
 10
-0.3601787290414578
 20
-0.3196145661151961
 10
-0.4941787290414546
 20
-0.3196145661151961
 10
-0.4941787290414546
 20
-0.372614566115196
 10
-0.3601787290414578
 20
-0.372614566115196
  0
LWPOLYLINE
  5
34F
330
1F
100
AcDbEntity
  8
PCB_Land_Pattern
100
AcDbPolyline
 90
        4
 70
     1
 43
0.0
 10
0.373821270959958
 20
-0.321614566115203
 10
0.243821270959959
 20
-0.321614566115203
 10
0.243821270959959
 20
-0.3706145661152034
 10
0.373821270959958
 20
-0.3706145661152034
  0
LWPOLYLINE
  5
350
330
1F
100
AcDbEntity
  8
PCB_Solder_Mask
100
AcDbPolyline
 90
        4
 70
     1
 43
0.0
 10
0.3758212709599569
 20
-0.3196145661152032
 10
0.2418212709599601
 20
-0.3196145661152032
 10
0.2418212709599601
 20
-0.3726145661152032
 10
0.3758212709599569
 20
-0.3726145661152032
  0
LWPOLYLINE
  5
351
330
1F
100
AcDbEntity
  8
PCB_Land_Pattern
100
AcDbPolyline
 90
        4
 70
     1
 43
0.0
 10
-0.0437787290407776
 20
0.3203854338890135
 10
0.0853212709592164
 20
0.3203854338890135
 10
0.0853212709592164
 20
0.3893854338890135
 10
-0.0437787290407776
 20
0.3893854338890135
  0
LWPOLYLINE
  5
352
330
1F
100
AcDbEntity
  8
PCB_Solder_Mask
100
AcDbPolyline
 90
        4
 70
     1
 43
0.0
 10
-0.0457787290407765
 20
0.3183854338890137
 10
0.0873212709592153
 20
0.3183854338890137
 10
0.0873212709592153
 20
0.3913854338890132
 10
-0.0457787290407765
 20
0.3913854338890132
  0
LWPOLYLINE
  5
353
330
1F
100
AcDbEntity
  8
PCB_Solder_Stencil
100
AcDbPolyline
 90
        4
 70
     1
 43
0.0
 10
-0.0437787290407776
 20
0.3203854338890135
 10
0.0853212709592164
 20
0.3203854338890135
 10
0.0853212709592164
 20
0.3843854338890136
 10
-0.0437787290407776
 20
0.3843854338890136
  0
LWPOLYLINE
  5
354
330
1F
100
AcDbEntity
  8
PCB_Solder_Stencil
100
AcDbPolyline
 90
        4
 70
     1
 43
0.0
 10
0.243821270959959
 20
-0.321614566115203
 10
0.373821270959958
 20
-0.321614566115203
 10
0.373821270959958
 20
-0.3656145661109864
 10
0.243821270959959
 20
-0.3656145661109864
  0
LWPOLYLINE
  5
355
330
1F
100
AcDbEntity
  8
PCB_Solder_Stencil
100
AcDbPolyline
 90
        4
 70
     1
 43
0.0
 10
-0.3621787290414566
 20
-0.3216145661151959
 10
-0.4921787290414557
 20
-0.3216145661151959
 10
-0.4921787290414557
 20
-0.3656145661109864
 10
-0.3621787290414566
 20
-0.3656145661109864
  0
MTEXT
  5
356
102
{ACAD_XDICTIONARY
360
357
102
}
330
1F
100
AcDbEntity
  8
Notes
100
AcDbMText
 10
0.1724002362044636
 20
-1.399522253947941
 30
0.0
 40
0.024
 41
2.020470711610352
 46
0.0
 71
     5
 72
     5
  3
\pxi-3,l4,ql,t4;{\fArial|b0|i0|c0|p34;\W1;\C7;1.^IThe component has been designed and qualified with this mounting footprint with a 0.030" test board with Dk value of approximately 3.5 comprised of commonly used board substrate materials such as RO435
  3
0 and Isola I-tera MT40. Deviations from the recommended mounting footprint may reduce RF and power handling performance. It is the customer's responsibility to qualify the component in the end application. \P\pi1,l0,tz;\P\pi-3,l4,t4;2.^I1x 50 ohm and
  3
 2x 25 ohm transmission lines are for reference only and can be oriented in any direction. Customer to determine transmission line and gap dimensions to achieve 50 and 25 ohm impedance for end application. \P\pi1,l0,tz;\P\pi-3,l4,t4;3.^ITo ensure prop
  3
er electrical and thermal performance there must be a ground plane with 100% solder connection underneath the part orientated as shown with text facing up.\P\pi1,l0,tz;\P\pi-3,l4,t4;4.^IPTH connecting pads to ground are representative. \P\pi1,l0,tz;\P
  3
\pi-3,l4,t4;5.^IGround vias under part should be filled to prevent solder wicking.\P\pi1,l0,tz;\P\pi-3,l4,t4;6.^ISolder mask and solder stencil dimensions may vary due to different manufacturer capabilities and process variations. Layers may be modifie
  1
d to account for manufacturer capabilities.\P\pi1,l0,tz;\P\pi-3,l4,t4;7.^IDimensions are in inches.\P\pi1,l0,tz;\P\pqr;XMB0409G3-5050G_Mounting_Footprint_250819.dxf}
  7
RomanS
 73
     1
 44
1.0
101
Embedded Object
 70
     5
 10
1.0
 20
0.0
 30
0.0
 11
0.1724002362044636
 21
-1.399522253947941
 31
0.0
 40
2.020470711610352
 41
0.0
 42
1.97088130968622
 43
0.8359836289222375
 71
     2
 72
     1
 44
2.020470711610352
 45
0.375
 73
     0
 74
     0
 46
1.035285266794354
1001
AcadAnnotative
1000
AnnotativeData
1002
{
1070
     1
1070
     0
1002
}
  0
LWPOLYLINE
  5
35A
330
1F
100
AcDbEntity
  8
PCB_Top
100
AcDbPolyline
 90
      623
 70
     1
 43
0.0
 10
0.2423212709599838
 20
-0.6552434086903843
 10
0.1799485380036287
 20
-0.662700915752307
 10
0.1754719643324627
 20
-0.6666050955589729
 10
0.1709894192510113
 20
-0.6702813408018802
 10
0.1665008735472284
 20
-0.6737342899662729
 10
0.1620062980090644
 20
-0.676968581537393
 10
0.1575056634244731
 20
-0.6799888540004791
 10
0.1529989405814085
 20
-0.6827997458407733
 10
0.1484861002678173
 20
-0.6854058955435179
 10
0.1439671132716533
 20
-0.687811941593953
 10
0.139441950380867
 20
-0.6900225224773209
 10
0.1349105823834122
 20
-0.6920422766788619
 10
0.1303729800672428
 20
-0.6938758426838199
 10
0.1258291142203056
 20
-0.6955278589774334
 10
0.121278955630558
 20
-0.6970029640449447
 10
0.1167224750859468
 20
-0.6983057963715958
 10
0.1121596433744294
 20
-0.6994409944426252
 10
0.1075904312839491
 20
-0.7004131967432788
 10
0.1030148096024668
 20
-0.7012270417587949
 10
0.0984327491179293
 20
-0.7018871679744141
 10
0.0938442206182906
 20
-0.7023982138753802
 10
0.0892491948915009
 20
-0.7027648179469335
 10
0.0846476427255141
 20
-0.7029916186743144
 10
0.080039534908277
 20
-0.703083254542765
 10
0.075424842227747
 20
-0.7030443640375275
 10
0.0708035354718746
 20
-0.7028795856438422
 10
0.0661755854286135
 20
-0.7025935578469494
 10
0.0615409628859105
 20
-0.702190919132093
 10
0.0568996386317231
 20
-0.7016763079845117
 10
0.0522515834539981
 20
-0.7010543628894493
 10
0.0475967681406893
 20
-0.7003297223321461
 10
0.042935163479747
 20
-0.6995070247978408
 10
0.0382667402591288
 20
-0.698590908771779
 10
0.0335914692667814
 20
-0.6975860127391993
 10
0.0289093212906551
 20
-0.6964969751853456
 10
0.0242202671187073
 20
-0.6953284345954565
 10
0.0195242775388884
 20
-0.6940850294547741
 10
0.0148213233391452
 20
-0.6927713982485387
 10
0.0101113753074387
 20
-0.6913921794619942
 10
0.005394404231712
 20
-0.689952011580381
 10
0.0006703808999191
 20
-0.6884555330889395
 10
-0.0040607238999861
 20
-0.68690738247291
 10
-0.0087989393800534
 20
-0.6853121982175363
 10
-0.0135442947523288
 20
-0.6836746188080607
 10
-0.0182968192288584
 20
-0.6819992827297199
 10
-0.0230565420216991
 20
-0.6802908284677596
 10
-0.0278234923428897
 20
-0.6785538945074184
 10
-0.0325976994044837
 20
-0.6767931193339401
 10
-0.0373791924185305
 20
-0.6750131414325633
 10
-0.0421680005970728
 20
-0.6732185992885303
 10
-0.0469641531521603
 20
-0.671414131387083
 10
-0.0517676792958461
 20
-0.6696043762134636
 10
-0.0565786082401729
 20
-0.6677939722529107
 10
-0.0613969691971903
 20
-0.6659875579906683
 10
-0.0662227913789444
 20
-0.6641897719119765
 10
-0.0710561039974884
 20
-0.6624052525020759
 10
-0.0758969362648685
 20
-0.6606386382462084
 10
-0.0807453173931272
 20
-0.6588945676296163
 10
-0.0856012765943213
 20
-0.6571776791375417
 10
-0.0904648430804969
 20
-0.6554926112552213
 10
-0.0953360460636965
 20
-0.6538440024679027
 10
-0.1002149147559734
 20
-0.6522364912608225
 10
-0.1051014783693738
 20
-0.650674716119223
 10
-0.1099957661159472
 20
-0.6491633155283463
 10
-0.1148978072077398
 20
-0.6477069279734345
 10
-0.1198076308568012
 20
-0.6463101919397279
 10
-0.1247252662751812
 20
-0.6449777459124669
 10
-0.1296507426749258
 20
-0.6437142283768936
 10
-0.1345840892680812
 20
-0.6425242778182519
 10
-0.1395253352667005
 20
-0.6414125327217786
 10
-0.1444745098828264
 20
-0.6403836315727176
 10
-0.149431642328512
 20
-0.6394422128563093
 10
-0.1543967618158
 20
-0.6385929150577958
 10
-0.1593698975567435
 20
-0.6378403766624193
 10
-0.1643510787633886
 20
-0.6371892361554182
 10
-0.1693403346477851
 20
-0.6366441320220364
 10
-0.174337694421979
 20
-0.6362097027475145
 10
-0.17934318729802
 20
-0.6358905868170944
 10
-0.1843568424879542
 20
-0.6356914227160165
 10
-0.1893786892038314
 20
-0.6356168489295211
 10
-0.1944087566576975
 20
-0.6356715039428523
 10
-0.1994470740616023
 20
-0.6358600262412502
 10
-0.2044936706275955
 20
-0.6361870543099535
 10
-0.2095485755677231
 20
-0.6366572266342079
 10
-0.2146118180940348
 20
-0.6372751816992519
 10
-0.2196834274185804
 20
-0.6380455579903277
 10
-0.2247634327534023
 20
-0.6389729939926774
 10
-0.2298518633105502
 20
-0.6400621281915413
 10
-0.2349487483020773
 20
-0.6413175990721598
 10
-0.2400541169400263
 20
-0.642744045119775
 10
-0.2451679984364503
 20
-0.6443461048196309
 10
-0.2502904220033919
 20
-0.6461284166569641
 10
-0.2554214168529043
 20
-0.6480956191170187
 10
-0.2605610121970301
 20
-0.6502523506850367
 10
-0.2657092372478225
 20
-0.6526032498462567
 10
-0.2708661212173276
 20
-0.6551529550859226
 10
-0.2760316933175915
 20
-0.6579061048892747
 10
-0.2812059827606674
 20
-0.6608673377415553
 10
-0.286389018758598
 20
-0.6640412921280028
 10
-0.360678729041453
 20
-0.6819069763189872
 10
-0.360678729041453
 20
-0.4046145661151961
 10
-0.339178729041457
 20
-0.4046145661151961
 10
-0.339178729041457
 20
-0.2986145661152095
 10
-0.5151787290414554
 20
-0.2986145661151997
 10
-0.5151787290414554
 20
-0.4046145661151961
 10
-0.4936787290414557
 20
-0.4046145661151961
 10
-0.4936787290414557
 20
-0.663436298122238
 10
-0.5137094031908518
 20
-0.6724500141614485
 10
-0.5213348360992179
 20
-0.6752431433476458
 10
-0.5256726940426369
 20
-0.6772799478881968
 10
-0.5276707652579376
 20
-0.6782046804412057
 10
-0.5302323637799411
 20
-0.6790477957369561
 10
-0.53231165625688
 20
-0.6794423173588653
 10
-0.5368824793687495
 20
-0.6797883012389257
 10
-0.5419198697696644
 20
-0.6797216961689845
 10
-0.5473839828620975
 20
-0.6794270255050226
 10
-0.5550006051230803
 20
-0.6786157264834412
 10
-0.562513439769095
 20
-0.6774190367032809
 10
-0.5699210584319943
 20
-0.6758465924054385
 10
-0.5772220327436238
 20
-0.6739080298308089
 10
-0.5844149343358432
 20
-0.671612985220289
 10
-0.591498334840491
 20
-0.6689710948147756
 10
-0.5984708058894235
 20
-0.6659919948551636
 10
-0.6053309191144898
 20
-0.6626853215823499
 10
-0.612077246147539
 20
-0.6590607112372311
 10
-0.6187083586204203
 20
-0.6551278000607006
 10
-0.6252228281649828
 20
-0.6508962242936569
 10
-0.6316192264130827
 20
-0.6463756201769951
 10
-0.637896124996562
 20
-0.6415756239516118
 10
-0.64405209554727
 20
-0.6365058718584021
 10
-0.6500857096970663
 20
-0.6311760001382627
 10
-0.6559955390777894
 20
-0.6255956450320906
 10
-0.6617801553212992
 20
-0.6197744427807806
 10
-0.6674381300594341
 20
-0.6137220296252295
 10
-0.6729680349240575
 20
-0.6074480418063324
 10
-0.6783684415470077
 20
-0.6009621155649861
 10
-0.6836379215601412
 20
-0.5942738871420854
 10
-0.6887750465953069
 20
-0.5873929927785291
 10
-0.6937783882843469
 20
-0.5803290687152103
 10
-0.6986465182591246
 20
-0.5730917511930276
 10
-0.7033780081514785
 20
-0.5656906764528742
 10
-0.7079714295932682
 20
-0.5581354807356487
 10
-0.7124253542163324
 20
-0.5504358002822461
 10
-0.7167383536525307
 20
-0.5426012713335631
 10
-0.7209089995337088
 20
-0.5346415301304948
 10
-0.7249358634917123
 20
-0.5265662129139379
 10
-0.7288175171584009
 20
-0.5183849559247875
 10
-0.7325525321656166
 20
-0.5101073954039404
 10
-0.7361394801452122
 20
-0.5017431675922932
 10
-0.7395769327290367
 20
-0.4933019087307429
 10
-0.7428634615489394
 20
-0.4847932550601826
 10
-0.7459976382367764
 20
-0.4762268428215091
 10
-0.7489780344243862
 20
-0.467612308255621
 10
-0.7518032217436251
 20
-0.4589592876034115
 10
-0.7544717718263457
 20
-0.4502774171057773
 10
-0.7569822563043936
 20
-0.4415763330036154
 10
-0.7593332468096215
 20
-0.4328656715378206
 10
-0.761523314973875
 20
-0.4241550689492915
 10
-0.7635510324290032
 20
-0.4154541614789214
 10
-0.7654149708068623
 20
-0.406772585367607
 10
-0.7671137017393015
 20
-0.3981199768562451
 10
-0.7686457968581664
 20
-0.3895059721857308
 10
-0.7700098277953096
 20
-0.3809402075969608
 10
-0.7712043661825767
 20
-0.3724323193308319
 10
-0.7722279836518276
 20
-0.3639919436282391
 10
-0.773079251834897
 20
-0.3556287167300773
 10
-0.7737567423636485
 20
-0.3473522748772453
 10
-0.7742590268699239
 20
-0.3391722543106379
 10
-0.7745846769855796
 20
-0.3310982912711502
 10
-0.774732757127989
 20
-0.323139089727265
 10
-0.7747066207737739
 20
-0.3152952394245769
 10
-0.7745118298087839
 20
-0.307563152147118
 10
-0.7741539643701821
 20
-0.2999392051503093
 10
-0.7736386045951243
 20
-0.2924197756895719
 10
-0.7729713306207806
 20
-0.2850012410203284
 10
-0.7721577225843071
 20
-0.277679978398
 10
-0.7712033606228737
 20
-0.2704523650780075
 10
-0.7701138248736399
 20
-0.2633147783157756
 10
-0.7688946954737652
 20
-0.2562635953667236
 10
-0.7675515525604162
 20
-0.2492951934862724
 10
-0.7660899762707559
 20
-0.2424059499298448
 10
-0.7645155467419436
 20
-0.2355922419528635
 10
-0.762833844111146
 20
-0.2288504468107479
 10
-0.761050448515519
 20
-0.2221769417589208
 10
-0.7591709400922291
 20
-0.2155681040528048
 10
-0.7572008989784429
 20
-0.209020310947821
 10
-0.7551459053113199
 20
-0.2025299396993905
 10
-0.7530115392280159
 20
-0.1960933675629341
 10
-0.7508033808657047
 20
-0.1897069717938766
 10
-0.7485270103615456
 20
-0.1833671296476353
 10
-0.7461880078526946
 20
-0.1770702183796367
 10
-0.7437919534763218
 20
-0.170812615245298
 10
-0.7413444273695867
 20
-0.164590697500044
 10
-0.7388510096696557
 20
-0.1584008423992955
 10
-0.7363172805136849
 20
-0.1522394271984737
 10
-0.7337488200388372
 20
-0.1461028291529995
 10
-0.7311512083822827
 20
-0.1399874255182958
 10
-0.7285300256811773
 20
-0.1338895935497852
 10
-0.7258908520726913
 20
-0.1278057105028871
 10
-0.7232392676939768
 20
-0.1217321536330242
 10
-0.720580852682204
 20
-0.1156653001956194
 10
-0.7179211871745288
 20
-0.1096015274460917
 10
-0.7152658513081214
 20
-0.1035372126398659
 10
-0.7126204252201412
 20
-0.0974687330323612
 10
-0.7099904890477511
 20
-0.0913924658789984
 10
-0.7073816229281143
 20
-0.0853047884352041
 10
-0.7047994069983901
 20
-0.0792020779563938
 10
-0.7022494213957451
 20
-0.0730807116979939
 10
-0.6997372462573388
 20
-0.0669370669154237
 10
-0.6972684617203378
 20
-0.0607675208641059
 10
-0.6948486479218979
 20
-0.0545684507994615
 10
-0.6924833849991892
 20
-0.0483362339769116
 10
-0.6901782530893677
 20
-0.0420672476518789
 10
-0.6879388323296034
 20
-0.0357578690797844
 10
-0.6857707028570524
 20
-0.029404475516051
 10
-0.6836794448088846
 20
-0.0230034442160996
 10
-0.6816706383222524
 20
-0.0165511524353512
 10
-0.679749863534326
 20
-0.0100439774292287
 10
-0.6779227005822684
 20
-0.003478296453153
 10
-0.6761947296032354
 20
0.0031495132374531
 10
-0.6745715307343936
 20
0.0098430743871702
 10
-0.6730586841129096
 20
0.0166060097405758
 10
-0.6716617698759429
 20
0.0234419420422469
 10
-0.6703863681606528
 20
0.0303544940367626
 10
-0.669238059104206
 20
0.0373472884687018
 10
-0.6682224228437619
 20
0.0444239480826418
 10
-0.6673450395164871
 20
0.0515880956231634
 10
-0.666611489259541
 20
0.0588433538348419
 10
-0.6660273522100902
 20
0.0661933454622563
 10
-0.6655982085052905
 20
0.0736416932499857
 10
-0.6653296382823122
 20
0.0811920199426073
 10
-0.6652269497585089
 20
0.0888477906315704
 10
-0.6652891969957686
 20
0.0966088443862727
 10
-0.6655091799005
 20
0.1044713942540767
 10
-0.6658794264593198
 20
0.1124314956292096
 10
-0.6663924646588307
 20
0.1204852039058988
 10
-0.6670408224856388
 20
0.1286285744783697
 10
-0.6678170279263576
 20
0.1368576627408515
 10
-0.6687136089675967
 20
0.1451685240875697
 10
-0.6697230935959589
 20
0.1535572139127517
 10
-0.6708380097980609
 20
0.1620197876106246
 10
-0.6720508855605054
 20
0.1705523005754177
 10
-0.6733542488699023
 20
0.1791508082013546
 10
-0.6747406277128612
 20
0.1878113658826645
 10
-0.6762025500759883
 20
0.1965300290135747
 10
-0.677732543945897
 20
0.2053028529883125
 10
-0.6793231373091935
 20
0.2141258932011052
 10
-0.680966858152484
 20
0.2229952050461765
 10
-0.6826562344623817
 20
0.2319068439177592
 10
-0.6843837942254894
 20
0.2408568652100751
 10
-0.6861420654284239
 20
0.2498413243173569
 10
-0.6879235760577842
 20
0.2588562766338267
 10
-0.6897208541001874
 20
0.2678977775537135
 10
-0.6915264275422395
 20
0.2769618824712445
 10
-0.6933328243705468
 20
0.2860446467806472
 10
-0.695132572571719
 20
0.2951421258761488
 10
-0.696918200132366
 20
0.3042503751519767
 10
-0.6986822350390974
 20
0.3133654500023564
 10
-0.700417205278523
 20
0.3224834058215169
 10
-0.7021156388372454
 20
0.3316002980036838
 10
-0.703770063701878
 20
0.3407121819430845
 10
-0.7053730078590271
 20
0.349815113033948
 10
-0.7069169992953022
 20
0.3589051466704998
 10
-0.7083945659973132
 20
0.3679783382469672
 10
-0.7097982359516699
 20
0.3770307431575777
 10
-0.711120537144975
 20
0.3860584167965584
 10
-0.7123539975638451
 20
0.3950574145581367
 10
-0.7134911451948831
 20
0.4040237918365382
 10
-0.7145245080246987
 20
0.4129536040259918
 10
-0.7154466140399052
 20
0.4218429065207232
 10
-0.7162499912271052
 20
0.4306877547149615
 10
-0.7169271675729121
 20
0.4394842040029321
 10
-0.7174706710639321
 20
0.4482283097788642
 10
-0.7178730296867677
 20
0.4569161274369833
 10
-0.7181267714280431
 20
0.465543712371515
 10
-0.7182244242743501
 20
0.47410711997669
 10
-0.7181585162123092
 20
0.482602405646734
 10
-0.7179215752285267
 20
0.4910256247758742
 10
-0.717506129309605
 20
0.4993728327583345
 10
-0.7169047064421612
 20
0.5076400849883474
 10
-0.7161098346127979
 20
0.5158234368601367
 10
-0.7151140418081248
 20
0.5239189437679315
 10
-0.7139098560147552
 20
0.5319226611059574
 10
-0.7124898052192919
 20
0.5398306442684433
 10
-0.7108464174083445
 20
0.5476389486496132
 10
-0.7089722205685299
 20
0.555343629643696
 10
-0.7068597426864436
 20
0.5629407426449209
 10
-0.7045015117487026
 20
0.5704263430475116
 10
-0.7018900557419166
 20
0.5777964862456973
 10
-0.6990179026526882
 20
0.5850472276337051
 10
-0.6958775804676272
 20
0.5921746226057625
 10
-0.6924616171733505
 20
0.599174726556095
 10
-0.6887625407564571
 20
0.6060435948789298
 10
-0.684772912636209
 20
0.6127772872313653
 10
-0.6804893395827385
 20
0.6193723790778059
 10
-0.6759162850393246
 20
0.6258264476571736
 10
-0.6710591151308556
 20
0.6321371853058882
 10
-0.6659231959822201
 20
0.6383022843603712
 10
-0.6605138937183029
 20
0.644319437157046
 10
-0.6548365744639888
 20
0.6501863360323288
 10
-0.64889660434417
 20
0.6559006733226447
 10
-0.6426993494837241
 20
0.6614601413644135
 10
-0.6362501760075432
 20
0.6668624324940549
 10
-0.6295544500405122
 20
0.6721052390479923
 10
-0.6226175377075159
 20
0.6771862533626454
 10
-0.6154448051334427
 20
0.6821031677744341
 10
-0.6080416184431777
 20
0.6868536746197798
 10
-0.6004133437616055
 20
0.6914354662351041
 10
-0.5925653472136183
 20
0.6958462349568287
 10
-0.5845029949240974
 20
0.7000836731213749
 10
-0.5762316530179242
 20
0.7041454730651591
 10
-0.567756687619994
 20
0.7080293271246081
 10
-0.5590834648551884
 20
0.71173292763614
 10
-0.5502173508483957
 20
0.7152539669361762
 10
-0.5411637117245008
 20
0.7185901373611383
 10
-0.5319279136083886
 20
0.7217391312474444
 10
-0.5225153226249511
 20
0.7246986409315195
 10
-0.5129313048990661
 20
0.7274663587497834
 10
-0.5031812265556255
 20
0.7300399770386559
 10
-0.4932704537195143
 20
0.7324171881345567
 10
-0.4832043525156174
 20
0.7345956843739092
 10
-0.4729882890688196
 20
0.736573158093135
 10
-0.4626276295040164
 20
0.7383473016286537
 10
-0.4521277399460822
 20
0.7399158073168853
 10
-0.4414939865199088
 20
0.7412763674942529
 10
-0.4307317353503813
 20
0.7424266744971764
 10
-0.4198463525623879
 20
0.7433644206620756
 10
-0.4088432042808102
 20
0.7440872983253737
 10
-0.3977276566305399
 20
0.7445929998234906
 10
-0.3865050757364621
 20
0.7448792174928461
 10
-0.3751808277234581
 20
0.7449436436698634
 10
-0.3637602787164198
 20
0.7447839706909623
 10
-0.3522487948402322
 20
0.7443978908925626
 10
-0.3406517422197801
 20
0.7437830966110877
 10
-0.328974486979952
 20
0.7429372801829591
 10
-0.3172223952456292
 20
0.7418581339445929
 10
-0.3054008331417037
 20
0.7405433502324162
 10
-0.2935151667930569
 20
0.738990621382845
 10
-0.2815707623245807
 20
0.7371976397323028
 10
-0.2695729858611529
 20
0.7351620976172093
 10
-0.257527203527669
 20
0.7328816873739879
 10
-0.2454387814490104
 20
0.7303541013390565
 10
-0.233313085750062
 20
0.7275770318488366
 10
-0.2211554825557123
 20
0.7245481712397517
 10
-0.208971337990846
 20
0.7212652118482215
 10
-0.1967660181803517
 20
0.7177258460106657
 10
-0.1845448892491177
 20
0.713927766063506
 10
-0.1723133173220219
 20
0.7098686643431638
 10
-0.1600766685239563
 20
0.705546233186059
 10
-0.1478403089798093
 20
0.7009581649286148
 10
-0.1356096048144622
 20
0.6961021519072493
 10
-0.1233899221527999
 20
0.6909758864583857
 10
-0.1111866271197144
 20
0.685577060918444
 10
-0.0990050858400906
 20
0.6799033676238456
 10
-0.0868506644388134
 20
0.6739524989110102
 10
-0.0685190786327645
 20
0.6664197678405915
 10
-0.0320540585606075
 20
0.6531949273482072
 10
-0.0320540585606075
 20
0.4233854338890133
 10
-0.0707787290407893
 20
0.4233854338890133
 10
-0.0707787290407858
 20
0.3983854338890023
 10
-0.0707787290407858
 20
0.2933854338890125
 10
0.1123212709592281
 20
0.2933854338890125
 10
0.1123212709592281
 20
0.3983854338890023
 10
0.1123212709592281
 20
0.4233854338890195
 10
0.0735966004790463
 20
0.4233854338890133
 10
0.0735966004790463
 20
0.6414379895154499
 10
0.1193212709592331
 20
0.6677221471163595
 10
0.1301181898696804
 20
0.674782449193839
 10
0.1404172070089444
 20
0.6797990947940616
 10
0.1524386608254211
 20
0.6853447963937516
 10
0.1644212289799078
 20
0.6905671483563883
 10
0.1763615043301101
 20
0.6954700245737638
 10
0.1882560797337191
 20
0.7000572989376704
 10
0.2001015480484369
 20
0.7043328453399003
 10
0.2118945021319583
 20
0.7083005376722423
 10
0.2236315348419815
 20
0.7119642498264885
 10
0.2353092390362086
 20
0.7153278556944312
 10
0.2469242075723343
 20
0.7183952291678644
 10
0.2584730333080571
 20
0.721170244138575
 10
0.2699523091010754
 20
0.7236567744983571
 10
0.2813586278090838
 20
0.7258586941390029
 10
0.292688582289788
 20
0.7277798769523028
 10
0.3039387654008792
 20
0.7294241968300473
 10
0.3151057700000557
 20
0.7307955276640304
 10
0.3261861889450195
 20
0.7318977433460408
 10
0.3371766150934654
 20
0.7327347177678707
 10
0.3480736413030918
 20
0.7333103248213142
 10
0.3588738604315971
 20
0.7336284383981618
 10
0.3695738653366796
 20
0.733692932390202
 10
0.3801702488760377
 20
0.7335076806892289
 10
0.3906596039073697
 20
0.7330765571870348
 10
0.4010385232883707
 20
0.7324034357754084
 10
0.4113035998767387
 20
0.7314921903461436
 10
0.4214514265301759
 20
0.7303466947910309
 10
0.431478596106377
 20
0.7289708230018626
 10
0.4413817014630439
 20
0.7273684488704291
 10
0.451157335457868
 20
0.7255434462885227
 10
0.4608020909485511
 20
0.7234996891479355
 10
0.4703125607927916
 20
0.7212410513404564
 10
0.479685337848288
 20
0.718771406757881
 10
0.4889170149727385
 20
0.7160946292919963
 10
0.4980041850238344
 20
0.7132145928345981
 10
0.5069434408592848
 20
0.7101351712774751
 10
0.5157313753367774
 20
0.7068602385124195
 10
0.5243645813140141
 20
0.7033936684312235
 10
0.5328396516486969
 20
0.6997393349256758
 10
0.5411531791985169
 20
0.6959011118875722
 10
0.5493017568211798
 20
0.6918828732087015
 10
0.5572819773743767
 20
0.6876884927808558
 10
0.5650904337158061
 20
0.6833218444958274
 10
0.5727237187031698
 20
0.6787868022454067
 10
0.5801784251941627
 20
0.674087239921386
 10
0.5874511460464867
 20
0.6692270314155575
 10
0.5945384741178366
 20
0.66421005061971
 10
0.6014370022659073
 20
0.6590401714256356
 10
0.6081433233484042
 20
0.6537212677251283
 10
0.6146540302230186
 20
0.6482572134099787
 10
0.6209657157474524
 20
0.6426518823719772
 10
0.6270749727794041
 20
0.636909148502916
 10
0.6329783941765684
 20
0.6310328856945873
 10
0.6386725727966472
 20
0.6250269678387799
 10
0.6441541014973318
 20
0.6188952688272896
 10
0.6494195731363277
 20
0.6126416625519031
 10
0.6544655805713298
 20
0.6062700229044165
 10
0.6592887166600363
 20
0.5997842237766183
 10
0.6638855742601422
 20
0.5931881390603007
 10
0.6682527462293493
 20
0.586485642647256
 10
0.672386825425356
 20
0.5796806084292765
 10
0.6762844047058572
 20
0.5727769102981508
 10
0.6799427087832797
 20
0.5657783288526304
 10
0.6833644618463346
 20
0.5586878326964673
 10
0.6865552197289908
 20
0.5515079723423764
 10
0.6895205616672371
 20
0.5442412948477707
 10
0.6922660668970551
 20
0.5368903472700684
 10
0.6947973146544407
 20
0.529457676666679
 10
0.6971198841753825
 20
0.5219458300950244
 10
0.699239354695866
 20
0.5143573546125158
 10
0.7011613054518833
 20
0.5066947972765679
 10
0.7028913156794197
 20
0.4989607051445955
 10
0.7044349646144675
 20
0.4911576252740169
 10
0.7057978314930118
 20
0.4832881047222433
 10
0.7069854955510487
 20
0.475354690546693
 10
0.7080035360245596
 20
0.4673599298047808
 10
0.7088575321495334
 20
0.4593063695539179
 10
0.709553063161966
 20
0.4511965568515244
 10
0.710095708297839
 20
0.4430330387550115
 10
0.7104910467931447
 20
0.4348183623217974
 10
0.7107446578838719
 20
0.4265550746092952
 10
0.7108621208060058
 20
0.4182457226749197
 10
0.7108490147955422
 20
0.4098928535760873
 10
0.7107109190884664
 20
0.4014990143702111
 10
0.7104534129207636
 20
0.3930667521147093
 10
0.7100820755284297
 20
0.384598613866995
 10
0.7096024861474497
 20
0.3760971466844829
 10
0.7090202240138091
 20
0.3675648976245878
 10
0.7083408683635036
 20
0.3590044137447279
 10
0.7075699984325184
 20
0.3504182421023145
 10
0.7067131934568423
 20
0.3418089297547642
 10
0.7057760326724641
 20
0.3331790237594934
 10
0.704764095315376
 20
0.3245310711739133
 10
0.7036829606215634
 20
0.3158676190554441
 10
0.7025382078270149
 20
0.307191214461497
 10
0.7013354161677193
 20
0.2985044044494884
 10
0.7000801648796653
 20
0.2898097360768332
 10
0.6987780331988454
 20
0.2811097564009479
 10
0.6974346003612482
 20
0.2724070124792455
 10
0.696055445602859
 20
0.2637040513691407
 10
0.6946461481596664
 20
0.2550034201280518
 10
0.693212287267663
 20
0.24630766581339
 10
0.6917594421628337
 20
0.2376193354825737
 10
0.6902931920811711
 20
0.2289409761930159
 10
0.6888191162586637
 20
0.2202751350021312
 10
0.6873427939312969
 20
0.2116243589673363
 10
0.6858698043350593
 20
0.2029911951460459
 10
0.6844057267059469
 20
0.1943781905956765
 10
0.6829561402799414
 20
0.1857878923736393
 10
0.6815266242930349
 20
0.1772228475373527
 10
0.6801227579812128
 20
0.1686856031442296
 10
0.6787501205804674
 20
0.1601787062516866
 10
0.6774142913267909
 20
0.1517047039171384
 10
0.6761208494561651
 20
0.1432661431979998
 10
0.6748753742045821
 20
0.1348655711516873
 10
0.6736834448080274
 20
0.1265055348356139
 10
0.6725506405024966
 20
0.1181885813071943
 10
0.6714825405239751
 20
0.109917257623847
 10
0.6704847241084515
 20
0.101694110842983
 10
0.6695627704919112
 20
0.0935216880220207
 10
0.6687222589103499
 20
0.085402536218373
 10
0.6679687685997529
 20
0.0773392024894566
 10
0.6673078787961089
 20
0.0693342338926844
 10
0.6667451687354067
 20
0.0613901774854728
 10
0.6662860397023458
 20
0.0535094869495847
 10
0.6659318001018733
 20
0.0456924683267541
 10
0.6656796654591979
 20
0.0379372800186921
 10
0.6655266733482322
 20
0.0302419870514594
 10
0.6654698613428956
 20
0.0226046544511078
 10
0.6655062670171006
 20
0.0150233472436998
 10
0.6656329279447597
 20
0.0074961304552907
 10
0.6658468816997925
 20
0.0000210691119378
 10
0.6661451658561113
 20
-0.0074037717603002
 10
0.6665248179876287
 20
-0.0147803271353677
 10
0.6669828756682606
 20
-0.0221105319872077
 10
0.667516376471923
 20
-0.0293963212897595
 10
0.6681223579725284
 20
-0.0366396300169676
 10
0.6687978577439928
 20
-0.043842393142775
 10
0.6695399133602287
 20
-0.0510065456411244
 10
0.6703455623951556
 20
-0.058134022485957
 10
0.6712118424226859
 20
-0.0652267586512174
 10
0.6721357910167285
 20
-0.0722866891108449
 10
0.6731144457512066
 20
-0.0793157488387859
 10
0.6741448442000327
 20
-0.0863158728089797
 10
0.675224023937119
 20
-0.0932889959953709
 10
0.6763490225363782
 20
-0.1002370533719024
 10
0.6775168775717333
 20
-0.1071619799125152
 10
0.6787246266170897
 20
-0.1140657105911522
 10
0.6799693072463669
 20
-0.1209501803817563
 10
0.6812479570334773
 20
-0.1278173242582703
 10
0.6825576135523371
 20
-0.1346690771946353
 10
0.6838953143768621
 20
-0.1415073741647959
 10
0.6852580970809648
 20
-0.1483341501426931
 10
0.6866429992385612
 20
-0.1551513401022717
 10
0.6880470584235674
 20
-0.1619608790174709
 10
0.6894673122098923
 20
-0.1687647018622371
 10
0.6909007981714553
 20
-0.1755647436105097
 10
0.6923445538821689
 20
-0.1823629392362314
 10
0.6937956169159527
 20
-0.1891612237133469
 10
0.6952510248467121
 20
-0.195961532015799
 10
0.6967078152483701
 20
-0.2027657991175271
 10
0.6981630256948393
 20
-0.2095759599924758
 10
0.6996136937600319
 20
-0.2163939496145861
 10
0.7010568570178642
 20
-0.2232217029578045
 10
0.7024895530422484
 20
-0.2300611549960685
 10
0.7039088194071042
 20
-0.2369142407033244
 10
0.705311693686344
 20
-0.2437828950535135
 10
0.7066952134538802
 20
-0.2506690530205784
 10
0.708056416283629
 20
-0.2575746495784603
 10
0.7093923397495061
 20
-0.2645016197011039
 10
0.7107000214254278
 20
-0.2714518983624519
 10
0.7119764988853028
 20
-0.2784274205364454
 10
0.7132188097030508
 20
-0.2854301211970256
 10
0.7144239914525805
 20
-0.2924619353181388
 10
0.7155890817078152
 20
-0.2995247978737261
 10
0.7167111180426638
 20
-0.3066206438377286
 10
0.7177871380310421
 20
-0.3137514081840891
 10
0.7188141792468663
 20
-0.3209190258867522
 10
0.7197892792640488
 20
-0.3281254319196574
 10
0.7207094756565056
 20
-0.3353725612567509
 10
0.7215718059981527
 20
-0.3426623488719738
 10
0.7223733078628989
 20
-0.3499967297392672
 10
0.7231110188246675
 20
-0.357377638832574
 10
0.7237819764573637
 20
-0.3648070111258388
 10
0.7243832183349106
 20
-0.3722867815930027
 10
0.7249117820312172
 20
-0.3798188852080067
 10
0.7253646978182254
 20
-0.3874052319310337
 10
0.7257381124293154
 20
-0.395044705056879
 10
0.7260264566345143
 20
-0.4027303096459267
 10
0.7262239640506217
 20
-0.4104543753869408
 10
0.7263248682944337
 20
-0.4182092319686906
 10
0.7263234029827537
 20
-0.4259872090799437
 10
0.7262138017323743
 20
-0.4337806364094661
 10
0.7259902981600917
 20
-0.4415818436460289
 10
0.7256471258827127
 20
-0.4493831604783943
 10
0.7251785185170299
 20
-0.4571769165953353
 10
0.7245787096798395
 20
-0.4649554416856141
 10
0.7238419329879449
 20
-0.472711065438002
 10
0.7229624220581386
 20
-0.4804361175412648
 10
0.7219344105072239
 20
-0.4881229276841719
 10
0.7207521319519934
 20
-0.4957638255554873
 10
0.7194098200092505
 20
-0.5033511408439804
 10
0.7179017082957913
 20
-0.5108772032384188
 10
0.716222030428412
 20
-0.5183343424275702
 10
0.7143650200239123
 20
-0.5257148881002021
 10
0.7123249106990919
 20
-0.5330111699450804
 10
0.7100959360707471
 20
-0.5402155176509745
 10
0.707672329755674
 20
-0.5473202609066501
 10
0.7050483253706759
 20
-0.5543177294008768
 10
0.7022181565325454
 20
-0.5612002528224203
 10
0.6991760568580859
 20
-0.5679601608600482
 10
0.6959162599640898
 20
-0.5745897832025282
 10
0.6924329994673606
 20
-0.5810814495386279
 10
0.6887205089846944
 20
-0.5874274895571166
 10
0.6847730221328874
 20
-0.5936202329467584
 10
0.6805847725287393
 20
-0.5996520093963227
 10
0.6761499937890499
 20
-0.6055151485945754
 10
0.6714629195306117
 20
-0.6112019802302875
 10
0.6665177833702281
 20
-0.6167048339922215
 10
0.6613088189246988
 20
-0.6220160395691501
 10
0.6558302598108164
 20
-0.6271279266498358
 10
0.6500763396453806
 20
-0.6320328249230496
 10
0.6440412920451913
 20
-0.6367230640775574
 10
0.6377193506270445
 20
-0.6411909738021269
 10
0.63110474900774
 20
-0.6454288837855274
 10
0.624191720804074
 20
-0.6494291237165229
 10
0.6169744996328497
 20
-0.6531840232838828
 10
0.6094473191108563
 20
-0.6566859121763749
 10
0.6016044128549006
 20
-0.6599271200827648
 10
0.5934400144817751
 20
-0.662899976691822
 10
0.5849483576082833
 20
-0.6655968116923141
 10
0.5761236758512176
 20
-0.668009954773007
 10
0.566960202827378
 20
-0.6701317356226682
 10
0.5574521721535639
 20
-0.6719544839300671
 10
0.5475938174465718
 20
-0.6734705293839696
 10
0.5373793723232012
 20
-0.6746722016731433
 10
0.5268030704002485
 20
-0.6755518304863557
 10
0.5158591452945132
 20
-0.6761017455123746
 10
0.5045418306227952
 20
-0.6763142764399675
 10
0.492845360001887
 20
-0.676181752957902
 10
0.480763967048592
 20
-0.675696504754944
 10
0.4682918853797063
 20
-0.6748508615198628
 10
0.4554233486120296
 20
-0.673637152941426
 10
0.4421525903623547
 20
-0.6720477087083996
 10
0.4284738442474883
 20
-0.6700748585095511
 10
0.4221745680834914
 20
-0.6677109320336481
 10
0.4144788521198706
 20
-0.66494825896946
 10
0.4091268728392521
 20
-0.66238342907711
 10
0.3753212709599865
 20
-0.6496548985639832
 10
0.3753212709599865
 20
-0.4046145661151961
 10
0.3968212709599541
 20
-0.4046145661151961
 10
0.3968212709599541
 20
-0.2986145661151953
 10
0.2208212709599664
 20
-0.2986145661152228
 10
0.2208212709599557
 20
-0.3706131685487097
 10
0.2208425577016442
 20
-0.4046145661151961
 10
0.2423212709599838
 20
-0.4046145661151961
  0
CIRCLE
  5
35B
330
1F
100
AcDbEntity
  8
PCB_Plated_Holes
100
AcDbCircle
 10
-0.6112218523752305
 20
0.5557707673128558
 30
0.0
 40
0.02
  0
CIRCLE
  5
35C
330
1F
100
AcDbEntity
  8
PCB_Plated_Holes
100
AcDbCircle
 10
-0.6112218523752305
 20
0.4557707673128562
 30
0.0
 40
0.02
  0
CIRCLE
  5
35D
330
1F
100
AcDbEntity
  8
PCB_Plated_Holes
100
AcDbCircle
 10
-0.6112218523752305
 20
0.3557707673128556
 30
0.0
 40
0.02
  0
CIRCLE
  5
35E
330
1F
100
AcDbEntity
  8
PCB_Plated_Holes
100
AcDbCircle
 10
-0.6112218523752305
 20
0.255770767312856
 30
0.0
 40
0.02
  0
CIRCLE
  5
35F
330
1F
100
AcDbEntity
  8
PCB_Plated_Holes
100
AcDbCircle
 10
-0.6112218523752305
 20
0.1557707673128563
 30
0.0
 40
0.02
  0
CIRCLE
  5
360
330
1F
100
AcDbEntity
  8
PCB_Plated_Holes
100
AcDbCircle
 10
-0.6112218523752305
 20
0.0557707673128558
 30
0.0
 40
0.02
  0
CIRCLE
  5
361
330
1F
100
AcDbEntity
  8
PCB_Plated_Holes
100
AcDbCircle
 10
-0.6112218523752305
 20
-0.0442292326871439
 30
0.0
 40
0.02
  0
CIRCLE
  5
362
330
1F
100
AcDbEntity
  8
PCB_Plated_Holes
100
AcDbCircle
 10
-0.6112218523752305
 20
-0.1442292326871444
 30
0.0
 40
0.02
  0
CIRCLE
  5
363
330
1F
100
AcDbEntity
  8
PCB_Plated_Holes
100
AcDbCircle
 10
-0.6112218523752305
 20
-0.244229232687144
 30
0.0
 40
0.02
  0
CIRCLE
  5
364
330
1F
100
AcDbEntity
  8
PCB_Plated_Holes
100
AcDbCircle
 10
-0.6112218523752305
 20
-0.3442292326871437
 30
0.0
 40
0.02
  0
CIRCLE
  5
365
330
1F
100
AcDbEntity
  8
PCB_Plated_Holes
100
AcDbCircle
 10
-0.6112218523752305
 20
-0.4442292326871442
 30
0.0
 40
0.02
  0
CIRCLE
  5
366
330
1F
100
AcDbEntity
  8
PCB_Plated_Holes
100
AcDbCircle
 10
-0.6112218523752305
 20
-0.5442292326871439
 30
0.0
 40
0.02
  0
CIRCLE
  5
367
330
1F
100
AcDbEntity
  8
PCB_Plated_Holes
100
AcDbCircle
 10
-0.5112218523752326
 20
0.6557707673128564
 30
0.0
 40
0.02
  0
CIRCLE
  5
368
330
1F
100
AcDbEntity
  8
PCB_Plated_Holes
100
AcDbCircle
 10
-0.5112218523752326
 20
0.5557707673128558
 30
0.0
 40
0.02
  0
CIRCLE
  5
369
330
1F
100
AcDbEntity
  8
PCB_Plated_Holes
100
AcDbCircle
 10
-0.5112218523752326
 20
0.4557707673128562
 30
0.0
 40
0.02
  0
CIRCLE
  5
36A
330
1F
100
AcDbEntity
  8
PCB_Plated_Holes
100
AcDbCircle
 10
-0.5112218523752326
 20
0.3557707673128556
 30
0.0
 40
0.02
  0
CIRCLE
  5
36B
330
1F
100
AcDbEntity
  8
PCB_Plated_Holes
100
AcDbCircle
 10
-0.5112218523752326
 20
0.255770767312856
 30
0.0
 40
0.02
  0
CIRCLE
  5
36C
330
1F
100
AcDbEntity
  8
PCB_Plated_Holes
100
AcDbCircle
 10
-0.5112218523752326
 20
0.1557707673128563
 30
0.0
 40
0.02
  0
CIRCLE
  5
36D
330
1F
100
AcDbEntity
  8
PCB_Plated_Holes
100
AcDbCircle
 10
-0.5112218523752326
 20
0.0557707673128558
 30
0.0
 40
0.02
  0
CIRCLE
  5
36E
330
1F
100
AcDbEntity
  8
PCB_Plated_Holes
100
AcDbCircle
 10
-0.5112218523752326
 20
-0.0442292326871439
 30
0.0
 40
0.02
  0
CIRCLE
  5
36F
330
1F
100
AcDbEntity
  8
PCB_Plated_Holes
100
AcDbCircle
 10
-0.5112218523752326
 20
-0.1442292326871444
 30
0.0
 40
0.02
  0
CIRCLE
  5
370
330
1F
100
AcDbEntity
  8
PCB_Plated_Holes
100
AcDbCircle
 10
-0.5112218523752326
 20
-0.244229232687144
 30
0.0
 40
0.02
  0
CIRCLE
  5
371
330
1F
100
AcDbEntity
  8
PCB_Plated_Holes
100
AcDbCircle
 10
-0.5336787290414549
 20
-0.4446132798930789
 30
0.0
 40
0.02
  0
CIRCLE
  5
372
330
1F
100
AcDbEntity
  8
PCB_Plated_Holes
100
AcDbCircle
 10
-0.5336787290414549
 20
-0.5446132798930785
 30
0.0
 40
0.02
  0
CIRCLE
  5
373
330
1F
100
AcDbEntity
  8
PCB_Plated_Holes
100
AcDbCircle
 10
-0.5336787290414549
 20
-0.6446132798930791
 30
0.0
 40
0.02
  0
CIRCLE
  5
374
330
1F
100
AcDbEntity
  8
PCB_Plated_Holes
100
AcDbCircle
 10
-0.4112218523752312
 20
0.6557707673128564
 30
0.0
 40
0.02
  0
CIRCLE
  5
375
330
1F
100
AcDbEntity
  8
PCB_Plated_Holes
100
AcDbCircle
 10
-0.4112218523752312
 20
0.5557707673128558
 30
0.0
 40
0.02
  0
CIRCLE
  5
376
330
1F
100
AcDbEntity
  8
PCB_Plated_Holes
100
AcDbCircle
 10
-0.4112218523752312
 20
0.4557707673128562
 30
0.0
 40
0.02
  0
CIRCLE
  5
377
330
1F
100
AcDbEntity
  8
PCB_Plated_Holes
100
AcDbCircle
 10
-0.4112218523752312
 20
0.3557707673128556
 30
0.0
 40
0.02
  0
CIRCLE
  5
378
330
1F
100
AcDbEntity
  8
PCB_Plated_Holes
100
AcDbCircle
 10
-0.4112218523752312
 20
0.255770767312856
 30
0.0
 40
0.02
  0
CIRCLE
  5
379
330
1F
100
AcDbEntity
  8
PCB_Plated_Holes
100
AcDbCircle
 10
-0.4112218523752312
 20
0.1557707673128563
 30
0.0
 40
0.02
  0
CIRCLE
  5
37A
330
1F
100
AcDbEntity
  8
PCB_Plated_Holes
100
AcDbCircle
 10
-0.4112218523752312
 20
0.0557707673128558
 30
0.0
 40
0.02
  0
CIRCLE
  5
37B
330
1F
100
AcDbEntity
  8
PCB_Plated_Holes
100
AcDbCircle
 10
-0.4112218523752312
 20
-0.0442292326871439
 30
0.0
 40
0.02
  0
CIRCLE
  5
37C
330
1F
100
AcDbEntity
  8
PCB_Plated_Holes
100
AcDbCircle
 10
-0.4112218523752312
 20
-0.1442292326871444
 30
0.0
 40
0.02
  0
CIRCLE
  5
37D
330
1F
100
AcDbEntity
  8
PCB_Plated_Holes
100
AcDbCircle
 10
-0.4112218523752312
 20
-0.244229232687144
 30
0.0
 40
0.02
  0
CIRCLE
  5
37E
330
1F
100
AcDbEntity
  8
PCB_Plated_Holes
100
AcDbCircle
 10
-0.3112218523752332
 20
0.6557707673128564
 30
0.0
 40
0.02
  0
CIRCLE
  5
37F
330
1F
100
AcDbEntity
  8
PCB_Plated_Holes
100
AcDbCircle
 10
-0.3112218523752332
 20
0.5557707673128558
 30
0.0
 40
0.02
  0
CIRCLE
  5
380
330
1F
100
AcDbEntity
  8
PCB_Plated_Holes
100
AcDbCircle
 10
-0.3112218523752332
 20
0.4557707673128562
 30
0.0
 40
0.02
  0
CIRCLE
  5
381
330
1F
100
AcDbEntity
  8
PCB_Plated_Holes
100
AcDbCircle
 10
-0.3112218523752332
 20
0.3557707673128556
 30
0.0
 40
0.02
  0
CIRCLE
  5
382
330
1F
100
AcDbEntity
  8
PCB_Plated_Holes
100
AcDbCircle
 10
-0.3112218523752332
 20
0.255770767312856
 30
0.0
 40
0.02
  0
CIRCLE
  5
383
330
1F
100
AcDbEntity
  8
PCB_Plated_Holes
100
AcDbCircle
 10
-0.3112218523752332
 20
0.1557707673128563
 30
0.0
 40
0.02
  0
CIRCLE
  5
384
330
1F
100
AcDbEntity
  8
PCB_Plated_Holes
100
AcDbCircle
 10
-0.3112218523752332
 20
0.0557707673128558
 30
0.0
 40
0.02
  0
CIRCLE
  5
385
330
1F
100
AcDbEntity
  8
PCB_Plated_Holes
100
AcDbCircle
 10
-0.3112218523752332
 20
-0.0442292326871439
 30
0.0
 40
0.02
  0
CIRCLE
  5
386
330
1F
100
AcDbEntity
  8
PCB_Plated_Holes
100
AcDbCircle
 10
-0.3112218523752332
 20
-0.1442292326871444
 30
0.0
 40
0.02
  0
CIRCLE
  5
387
330
1F
100
AcDbEntity
  8
PCB_Plated_Holes
100
AcDbCircle
 10
-0.3112218523752332
 20
-0.244229232687144
 30
0.0
 40
0.02
  0
CIRCLE
  5
388
330
1F
100
AcDbEntity
  8
PCB_Plated_Holes
100
AcDbCircle
 10
-0.3112218523752332
 20
-0.3442292326871437
 30
0.0
 40
0.02
  0
CIRCLE
  5
389
330
1F
100
AcDbEntity
  8
PCB_Plated_Holes
100
AcDbCircle
 10
-0.1912218523752322
 20
0.6557707673128564
 30
0.0
 40
0.02
  0
CIRCLE
  5
38A
330
1F
100
AcDbEntity
  8
PCB_Plated_Holes
100
AcDbCircle
 10
-0.1912218523752322
 20
0.5557707673128558
 30
0.0
 40
0.02
  0
CIRCLE
  5
38B
330
1F
100
AcDbEntity
  8
PCB_Plated_Holes
100
AcDbCircle
 10
-0.1912218523752322
 20
0.4557707673128562
 30
0.0
 40
0.02
  0
CIRCLE
  5
38C
330
1F
100
AcDbEntity
  8
PCB_Plated_Holes
100
AcDbCircle
 10
-0.2112218523752318
 20
0.3557707673128556
 30
0.0
 40
0.02
  0
CIRCLE
  5
38D
330
1F
100
AcDbEntity
  8
PCB_Plated_Holes
100
AcDbCircle
 10
-0.2112218523752318
 20
0.255770767312856
 30
0.0
 40
0.02
  0
CIRCLE
  5
38E
330
1F
100
AcDbEntity
  8
PCB_Plated_Holes
100
AcDbCircle
 10
-0.2112218523752318
 20
0.1557707673128563
 30
0.0
 40
0.02
  0
CIRCLE
  5
38F
330
1F
100
AcDbEntity
  8
PCB_Plated_Holes
100
AcDbCircle
 10
-0.2112218523752318
 20
0.0557707673128558
 30
0.0
 40
0.02
  0
CIRCLE
  5
390
330
1F
100
AcDbEntity
  8
PCB_Plated_Holes
100
AcDbCircle
 10
-0.2112218523752318
 20
-0.0442292326871439
 30
0.0
 40
0.02
  0
CIRCLE
  5
391
330
1F
100
AcDbEntity
  8
PCB_Plated_Holes
100
AcDbCircle
 10
-0.2112218523752318
 20
-0.1442292326871444
 30
0.0
 40
0.02
  0
CIRCLE
  5
392
330
1F
100
AcDbEntity
  8
PCB_Plated_Holes
100
AcDbCircle
 10
-0.2112218523752318
 20
-0.244229232687144
 30
0.0
 40
0.02
  0
CIRCLE
  5
393
330
1F
100
AcDbEntity
  8
PCB_Plated_Holes
100
AcDbCircle
 10
-0.2112218523752318
 20
-0.3442292326871437
 30
0.0
 40
0.02
  0
CIRCLE
  5
394
330
1F
100
AcDbEntity
  8
PCB_Plated_Holes
100
AcDbCircle
 10
-0.2112218523752318
 20
-0.4442292326871442
 30
0.0
 40
0.02
  0
CIRCLE
  5
395
330
1F
100
AcDbEntity
  8
PCB_Plated_Holes
100
AcDbCircle
 10
-0.2112218523752318
 20
-0.5442292326871439
 30
0.0
 40
0.02
  0
CIRCLE
  5
396
330
1F
100
AcDbEntity
  8
PCB_Plated_Holes
100
AcDbCircle
 10
-0.0720540585606067
 20
0.5633854338890121
 30
0.0
 40
0.02
  0
CIRCLE
  5
397
330
1F
100
AcDbEntity
  8
PCB_Plated_Holes
100
AcDbCircle
 10
-0.0720540585606067
 20
0.4633854338890125
 30
0.0
 40
0.02
  0
CIRCLE
  5
398
330
1F
100
AcDbEntity
  8
PCB_Plated_Holes
100
AcDbCircle
 10
-0.1112218523752304
 20
0.3557707673128556
 30
0.0
 40
0.02
  0
CIRCLE
  5
399
330
1F
100
AcDbEntity
  8
PCB_Plated_Holes
100
AcDbCircle
 10
-0.1112218523752304
 20
0.255770767312856
 30
0.0
 40
0.02
  0
CIRCLE
  5
39A
330
1F
100
AcDbEntity
  8
PCB_Plated_Holes
100
AcDbCircle
 10
-0.1112218523752304
 20
0.1557707673128563
 30
0.0
 40
0.02
  0
CIRCLE
  5
39B
330
1F
100
AcDbEntity
  8
PCB_Plated_Holes
100
AcDbCircle
 10
-0.1112218523752304
 20
0.0557707673128558
 30
0.0
 40
0.02
  0
CIRCLE
  5
39C
330
1F
100
AcDbEntity
  8
PCB_Plated_Holes
100
AcDbCircle
 10
-0.1112218523752304
 20
-0.0442292326871439
 30
0.0
 40
0.02
  0
CIRCLE
  5
39D
330
1F
100
AcDbEntity
  8
PCB_Plated_Holes
100
AcDbCircle
 10
-0.1112218523752304
 20
-0.1442292326871444
 30
0.0
 40
0.02
  0
CIRCLE
  5
39E
330
1F
100
AcDbEntity
  8
PCB_Plated_Holes
100
AcDbCircle
 10
-0.1112218523752304
 20
-0.244229232687144
 30
0.0
 40
0.02
  0
CIRCLE
  5
39F
330
1F
100
AcDbEntity
  8
PCB_Plated_Holes
100
AcDbCircle
 10
-0.1112218523752304
 20
-0.3442292326871437
 30
0.0
 40
0.02
  0
CIRCLE
  5
3A0
330
1F
100
AcDbEntity
  8
PCB_Plated_Holes
100
AcDbCircle
 10
-0.1112218523752304
 20
-0.4442292326871442
 30
0.0
 40
0.02
  0
CIRCLE
  5
3A1
330
1F
100
AcDbEntity
  8
PCB_Plated_Holes
100
AcDbCircle
 10
-0.1112218523752304
 20
-0.5442292326871439
 30
0.0
 40
0.02
  0
CIRCLE
  5
3A2
330
1F
100
AcDbEntity
  8
PCB_Plated_Holes
100
AcDbCircle
 10
-0.0112218523752326
 20
0.255770767312856
 30
0.0
 40
0.02
  0
CIRCLE
  5
3A3
330
1F
100
AcDbEntity
  8
PCB_Plated_Holes
100
AcDbCircle
 10
-0.0112218523752326
 20
0.1557707673128563
 30
0.0
 40
0.02
  0
CIRCLE
  5
3A4
330
1F
100
AcDbEntity
  8
PCB_Plated_Holes
100
AcDbCircle
 10
-0.0112218523752326
 20
0.0557707673128558
 30
0.0
 40
0.02
  0
CIRCLE
  5
3A5
330
1F
100
AcDbEntity
  8
PCB_Plated_Holes
100
AcDbCircle
 10
-0.0112218523752326
 20
-0.0442292326871439
 30
0.0
 40
0.02
  0
CIRCLE
  5
3A6
330
1F
100
AcDbEntity
  8
PCB_Plated_Holes
100
AcDbCircle
 10
-0.0112218523752326
 20
-0.1442292326871444
 30
0.0
 40
0.02
  0
CIRCLE
  5
3A7
330
1F
100
AcDbEntity
  8
PCB_Plated_Holes
100
AcDbCircle
 10
-0.0112218523752326
 20
-0.244229232687144
 30
0.0
 40
0.02
  0
CIRCLE
  5
3A8
330
1F
100
AcDbEntity
  8
PCB_Plated_Holes
100
AcDbCircle
 10
-0.0112218523752326
 20
-0.3442292326871437
 30
0.0
 40
0.02
  0
CIRCLE
  5
3A9
330
1F
100
AcDbEntity
  8
PCB_Plated_Holes
100
AcDbCircle
 10
-0.0112218523752326
 20
-0.4442292326871442
 30
0.0
 40
0.02
  0
CIRCLE
  5
3AA
330
1F
100
AcDbEntity
  8
PCB_Plated_Holes
100
AcDbCircle
 10
-0.0112218523752326
 20
-0.5442292326871439
 30
0.0
 40
0.02
  0
CIRCLE
  5
3AB
330
1F
100
AcDbEntity
  8
PCB_Plated_Holes
100
AcDbCircle
 10
-0.0112218523752326
 20
-0.6442292326871444
 30
0.0
 40
0.02
  0
CIRCLE
  5
3AC
330
1F
100
AcDbEntity
  8
PCB_Plated_Holes
100
AcDbCircle
 10
0.0887781476247689
 20
0.255770767312856
 30
0.0
 40
0.02
  0
CIRCLE
  5
3AD
330
1F
100
AcDbEntity
  8
PCB_Plated_Holes
100
AcDbCircle
 10
0.0887781476247689
 20
0.1557707673128563
 30
0.0
 40
0.02
  0
CIRCLE
  5
3AE
330
1F
100
AcDbEntity
  8
PCB_Plated_Holes
100
AcDbCircle
 10
0.0887781476247689
 20
0.0557707673128558
 30
0.0
 40
0.02
  0
CIRCLE
  5
3AF
330
1F
100
AcDbEntity
  8
PCB_Plated_Holes
100
AcDbCircle
 10
0.0887781476247689
 20
-0.0442292326871439
 30
0.0
 40
0.02
  0
CIRCLE
  5
3B0
330
1F
100
AcDbEntity
  8
PCB_Plated_Holes
100
AcDbCircle
 10
0.0887781476247689
 20
-0.1442292326871444
 30
0.0
 40
0.02
  0
CIRCLE
  5
3B1
330
1F
100
AcDbEntity
  8
PCB_Plated_Holes
100
AcDbCircle
 10
0.0887781476247689
 20
-0.244229232687144
 30
0.0
 40
0.02
  0
CIRCLE
  5
3B2
330
1F
100
AcDbEntity
  8
PCB_Plated_Holes
100
AcDbCircle
 10
0.0887781476247689
 20
-0.3442292326871437
 30
0.0
 40
0.02
  0
CIRCLE
  5
3B3
330
1F
100
AcDbEntity
  8
PCB_Plated_Holes
100
AcDbCircle
 10
0.0887781476247689
 20
-0.4442292326871442
 30
0.0
 40
0.02
  0
CIRCLE
  5
3B4
330
1F
100
AcDbEntity
  8
PCB_Plated_Holes
100
AcDbCircle
 10
0.0887781476247689
 20
-0.5442292326871439
 30
0.0
 40
0.02
  0
CIRCLE
  5
3B5
330
1F
100
AcDbEntity
  8
PCB_Plated_Holes
100
AcDbCircle
 10
0.0887781476247689
 20
-0.6442292326871444
 30
0.0
 40
0.02
  0
CIRCLE
  5
3B6
330
1F
100
AcDbEntity
  8
PCB_Plated_Holes
100
AcDbCircle
 10
0.1887781476247667
 20
0.6557707673128564
 30
0.0
 40
0.02
  0
CIRCLE
  5
3B7
330
1F
100
AcDbEntity
  8
PCB_Plated_Holes
100
AcDbCircle
 10
0.1887781476247667
 20
0.5557707673128558
 30
0.0
 40
0.02
  0
CIRCLE
  5
3B8
330
1F
100
AcDbEntity
  8
PCB_Plated_Holes
100
AcDbCircle
 10
0.1887781476247667
 20
0.4557707673128562
 30
0.0
 40
0.02
  0
CIRCLE
  5
3B9
330
1F
100
AcDbEntity
  8
PCB_Plated_Holes
100
AcDbCircle
 10
0.1887781476247667
 20
0.3557707673128556
 30
0.0
 40
0.02
  0
CIRCLE
  5
3BA
330
1F
100
AcDbEntity
  8
PCB_Plated_Holes
100
AcDbCircle
 10
0.1887781476247667
 20
0.255770767312856
 30
0.0
 40
0.02
  0
CIRCLE
  5
3BB
330
1F
100
AcDbEntity
  8
PCB_Plated_Holes
100
AcDbCircle
 10
0.1887781476247667
 20
0.1557707673128563
 30
0.0
 40
0.02
  0
CIRCLE
  5
3BC
330
1F
100
AcDbEntity
  8
PCB_Plated_Holes
100
AcDbCircle
 10
0.1887781476247667
 20
0.0557707673128558
 30
0.0
 40
0.02
  0
CIRCLE
  5
3BD
330
1F
100
AcDbEntity
  8
PCB_Plated_Holes
100
AcDbCircle
 10
0.1887781476247667
 20
-0.0442292326871439
 30
0.0
 40
0.02
  0
CIRCLE
  5
3BE
330
1F
100
AcDbEntity
  8
PCB_Plated_Holes
100
AcDbCircle
 10
0.1887781476247667
 20
-0.1442292326871444
 30
0.0
 40
0.02
  0
CIRCLE
  5
3BF
330
1F
100
AcDbEntity
  8
PCB_Plated_Holes
100
AcDbCircle
 10
0.1887781476247667
 20
-0.244229232687144
 30
0.0
 40
0.02
  0
CIRCLE
  5
3C0
330
1F
100
AcDbEntity
  8
PCB_Plated_Holes
100
AcDbCircle
 10
0.1887781476247667
 20
-0.3442292326871437
 30
0.0
 40
0.02
  0
CIRCLE
  5
3C1
330
1F
100
AcDbEntity
  8
PCB_Plated_Holes
100
AcDbCircle
 10
0.2887781476247682
 20
0.6557707673128564
 30
0.0
 40
0.02
  0
CIRCLE
  5
3C2
330
1F
100
AcDbEntity
  8
PCB_Plated_Holes
100
AcDbCircle
 10
0.2887781476247682
 20
0.5557707673128558
 30
0.0
 40
0.02
  0
CIRCLE
  5
3C3
330
1F
100
AcDbEntity
  8
PCB_Plated_Holes
100
AcDbCircle
 10
0.2887781476247682
 20
0.4557707673128562
 30
0.0
 40
0.02
  0
CIRCLE
  5
3C4
330
1F
100
AcDbEntity
  8
PCB_Plated_Holes
100
AcDbCircle
 10
0.2887781476247682
 20
0.3557707673128556
 30
0.0
 40
0.02
  0
CIRCLE
  5
3C5
330
1F
100
AcDbEntity
  8
PCB_Plated_Holes
100
AcDbCircle
 10
0.2887781476247682
 20
0.255770767312856
 30
0.0
 40
0.02
  0
CIRCLE
  5
3C6
330
1F
100
AcDbEntity
  8
PCB_Plated_Holes
100
AcDbCircle
 10
0.2887781476247682
 20
0.1557707673128563
 30
0.0
 40
0.02
  0
CIRCLE
  5
3C7
330
1F
100
AcDbEntity
  8
PCB_Plated_Holes
100
AcDbCircle
 10
0.2887781476247682
 20
0.0557707673128558
 30
0.0
 40
0.02
  0
CIRCLE
  5
3C8
330
1F
100
AcDbEntity
  8
PCB_Plated_Holes
100
AcDbCircle
 10
0.2887781476247682
 20
-0.0442292326871439
 30
0.0
 40
0.02
  0
CIRCLE
  5
3C9
330
1F
100
AcDbEntity
  8
PCB_Plated_Holes
100
AcDbCircle
 10
0.2887781476247682
 20
-0.1442292326871444
 30
0.0
 40
0.02
  0
CIRCLE
  5
3CA
330
1F
100
AcDbEntity
  8
PCB_Plated_Holes
100
AcDbCircle
 10
0.2887781476247682
 20
-0.244229232687144
 30
0.0
 40
0.02
  0
CIRCLE
  5
3CB
330
1F
100
AcDbEntity
  8
PCB_Plated_Holes
100
AcDbCircle
 10
0.3887781476247696
 20
0.6557707673128564
 30
0.0
 40
0.02
  0
CIRCLE
  5
3CC
330
1F
100
AcDbEntity
  8
PCB_Plated_Holes
100
AcDbCircle
 10
0.3887781476247696
 20
0.5557707673128558
 30
0.0
 40
0.02
  0
CIRCLE
  5
3CD
330
1F
100
AcDbEntity
  8
PCB_Plated_Holes
100
AcDbCircle
 10
0.3887781476247696
 20
0.4557707673128562
 30
0.0
 40
0.02
  0
CIRCLE
  5
3CE
330
1F
100
AcDbEntity
  8
PCB_Plated_Holes
100
AcDbCircle
 10
0.3887781476247696
 20
0.3557707673128556
 30
0.0
 40
0.02
  0
CIRCLE
  5
3CF
330
1F
100
AcDbEntity
  8
PCB_Plated_Holes
100
AcDbCircle
 10
0.3887781476247696
 20
0.255770767312856
 30
0.0
 40
0.02
  0
CIRCLE
  5
3D0
330
1F
100
AcDbEntity
  8
PCB_Plated_Holes
100
AcDbCircle
 10
0.3887781476247696
 20
0.1557707673128563
 30
0.0
 40
0.02
  0
CIRCLE
  5
3D1
330
1F
100
AcDbEntity
  8
PCB_Plated_Holes
100
AcDbCircle
 10
0.3887781476247696
 20
0.0557707673128558
 30
0.0
 40
0.02
  0
CIRCLE
  5
3D2
330
1F
100
AcDbEntity
  8
PCB_Plated_Holes
100
AcDbCircle
 10
0.3887781476247696
 20
-0.0442292326871439
 30
0.0
 40
0.02
  0
CIRCLE
  5
3D3
330
1F
100
AcDbEntity
  8
PCB_Plated_Holes
100
AcDbCircle
 10
0.3887781476247696
 20
-0.1442292326871444
 30
0.0
 40
0.02
  0
CIRCLE
  5
3D4
330
1F
100
AcDbEntity
  8
PCB_Plated_Holes
100
AcDbCircle
 10
0.3887781476247696
 20
-0.244229232687144
 30
0.0
 40
0.02
  0
CIRCLE
  5
3D5
330
1F
100
AcDbEntity
  8
PCB_Plated_Holes
100
AcDbCircle
 10
0.4887781476247675
 20
0.6557707673128564
 30
0.0
 40
0.02
  0
CIRCLE
  5
3D6
330
1F
100
AcDbEntity
  8
PCB_Plated_Holes
100
AcDbCircle
 10
0.4887781476247675
 20
0.5557707673128558
 30
0.0
 40
0.02
  0
CIRCLE
  5
3D7
330
1F
100
AcDbEntity
  8
PCB_Plated_Holes
100
AcDbCircle
 10
0.4887781476247675
 20
0.4557707673128562
 30
0.0
 40
0.02
  0
CIRCLE
  5
3D8
330
1F
100
AcDbEntity
  8
PCB_Plated_Holes
100
AcDbCircle
 10
0.4887781476247675
 20
0.3557707673128556
 30
0.0
 40
0.02
  0
CIRCLE
  5
3D9
330
1F
100
AcDbEntity
  8
PCB_Plated_Holes
100
AcDbCircle
 10
0.4887781476247675
 20
0.255770767312856
 30
0.0
 40
0.02
  0
CIRCLE
  5
3DA
330
1F
100
AcDbEntity
  8
PCB_Plated_Holes
100
AcDbCircle
 10
0.4887781476247675
 20
0.1557707673128563
 30
0.0
 40
0.02
  0
CIRCLE
  5
3DB
330
1F
100
AcDbEntity
  8
PCB_Plated_Holes
100
AcDbCircle
 10
0.4887781476247675
 20
0.0557707673128558
 30
0.0
 40
0.02
  0
CIRCLE
  5
3DC
330
1F
100
AcDbEntity
  8
PCB_Plated_Holes
100
AcDbCircle
 10
0.4887781476247675
 20
-0.0442292326871439
 30
0.0
 40
0.02
  0
CIRCLE
  5
3DD
330
1F
100
AcDbEntity
  8
PCB_Plated_Holes
100
AcDbCircle
 10
0.4887781476247675
 20
-0.1442292326871444
 30
0.0
 40
0.02
  0
CIRCLE
  5
3DE
330
1F
100
AcDbEntity
  8
PCB_Plated_Holes
100
AcDbCircle
 10
0.4887781476247675
 20
-0.244229232687144
 30
0.0
 40
0.02
  0
CIRCLE
  5
3DF
330
1F
100
AcDbEntity
  8
PCB_Plated_Holes
100
AcDbCircle
 10
0.4887781476247675
 20
-0.3442292326871437
 30
0.0
 40
0.02
  0
CIRCLE
  5
3E0
330
1F
100
AcDbEntity
  8
PCB_Plated_Holes
100
AcDbCircle
 10
0.4887781476247675
 20
-0.4442292326871442
 30
0.0
 40
0.02
  0
CIRCLE
  5
3E1
330
1F
100
AcDbEntity
  8
PCB_Plated_Holes
100
AcDbCircle
 10
0.4887781476247675
 20
-0.5442292326871439
 30
0.0
 40
0.02
  0
CIRCLE
  5
3E2
330
1F
100
AcDbEntity
  8
PCB_Plated_Holes
100
AcDbCircle
 10
0.4887781476247675
 20
-0.6442292326871444
 30
0.0
 40
0.02
  0
CIRCLE
  5
3E3
330
1F
100
AcDbEntity
  8
PCB_Plated_Holes
100
AcDbCircle
 10
0.5887781476247689
 20
0.5557707673128558
 30
0.0
 40
0.02
  0
CIRCLE
  5
3E4
330
1F
100
AcDbEntity
  8
PCB_Plated_Holes
100
AcDbCircle
 10
0.5887781476247689
 20
0.4557707673128562
 30
0.0
 40
0.02
  0
CIRCLE
  5
3E5
330
1F
100
AcDbEntity
  8
PCB_Plated_Holes
100
AcDbCircle
 10
0.5887781476247689
 20
0.3557707673128556
 30
0.0
 40
0.02
  0
CIRCLE
  5
3E6
330
1F
100
AcDbEntity
  8
PCB_Plated_Holes
100
AcDbCircle
 10
0.5887781476247689
 20
0.255770767312856
 30
0.0
 40
0.02
  0
CIRCLE
  5
3E7
330
1F
100
AcDbEntity
  8
PCB_Plated_Holes
100
AcDbCircle
 10
0.5887781476247689
 20
0.1557707673128563
 30
0.0
 40
0.02
  0
CIRCLE
  5
3E8
330
1F
100
AcDbEntity
  8
PCB_Plated_Holes
100
AcDbCircle
 10
0.5887781476247689
 20
0.0557707673128558
 30
0.0
 40
0.02
  0
CIRCLE
  5
3E9
330
1F
100
AcDbEntity
  8
PCB_Plated_Holes
100
AcDbCircle
 10
0.5887781476247689
 20
-0.0442292326871439
 30
0.0
 40
0.02
  0
CIRCLE
  5
3EA
330
1F
100
AcDbEntity
  8
PCB_Plated_Holes
100
AcDbCircle
 10
0.5887781476247689
 20
-0.1442292326871444
 30
0.0
 40
0.02
  0
CIRCLE
  5
3EB
330
1F
100
AcDbEntity
  8
PCB_Plated_Holes
100
AcDbCircle
 10
0.5887781476247689
 20
-0.244229232687144
 30
0.0
 40
0.02
  0
CIRCLE
  5
3EC
330
1F
100
AcDbEntity
  8
PCB_Plated_Holes
100
AcDbCircle
 10
0.5887781476247689
 20
-0.3442292326871437
 30
0.0
 40
0.02
  0
CIRCLE
  5
3ED
330
1F
100
AcDbEntity
  8
PCB_Plated_Holes
100
AcDbCircle
 10
0.5887781476247689
 20
-0.4442292326871442
 30
0.0
 40
0.02
  0
CIRCLE
  5
3EE
330
1F
100
AcDbEntity
  8
PCB_Plated_Holes
100
AcDbCircle
 10
0.5887781476247689
 20
-0.5442292326871439
 30
0.0
 40
0.02
  0
CIRCLE
  5
3EF
330
1F
100
AcDbEntity
  8
PCB_Plated_Holes
100
AcDbCircle
 10
0.1135966004790454
 20
0.5633854338890121
 30
0.0
 40
0.02
  0
CIRCLE
  5
3F0
330
1F
100
AcDbEntity
  8
PCB_Plated_Holes
100
AcDbCircle
 10
0.1135966004790454
 20
0.4633854338890125
 30
0.0
 40
0.02
  0
CIRCLE
  5
3F1
330
1F
100
AcDbEntity
  8
PCB_Plated_Holes
100
AcDbCircle
 10
-0.3206787290414539
 20
-0.4446132798930789
 30
0.0
 40
0.02
  0
CIRCLE
  5
3F2
330
1F
100
AcDbEntity
  8
PCB_Plated_Holes
100
AcDbCircle
 10
-0.3206787290414539
 20
-0.5446132798930785
 30
0.0
 40
0.02
  0
CIRCLE
  5
3F3
330
1F
100
AcDbEntity
  8
PCB_Plated_Holes
100
AcDbCircle
 10
-0.3206787290414539
 20
-0.6446132798930791
 30
0.0
 40
0.02
  0
CIRCLE
  5
3F4
330
1F
100
AcDbEntity
  8
PCB_Plated_Holes
100
AcDbCircle
 10
0.4153212709599856
 20
-0.4446132798930789
 30
0.0
 40
0.02
  0
CIRCLE
  5
3F5
330
1F
100
AcDbEntity
  8
PCB_Plated_Holes
100
AcDbCircle
 10
0.4153212709599856
 20
-0.5446132798930785
 30
0.0
 40
0.02
  0
CIRCLE
  5
3F6
330
1F
100
AcDbEntity
  8
PCB_Plated_Holes
100
AcDbCircle
 10
0.2023212709599846
 20
-0.4446132798930789
 30
0.0
 40
0.02
  0
CIRCLE
  5
3F7
330
1F
100
AcDbEntity
  8
PCB_Plated_Holes
100
AcDbCircle
 10
0.2023212709599846
 20
-0.5446132798930785
 30
0.0
 40
0.02
  0
ENDSEC
  0
SECTION
  2
OBJECTS
  0
DICTIONARY
  5
C
330
0
100
AcDbDictionary
281
     1
  3
ACAD_CIP_PREVIOUS_PRODUCT_INFO
350
1A5
  3
ACAD_COLOR
350
73
  3
ACAD_DETAILVIEWSTYLE
350
1AB
  3
ACAD_GROUP
350
D
  3
ACAD_LAYOUT
350
1A
  3
ACAD_MATERIAL
350
72
  3
ACAD_MLEADERSTYLE
350
D7
  3
ACAD_MLINESTYLE
350
17
  3
ACAD_PLOTSETTINGS
350
19
  3
ACAD_PLOTSTYLENAME
350
E
  3
ACAD_SCALELIST
350
B6
  3
ACAD_SECTIONVIEWSTYLE
350
1A8
  3
ACAD_TABLESTYLE
350
86
  3
ACAD_VISUALSTYLE
350
99
  3
ACDB_RECOMPOSE_DATA
350
457
  3
AcDbVariableDictionary
350
66
  0
DICTIONARY
  5
18E
330
2
100
AcDbDictionary
280
     1
281
     1
  3
ACAD_LAYERSTATES
360
18F
  0
DICTIONARY
  5
E6
330
10
100
AcDbDictionary
280
     1
281
     1
  0
DICTIONARY
  5
266
330
265
100
AcDbDictionary
280
     1
281
     1
  0
DICTIONARY
  5
26C
330
26B
100
AcDbDictionary
280
     1
281
     1
  0
DICTIONARY
  5
15D
330
1F
100
AcDbDictionary
280
     1
281
     1
  0
DICTIONARY
  5
357
330
356
100
AcDbDictionary
280
     1
281
     1
  3
AcDbContextDataManager
360
358
  0
XRECORD
  5
1A5
102
{ACAD_REACTORS
330
C
102
}
330
C
100
AcDbXrecord
280
     1
300
ACD
300
2021
300

  0
DICTIONARY
  5
73
102
{ACAD_REACTORS
330
C
102
}
330
C
100
AcDbDictionary
281
     1
  0
DICTIONARY
  5
1AB
102
{ACAD_REACTORS
330
C
102
}
330
C
100
AcDbDictionary
281
     1
  3
Imperial24
350
1AC
  0
DICTIONARY
  5
D
102
{ACAD_REACTORS
330
C
102
}
330
C
100
AcDbDictionary
281
     1
  0
DICTIONARY
  5
1A
102
{ACAD_REACTORS
330
C
102
}
330
C
100
AcDbDictionary
281
     1
  3
Layout1
350
59
  3
Layout2
350
5E
  3
Model
350
22
  0
DICTIONARY
  5
72
102
{ACAD_REACTORS
330
C
102
}
330
C
100
AcDbDictionary
281
     1
  3
ByBlock
350
97
  3
ByLayer
350
96
  3
Global
350
98
  0
DICTIONARY
  5
D7
102
{ACAD_REACTORS
330
C
102
}
330
C
100
AcDbDictionary
281
     1
  3
Annotative
350
E5
  3
datasheet
350
277
  3
Standard
350
D8
  0
DICTIONARY
  5
17
102
{ACAD_REACTORS
330
C
102
}
330
C
100
AcDbDictionary
281
     1
  3
Standard
350
18
  0
DICTIONARY
  5
19
102
{ACAD_REACTORS
330
C
102
}
330
C
100
AcDbDictionary
281
     1
  0
ACDBDICTIONARYWDFLT
  5
E
102
{ACAD_REACTORS
330
C
102
}
330
C
100
AcDbDictionary
281
     1
  3
Normal
350
F
100
AcDbDictionaryWithDefault
340
F
  0
DICTIONARY
  5
B6
102
{ACAD_REACTORS
330
C
102
}
330
C
100
AcDbDictionary
281
     1
  3
A0
350
B7
  3
A1
350
124
  3
A2
350
125
  3
A3
350
126
  3
A4
350
127
  3
A5
350
128
  3
A6
350
129
  3
A7
350
12A
  3
A8
350
12B
  3
A9
350
12C
  3
B0
350
12D
  3
B1
350
12E
  3
B2
350
12F
  3
B3
350
130
  3
B4
350
131
  3
B5
350
132
  3
B6
350
133
  3
B7
350
134
  3
B8
350
135
  3
B9
350
136
  3
C0
350
137
  3
C1
350
138
  3
C2
350
139
  3
C3
350
13A
  3
C4
350
13B
  3
C5
350
13C
  3
C6
350
13D
  3
C7
350
13E
  3
C8
350
13F
  3
C9
350
140
  3
D0
350
141
  3
D1
350
142
  3
D2
350
143
  0
DICTIONARY
  5
1A8
102
{ACAD_REACTORS
330
C
102
}
330
C
100
AcDbDictionary
281
     1
  3
Imperial24
350
1AA
  0
DICTIONARY
  5
86
102
{ACAD_REACTORS
330
C
102
}
330
C
100
AcDbDictionary
281
     1
  3
Standard
350
87
  0
DICTIONARY
  5
99
102
{ACAD_REACTORS
330
C
102
}
330
C
100
AcDbDictionary
281
     1
  3
2dWireframe
350
9F
  3
Basic
350
9E
  3
Brighten
350
A5
  3
ColorChange
350
A9
  3
Conceptual
350
A2
  3
Dim
350
A4
  3
EdgeColorOff
350
175
  3
Facepattern
350
A8
  3
Flat
350
9A
  3
FlatWithEdges
350
9B
  3
Gouraud
350
9C
  3
GouraudWithEdges
350
9D
  3
Hidden
350
A1
  3
JitterOff
350
173
  3
Linepattern
350
A7
  3
OverhangOff
350
174
  3
Realistic
350
A3
  3
Shaded
350
182
  3
Shaded with edges
350
181
  3
Shades of Gray
350
17E
  3
Sketchy
350
17F
  3
Thicken
350
A6
  3
Wireframe
350
A0
  3
X-Ray
350
180
  0
XRECORD
  5
457
102
{ACAD_REACTORS
330
C
102
}
330
C
100
AcDbXrecord
280
     1
 90
        1
330
87
  0
DICTIONARY
  5
66
102
{ACAD_REACTORS
330
C
102
}
330
C
100
AcDbDictionary
281
     1
  3
CANNOSCALE
350
F0
  3
CMLEADERSTYLE
350
EF
  3
CTABLESTYLE
350
89
  3
CVIEWDETAILSTYLE
350
1B7
  3
CVIEWSECTIONSTYLE
350
1B8
  3
DIMASSOC
350
67
  3
HIDETEXT
350
6B
  3
LAYEREVAL
350
14D
  3
LAYERNOTIFY
350
14E
  0
DICTIONARY
  5
18F
102
{ACAD_REACTORS
330
18E
102
}
330
18E
100
AcDbDictionary
281
     1
  0
DICTIONARY
  5
358
102
{ACAD_REACTORS
330
357
102
}
330
357
100
AcDbDictionary
281
     1
  3
ACDB_ANNOTATIONSCALES
350
359
  0
ACDBDETAILVIEWSTYLE
  5
1AC
102
{ACAD_REACTORS
330
1AB
102
}
330
1AB
100
AcDbModelDocViewStyle
 70
     0
  3
Imperial24
290
     0
300
Imperial24
 90
        0
100
AcDbDetailViewStyle
 70
     0
 71
     0
 90
        3
 71
     1
340
11
 62
   256
 40
0.24
340
0
 62
   256
 40
0.24
300

 40
0.36
280
     3
 71
     2
340
16
 90
       25
 62
   256
 71
     3
340
11
 62
   256
 40
0.24
 90
        1
 40
0.75
 90
        1
300
%<\AcVar ViewType \f "%tc1">% %<\AcVar ViewDetailId>%\PSCALE %<\AcVar ViewScale \f "%sn">%
 71
     4
340
16
 90
       25
 62
   256
340
16
 90
       25
 62
   256
280
     0
  0
LAYOUT
  5
59
102
{ACAD_REACTORS
330
1A
102
}
330
1A
100
AcDbPlotSettings
  1

  2
None
  4

  6

 40
0.0
 41
0.0
 42
0.0
 43
0.0
 44
0.0
 45
0.0
 46
0.0
 47
0.0
 48
0.0
 49
0.0
140
0.0
141
0.0
142
1.0
143
1.0
 70
   688
 72
     0
 73
     0
 74
     5
  7

 75
    16
147
1.0
 76
     0
 77
     2
 78
   300
148
0.0
149
0.0
100
AcDbLayout
  1
Layout1
 70
     1
 71
     1
 10
0.0
 20
0.0
 11
12.0
 21
9.0
 12
0.0
 22
0.0
 32
0.0
 14
0.0
 24
0.0
 34
0.0
 15
0.0
 25
0.0
 35
0.0
146
0.0
 13
0.0
 23
0.0
 33
0.0
 16
1.0
 26
0.0
 36
0.0
 17
0.0
 27
1.0
 37
0.0
 76
     0
330
58
  0
LAYOUT
  5
5E
102
{ACAD_REACTORS
330
1A
102
}
330
1A
100
AcDbPlotSettings
  1

  2
None
  4

  6

 40
0.0
 41
0.0
 42
0.0
 43
0.0
 44
0.0
 45
0.0
 46
0.0
 47
0.0
 48
0.0
 49
0.0
140
0.0
141
0.0
142
1.0
143
1.0
 70
   688
 72
     0
 73
     0
 74
     5
  7

 75
    16
147
1.0
 76
     0
 77
     2
 78
   300
148
0.0
149
0.0
100
AcDbLayout
  1
Layout2
 70
     1
 71
     2
 10
0.0
 20
0.0
 11
12.0
 21
9.0
 12
0.0
 22
0.0
 32
0.0
 14
0.0
 24
0.0
 34
0.0
 15
0.0
 25
0.0
 35
0.0
146
0.0
 13
0.0
 23
0.0
 33
0.0
 16
1.0
 26
0.0
 36
0.0
 17
0.0
 27
1.0
 37
0.0
 76
     0
330
5D
  0
LAYOUT
  5
22
102
{ACAD_XDICTIONARY
360
194
102
}
102
{ACAD_REACTORS
330
1A
102
}
330
1A
100
AcDbPlotSettings
  1

  2
none_device
  4
ANSI_A_(8.50_x_11.00_Inches)
  6

 40
6.349999904632568
 41
19.04999923706055
 42
6.350006103515625
 43
19.04998779296875
 44
215.8999938964844
 45
279.3999938964844
 46
0.0
 47
0.0
 48
0.0
 49
0.0
140
0.0
141
0.0
142
1.0
143
2.584895464708373
 70
 11952
 72
     0
 73
     1
 74
     0
  7

 75
     0
147
0.3868628397755418
 76
     0
 77
     2
 78
   300
148
0.0
149
0.0
100
AcDbLayout
  1
Model
 70
     1
 71
     0
 10
0.0
 20
0.0
 11
12.0
 21
9.0
 12
0.0
 22
0.0
 32
0.0
 14
0.0
 24
0.0
 34
0.0
 15
0.0
 25
0.0
 35
0.0
146
0.0
 13
0.0
 23
0.0
 33
0.0
 16
1.0
 26
0.0
 36
0.0
 17
0.0
 27
1.0
 37
0.0
 76
     0
330
1F
331
94
  0
MATERIAL
  5
97
102
{ACAD_XDICTIONARY
360
188
102
}
102
{ACAD_REACTORS
330
72
102
}
330
72
100
AcDbMaterial
  1
ByBlock
 94
       63
  0
MATERIAL
  5
96
102
{ACAD_XDICTIONARY
360
186
102
}
102
{ACAD_REACTORS
330
72
102
}
330
72
100
AcDbMaterial
  1
ByLayer
 94
       63
  0
MATERIAL
  5
98
102
{ACAD_XDICTIONARY
360
110
102
}
102
{ACAD_REACTORS
330
72
102
}
330
72
100
AcDbMaterial
  1
Global
 43
0.0208000000566244
 43
0.0
 43
0.0
 43
0.0
 43
0.0
 43
0.0208000000566244
 43
0.0
 43
0.0
 43
0.0
 43
0.0
 43
1.0
 43
0.0
 43
0.0
 43
0.0
 43
0.0
 43
1.0
 49
0.0208000000566244
 49
0.0
 49
0.0
 49
0.0
 49
0.0
 49
0.0208000000566244
 49
0.0
 49
0.0
 49
0.0
 49
0.0
 49
1.0
 49
0.0
 49
0.0
 49
0.0
 49
0.0
 49
1.0
142
0.0208000000566244
142
0.0
142
0.0
142
0.0
142
0.0
142
0.0208000000566244
142
0.0
142
0.0
142
0.0
142
0.0
142
1.0
142
0.0
142
0.0
142
0.0
142
0.0
142
1.0
144
0.0208000000566244
144
0.0
144
0.0
144
0.0
144
0.0
144
0.0208000000566244
144
0.0
144
0.0
144
0.0
144
0.0
144
1.0
144
0.0
144
0.0
144
0.0
144
0.0
144
1.0
 94
       63
1001
ACAD
1070
    -1
1070
     3
1070
     0
1000

1071
        0
1070
     0
  0
MLEADERSTYLE
  5
E5
102
{ACAD_REACTORS
330
D7
102
}
330
D7
100
AcDbMLeaderStyle
179
     2
170
     2
171
     1
172
     0
 90
        2
 40
0.0
 41
0.0
173
     1
 91
-1056964608
340
14
 92
       -2
290
     1
 42
0.09
291
     1
 43
0.36
  3
Standard
 44
0.18
300

342
11
174
     1
178
     1
175
     1
176
     0
 93
-1056964608
 45
0.18
292
     0
297
     0
 46
0.18
 94
-1056964608
 47
1.0
 49
1.0
140
1.0
293
     1
141
0.0
294
     1
177
     0
142
1.0
295
     0
296
     1
143
0.125
271
     0
272
     9
273
     9
298
     0
  0
MLEADERSTYLE
  5
277
102
{ACAD_REACTORS
330
283
330
D7
330
346
102
}
330
D7
100
AcDbMLeaderStyle
179
     2
170
     2
171
     1
172
     0
 90
        2
 40
0.0
 41
0.0
173
     1
 91
-1056964608
340
14
 92
       -2
290
     1
 42
0.05
291
     1
 43
0.1
  3
Standard
 44
0.075
300

342
DC
174
     1
178
     1
175
     1
176
     0
 93
-1056964608
 45
0.1
292
     0
297
     0
 46
0.18
 94
-1056964608
 47
1.0
 49
1.0
140
1.0
293
     1
141
0.0
294
     1
177
     0
142
1.0
295
     0
296
     0
143
0.1
271
     0
272
     9
273
     9
298
     0
  0
MLEADERSTYLE
  5
D8
102
{ACAD_REACTORS
330
D7
102
}
330
D7
100
AcDbMLeaderStyle
179
     2
170
     2
171
     1
172
     0
 90
        2
 40
0.0
 41
0.0
173
     1
 91
-1056964608
340
14
 92
       -2
290
     1
 42
0.09
291
     1
 43
0.36
  3
Standard
 44
0.18
300

342
11
174
     1
178
     1
175
     1
176
     0
 93
-1056964608
 45
0.18
292
     0
297
     0
 46
0.18
 94
-1056964608
 47
1.0
 49
1.0
140
1.0
293
     1
141
0.0
294
     1
177
     0
142
1.0
295
     0
296
     0
143
0.125
271
     0
272
     9
273
     9
298
     0
  0
MLINESTYLE
  5
18
102
{ACAD_REACTORS
330
17
102
}
330
17
100
AcDbMlineStyle
  2
STANDARD
 70
     0
  3

 62
   256
 51
90.0
 52
90.0
 71
     2
 49
0.5
 62
   256
  6
BYLAYER
 49
-0.5
 62
   256
  6
BYLAYER
  0
ACDBPLACEHOLDER
  5
F
102
{ACAD_REACTORS
330
E
102
}
330
E
  0
SCALE
  5
B7
102
{ACAD_REACTORS
330
B6
102
}
330
B6
100
AcDbScale
 70
     0
300
1:1
140
1.0
141
1.0
290
     1
  0
SCALE
  5
124
102
{ACAD_REACTORS
330
B6
102
}
330
B6
100
AcDbScale
 70
     0
300
1:2
140
1.0
141
2.0
290
     0
  0
SCALE
  5
125
102
{ACAD_REACTORS
330
B6
102
}
330
B6
100
AcDbScale
 70
     0
300
1:4
140
1.0
141
4.0
290
     0
  0
SCALE
  5
126
102
{ACAD_REACTORS
330
B6
102
}
330
B6
100
AcDbScale
 70
     0
300
1:5
140
1.0
141
5.0
290
     0
  0
SCALE
  5
127
102
{ACAD_REACTORS
330
B6
102
}
330
B6
100
AcDbScale
 70
     0
300
1:8
140
1.0
141
8.0
290
     0
  0
SCALE
  5
128
102
{ACAD_REACTORS
330
B6
102
}
330
B6
100
AcDbScale
 70
     0
300
1:10
140
1.0
141
10.0
290
     0
  0
SCALE
  5
129
102
{ACAD_REACTORS
330
B6
102
}
330
B6
100
AcDbScale
 70
     0
300
1:16
140
1.0
141
16.0
290
     0
  0
SCALE
  5
12A
102
{ACAD_REACTORS
330
B6
102
}
330
B6
100
AcDbScale
 70
     0
300
1:20
140
1.0
141
20.0
290
     0
  0
SCALE
  5
12B
102
{ACAD_REACTORS
330
B6
102
}
330
B6
100
AcDbScale
 70
     0
300
1:30
140
1.0
141
30.0
290
     0
  0
SCALE
  5
12C
102
{ACAD_REACTORS
330
B6
102
}
330
B6
100
AcDbScale
 70
     0
300
1:40
140
1.0
141
40.0
290
     0
  0
SCALE
  5
12D
102
{ACAD_REACTORS
330
B6
102
}
330
B6
100
AcDbScale
 70
     0
300
1:50
140
1.0
141
50.0
290
     0
  0
SCALE
  5
12E
102
{ACAD_REACTORS
330
B6
102
}
330
B6
100
AcDbScale
 70
     0
300
1:100
140
1.0
141
100.0
290
     0
  0
SCALE
  5
12F
102
{ACAD_REACTORS
330
B6
102
}
330
B6
100
AcDbScale
 70
     0
300
2:1
140
2.0
141
1.0
290
     0
  0
SCALE
  5
130
102
{ACAD_REACTORS
330
B6
102
}
330
B6
100
AcDbScale
 70
     0
300
4:1
140
4.0
141
1.0
290
     0
  0
SCALE
  5
131
102
{ACAD_REACTORS
330
B6
102
}
330
B6
100
AcDbScale
 70
     0
300
8:1
140
8.0
141
1.0
290
     0
  0
SCALE
  5
132
102
{ACAD_REACTORS
330
B6
102
}
330
B6
100
AcDbScale
 70
     0
300
10:1
140
10.0
141
1.0
290
     0
  0
SCALE
  5
133
102
{ACAD_REACTORS
330
B6
102
}
330
B6
100
AcDbScale
 70
     0
300
100:1
140
100.0
141
1.0
290
     0
  0
SCALE
  5
134
102
{ACAD_REACTORS
330
B6
102
}
330
B6
100
AcDbScale
 70
     0
300
1/128" = 1'-0"
140
0.0078125
141
12.0
290
     0
  0
SCALE
  5
135
102
{ACAD_REACTORS
330
B6
102
}
330
B6
100
AcDbScale
 70
     0
300
1/64" = 1'-0"
140
0.015625
141
12.0
290
     0
  0
SCALE
  5
136
102
{ACAD_REACTORS
330
B6
102
}
330
B6
100
AcDbScale
 70
     0
300
1/32" = 1'-0"
140
0.03125
141
12.0
290
     0
  0
SCALE
  5
137
102
{ACAD_REACTORS
330
B6
102
}
330
B6
100
AcDbScale
 70
     0
300
1/16" = 1'-0"
140
0.0625
141
12.0
290
     0
  0
SCALE
  5
138
102
{ACAD_REACTORS
330
B6
102
}
330
B6
100
AcDbScale
 70
     0
300
3/32" = 1'-0"
140
0.09375
141
12.0
290
     0
  0
SCALE
  5
139
102
{ACAD_REACTORS
330
B6
102
}
330
B6
100
AcDbScale
 70
     0
300
1/8" = 1'-0"
140
0.125
141
12.0
290
     0
  0
SCALE
  5
13A
102
{ACAD_REACTORS
330
B6
102
}
330
B6
100
AcDbScale
 70
     0
300
3/16" = 1'-0"
140
0.1875
141
12.0
290
     0
  0
SCALE
  5
13B
102
{ACAD_REACTORS
330
B6
102
}
330
B6
100
AcDbScale
 70
     0
300
1/4" = 1'-0"
140
0.25
141
12.0
290
     0
  0
SCALE
  5
13C
102
{ACAD_REACTORS
330
B6
102
}
330
B6
100
AcDbScale
 70
     0
300
3/8" = 1'-0"
140
0.375
141
12.0
290
     0
  0
SCALE
  5
13D
102
{ACAD_REACTORS
330
B6
102
}
330
B6
100
AcDbScale
 70
     0
300
1/2" = 1'-0"
140
0.5
141
12.0
290
     0
  0
SCALE
  5
13E
102
{ACAD_REACTORS
330
B6
102
}
330
B6
100
AcDbScale
 70
     0
300
3/4" = 1'-0"
140
0.75
141
12.0
290
     0
  0
SCALE
  5
13F
102
{ACAD_REACTORS
330
B6
102
}
330
B6
100
AcDbScale
 70
     0
300
1" = 1'-0"
140
1.0
141
12.0
290
     0
  0
SCALE
  5
140
102
{ACAD_REACTORS
330
B6
102
}
330
B6
100
AcDbScale
 70
     0
300
1-1/2" = 1'-0"
140
1.5
141
12.0
290
     0
  0
SCALE
  5
141
102
{ACAD_REACTORS
330
B6
102
}
330
B6
100
AcDbScale
 70
     0
300
3" = 1'-0"
140
3.0
141
12.0
290
     0
  0
SCALE
  5
142
102
{ACAD_REACTORS
330
B6
102
}
330
B6
100
AcDbScale
 70
     0
300
6" = 1'-0"
140
6.0
141
12.0
290
     0
  0
SCALE
  5
143
102
{ACAD_REACTORS
330
B6
102
}
330
B6
100
AcDbScale
 70
     0
300
1'-0" = 1'-0"
140
12.0
141
12.0
290
     0
  0
ACDBSECTIONVIEWSTYLE
  5
1AA
102
{ACAD_REACTORS
330
1A8
102
}
330
1A8
100
AcDbModelDocViewStyle
 70
     0
  3
Imperial24
290
     0
300
Imperial24
 90
        0
100
AcDbSectionViewStyle
 70
     0
 71
     0
 90
       78
 71
     1
340
11
 62
   256
 40
0.24
340
0
340
0
 62
   256
 40
0.24
300
I, O, Q, S, X, Z
 40
0.48
 90
        3
 40
0.18
 90
        1
 71
     2
340
16
 90
       25
 62
   256
340
16
 90
       50
 62
   256
 40
0.24
 40
0.0
 40
0.24
 71
     3
340
11
 62
   256
 40
0.24
 90
        1
 40
0.75
 90
        1
300
%<\AcVar ViewType \f "%tc1">% %<\AcVar ViewSectionStartId>%-%<\AcVar ViewSectionEndId>%\PSCALE %<\AcVar ViewScale \f "%sn">%
 71
     4
 62
   256
 62
   257
300
ANSI31
 40
1.0
 90
        0
290
     0
290
     0
 90
        6
 40
0.0
 40
1.570796326794896
 40
0.2617993877991494
 40
1.308996938995747
 40
-0.2617993877991494
 40
1.832595714594046
  0
TABLESTYLE
  5
87
102
{ACAD_XDICTIONARY
360
104
102
}
102
{ACAD_REACTORS
330
86
102
}
330
86
100
AcDbTableStyle
280
     0
  3
Standard
 70
     0
 71
     0
 40
0.06
 41
0.06
280
     0
281
     0
  7
Standard
140
0.18
170
     2
 62
     0
 63
     7
283
     0
 90
      512
 91
        0
  1

274
    -2
284
     1
 64
     0
275
    -2
285
     1
 65
     0
276
    -2
286
     1
 66
     0
277
    -2
287
     1
 67
     0
278
    -2
288
     1
 68
     0
279
    -2
289
     1
 69
     0
  7
Standard
140
0.25
170
     5
 62
     0
 63
     7
283
     0
 90
      512
 91
        0
  1

274
    -2
284
     1
 64
     0
275
    -2
285
     1
 65
     0
276
    -2
286
     1
 66
     0
277
    -2
287
     1
 67
     0
278
    -2
288
     1
 68
     0
279
    -2
289
     1
 69
     0
  7
Standard
140
0.18
170
     5
 62
     0
 63
     7
283
     0
 90
      512
 91
        0
  1

274
    -2
284
     1
 64
     0
275
    -2
285
     1
 65
     0
276
    -2
286
     1
 66
     0
277
    -2
287
     1
 67
     0
278
    -2
288
     1
 68
     0
279
    -2
289
     1
 69
     0
  0
VISUALSTYLE
  5
9F
102
{ACAD_REACTORS
330
99
102
}
330
99
100
AcDbVisualStyle
  2
2dWireframe
 70
     4
177
     3
291
     0
 70
    58
 90
        0
176
     1
 90
        2
176
     1
 90
        1
176
     1
 90
        0
176
     1
 40
0.6
176
     1
 40
30.0
176
     1
 62
     7
420
 16777215
176
     1
 90
        1
176
     1
 90
        4
176
     1
 62
     7
176
     1
 62
   257
176
     1
 90
        1
176
     1
 90
        1
176
     1
 40
1.0
176
     1
 90
        0
176
     1
 62
   257
176
     1
 40
1.0
176
     1
 90
        1
176
     1
 90
        6
176
     1
 90
        2
176
     1
 62
     7
176
     1
 90
        5
176
     1
 90
        0
176
     1
 90
        0
176
     1
290
     0
176
     1
 90
        1
176
     1
 40
0.0
176
     1
 90
        0
176
     1
290
     1
176
     1
290
     1
176
     1
290
     0
176
     1
290
     0
176
     1
290
     0
176
     1
290
     0
176
     1
290
     0
176
     1
290
     0
176
     1
290
     0
176
     1
 90
       50
176
     1
 40
0.0
176
     1
 40
1.0
176
     1
 90
        0
176
     1
 62
    18
420
        0
176
     1
 90
       50
176
     1
 90
        3
176
     1
 62
     5
420
      255
176
     1
290
     0
176
     1
 90
       50
176
     1
 90
       50
176
     1
 90
       50
176
     1
290
     0
176
     1
 90
       50
176
     1
 62
   256
176
     0
 40
1.0
176
     0
 90
        2
176
     1
  1
strokes_ogs.tif
176
     1
290
     0
176
     1
 40
1.0
176
     1
 40
1.0
176
     1
  0
VISUALSTYLE
  5
9E
102
{ACAD_REACTORS
330
99
102
}
330
99
100
AcDbVisualStyle
  2
Basic
 70
     7
177
     3
291
     1
 70
    58
 90
        1
176
     1
 90
        0
176
     1
 90
        1
176
     1
 90
        0
176
     1
 40
0.6
176
     1
 40
30.0
176
     1
 62
     7
420
 16777215
176
     1
 90
        0
176
     1
 90
        4
176
     1
 62
     7
176
     1
 62
   257
176
     1
 90
        1
176
     1
 90
        1
176
     1
 40
1.0
176
     1
 90
        8
176
     1
 62
     7
176
     1
 40
1.0
176
     1
 90
        1
176
     1
 90
        6
176
     1
 90
        2
176
     1
 62
     7
176
     1
 90
        5
176
     1
 90
        0
176
     1
 90
        0
176
     1
290
     0
176
     1
 90
        1
176
     1
 40
0.0
176
     1
 90
        0
176
     1
290
     0
176
     1
290
     1
176
     1
290
     1
176
     1
290
     0
176
     1
290
     0
176
     1
290
     0
176
     1
290
     0
176
     1
290
     0
176
     1
290
     0
176
     1
 90
       50
176
     1
 40
0.0
176
     1
 40
1.0
176
     1
 90
        0
176
     1
 62
    18
420
        0
176
     1
 90
       50
176
     1
 90
        3
176
     1
 62
     5
420
      255
176
     1
290
     0
176
     1
 90
       50
176
     1
 90
       50
176
     1
 90
       50
176
     1
290
     0
176
     1
 90
       50
176
     1
 62
   256
176
     0
 40
1.0
176
     0
 90
        2
176
     1
  1
strokes_ogs.tif
176
     1
290
     0
176
     1
 40
1.0
176
     1
 40
1.0
176
     1
  0
VISUALSTYLE
  5
A5
102
{ACAD_REACTORS
330
99
102
}
330
99
100
AcDbVisualStyle
  2
Brighten
 70
    12
177
     3
291
     1
 70
    58
 90
        2
176
     1
 90
        2
176
     1
 90
        1
176
     1
 90
        0
176
     1
 40
0.6
176
     1
 40
30.0
176
     1
 62
     7
420
 16777215
176
     1
 90
        1
176
     1
 90
        4
176
     1
 62
     7
176
     1
 62
   257
176
     1
 90
        1
176
     1
 90
        1
176
     1
 40
1.0
176
     1
 90
        8
176
     1
 62
     7
176
     1
 40
1.0
176
     1
 90
        1
176
     1
 90
        6
176
     1
 90
        2
176
     1
 62
     7
176
     1
 90
        5
176
     1
 90
        0
176
     1
 90
        0
176
     1
290
     0
176
     1
 90
        1
176
     1
 40
50.0
176
     1
 90
        0
176
     1
290
     0
176
     1
290
     1
176
     1
290
     1
176
     1
290
     0
176
     1
290
     0
176
     1
290
     0
176
     1
290
     0
176
     1
290
     0
176
     1
290
     0
176
     1
 90
       50
176
     1
 40
0.0
176
     1
 40
1.0
176
     1
 90
        0
176
     1
 62
    18
420
        0
176
     1
 90
       50
176
     1
 90
        3
176
     1
 62
     5
420
      255
176
     1
290
     0
176
     1
 90
       50
176
     1
 90
       50
176
     1
 90
       50
176
     1
290
     0
176
     1
 90
       50
176
     1
 62
   256
176
     0
 40
1.0
176
     0
 90
        2
176
     1
  1
strokes_ogs.tif
176
     1
290
     0
176
     1
 40
1.0
176
     1
 40
1.0
176
     1
  0
VISUALSTYLE
  5
A9
102
{ACAD_REACTORS
330
99
102
}
330
99
100
AcDbVisualStyle
  2
ColorChange
 70
    16
177
     3
291
     1
 70
    58
 90
        2
176
     1
 90
        2
176
     1
 90
        3
176
     1
 90
        0
176
     1
 40
0.6
176
     1
 40
30.0
176
     1
 62
     8
420
  8421504
176
     1
 90
        1
176
     1
 90
        4
176
     1
 62
     7
176
     1
 62
   257
176
     1
 90
        1
176
     1
 90
        1
176
     1
 40
1.0
176
     1
 90
        8
176
     1
 62
     8
420
  8421504
176
     1
 40
1.0
176
     1
 90
        1
176
     1
 90
        6
176
     1
 90
        2
176
     1
 62
     7
176
     1
 90
        5
176
     1
 90
        0
176
     1
 90
        0
176
     1
290
     0
176
     1
 90
        1
176
     1
 40
0.0
176
     1
 90
        0
176
     1
290
     0
176
     1
290
     1
176
     1
290
     1
176
     1
290
     0
176
     1
290
     0
176
     1
290
     0
176
     1
290
     0
176
     1
290
     0
176
     1
290
     0
176
     1
 90
       50
176
     1
 40
0.0
176
     1
 40
1.0
176
     1
 90
        0
176
     1
 62
    18
420
        0
176
     1
 90
       50
176
     1
 90
        3
176
     1
 62
     5
420
      255
176
     1
290
     0
176
     1
 90
       50
176
     1
 90
       50
176
     1
 90
       50
176
     1
290
     0
176
     1
 90
       50
176
     1
 62
   256
176
     0
 40
1.0
176
     0
 90
        2
176
     1
  1
strokes_ogs.tif
176
     1
290
     0
176
     1
 40
1.0
176
     1
 40
1.0
176
     1
  0
VISUALSTYLE
  5
A2
102
{ACAD_REACTORS
330
99
102
}
330
99
100
AcDbVisualStyle
  2
Conceptual
 70
     9
177
     3
291
     0
 70
    58
 90
        3
176
     1
 90
        2
176
     1
 90
        1
176
     1
 90
        0
176
     1
 40
0.6
176
     1
 40
30.0
176
     1
 62
     7
420
 16777215
176
     1
 90
        2
176
     1
 90
        2
176
     1
 62
     7
176
     1
 62
   257
176
     1
 90
        1
176
     1
 90
        1
176
     1
 40
40.0
176
     1
 90
        8
176
     1
 62
     7
176
     1
 40
1.0
176
     1
 90
        1
176
     1
 90
        6
176
     1
 90
        2
176
     1
 62
     7
176
     1
 90
        3
176
     1
 90
        0
176
     1
 90
        0
176
     1
290
     0
176
     1
 90
        1
176
     1
 40
0.0
176
     1
 90
        0
176
     1
290
     0
176
     1
290
     1
176
     1
290
     1
176
     1
290
     0
176
     1
290
     0
176
     1
290
     0
176
     1
290
     0
176
     1
290
     0
176
     1
290
     0
176
     1
 90
       50
176
     1
 40
0.0
176
     1
 40
1.0
176
     1
 90
        0
176
     1
 62
    18
420
        0
176
     1
 90
       50
176
     1
 90
        3
176
     1
 62
     5
420
      255
176
     1
290
     0
176
     1
 90
       50
176
     1
 90
       50
176
     1
 90
       50
176
     1
290
     0
176
     1
 90
       50
176
     1
 62
   256
176
     0
 40
1.0
176
     0
 90
        2
176
     1
  1
strokes_ogs.tif
176
     1
290
     0
176
     1
 40
1.0
176
     1
 40
1.0
176
     1
  0
VISUALSTYLE
  5
A4
102
{ACAD_REACTORS
330
99
102
}
330
99
100
AcDbVisualStyle
  2
Dim
 70
    11
177
     3
291
     1
 70
    58
 90
        2
176
     1
 90
        2
176
     1
 90
        1
176
     1
 90
        0
176
     1
 40
0.6
176
     1
 40
30.0
176
     1
 62
     7
420
 16777215
176
     1
 90
        1
176
     1
 90
        4
176
     1
 62
     7
176
     1
 62
   257
176
     1
 90
        1
176
     1
 90
        1
176
     1
 40
1.0
176
     1
 90
        8
176
     1
 62
     7
176
     1
 40
1.0
176
     1
 90
        1
176
     1
 90
        6
176
     1
 90
        2
176
     1
 62
     7
176
     1
 90
        5
176
     1
 90
        0
176
     1
 90
        0
176
     1
290
     0
176
     1
 90
        1
176
     1
 40
-50.0
176
     1
 90
        0
176
     1
290
     0
176
     1
290
     1
176
     1
290
     1
176
     1
290
     0
176
     1
290
     0
176
     1
290
     0
176
     1
290
     0
176
     1
290
     0
176
     1
290
     0
176
     1
 90
       50
176
     1
 40
0.0
176
     1
 40
1.0
176
     1
 90
        0
176
     1
 62
    18
420
        0
176
     1
 90
       50
176
     1
 90
        3
176
     1
 62
     5
420
      255
176
     1
290
     0
176
     1
 90
       50
176
     1
 90
       50
176
     1
 90
       50
176
     1
290
     0
176
     1
 90
       50
176
     1
 62
   256
176
     0
 40
1.0
176
     0
 90
        2
176
     1
  1
strokes_ogs.tif
176
     1
290
     0
176
     1
 40
1.0
176
     1
 40
1.0
176
     1
  0
VISUALSTYLE
  5
175
102
{ACAD_REACTORS
330
99
102
}
330
99
100
AcDbVisualStyle
  2
EdgeColorOff
 70
    22
177
     3
291
     1
 70
    58
 90
        2
176
     0
 90
        2
176
     0
 90
        0
176
     0
 90
        0
176
     0
 40
0.6
176
     0
 40
30.0
176
     0
 62
     7
420
 16777215
176
     0
 90
        1
176
     0
 90
        4
176
     0
 62
     7
176
     0
 62
   257
176
     0
 90
        1
176
     0
 90
        1
176
     0
 40
1.0
176
     0
 90
        8
176
     2
 62
     7
176
     0
 40
1.0
176
     0
 90
        1
176
     0
 90
        6
176
     0
 90
        2
176
     0
 62
     7
176
     0
 90
        5
176
     0
 90
        0
176
     0
 90
        0
176
     0
290
     0
176
     0
 90
        1
176
     0
 40
0.0
176
     0
 90
        0
176
     0
290
     0
176
     1
290
     1
176
     1
290
     1
176
     1
290
     0
176
     1
290
     0
176
     1
290
     0
176
     1
290
     0
176
     1
290
     0
176
     1
290
     0
176
     1
 90
       50
176
     1
 40
0.0
176
     1
 40
1.0
176
     1
 90
        0
176
     1
 62
    18
420
        0
176
     1
 90
       50
176
     1
 90
        3
176
     1
 62
     5
420
      255
176
     1
290
     0
176
     1
 90
       50
176
     1
 90
       50
176
     1
 90
       50
176
     1
290
     0
176
     1
 90
       50
176
     1
 62
   256
176
     0
 40
1.0
176
     0
 90
        2
176
     1
  1
strokes_ogs.tif
176
     1
290
     0
176
     1
 40
1.0
176
     1
 40
1.0
176
     1
  0
VISUALSTYLE
  5
A8
102
{ACAD_REACTORS
330
99
102
}
330
99
100
AcDbVisualStyle
  2
Facepattern
 70
    15
177
     3
291
     1
 70
    58
 90
        2
176
     1
 90
        2
176
     1
 90
        1
176
     1
 90
        0
176
     1
 40
0.6
176
     1
 40
30.0
176
     1
 62
     7
420
 16777215
176
     1
 90
        1
176
     1
 90
        4
176
     1
 62
     7
176
     1
 62
   257
176
     1
 90
        1
176
     1
 90
        1
176
     1
 40
1.0
176
     1
 90
        8
176
     1
 62
     7
176
     1
 40
1.0
176
     1
 90
        1
176
     1
 90
        6
176
     1
 90
        2
176
     1
 62
     7
176
     1
 90
        5
176
     1
 90
        0
176
     1
 90
        0
176
     1
290
     0
176
     1
 90
        1
176
     1
 40
0.0
176
     1
 90
        0
176
     1
290
     0
176
     1
290
     1
176
     1
290
     1
176
     1
290
     0
176
     1
290
     0
176
     1
290
     0
176
     1
290
     0
176
     1
290
     0
176
     1
290
     0
176
     1
 90
       50
176
     1
 40
0.0
176
     1
 40
1.0
176
     1
 90
        0
176
     1
 62
    18
420
        0
176
     1
 90
       50
176
     1
 90
        3
176
     1
 62
     5
420
      255
176
     1
290
     0
176
     1
 90
       50
176
     1
 90
       50
176
     1
 90
       50
176
     1
290
     0
176
     1
 90
       50
176
     1
 62
   256
176
     0
 40
1.0
176
     0
 90
        2
176
     1
  1
strokes_ogs.tif
176
     1
290
     0
176
     1
 40
1.0
176
     1
 40
1.0
176
     1
  0
VISUALSTYLE
  5
9A
102
{ACAD_REACTORS
330
99
102
}
330
99
100
AcDbVisualStyle
  2
Flat
 70
     0
177
     3
291
     1
 70
    58
 90
        2
176
     1
 90
        1
176
     1
 90
        1
176
     1
 90
        2
176
     1
 40
0.6
176
     1
 40
30.0
176
     1
 62
     7
420
 16777215
176
     1
 90
        0
176
     1
 90
        0
176
     1
 62
     7
176
     1
 62
   257
176
     1
 90
        1
176
     1
 90
        1
176
     1
 40
1.0
176
     1
 90
        8
176
     1
 62
     7
176
     1
 40
1.0
176
     1
 90
        1
176
     1
 90
        6
176
     1
 90
        2
176
     1
 62
     7
176
     1
 90
        5
176
     1
 90
        0
176
     1
 90
        0
176
     1
290
     0
176
     1
 90
       13
176
     1
 40
0.0
176
     1
 90
        0
176
     1
290
     0
176
     1
290
     1
176
     1
290
     1
176
     1
290
     0
176
     1
290
     0
176
     1
290
     0
176
     1
290
     0
176
     1
290
     0
176
     1
290
     0
176
     1
 90
       50
176
     1
 40
0.0
176
     1
 40
1.0
176
     1
 90
        0
176
     1
 62
    18
420
        0
176
     1
 90
       50
176
     1
 90
        3
176
     1
 62
     5
420
      255
176
     1
290
     0
176
     1
 90
       50
176
     1
 90
       50
176
     1
 90
       50
176
     1
290
     0
176
     1
 90
       50
176
     1
 62
   256
176
     0
 40
1.0
176
     0
 90
        2
176
     1
  1
strokes_ogs.tif
176
     1
290
     0
176
     1
 40
1.0
176
     1
 40
1.0
176
     1
  0
VISUALSTYLE
  5
9B
102
{ACAD_REACTORS
330
99
102
}
330
99
100
AcDbVisualStyle
  2
FlatWithEdges
 70
     1
177
     3
291
     1
 70
    58
 90
        2
176
     1
 90
        1
176
     1
 90
        1
176
     1
 90
        2
176
     1
 40
0.6
176
     1
 40
30.0
176
     1
 62
     7
420
 16777215
176
     1
 90
        1
176
     1
 90
        0
176
     1
 62
     7
176
     1
 62
   257
176
     1
 90
        1
176
     1
 90
        1
176
     1
 40
1.0
176
     1
 90
        0
176
     1
 62
   257
176
     1
 40
1.0
176
     1
 90
        1
176
     1
 90
        6
176
     1
 90
        2
176
     1
 62
     7
176
     1
 90
        5
176
     1
 90
        0
176
     1
 90
        0
176
     1
290
     0
176
     1
 90
       13
176
     1
 40
0.0
176
     1
 90
        0
176
     1
290
     0
176
     1
290
     1
176
     1
290
     1
176
     1
290
     0
176
     1
290
     0
176
     1
290
     0
176
     1
290
     0
176
     1
290
     0
176
     1
290
     0
176
     1
 90
       50
176
     1
 40
0.0
176
     1
 40
1.0
176
     1
 90
        0
176
     1
 62
    18
420
        0
176
     1
 90
       50
176
     1
 90
        3
176
     1
 62
     5
420
      255
176
     1
290
     0
176
     1
 90
       50
176
     1
 90
       50
176
     1
 90
       50
176
     1
290
     0
176
     1
 90
       50
176
     1
 62
   256
176
     0
 40
1.0
176
     0
 90
        2
176
     1
  1
strokes_ogs.tif
176
     1
290
     0
176
     1
 40
1.0
176
     1
 40
1.0
176
     1
  0
VISUALSTYLE
  5
9C
102
{ACAD_REACTORS
330
99
102
}
330
99
100
AcDbVisualStyle
  2
Gouraud
 70
     2
177
     3
291
     1
 70
    58
 90
        2
176
     1
 90
        2
176
     1
 90
        1
176
     1
 90
        2
176
     1
 40
0.6
176
     1
 40
30.0
176
     1
 62
     7
420
 16777215
176
     1
 90
        0
176
     1
 90
        0
176
     1
 62
     7
176
     1
 62
   257
176
     1
 90
        1
176
     1
 90
        1
176
     1
 40
1.0
176
     1
 90
        0
176
     1
 62
     7
176
     1
 40
1.0
176
     1
 90
        1
176
     1
 90
        6
176
     1
 90
        2
176
     1
 62
     7
176
     1
 90
        5
176
     1
 90
        0
176
     1
 90
        0
176
     1
290
     0
176
     1
 90
       13
176
     1
 40
0.0
176
     1
 90
        0
176
     1
290
     0
176
     1
290
     1
176
     1
290
     1
176
     1
290
     0
176
     1
290
     0
176
     1
290
     0
176
     1
290
     0
176
     1
290
     0
176
     1
290
     0
176
     1
 90
       50
176
     1
 40
0.0
176
     1
 40
1.0
176
     1
 90
        0
176
     1
 62
    18
420
        0
176
     1
 90
       50
176
     1
 90
        3
176
     1
 62
     5
420
      255
176
     1
290
     0
176
     1
 90
       50
176
     1
 90
       50
176
     1
 90
       50
176
     1
290
     0
176
     1
 90
       50
176
     1
 62
   256
176
     0
 40
1.0
176
     0
 90
        2
176
     1
  1
strokes_ogs.tif
176
     1
290
     0
176
     1
 40
1.0
176
     1
 40
1.0
176
     1
  0
VISUALSTYLE
  5
9D
102
{ACAD_REACTORS
330
99
102
}
330
99
100
AcDbVisualStyle
  2
GouraudWithEdges
 70
     3
177
     3
291
     1
 70
    58
 90
        2
176
     1
 90
        2
176
     1
 90
        1
176
     1
 90
        2
176
     1
 40
0.6
176
     1
 40
30.0
176
     1
 62
     7
420
 16777215
176
     1
 90
        1
176
     1
 90
        0
176
     1
 62
     7
176
     1
 62
   257
176
     1
 90
        1
176
     1
 90
        1
176
     1
 40
1.0
176
     1
 90
        0
176
     1
 62
   257
176
     1
 40
1.0
176
     1
 90
        1
176
     1
 90
        6
176
     1
 90
        2
176
     1
 62
     7
176
     1
 90
        5
176
     1
 90
        0
176
     1
 90
        0
176
     1
290
     0
176
     1
 90
       13
176
     1
 40
0.0
176
     1
 90
        0
176
     1
290
     0
176
     1
290
     1
176
     1
290
     1
176
     1
290
     0
176
     1
290
     0
176
     1
290
     0
176
     1
290
     0
176
     1
290
     0
176
     1
290
     0
176
     1
 90
       50
176
     1
 40
0.0
176
     1
 40
1.0
176
     1
 90
        0
176
     1
 62
    18
420
        0
176
     1
 90
       50
176
     1
 90
        3
176
     1
 62
     5
420
      255
176
     1
290
     0
176
     1
 90
       50
176
     1
 90
       50
176
     1
 90
       50
176
     1
290
     0
176
     1
 90
       50
176
     1
 62
   256
176
     0
 40
1.0
176
     0
 90
        2
176
     1
  1
strokes_ogs.tif
176
     1
290
     0
176
     1
 40
1.0
176
     1
 40
1.0
176
     1
  0
VISUALSTYLE
  5
A1
102
{ACAD_REACTORS
330
99
102
}
330
99
100
AcDbVisualStyle
  2
Hidden
 70
     6
177
     3
291
     0
 70
    58
 90
        1
176
     1
 90
        2
176
     1
 90
        2
176
     1
 90
        0
176
     1
 40
0.6
176
     1
 40
30.0
176
     1
 62
     7
420
 16777215
176
     1
 90
        2
176
     1
 90
        2
176
     1
 62
     7
176
     1
 62
   257
176
     1
 90
        2
176
     1
 90
        1
176
     1
 40
40.0
176
     1
 90
        0
176
     1
 62
   257
176
     1
 40
1.0
176
     1
 90
        1
176
     1
 90
        6
176
     1
 90
        2
176
     1
 62
     7
176
     1
 90
        3
176
     1
 90
        0
176
     1
 90
        0
176
     1
290
     0
176
     1
 90
        1
176
     1
 40
0.0
176
     1
 90
        0
176
     1
290
     0
176
     1
290
     1
176
     1
290
     1
176
     1
290
     0
176
     1
290
     0
176
     1
290
     0
176
     1
290
     0
176
     1
290
     0
176
     1
290
     0
176
     1
 90
       50
176
     1
 40
0.0
176
     1
 40
1.0
176
     1
 90
        0
176
     1
 62
    18
420
        0
176
     1
 90
       50
176
     1
 90
        3
176
     1
 62
     5
420
      255
176
     1
290
     0
176
     1
 90
       50
176
     1
 90
       50
176
     1
 90
       50
176
     1
290
     0
176
     1
 90
       50
176
     1
 62
   256
176
     0
 40
1.0
176
     0
 90
        2
176
     1
  1
strokes_ogs.tif
176
     1
290
     0
176
     1
 40
1.0
176
     1
 40
1.0
176
     1
  0
VISUALSTYLE
  5
173
102
{ACAD_REACTORS
330
99
102
}
330
99
100
AcDbVisualStyle
  2
JitterOff
 70
    20
177
     3
291
     1
 70
    58
 90
        2
176
     0
 90
        2
176
     0
 90
        0
176
     0
 90
        0
176
     0
 40
0.6
176
     0
 40
30.0
176
     0
 62
     7
420
 16777215
176
     0
 90
        1
176
     0
 90
        4
176
     0
 62
     7
176
     0
 62
   257
176
     0
 90
        1
176
     0
 90
        1
176
     0
 40
1.0
176
     0
 90
       10
176
     2
 62
     7
176
     0
 40
1.0
176
     0
 90
        1
176
     0
 90
        6
176
     0
 90
        2
176
     0
 62
     7
176
     0
 90
        5
176
     0
 90
        0
176
     0
 90
        0
176
     0
290
     0
176
     0
 90
        1
176
     0
 40
0.0
176
     0
 90
        0
176
     0
290
     0
176
     1
290
     1
176
     1
290
     1
176
     1
290
     0
176
     1
290
     0
176
     1
290
     0
176
     1
290
     0
176
     1
290
     0
176
     1
290
     0
176
     1
 90
       50
176
     1
 40
0.0
176
     1
 40
1.0
176
     1
 90
        0
176
     1
 62
    18
420
        0
176
     1
 90
       50
176
     1
 90
        3
176
     1
 62
     5
420
      255
176
     1
290
     0
176
     1
 90
       50
176
     1
 90
       50
176
     1
 90
       50
176
     1
290
     0
176
     1
 90
       50
176
     1
 62
   256
176
     0
 40
1.0
176
     0
 90
        2
176
     1
  1
strokes_ogs.tif
176
     1
290
     0
176
     1
 40
1.0
176
     1
 40
1.0
176
     1
  0
VISUALSTYLE
  5
A7
102
{ACAD_REACTORS
330
99
102
}
330
99
100
AcDbVisualStyle
  2
Linepattern
 70
    14
177
     3
291
     1
 70
    58
 90
        2
176
     1
 90
        2
176
     1
 90
        1
176
     1
 90
        0
176
     1
 40
0.6
176
     1
 40
30.0
176
     1
 62
     7
420
 16777215
176
     1
 90
        1
176
     1
 90
        4
176
     1
 62
     7
176
     1
 62
   257
176
     1
 90
        7
176
     1
 90
        7
176
     1
 40
1.0
176
     1
 90
        8
176
     1
 62
     7
176
     1
 40
1.0
176
     1
 90
        1
176
     1
 90
        6
176
     1
 90
        2
176
     1
 62
     7
176
     1
 90
        5
176
     1
 90
        0
176
     1
 90
        0
176
     1
290
     0
176
     1
 90
        1
176
     1
 40
0.0
176
     1
 90
        0
176
     1
290
     0
176
     1
290
     1
176
     1
290
     1
176
     1
290
     0
176
     1
290
     0
176
     1
290
     0
176
     1
290
     0
176
     1
290
     0
176
     1
290
     0
176
     1
 90
       50
176
     1
 40
0.0
176
     1
 40
1.0
176
     1
 90
        0
176
     1
 62
    18
420
        0
176
     1
 90
       50
176
     1
 90
        3
176
     1
 62
     5
420
      255
176
     1
290
     0
176
     1
 90
       50
176
     1
 90
       50
176
     1
 90
       50
176
     1
290
     0
176
     1
 90
       50
176
     1
 62
   256
176
     0
 40
1.0
176
     0
 90
        2
176
     1
  1
strokes_ogs.tif
176
     1
290
     0
176
     1
 40
1.0
176
     1
 40
1.0
176
     1
  0
VISUALSTYLE
  5
174
102
{ACAD_REACTORS
330
99
102
}
330
99
100
AcDbVisualStyle
  2
OverhangOff
 70
    21
177
     3
291
     1
 70
    58
 90
        2
176
     0
 90
        2
176
     0
 90
        0
176
     0
 90
        0
176
     0
 40
0.6
176
     0
 40
30.0
176
     0
 62
     7
420
 16777215
176
     0
 90
        1
176
     0
 90
        4
176
     0
 62
     7
176
     0
 62
   257
176
     0
 90
        1
176
     0
 90
        1
176
     0
 40
1.0
176
     0
 90
        9
176
     2
 62
     7
176
     0
 40
1.0
176
     0
 90
        1
176
     0
 90
        6
176
     0
 90
        2
176
     0
 62
     7
176
     0
 90
        5
176
     0
 90
        0
176
     0
 90
        0
176
     0
290
     0
176
     0
 90
        1
176
     0
 40
0.0
176
     0
 90
        0
176
     0
290
     0
176
     1
290
     1
176
     1
290
     1
176
     1
290
     0
176
     1
290
     0
176
     1
290
     0
176
     1
290
     0
176
     1
290
     0
176
     1
290
     0
176
     1
 90
       50
176
     1
 40
0.0
176
     1
 40
1.0
176
     1
 90
        0
176
     1
 62
    18
420
        0
176
     1
 90
       50
176
     1
 90
        3
176
     1
 62
     5
420
      255
176
     1
290
     0
176
     1
 90
       50
176
     1
 90
       50
176
     1
 90
       50
176
     1
290
     0
176
     1
 90
       50
176
     1
 62
   256
176
     0
 40
1.0
176
     0
 90
        2
176
     1
  1
strokes_ogs.tif
176
     1
290
     0
176
     1
 40
1.0
176
     1
 40
1.0
176
     1
  0
VISUALSTYLE
  5
A3
102
{ACAD_REACTORS
330
99
102
}
330
99
100
AcDbVisualStyle
  2
Realistic
 70
     8
177
     3
291
     0
 70
    58
 90
        2
176
     1
 90
        3
176
     1
 90
        0
176
     1
 90
        2
176
     1
 40
0.6
176
     1
 40
30.0
176
     1
 62
     7
420
 16777215
176
     1
 90
        0
176
     1
 90
        0
176
     1
 62
     7
176
     1
 62
   257
176
     1
 90
        1
176
     1
 90
        1
176
     1
 40
1.0
176
     1
 90
        8
176
     1
 62
   257
176
     1
 40
1.0
176
     1
 90
        1
176
     1
 90
        6
176
     1
 90
        2
176
     1
 62
     7
176
     1
 90
        3
176
     1
 90
        0
176
     1
 90
        0
176
     1
290
     0
176
     1
 90
       13
176
     1
 40
0.0
176
     1
 90
        0
176
     1
290
     0
176
     1
290
     1
176
     1
290
     1
176
     1
290
     0
176
     1
290
     0
176
     1
290
     0
176
     1
290
     0
176
     1
290
     0
176
     1
290
     0
176
     1
 90
       50
176
     1
 40
0.0
176
     1
 40
1.0
176
     1
 90
        0
176
     1
 62
    18
420
        0
176
     1
 90
       50
176
     1
 90
        3
176
     1
 62
     5
420
      255
176
     1
290
     0
176
     1
 90
       50
176
     1
 90
       50
176
     1
 90
       50
176
     1
290
     0
176
     1
 90
       50
176
     1
 62
   256
176
     0
 40
1.0
176
     0
 90
        2
176
     1
  1
strokes_ogs.tif
176
     1
290
     0
176
     1
 40
1.0
176
     1
 40
1.0
176
     1
  0
VISUALSTYLE
  5
182
102
{ACAD_REACTORS
330
99
102
}
330
99
100
AcDbVisualStyle
  2
Shaded
 70
    27
177
     3
291
     0
 70
    58
 90
        2
176
     1
 90
        2
176
     1
 90
        1
176
     1
 90
        2
176
     1
 40
0.6
176
     1
 40
30.0
176
     1
 62
     7
420
 16777215
176
     1
 90
        0
176
     1
 90
        4
176
     1
 62
     7
176
     1
 62
   257
176
     1
 90
        1
176
     1
 90
        1
176
     1
 40
1.0
176
     1
 90
        8
176
     1
 62
   257
176
     1
 40
1.0
176
     1
 90
        1
176
     1
 90
        6
176
     1
 90
        2
176
     1
 62
     8
420
  7895160
176
     1
 90
        3
176
     1
 90
        0
176
     1
 90
        0
176
     1
290
     0
176
     1
 90
        5
176
     1
 40
0.0
176
     1
 90
        0
176
     1
290
     0
176
     1
290
     1
176
     1
290
     1
176
     1
290
     0
176
     1
290
     0
176
     1
290
     0
176
     1
290
     0
176
     1
290
     0
176
     1
290
     0
176
     1
 90
       50
176
     1
 40
0.0
176
     1
 40
1.0
176
     1
 90
        0
176
     1
 62
    18
420
        0
176
     1
 90
       50
176
     1
 90
        3
176
     1
 62
     5
420
      255
176
     1
290
     0
176
     1
 90
       50
176
     1
 90
       50
176
     1
 90
       50
176
     1
290
     0
176
     1
 90
       50
176
     1
 62
   256
176
     0
 40
1.0
176
     0
 90
        2
176
     1
  1
strokes_ogs.tif
176
     1
290
     0
176
     1
 40
1.0
176
     1
 40
1.0
176
     1
  0
VISUALSTYLE
  5
181
102
{ACAD_REACTORS
330
99
102
}
330
99
100
AcDbVisualStyle
  2
Shaded with edges
 70
    26
177
     3
291
     0
 70
    58
 90
        2
176
     1
 90
        2
176
     1
 90
        1
176
     1
 90
        2
176
     1
 40
0.6
176
     1
 40
30.0
176
     1
 62
     7
420
 16777215
176
     1
 90
        1
176
     1
 90
        2
176
     1
 62
     7
176
     1
 62
   257
176
     1
 90
        2
176
     1
 90
        1
176
     1
 40
1.0
176
     1
 90
        8
176
     1
 62
   257
176
     1
 40
1.0
176
     1
 90
        1
176
     1
 90
        6
176
     1
 90
        2
176
     1
 62
     7
176
     1
 90
        3
176
     1
 90
        0
176
     1
 90
        0
176
     1
290
     0
176
     1
 90
        5
176
     1
 40
0.0
176
     1
 90
        0
176
     1
290
     0
176
     1
290
     1
176
     1
290
     1
176
     1
290
     0
176
     1
290
     0
176
     1
290
     0
176
     1
290
     0
176
     1
290
     0
176
     1
290
     0
176
     1
 90
       50
176
     1
 40
0.0
176
     1
 40
1.0
176
     1
 90
        0
176
     1
 62
    18
420
        0
176
     1
 90
       50
176
     1
 90
        3
176
     1
 62
     5
420
      255
176
     1
290
     0
176
     1
 90
       50
176
     1
 90
       50
176
     1
 90
       50
176
     1
290
     0
176
     1
 90
       50
176
     1
 62
   256
176
     0
 40
1.0
176
     0
 90
        2
176
     1
  1
strokes_ogs.tif
176
     1
290
     0
176
     1
 40
1.0
176
     1
 40
1.0
176
     1
  0
VISUALSTYLE
  5
17E
102
{ACAD_REACTORS
330
99
102
}
330
99
100
AcDbVisualStyle
  2
Shades of Gray
 70
    23
177
     3
291
     0
 70
    58
 90
        2
176
     1
 90
        2
176
     1
 90
        3
176
     1
 90
        0
176
     1
 40
0.6
176
     1
 40
30.0
176
     1
 62
     7
420
 16777215
176
     1
 90
        2
176
     1
 90
        2
176
     1
 62
     7
176
     1
 62
     7
176
     1
 90
        1
176
     1
 90
        1
176
     1
 40
40.0
176
     1
 90
        8
176
     1
 62
     7
176
     1
 40
1.0
176
     1
 90
        1
176
     1
 90
        6
176
     1
 90
        2
176
     1
 62
     7
176
     1
 90
        3
176
     1
 90
        0
176
     1
 90
        0
176
     1
290
     0
176
     1
 90
        1
176
     1
 40
0.0
176
     1
 90
        0
176
     1
290
     0
176
     1
290
     1
176
     1
290
     1
176
     1
290
     0
176
     1
290
     0
176
     1
290
     0
176
     1
290
     0
176
     1
290
     0
176
     1
290
     0
176
     1
 90
       50
176
     1
 40
0.0
176
     1
 40
1.0
176
     1
 90
        0
176
     1
 62
    18
420
        0
176
     1
 90
       50
176
     1
 90
        3
176
     1
 62
     5
420
      255
176
     1
290
     0
176
     1
 90
       50
176
     1
 90
       50
176
     1
 90
       50
176
     1
290
     0
176
     1
 90
       50
176
     1
 62
   256
176
     0
 40
1.0
176
     0
 90
        2
176
     1
  1
strokes_ogs.tif
176
     1
290
     0
176
     1
 40
1.0
176
     1
 40
1.0
176
     1
  0
VISUALSTYLE
  5
17F
102
{ACAD_REACTORS
330
99
102
}
330
99
100
AcDbVisualStyle
  2
Sketchy
 70
    24
177
     3
291
     0
 70
    58
 90
        1
176
     1
 90
        2
176
     1
 90
        2
176
     1
 90
        0
176
     1
 40
0.6
176
     1
 40
30.0
176
     1
 62
     7
420
 16777215
176
     1
 90
        2
176
     1
 90
        2
176
     1
 62
     7
176
     1
 62
     7
176
     1
 90
        1
176
     1
 90
        1
176
     1
 40
40.0
176
     1
 90
       11
176
     1
 62
     7
176
     1
 40
1.0
176
     1
 90
        1
176
     1
 90
        6
176
     1
 90
        2
176
     1
 62
     7
176
     1
 90
        6
176
     1
 90
        0
176
     1
 90
        0
176
     1
290
     0
176
     1
 90
        1
176
     1
 40
0.0
176
     1
 90
        0
176
     1
290
     0
176
     1
290
     1
176
     1
290
     1
176
     1
290
     0
176
     1
290
     0
176
     1
290
     0
176
     1
290
     0
176
     1
290
     0
176
     1
290
     0
176
     1
 90
       50
176
     1
 40
0.0
176
     1
 40
1.0
176
     1
 90
        0
176
     1
 62
    18
420
        0
176
     1
 90
       50
176
     1
 90
        3
176
     1
 62
     5
420
      255
176
     1
290
     0
176
     1
 90
       50
176
     1
 90
       50
176
     1
 90
       50
176
     1
290
     0
176
     1
 90
       50
176
     1
 62
   256
176
     0
 40
1.0
176
     0
 90
        2
176
     1
  1
strokes_ogs.tif
176
     1
290
     0
176
     1
 40
1.0
176
     1
 40
1.0
176
     1
  0
VISUALSTYLE
  5
A6
102
{ACAD_REACTORS
330
99
102
}
330
99
100
AcDbVisualStyle
  2
Thicken
 70
    13
177
     3
291
     1
 70
    58
 90
        2
176
     1
 90
        2
176
     1
 90
        1
176
     1
 90
        0
176
     1
 40
0.6
176
     1
 40
30.0
176
     1
 62
     7
420
 16777215
176
     1
 90
        1
176
     1
 90
        4
176
     1
 62
     7
176
     1
 62
   257
176
     1
 90
        1
176
     1
 90
        1
176
     1
 40
1.0
176
     1
 90
       12
176
     1
 62
     7
176
     1
 40
1.0
176
     1
 90
        1
176
     1
 90
        6
176
     1
 90
        2
176
     1
 62
     7
176
     1
 90
        5
176
     1
 90
        0
176
     1
 90
        0
176
     1
290
     0
176
     1
 90
        1
176
     1
 40
0.0
176
     1
 90
        0
176
     1
290
     0
176
     1
290
     1
176
     1
290
     1
176
     1
290
     0
176
     1
290
     0
176
     1
290
     0
176
     1
290
     0
176
     1
290
     0
176
     1
290
     0
176
     1
 90
       50
176
     1
 40
0.0
176
     1
 40
1.0
176
     1
 90
        0
176
     1
 62
    18
420
        0
176
     1
 90
       50
176
     1
 90
        3
176
     1
 62
     5
420
      255
176
     1
290
     0
176
     1
 90
       50
176
     1
 90
       50
176
     1
 90
       50
176
     1
290
     0
176
     1
 90
       50
176
     1
 62
   256
176
     0
 40
1.0
176
     0
 90
        2
176
     1
  1
strokes_ogs.tif
176
     1
290
     0
176
     1
 40
1.0
176
     1
 40
1.0
176
     1
  0
VISUALSTYLE
  5
A0
102
{ACAD_REACTORS
330
99
102
}
330
99
100
AcDbVisualStyle
  2
Wireframe
 70
     5
177
     3
291
     0
 70
    58
 90
        0
176
     1
 90
        2
176
     1
 90
        0
176
     1
 90
        0
176
     1
 40
0.6
176
     1
 40
30.0
176
     1
 62
     7
420
 16777215
176
     1
 90
        1
176
     1
 90
        4
176
     1
 62
     7
176
     1
 62
   257
176
     1
 90
        1
176
     1
 90
        1
176
     1
 40
1.0
176
     1
 90
        0
176
     1
 62
   257
176
     1
 40
1.0
176
     1
 90
        1
176
     1
 90
        6
176
     1
 90
        2
176
     1
 62
     7
176
     1
 90
        3
176
     1
 90
        0
176
     1
 90
        0
176
     1
290
     0
176
     1
 90
        1
176
     1
 40
0.0
176
     1
 90
        0
176
     1
290
     0
176
     1
290
     1
176
     1
290
     1
176
     1
290
     0
176
     1
290
     0
176
     1
290
     0
176
     1
290
     0
176
     1
290
     0
176
     1
290
     0
176
     1
 90
       50
176
     1
 40
0.0
176
     1
 40
1.0
176
     1
 90
        0
176
     1
 62
    18
420
        0
176
     1
 90
       50
176
     1
 90
        3
176
     1
 62
     5
420
      255
176
     1
290
     0
176
     1
 90
       50
176
     1
 90
       50
176
     1
 90
       50
176
     1
290
     0
176
     1
 90
       50
176
     1
 62
   256
176
     0
 40
1.0
176
     0
 90
        2
176
     1
  1
strokes_ogs.tif
176
     1
290
     0
176
     1
 40
1.0
176
     1
 40
1.0
176
     1
  0
VISUALSTYLE
  5
180
102
{ACAD_REACTORS
330
99
102
}
330
99
100
AcDbVisualStyle
  2
X-Ray
 70
    25
177
     3
291
     0
 70
    58
 90
        2
176
     1
 90
        2
176
     1
 90
        1
176
     1
 90
        1
176
     1
 40
0.5
176
     1
 40
30.0
176
     1
 62
     7
420
 16777215
176
     1
 90
        1
176
     1
 90
        0
176
     1
 62
     7
176
     1
 62
   257
176
     1
 90
        1
176
     1
 90
        1
176
     1
 40
1.0
176
     1
 90
        8
176
     1
 62
     7
176
     1
 40
1.0
176
     1
 90
        1
176
     1
 90
        6
176
     1
 90
        2
176
     1
 62
     7
176
     1
 90
        3
176
     1
 90
        0
176
     1
 90
        0
176
     1
290
     0
176
     1
 90
       13
176
     1
 40
0.0
176
     1
 90
        0
176
     1
290
     0
176
     1
290
     1
176
     1
290
     1
176
     1
290
     0
176
     1
290
     0
176
     1
290
     0
176
     1
290
     0
176
     1
290
     0
176
     1
290
     0
176
     1
 90
       50
176
     1
 40
0.0
176
     1
 40
1.0
176
     1
 90
        0
176
     1
 62
    18
420
        0
176
     1
 90
       50
176
     1
 90
        3
176
     1
 62
     5
420
      255
176
     1
290
     0
176
     1
 90
       50
176
     1
 90
       50
176
     1
 90
       50
176
     1
290
     0
176
     1
 90
       50
176
     1
 62
   256
176
     0
 40
1.0
176
     0
 90
        2
176
     1
  1
strokes_ogs.tif
176
     1
290
     0
176
     1
 40
1.0
176
     1
 40
1.0
176
     1
  0
DICTIONARYVAR
  5
F0
102
{ACAD_REACTORS
330
66
102
}
330
66
100
DictionaryVariables
280
     0
  1
1:1
  0
DICTIONARYVAR
  5
EF
102
{ACAD_REACTORS
330
66
102
}
330
66
100
DictionaryVariables
280
     0
  1
STANDARD
  0
DICTIONARYVAR
  5
89
102
{ACAD_REACTORS
330
66
102
}
330
66
100
DictionaryVariables
280
     0
  1
STANDARD
  0
DICTIONARYVAR
  5
1B7
102
{ACAD_REACTORS
330
66
102
}
330
66
100
DictionaryVariables
280
     0
  1
Imperial24
  0
DICTIONARYVAR
  5
1B8
102
{ACAD_REACTORS
330
66
102
}
330
66
100
DictionaryVariables
280
     0
  1
Imperial24
  0
DICTIONARYVAR
  5
67
102
{ACAD_REACTORS
330
66
102
}
330
66
100
DictionaryVariables
280
     0
  1
2
  0
DICTIONARYVAR
  5
6B
102
{ACAD_REACTORS
330
66
102
}
330
66
100
DictionaryVariables
280
     0
  1
1
  0
DICTIONARYVAR
  5
14D
102
{ACAD_REACTORS
330
66
102
}
330
66
100
DictionaryVariables
280
     0
  1
0
  0
DICTIONARYVAR
  5
14E
102
{ACAD_REACTORS
330
66
102
}
330
66
100
DictionaryVariables
280
     0
  1
0
  0
DICTIONARY
  5
359
102
{ACAD_REACTORS
330
358
102
}
330
358
100
AcDbDictionary
281
     1
  0
DICTIONARY
  5
194
330
22
100
AcDbDictionary
280
     1
281
     1
  0
DICTIONARY
  5
188
330
97
100
AcDbDictionary
280
     1
281
     1
  3
FBXASSET
360
189
  0
DICTIONARY
  5
186
330
96
100
AcDbDictionary
280
     1
281
     1
  3
FBXASSET
360
187
  0
DICTIONARY
  5
110
330
98
100
AcDbDictionary
280
     1
281
     1
  3
BUMPTILE
360
112
  3
DIFFUSETILE
360
111
  3
FBXASSET
360
18A
  3
OPACITYTILE
360
113
  3
REFLECTIONTILE
360
114
  0
DICTIONARY
  5
104
330
87
100
AcDbDictionary
280
     1
281
     1
  3
ACAD_ROUNDTRIP_2008_TABLESTYLE_CELLSTYLEMAP
360
456
  0
XRECORD
  5
189
102
{ACAD_REACTORS
330
188
102
}
330
188
100
AcDbXrecord
280
     1
 70
     1
 90
429727718
  1
508B35C9-AEE7-456F-BE74-D52651303AC6
310
504B03040A0000080000B670623B3DEE336E79000000790000001B0000006175746F6465736B2D64657369676E2D7061636B6167652E786D6C3C3F786D6C2076657273696F6E3D22312E302220656E636F64696E673D227574662D3822203F3E3C666F726D6174733E3C666F726D61743E687474703A2F2F736368656D612E
310
6175746F6465736B2E636F6D2F64657369676E2D7061636B6167652F323030393C2F666F726D61743E3C2F666F726D6174733E504B0304140006080800B670623BD486FD9CA0000000F4000000130000005B436F6E74656E745F54797065735D2E786D6C7D8EC10E82300C865F65E91D8A1E8C310C0EEA1BF002731658846E
310
D98AC1B77784ABF1D8FE5FBFBF75BBCE937A534CCEB38643598122B6FEE978D0B0485F9C41B54DDD7D022595594E1A469170414C76A4D9A4D207E29CF43ECE46F218070CC6BECC4078ACAA135ACF422C856C0E68EA1BF5669944DDD7BCDE7B1F8E415D77AECB980613C2E4AC91FC167A2B244592486606FC29C8FD7F045B9A
310
EF7053A7E60B504B0304140006080800B670623B28ED286BEB0000007C01000008000000636F72652E786D6C8D90416EC3201045AF82665B6183218D6D61A254764FD00B204C5C94182C03558F5F9C3852BBEB6A467FFE9B197D71FA9E6FE8CBACC17AD7012D0820E3B41FAD9B3A48F1826B40272956EFE32F1B20A766D3C1
310
268314D3EAD3B24BDABB685CCCAAF3A3D94515828980F42D371D04FD696655A814B3235C8B45E9AB9A4C419F5D8653B2237A1CB163DE672FD6AC209BF3C08E0D1B30EB19C3FC9D72FCC6EB231EFA33EDE96BDD341517E5064B11EDFCBCAF57A3A2194156843498524CAA0FCA5B7268F9E185D42D21A2DCEC7FA0B48CFF8492
310
759155FBBB0F2C80A4F991FB408A72CB22977B50B96EB9C91F504B0304140006080800B670623B55019EA25F0000007C00000007000000636E782E786D6C4DCB3B0E80201045D1AD90E915ED2CF8AC45050C11660C8261F98AB1B07AC9C97D42D718D865D3E909258CFD00CCE24AC6E326A164D74DC0B4128928FF32603847
310
2BA13128B1252AC747C6BAB984FC68F0B87FE8960A5C09FE86CFB69FBA01504B0304140006080800B670623B7BC41AC871010000D40300000C0000006662782F636F72652E786D6CC553ED6E8320147D15C2DF4501B56B6D90A64BBB27D80B50A5CE54C120983EFEAE1F4DD7A56BBA5FF3879273EEE59E7310BE393735EA95
310
ED2AA333CC428A91D2B9292A5D66D8BB63B0C26823B835C67D2BC348CB46657880B1E0A535BE9DA1DC68A7B403549B42CDA0EC3AE530CA6B5864B8CB3F552343E91D5474A7B095F949962A6421D0502778E72C0840D390E18DC5F170E664C205F7BE2A66B62A605A75AC94C522DDEEE3651AEF837817C741F2CE92E02D592D
310
83FD6ECB76EC7595A651C2C9D02CB8AB9A8BBADC2AE954814544691A3016D0E883256BBA58278B17BA5A53CAC9507ED3E4DBE2C9265F691747B3DCA9ADC382819091F8E1162272A8933DE82182932144F88C09DF060D8140C84E1EEA8B8F1340BDCA9DB1093085F157AA97B557309586747CD0EF0B4EA64E983A6E0EAEEFCE
310
889E9EF17847386AA94B30211D2C0FDE0D3AF9A4610EAD5536E8DD1969631B593F67E381C33F5157F17725E5A636F6BF1491F980C8FC7B90E13E8A2F504B0304140006080800B670623B70102A487D0000009D0000000B0000006662782F636E782E786D6C4DCCD10A83201886E15B91FFDC95A5C30335ACCDFB886521330D
310
A76397BF1A1DECE883878F57749FD5A3B74D2F17830472A901D9F088930B8B849267CC01754AA418F3DF0D5018572BE160506249B16C274D761E8BCFBB7A179E27F65CB39A0F14D396184C9921B81F34C3ACA1B4B99ABB6E6F062A25AA5F69DF23ACBE504B0304140006080800B670623B3610CA3329010000120200003100
310
00006662782F42384135303843342D343331462D343546312D424341352D3532343432364645413344462F636F72652E786D6C8D515B6EC32010BC0AE22B55850D0E446E848992B43E412FE000495162B07854397EA176A4F62F3F2C9A9D991D58BEBB8F37F0AD7D30CE76905418026DA553C65E3A98E219B510EC04F7CEC5
310
3F3408EC30EA0E16180A7EF12E4D0B249D8DDAC68C5AA7F4020E21E80881BCE54B0783FCD2E3500D296646B856D320AFC34557A4CAEDCC133C449F0380794839A138B47B86DB2345744D7A44594FD0E1B867883594369BFE63BF7EEF793D0B054FC9A8456E548E63CE46FB674D8A58F068C6477CE9F510B582A2C1F80D1182
310
70F349E816B32D65AFB8DD62CCEB42FF274A937A52948C8DEB66893BCB021484D7734370E5D2E9F608A3EF93F3119479ABA0E50B14B8C298119A43CCC4FCFCECB8A18B6388CEE7EF5D5D4F994BD86CBBA182D76543B9FCAE2FD7B24DF103504B0304140006080800B670623B1B8617914E0100003303000030000000666278
310
2F42384135303843342D343331462D343546312D424341352D3532343432364645413344462F636E782E786D6CD593C16EC32010447F0571AD6CE3D489D20813A9877E410FBD62D82434182CC055F3F75D1292E692438FBD206B7698593D61BEFD1E2DF982108D773D6D6B460938E5B571FB9ECE6957AD29D90A1EBC4F7736
310
4A9C1CA1A759A682EF839FA72269D8C9D92654AD71C72206887E0E0A22CAF926B15E498B01E0AA19451807D01A34B919F16B070157417138917400F2F6FA41FCF0092A45DEE414C19BDC21783E4BD39D891265658C3D8DEA00A3ACE59CBC8678ACB54CB26EEB6BD7839D7E9348BE70AD9C8321B9BCA7F9A4A26C542347DEE0
310
50F09802D22BA6749A800A394DD62899107273365E3C82CFC6A55557BC06C10774B7ABE7AEC3B0F34CF06446280E154026D0542C187BA9DAB6628BF7B6DBB0E5A65B3EB1F58631DE64BBE083F7B65CC218087E22CABB042E51D1F2268F1FE12B3EA24D40D63E9CFE00120194D60B9D5BC67FE6D39CDF37E20AF817881F504B
310
0304140006080800B670623BBFEF2E3B690500003C100000340000006662782F42384135303843342D343331462D343546312D424341352D3532343432364645413344462F6F626A656374732E786D6CAD575D739B3814FD2B0CFB0C98D84E931D4227B6938EA793B6534F3BFB90198F0099B001899144EAECAFDF231018B0
310
D37A3FFC609090EEE7B94757C1FB7D915B2F54C88CB31BDB7727B64559CC938CA53776A576CE956DBD0F03C1B9EA2DB32D460A7A63EB693B0C52C1ABD24C257447AA5C8D66EF177F5832A68CDA569C13296F6C193FD182B8A4523CA1F2D94D88226EBADBBBBEDB2C1C8A4D05299F46424B222853B014F30C52ACC6287F389C
310
D85E1878FA7B18E87FB36AFAF62AAFF667A83F635211161F291B8999FAB3D5DDC5FCDA99CF6653677679E13B8BFBC5CAF1DF4D27CBCBE5F2FAF6EE1A8AA51290642C117467871F101B91C581D77CEA2C36869F3229E68CD1B8F61F1ED6361B89092D294B90C78C4A68EB793D190E7D1D9BDEE7A91E1B95FDE9F3BCEAEFE809
310
6A6D6F9F7D4B79F4275C90E7A04248AA51D5C4C738DAE06F72885AC4796EBE65D22A88A22223B995679120E2D50EB1542F098381188D4EA111AE3DB043FF20AF6F2B4AE3D7D83D65E5AECA730D4D3BAC91BD05FEA992B565D95F549CD6069B90AB2A63EACA38A45E4B6A87D781574F86817E4C2FCCC72690D62E2729520E37
310
9BAF234797BAF6D62B3BFC781FED37BA1E4F2B2F052FA9501A3E80569BB8F6A9A364D4FA67654E6F803383981F82F21591FF84F23D9882BC896C3FDBCF8C162508933B2E0AE4C69DD43F6BD2BE38DDDBF10BF86CB4FA784D37F3AF16075E67EC9030DECA1FC0A55373F5DFF3378C591FA9BDF485C10B0A8C8BA909E5262639
310
A8E72163488806A595734C81CB77D1DE0ED7604A303B76913CEC0272F412782FF88EFF4636D8AA56DF7B322474C4B767303F625997056C7B032C473C592B36CEBD15F3F9FF5233B7ABCDC74D257624A60F8658567497B14CE1EC3C80B76FD02011038F9EE9EB0F2E12387A9C844D3F09855125116D1D731DF8B43D2CF4E0A0
310
79A020C6BE946BCE0B7EA1E1219331CD73C228AF5A2DDD31A4B1DA918CE91350854D40A71723140BFA92E94E62B0626016CEFA5864A50E5977E8753CEDBEE1CBB7F52780D20E17AF0BA0F5F9B02A3AD07DCC732EB6D1EBB661421BE0C39E21BABF0FE16D22EA6929407C8DE596724C88B749B6DB5512BC7B228ADFD7CB7EA6
310
3A22397E690BA8D5D8D4E40CEC8CDA23C2C0B7D5898640101CEC9C6D331CE328CB93CAFBBAC70A642DF70DF95155945B52F08AA973C23469FD69ADEF84F7BB18F983A8F8C90E37F5D35980B2139A1C523540813E824EF83448CF7C72B598CE97D7CEEDDDDD3B6736BFBC771677EF66CE6A7E7139F7A793E9EDF2B2B3A8B624
310
0CDA13AA5F8388264EC4A0129909F3B7F5A16CEDF08128E97D680ACA4B9BE7B7B58BB638F0B00700EF36AE8B32A705658A68F83EE897FC2B41573190D1CCAF0B92D233A47CFEB019D9809933F67DD1A5467F8CF69AD9A5AE859342D45355448C64F968A371DC2D596ADC6E43D93D1B466F877A64E2893E54F23C4B40388995
310
525E5005DA3983ED45412510D3EFCA13737B3863F74BD30F2A12E5B4B5E489A025CE25500DB855B11ACE5BBFA185D35DD48D8DC3CE7DC69F2944DB42AA6F6CF09BCA622ADD08C7A36E7C6AE18000BAB08E040135C2D21C9D75B3A91B77BB746C403F38018DFE6EC939DD92F16B40BC05294B9CDA035AAD6D330AE27FE4786B
310
8E45145EA34A75BE1C263A676A35A8ACC6297337400BF16C54EF515F3F77CB77EB3583889C754FFA29081AA98E2222ADEF05DA3E63D2EDEA8B8756C05A7FB6CABC4A91CBF325398202CC952E70A008A830324BA200D5E5EF8F5F04C75DB4B0EE3340E071C98B823333B83577596BF3849B69F2085AA0FAFA212F26BEFF5877
310
FDE622B28D88A42E49E43326DA82D31E8CB006401E1DA726059ECEC168F97A6599036306A135688F9AD2E61A6EA178F4CD51974A9F2CCB9F36FE5EBD14601068D9C3BF01504B0304140006080000B670623B000000000000000000000000350000006662782F42384135303843342D343331462D343546312D424341352D35
310
32343432364645413344462F76657274696365732E62696E504B0304140006080800B670623BF270F1330600000004000000360000006662782F42384135303843342D343331462D343546312D424341352D3532343432364645413344462F747269616E676C65732E62696E636660600000504B0304140006080000B67062
310
3B000000000000000000000000370000006662782F42384135303843342D343331462D343546312D424341352D3532343432364645413344462F617474726962757465732E62696E504B0304140006080800B670623B08DA0BD19000000041010000360000006662782F42384135303843342D343331462D343546312D4243
310
41352D3532343432364645413344462F6469726563746F72792E786D6C858F410AC3201045AF22B36F53E9A60B35CBEEBAE80D244E44489C6234F4F835464A48035D0DF398FF9F8AF63D0E6CC63039F212F8F9020C7D47C6792B21C5FE7403D62A1188E2E60C98D7234A5830286103A55745067B9D86B8A3CF9C7F90C11DE6
310
07FB144396D7B6A82D282E9A152AD114D5EF2CB866EEE831B8EEA07A7BB5A8D7D61A2BAAEB7FD5F70921FF497D00504B0304140006080800B670623B3B4606F3FE000000A00100003B0000006662782F42384135303843342D343331462D343546312D424341352D3532343432364645413344462F7265736F75726365732F
310
636F72652E786D6C8D504B6E833010BD0A9A6D65B08134808CA354A427E8052C332156828DFCA97AFC9A40A576D7CDCCE87D344F8F9FBEE647F689CE6B6B7A6039850C8DB2A336530F315C4903D94970676DF82583CCC8197B5861107C72362E3BA4AC096842428D1D7107A5F71820538F74F4E0D50D6799CB1892C2DFF345
310
AABB9C306779A2934E701F5C0A906D4FD609C2A1B7D129F4BCD858C163D4E3AED163FAA9AF1A1D88F67CA98E6D35906AA82A52BFB39ABCD5CD915C86331BD86BD3B665CD8BD52C78D0F34F46E550061C419494B6843142CB0F5677F4D0D58717DA7494F26295FF31C565FCA7296A13AA728FBBD93C0896823C09C18BB5AFB4
310
9E65A6BD762BBE01504B010214000A0000080000B670623B3DEE336E79000000790000001B00000000000000000000000000000000006175746F6465736B2D64657369676E2D7061636B6167652E786D6C504B01021400140006080800B670623BD486FD9CA0000000F40000001300000000000000000000000000B2000000
310
5B436F6E74656E745F54797065735D2E786D6C504B01021400140006080800B670623B28ED286BEB0000007C010000080000000000000000000000000083010000636F72652E786D6C504B01021400140006080800B670623B55019EA25F0000007C000000070000000000000000000000000094020000636E782E786D6C50
310
4B01021400140006080800B670623B7BC41AC871010000D40300000C00000000000000000000000000180300006662782F636F72652E786D6C504B01021400140006080800B670623B70102A487D0000009D0000000B00000000000000000000000000B30400006662782F636E782E786D6C504B01021400140006080800B6
310
70623B3610CA3329010000120200003100000000000000000000000000590500006662782F42384135303843342D343331462D343546312D424341352D3532343432364645413344462F636F72652E786D6C504B01021400140006080800B670623B1B8617914E010000330300003000000000000000000000000000D10600
310
006662782F42384135303843342D343331462D343546312D424341352D3532343432364645413344462F636E782E786D6C504B01021400140006080800B670623BBFEF2E3B690500003C10000034000000000000000000000000006D0800006662782F42384135303843342D343331462D343546312D424341352D35323434
310
32364645413344462F6F626A656374732E786D6C504B01021400140006080000B670623B0000000000000000000000003500000000000000000000000000280E00006662782F42384135303843342D343331462D343546312D424341352D3532343432364645413344462F76657274696365732E62696E504B010214001400
310
06080800B670623BF270F133060000000400000036000000000000000000000000007B0E00006662782F42384135303843342D343331462D343546312D424341352D3532343432364645413344462F747269616E676C65732E62696E504B01021400140006080000B670623B00000000000000000000000037000000000000
310
00000000000000D50E00006662782F42384135303843342D343331462D343546312D424341352D3532343432364645413344462F617474726962757465732E62696E504B01021400140006080800B670623B08DA0BD1900000004101000036000000000000000000000000002A0F00006662782F42384135303843342D3433
310
31462D343546312D424341352D3532343432364645413344462F6469726563746F72792E786D6C504B01021400140006080800B670623B3B4606F3FE000000A00100003B000000000000000000000000000E1000006662782F42384135303843342D343331462D343546312D424341352D3532343432364645413344462F72
310
65736F75726365732F636F72652E786D6C504B0506000000000E000E0080040000651100000000
  0
XRECORD
  5
187
102
{ACAD_REACTORS
330
186
102
}
330
186
100
AcDbXrecord
280
     1
 70
     1
 90
429727718
  1
887D55A9-D0DD-414E-B741-A7DCD4DA2B4C
310
504B03040A0000080000B670623B3DEE336E79000000790000001B0000006175746F6465736B2D64657369676E2D7061636B6167652E786D6C3C3F786D6C2076657273696F6E3D22312E302220656E636F64696E673D227574662D3822203F3E3C666F726D6174733E3C666F726D61743E687474703A2F2F736368656D612E
310
6175746F6465736B2E636F6D2F64657369676E2D7061636B6167652F323030393C2F666F726D61743E3C2F666F726D6174733E504B0304140006080800B670623BD486FD9CA0000000F4000000130000005B436F6E74656E745F54797065735D2E786D6C7D8EC10E82300C865F65E91D8A1E8C310C0EEA1BF002731658846E
310
D98AC1B77784ABF1D8FE5FBFBF75BBCE937A534CCEB38643598122B6FEE978D0B0485F9C41B54DDD7D022595594E1A469170414C76A4D9A4D207E29CF43ECE46F218070CC6BECC4078ACAA135ACF422C856C0E68EA1BF5669944DDD7BCDE7B1F8E415D77AECB980613C2E4AC91FC167A2B244592486606FC29C8FD7F045B9A
310
EF7053A7E60B504B0304140006080800B670623BBC1638F5EC0000007C01000008000000636F72652E786D6C8D90416EC3201045AF82665B61836BE2D8C24471DB9CA01740401C94182C03558F5F9C3852BBEB6A467FFE9B197D7EF89E6EE8CB2CC17AD7032D0820E394D7D68D3DA478C67B4007C117EFE32F1B202727D3C3
310
2A83E0E3E2D3BC49CABB685CCCAAF3DA6CA20CC14440EA969B1E82BA98491632C5EC08D76296EA2A4753D06797E194AC468F2356E77DF66CCD02825543D50CACC62D39ED70FDC68EB8FD68F6F8787A6784342D1DDA1D2F5758F068A7E77DB518198D065111D2624A31A93E69DD11D6D5EC85EC3B4278B9DAFF4069D6FF8492
310
75F1B5DADE7D600104CD8FDC0782976B16B9DC83CA75CD4DFC00504B0304140006080800B670623B55019EA25F0000007C00000007000000636E782E786D6C4DCB3B0E80201045D1AD90E915ED2CF8AC45050C11660C8261F98AB1B07AC9C97D42D718D865D3E909258CFD00CCE24AC6E326A164D74DC0B4128928FF326038
310
472BA13128B1252AC747C6BAB984FC68F0B87FE8960A5C09FE86CFB69FBA01504B0304140006080800B670623B3586FFB671010000D40300000C0000006662782F636F72652E786D6CC553ED6E8320147D15C2DF4541A76D6D90A6DDD627D80B50A4CE54C120983EFEAE1F4DD7A55BBA5FF3879273EEE59E7310B6393735EA
310
95ED2AA3731C851423A5A5292A5DE6D8BB63B0C268C39935C67D29C3488B46E578803167A535BE9D2169B453DA01AA4DA16650749D7218C91A1639EEE4876A4428BC838AEE14B6429E44A9C228041AEA38EB9C0501681A32BC313F1ECE8C4C3867DE57C5CC56054CAB8E95B298A7F12E5EEED224C8E87E11242FE936C8DE96
310
AB60BB7F4D295D66D12E5B30323473E6AAE6A24E5A259C2A308F29CD82280A68FC1E256B9AAE93F489AED694323294DF34F9B678B0C957DA3DC7B3DCA9ADC33C022123F1CD2D44E450277AD04338234388F01913BE0D1A0281909D38D4171F27807A259DB1093085F157AA17B557309586747CD0CF0B46A64E983A6E0EAEEF
310
CE881F9EF1FB8E70D44297604238581EBC1B74B249C31C5AAB6CD0BB33D2C636A27ECCC62F0EFF445DC5DF95244D6DEC7F2922F30191F9F720C37DE49F504B0304140006080800B670623B4220A0FF7D0000009D0000000B0000006662782F636E782E786D6C4DCCD10A83201886E15B91FFDCE542CB0335D0EC3E6259C84A
310
C3E9D8E5AF46073BFAE0E1E315DD675BD1DBA5978F41C2FD4600B9F088930F8B849267CC01754AA418F3DF0D50183727E164506249B1EC174D6E1ECB9A0F5D7D785E68DB8151CD286E5A5363CA6B8A39E90D36D40E96B086F55A43A544F52B1D7B86D517504B0304140006080800B670623B2FA3FEDE290100001202000031
310
0000006662782F45374635344235342D363743322D343832342D383044432D4334454645303536354442422F636F72652E786D6C8D515B6EC32010BC0AE22B55850D2E386E848994D7097A0117488A1283C5A3CAF10BB523B57FF961D1ECCCECC0F2ED7DBC816FED8371B687A4C210682B9D32F6D2C314CFA883602BB8772E
310
FEA141608751F7B0C050F08B77695A20E96CD43666D43AA5177008414708E42D5F7A18E4971E876A483133C2B59A06791D2EBA22556E679EE021FA1C00CC43CA09C5717D6274C7286AD7FB06D1AEA1A8C3873DDAD3E3E98859CB0EBB1DAF67A1E02919B5C88DCA71CCD968FFAC49110B1ECDF8882FBD1EA256503418BF2342
310
106E3E08DD60B6A1EC15771B8C795DE8FF4469524F8A92B1F1AD59E2CEB20005E1F5DC105CB9F4797B84D1F7C9F908CABC55D0F2050A5C61CC1AD2F27A26E6E767C7962E8E213A9FBF7775FDCC5CC266DB960A5E970DE5F2BBBE5CCB36C50F504B0304140006080800B670623B1B8617914E01000033030000300000006662
310
782F45374635344235342D363743322D343832342D383044432D4334454645303536354442422F636E782E786D6CD593C16EC32010447F0571AD6CE3D489D20813A9877E410FBD62D82434182CC055F3F75D1292E692438FBD206B7698593D61BEFD1E2DF982108D773D6D6B460938E5B571FB9ECE6957AD29D90A1EBC4F77
310
364A9C1CA1A759A682EF839FA72269D8C9D92654AD71C72206887E0E0A22CAF926B15E498B01E0AA19451807D01A34B919F16B070157417138917400F2F6FA41FCF0092A45DEE414C19BDC21783E4BD39D891265658C3D8DEA00A3ACE59CBC8678ACB54CB26EEB6BD7839D7E9348BE70AD9C8321B9BCA7F9A4A26C542347DE
310
E050F09802D22BA6749A800A394DD62899107273365E3C82CFC6A55557BC06C10774B7ABE7AEC3B0F34CF06446280E154026D0542C187BA9DAB6628BF7B6DBB0E5A65B3EB1F58631DE64BBE083F7B65CC218087E22CABB042E51D1F2268F1FE12B3EA24D40D63E9CFE00120194D60B9D5BC67FE6D39CDF37E20AF817881F50
310
4B0304140006080800B670623B29652116630500003C100000340000006662782F45374635344235342D363743322D343832342D383044432D4334454645303536354442422F6F626A656374732E786D6CAD575D739B3814FD2B0CFB0C989834C90EA1639B24E3E9A6EDD4D3CE3E64C623834CD8006224913AFDF57B040203
310
B65BEF871F0C12D2FD3CF7E8CA7FBFCB33E3957291B2E2D674ED8969D02262715A24B76625B7D6B569BC0F7CCE98EC2D338D82E4F4D654D366E0279C55A59E8AE99654991CCDDECFFF3444440B6A1A514684B83545F44C7362934AB2988A173B2692D8C97667BB76B3702836E1A47C1E092D09A78584A5982F20C5688C7287
310
C389E904BEA3BE07BEFAD7ABA6A75739B53F43FD69212429A20365233153D70BEF2E2E6FAC4BCF9B5ADEBB0BD79ADFCF43CBBD9A4E16EF168B9BD9DD0D140BC921495BC2E9D60C1E101B9E46BED37CEA2CD6861F3329624541A3DA7F7858DBAC25C6B4A4458C3CA654405BCFEBC970E8AAD8F43E4FD558ABEC4F9FE7557F47
310
4F506B7BFBEC5BCA367FC105710E2AB8A00A554D7CB4A30DFE26FBA86D18CBF4B75418399194A72433B274C3097F33032C554B027F2046A1932B842B0FCCC0DDCBEBDB8AD2F835768F59B9ADB24C41D30C6A64AF817F2A456D59FA83F2E3DA60137255A585BCD60EC9B7929AC18DEFD49381AF1ED30BFDB109A4B1CD488294
310
C3CDE6EBC8D185AABD6568061FEE37BB95AAC7E3CA4BCE4ACAA5820FA0D526AE7DAA2869B5EE5999531BE0CC20E6FBA07C41E43FA27CF7A6206F3CDD793B4F6B919C1462CB788EDCD893FA674CDA17AB7B3B7C019F8D561FAEE966FED562DFE98C1D12C6A9FC015C2A35D7FF3D7FC398F591DA4B5FE0BFA2C0189FEA50AE22
310
92817A1ED3020951A03432862970F976B33383259812CC8E5D240BBA801CBCF8CE2BBEE3BF910DB6AAD5F79E05123AE2DB33981FB1ACCB02B69D00CB014FD68AB573A7627EF9BFD4CC2C5C7D58557C4B22FAA88925A4DBB44825CECE3D78FB060D1231F0E885BE7D673C86A3874958F593906B5502D1563157814FDAC3420D
310
F69A070A22EC4B98E23CFF171A1E5311D12C23056555ABA53B8614563B92D17D02AAB009E8F46284624E5F53D5490C560CCCC2591FF1B45421EB0EBD8EA7ED13BE7C5D7E0428CD60FEF60779EB13E6664FF711CB185F6FDED60D139A001FF60CD1FD6D086F1D51474901E26B2CB794A343BC8ED3EDB612E0DD2351FCB65CF4
310
33D511C9E14B5B40ADC6A6263DB0336A8F700DDF56271A024E70B0B3629DE21847591E55DED73D56206AB927E46FAABC5C939C55853C274C93D69FD6FA4E78BF8B11DF898C9ECD60553FAD39283BA6F18984AA23E8884F83F45C5F5F859797B31B2B9C84A1E5B9DE9D35BFF25C6B76152E422F9C5DCC3D847F5801ED09D5AF
310
41441327A25FF15487F9EB725FB666F048A4701E9A827292E6F97569A32DF61DEC01C0BB8DCBBCCC684E0B49147C1FD54BF685A0AB18C868E6973949E819523E3DAC463660E68C7D9F55A9D1EFA3BD7A76A16AE1A810F95CE59B82A4D968A376DC2E8B44BBDD86B27B368CDE0ED548C7137DA860591A83706223A12CA712B4
310
7306DBF39C0A20A6DF95C7FAF670C6EED7A61F946493D1D6926782963813403548A78AE470DEF80D2D9CEAA26E4D1C76F60BFE74219A06527D6B82DF641A51616F703CAAC6A7160E08A00BEB4810A0274592A1B36E3675E36E978A0DE80727A0D6DF2D39A75BD27E0D8837276589537B40ABB56D5A41F48F1C6FCD3188C4EB
310
A6929D2FFB89CE995A4D00AE813BDD032DC48B56BD437DFDDC2DD7AED70C2272D63DE9A72068A45A92F0A4BE17A8A06B9366E16707AD80B1FC649459952097E74BB23805982B55E0401150A165964402AA8BDF9F3E7386BB686EDCA780C0D382E5392BF460A6EFB2C6EA1937D3F809B440D5F5435C4C5CF7A9EEFAF54564BD
310
2182DA24162F98680B4E7930C21A0079709CEAEB99A372305ABE0C0D7D6078105A83F6A0296DAEE1068A47DD1C55A9F4C9B2FC69E3EFD44B81028E963DF81B504B0304140006080000B670623B000000000000000000000000350000006662782F45374635344235342D363743322D343832342D383044432D433445464530
310
3536354442422F76657274696365732E62696E504B0304140006080800B670623BF270F1330600000004000000360000006662782F45374635344235342D363743322D343832342D383044432D4334454645303536354442422F747269616E676C65732E62696E636660600000504B0304140006080000B670623B00000000
310
0000000000000000370000006662782F45374635344235342D363743322D343832342D383044432D4334454645303536354442422F617474726962757465732E62696E504B0304140006080800B670623B08DA0BD19000000041010000360000006662782F45374635344235342D363743322D343832342D383044432D4334
310
454645303536354442422F6469726563746F72792E786D6C858F410AC3201045AF22B36F53E9A60B35CBEEBAE80D244E44489C6234F4F835464A48035D0DF398FF9F8AF63D0E6CC63039F212F8F9020C7D47C6792B21C5FE7403D62A1188E2E60C98D7234A5830286103A55745067B9D86B8A3CF9C7F90C11DE607FB144396
310
D7B6A82D282E9A152AD114D5EF2CB866EEE831B8EEA07A7BB5A8D7D61A2BAAEB7FD5F70921FF497D00504B0304140006080800B670623B6378F24DFF000000A00100003B0000006662782F45374635344235342D363743322D343832342D383044432D4334454645303536354442422F7265736F75726365732F636F72652E
310
786D6C8D504B6E833010BD0A9A6D65B0094E42641C85B639412F6099496225D8C89FAAC7AF09546A77DDCC8CDE47F3F4C4F16B7C149FE88371B603565228D06A37187BED20C50BD9437194C23B177FC9A0B06AC40E6618A4B87A97A615D2CE46B431A3D60DB8822A048C50E8473E3A08FA86A32A558A5911EEE5A4F45D5DB1
310
6465A6B34E8A107D0E502C4FE609D26370C96B0CA25A58295232C3AA3143FE692E063D485EF7F5AEE71BD2D2F39634AFFC44DAF7DD9E9CCE6F9CD25DCBFA762BAAD92C4534E34F46ED51451C40D694B6843142EB0FD61C283F34FC85EE0F948A6A96FF31A569F8A729191B37F51A77B105902C0779125254735F793DCBCC7B
310
EE567E03504B010214000A0000080000B670623B3DEE336E79000000790000001B00000000000000000000000000000000006175746F6465736B2D64657369676E2D7061636B6167652E786D6C504B01021400140006080800B670623BD486FD9CA0000000F40000001300000000000000000000000000B20000005B436F6E
310
74656E745F54797065735D2E786D6C504B01021400140006080800B670623BBC1638F5EC0000007C010000080000000000000000000000000083010000636F72652E786D6C504B01021400140006080800B670623B55019EA25F0000007C000000070000000000000000000000000095020000636E782E786D6C504B010214
310
00140006080800B670623B3586FFB671010000D40300000C00000000000000000000000000190300006662782F636F72652E786D6C504B01021400140006080800B670623B4220A0FF7D0000009D0000000B00000000000000000000000000B40400006662782F636E782E786D6C504B01021400140006080800B670623B2F
310
A3FEDE290100001202000031000000000000000000000000005A0500006662782F45374635344235342D363743322D343832342D383044432D4334454645303536354442422F636F72652E786D6C504B01021400140006080800B670623B1B8617914E010000330300003000000000000000000000000000D2060000666278
310
2F45374635344235342D363743322D343832342D383044432D4334454645303536354442422F636E782E786D6C504B01021400140006080800B670623B29652116630500003C10000034000000000000000000000000006E0800006662782F45374635344235342D363743322D343832342D383044432D4334454645303536
310
354442422F6F626A656374732E786D6C504B01021400140006080000B670623B0000000000000000000000003500000000000000000000000000230E00006662782F45374635344235342D363743322D343832342D383044432D4334454645303536354442422F76657274696365732E62696E504B01021400140006080800
310
B670623BF270F13306000000040000003600000000000000000000000000760E00006662782F45374635344235342D363743322D343832342D383044432D4334454645303536354442422F747269616E676C65732E62696E504B01021400140006080000B670623B0000000000000000000000003700000000000000000000
310
000000D00E00006662782F45374635344235342D363743322D343832342D383044432D4334454645303536354442422F617474726962757465732E62696E504B01021400140006080800B670623B08DA0BD190000000410100003600000000000000000000000000250F00006662782F45374635344235342D363743322D34
310
3832342D383044432D4334454645303536354442422F6469726563746F72792E786D6C504B01021400140006080800B670623B6378F24DFF000000A00100003B00000000000000000000000000091000006662782F45374635344235342D363743322D343832342D383044432D4334454645303536354442422F7265736F75
310
726365732F636F72652E786D6C504B0506000000000E000E0080040000611100000000
  0
XRECORD
  5
112
102
{ACAD_REACTORS
330
110
102
}
330
110
100
AcDbXrecord
280
     1
270
     1
271
     1
  0
XRECORD
  5
111
102
{ACAD_REACTORS
330
110
102
}
330
110
100
AcDbXrecord
280
     1
270
     1
271
     1
  0
XRECORD
  5
18A
102
{ACAD_REACTORS
330
110
102
}
330
110
100
AcDbXrecord
280
     1
 70
     0
 90
1778669749
  1
9BF507EE-FAF7-4A99-A33D-4EE51894BC40
310
504B03040A0000080000B670623B3DEE336E79000000790000001B0000006175746F6465736B2D64657369676E2D7061636B6167652E786D6C3C3F786D6C2076657273696F6E3D22312E302220656E636F64696E673D227574662D3822203F3E3C666F726D6174733E3C666F726D61743E687474703A2F2F736368656D612E
310
6175746F6465736B2E636F6D2F64657369676E2D7061636B6167652F323030393C2F666F726D61743E3C2F666F726D6174733E504B0304140006080800B670623BD486FD9CA0000000F4000000130000005B436F6E74656E745F54797065735D2E786D6C7D8EC10E82300C865F65E91D8A1E8C310C0EEA1BF002731658846E
310
D98AC1B77784ABF1D8FE5FBFBF75BBCE937A534CCEB38643598122B6FEE978D0B0485F9C41B54DDD7D022595594E1A469170414C76A4D9A4D207E29CF43ECE46F218070CC6BECC4078ACAA135ACF422C856C0E68EA1BF5669944DDD7BCDE7B1F8E415D77AECB980613C2E4AC91FC167A2B244592486606FC29C8FD7F045B9A
310
EF7053A7E60B504B0304140006080800B670623BCA089DFFEC0000007C01000008000000636F72652E786D6C8D90416E83301045AF62CDB632D8402020E32882F604BD80653BC44AB011B6AB1EBF262152BBEB6A467FFE9B197D76FA9EEFE84BAFDE38DB03CD08206DA553C64E3DC470C1474027CE56E7C22F1B202B66DDC3
310
260367D3EAE2B24BD2D9A06D48AA754AEFA2F05E0740F29E9A1EBCBCEA59642286E4F0B76C11F226269DD15797E0188D42CF2346A57DE662F40ABCAEC77628C6120F654571D50C04B7F5B9C1E3997CD4F550BE3745C3F20DE62C98F9755FAE5A04AD801784B498524C8A4F5A75E4D055873772EC0861F966FF03C545FD138A
310
C686B2D8DF7D621E384D8F3C069CE55B16A93C824A75CB8DFF00504B0304140006080800B670623B55019EA25F0000007C00000007000000636E782E786D6C4DCB3B0E80201045D1AD90E915ED2CF8AC45050C11660C8261F98AB1B07AC9C97D42D718D865D3E909258CFD00CCE24AC6E326A164D74DC0B4128928FF326038
310
472BA13128B1252AC747C6BAB984FC68F0B87FE8960A5C09FE86CFB69FBA01504B0304140006080800B670623B68FC0B7272010000D40300000C0000006662782F636F72652E786D6CC5535B6E833010BC8AE5DF0A6C1E8124328E22D29EA01770C0A128602363A31CBFCB234A53A555FA553EC09AD9F5CE8C31DB5DDA060D
310
D2F4B556190E7C8A9154852E6B5565D8D993B7C668C799D1DA7E29C3488956667884316795D1AE5BA0422B2B950554E9522EA0E87B69312A1A5864B82F3E642B7CE12C54F467BF13C55954D20F7CA0A18EB3DE1A1080E621E31BF3D3F1C2C88C73E65C5D2E6C5DC2B4FA544B8379921C36797888BC3C8A032F4E73EA6D927D
310
EA1DF6F42D49F2E8350D5346C666CE6CDD5ED515460A2B4BCC434A375E1078347C0FE22D5D6DE3D50B5D6F2965642CBF6B725DF96493AB958DC245EEDCD6631E809089F8E61622B2A81703E8219C913144F84C09DF070D8140C8561C9BAB8F3340832CAC363130A576376A108D933095FA747AD0CF0B46E64E983A6D0EAE1F
310
CE089F9EF1FB8E70D44255604258581E9D1D75B259C3125A278D37D80B52DAB4A279CEC62F0EFF44DDC43F9454E8469BFF5244960322CBEF41C6FBC83F01504B0304140006080800B670623B0F71DDB67E0000009D0000000B0000006662782F636E782E786D6C4DCCD10A83201886E15B91FFDCA54DB73F502386BB8F5816
310
32D3703976F9ABD1C18E3E78F87855FB990379BBFCF2296AE02706C4C5471A7C9C349475A408A4352AA7B4FEDD80C47E761A7606A3A69CCA72D0E0C6BE8475D3E0E3F3409428EA6B27A84079A782899AA2EC1A7AE3ECCC2FD858CB2D544655BFD2B67BD87C01504B0304140006080800B670623BE134B4FB28010000120200
310
00310000006662782F38353834323741342D343835462D343034322D383541392D4331303331363839454531452F636F72652E786D6C8D515B6EC32010BC0AE22B55850D0EA424C24451959EA0172086A42831583CAA1CBF503B52FB971F16CDCECC0EACD8DFC71BF836215AEF7A481A0C817183D7D65D7A98D3197108F652
310
04EFD31F1A044E8DA6871586525C82CFD3020DDE25E352419DD76601558C264130DCCAA58771F832A36A544E8511AFCDA486ABBA988634A55D7852C4144A00300FA927949C71DABD1D28A29C7D208A6987383B6CD13BC16BB2E1DBE3911C453B0BA5C8D9EA456E758963CFD684674DAA588A64C747FC2118958C86B2C3788B
310
0841B8FB247487D98EB257CC77188BB6D2FF89F2A49F1465EBD2BA5BE2CEB2082511EDDC9042FB7CBA3DC298FBE4430275DE2A9AE1054ADC60CC08E3A29D89E5F9C5714317C7987C28DFBBBA9E0A97B0D97643A568EB864AF95D5FA9759BF207504B0304140006080800B670623B1B8617914E010000330300003000000066
310
62782F38353834323741342D343835462D343034322D383541392D4331303331363839454531452F636E782E786D6CD593C16EC32010447F0571AD6CE3D489D20813A9877E410FBD62D82434182CC055F3F75D1292E692438FBD206B7698593D61BEFD1E2DF982108D773D6D6B460938E5B571FB9ECE6957AD29D90A1EBC4F
310
77364A9C1CA1A759A682EF839FA72269D8C9D92654AD71C72206887E0E0A22CAF926B15E498B01E0AA19451807D01A34B919F16B070157417138917400F2F6FA41FCF0092A45DEE414C19BDC21783E4BD39D891265658C3D8DEA00A3ACE59CBC8678ACB54CB26EEB6BD7839D7E9348BE70AD9C8321B9BCA7F9A4A26C542347
310
DEE050F09802D22BA6749A800A394DD62899107273365E3C82CFC6A55557BC06C10774B7ABE7AEC3B0F34CF06446280E154026D0542C187BA9DAB6628BF7B6DBB0E5A65B3EB1F58631DE64BBE083F7B65CC218087E22CABB042E51D1F2268F1FE12B3EA24D40D63E9CFE00120194D60B9D5BC67FE6D39CDF37E20AF817881F
310
504B0304140006080800B670623B5933D422630500003B100000340000006662782F38353834323741342D343835462D343034322D383541392D4331303331363839454531452F6F626A656374732E786D6CAD575B6FA33814FE2B887D0642934E9B156594264D158D3A534DD4D13E548A0C38942D60649B4EBABF7E3F8321
310
40924EF6928780CDF1B97EE762EFF32E4B8D37CA45C2F21BD3B547A641F39045491EDF98A5DC5AD7A6F1D9F73863B243661A39C9E88DA9B64DDF8B392B0BBD15D12D295339D85DDEFE618890E6D434C2940871638AF08566C426A5641115AF764424B1E3EDCE76ED9AB0CF36E6A47819302D08A7B984A6D8CFC1C5A89572FB
310
CB91E9F89EA3BEFB9EFAD754E3D3544E654F5F7E920B49F2F040D880CDD89D2CEE2E2EA7D6E56432B6269F2E5CEB7679BBB0DCABF168FE693E9FCEEEA6102C240727AD09A75BD3BF876F78127A4EFDA9D5582B7E4CA590E5390D2BFB6161A5B3E618D182E611E2985001691DAB47FDA5AB7CD3F93C566B2DB2BB7D9E55DD13
310
1D468DEECDB3AB290BFE8409E21C54704115AA6AFF68436BFC8DF65E0B184BF5B74418199194272435D224E084BF9B3E481589EFF5D828747285706581E9BB7B7E5D5D911ABFC6EE312DB7659A2A689A7E85EC0DF04FA5A8344BFEA2FCB834E8845895492EAFB541F2BDA0A63FF59C6AD3F7D4637CA13FD68E34B629891172
310
98597F1D183A57B9B75A98FE9765B05BAB7C3C2EBCE0ACA05C2AF8005A4DE09AA7F29216EB9E15397500C6F47CBE77CA7778FE2BD277AF0AE2C693DD6437D1522427B9D8329E2136F6A8FA19A3E6C56ADF0E5F50CF06D48734EDCEBF22F69C56D97EC138153F804B85E6FABFC7AFEFB32E523BE1F3BD372418E363EDCA7548
310
52949E8724474014288D94610BB57C1BEC4C7F854A89CA8E5324F55B871CBC78CE1BBEE3BFE68D6A5589EF3C730474506FCFA8FCF0659516D0ED04580EEA6425581B77CAE797FF4BCECC16EB2FEB926F49481F746159D06D922712BD730FDEAE42BD40F42C7AA5EF3F198F60E86110D6DD20645A9480B795CF95E3E3A659A8
310
C55E724F408873315335CFFB8584874484344D494E59D94869DB90C26A5B64F49C802CAC1D3ABE18A098D3B7444D123D8A9E5AE8F5214F0AE5B2B6E9B575DA3E61CBD3EA2B4009FA940524DD1305FB6A1FB294F14DF0BEA90BA109ECE1481FDC3FFAE8D60E75141700BE82725371B4873751B2DD960265F788137FACE6DD40
310
B575E4F0A5C99F46629D92131467A41EE11ABD8D4CCC039CA0AFB37C93A08B232B8F0AEFCA1E0A1015DF13FC83322B362463652ECF71D3A8B1A7D1BE65DE1D62C44F22C317D35F574FEB16153BA2D13E543D10A80E74C4A65E78A6B7CBCBD1D5DD9DB59C2DAFACC96C3AB566E3F1C29ADCDD5DBAD7D3C9ED7C822ED74F80A6
310
41755310DE4443F44A9E68373FADF6596BFA0F440AE7BECE2727AE9F4F2B1B53B1E7E00CF0DD1E5C65454A339A4BA2D0FBA05ED2EF0443458F47BDBFCA484CCFE0F2ED7E3DD0013B679C7B5499467F0ECEEADDB9CA85A34CE44B99053949D2C1416DB85DE4B136BB7165FBAC0B7AB3542BED4F8CA182A549847A1319316519
310
95A83A67147B9E5101C47487F2485F1ECE38FD568F839204296D3479219888530154036E6528FBFBC66F98E0D4107563A2D7D9AFF8D389681A08F58D89F22693900A3B407754734FC51C10C010D6D640809EE4718AC1BA3ED4AEDB53CA37283F68805A7E4B72CEB0A4EDEAD5DD8C14059A76AFAA56BA6901E13F32BC51C720
310
12AF41295B5BF61BAD3195181FB506E6B40F4C10AF5AF40EF9F5B159AE5DD1F43C72D635E94310D45C2D49785C5D0B94D3B54AB3C5A38349C0587D338AB48C11CBF339599C02CCA54A70A008A8D03C0B2201D5F9EFCF8F9CE12A9A19CB0410789EB32C63B95ECCF455D658BFE0621A3DA32C5075FB101723D77DAE867E7D0F
310
D90444509B44E2151B4DC2290B065803200FBAA9BE9D392A0603F2D5C2D00D6302A615680F66D2FA166E2079D4C551A54AB758161FCEFD4E450A14704CECFEDF504B0304140006080000B670623B000000000000000000000000350000006662782F38353834323741342D343835462D343034322D383541392D4331303331
310
363839454531452F76657274696365732E62696E504B0304140006080800B670623BF270F1330600000004000000360000006662782F38353834323741342D343835462D343034322D383541392D4331303331363839454531452F747269616E676C65732E62696E636660600000504B0304140006080000B670623B000000
310
000000000000000000370000006662782F38353834323741342D343835462D343034322D383541392D4331303331363839454531452F617474726962757465732E62696E504B0304140006080800B670623B08DA0BD19000000041010000360000006662782F38353834323741342D343835462D343034322D383541392D43
310
31303331363839454531452F6469726563746F72792E786D6C858F410AC3201045AF22B36F53E9A60B35CBEEBAE80D244E44489C6234F4F835464A48035D0DF398FF9F8AF63D0E6CC63039F212F8F9020C7D47C6792B21C5FE7403D62A1188E2E60C98D7234A5830286103A55745067B9D86B8A3CF9C7F90C11DE607FB1443
310
96D7B6A82D282E9A152AD114D5EF2CB866EEE831B8EEA07A7BB5A8D7D61A2BAAEB7FD5F70921FF497D00504B0304140006080800B670623BD9A3B367FE000000A00100003B0000006662782F38353834323741342D343835462D343034322D383541392D4331303331363839454531452F7265736F75726365732F636F7265
310
2E786D6C8D504B6E833010BD0A9A6D65B01D0201194711694FD00B586642AD043BF2A7EAF16B122AB5BB6E6646EFA3797AE2F8B5DC8A4FF4C1383B002B291468B59B8C9D0748F1420E501CA5F0CEC55F3228AC5A708015062966EFD27D83B4B3116DCCA875136EA00A012314FA968F0182FEC045952AC5AC08D7F2AEF455CD
310
58B232D3592745883E07289E4FD609D26370C96B0CA27AB252A464A64D63A6FCD35C0C7A904D73EE467EE664DCD58CD4ED4849D79C5A723ED1B7A61977AF2D6F45B59AA58866F9C9A83DAA8813484E6947182394BFB3BAA7FBBEDEBFD0434FA9A856F91F53BA4FFF342563E38E6F719FB60092E5200F428A6AED2BAF479979
310
AFDDCA6F504B010214000A0000080000B670623B3DEE336E79000000790000001B00000000000000000000000000000000006175746F6465736B2D64657369676E2D7061636B6167652E786D6C504B01021400140006080800B670623BD486FD9CA0000000F40000001300000000000000000000000000B20000005B436F6E
310
74656E745F54797065735D2E786D6C504B01021400140006080800B670623BCA089DFFEC0000007C010000080000000000000000000000000083010000636F72652E786D6C504B01021400140006080800B670623B55019EA25F0000007C000000070000000000000000000000000095020000636E782E786D6C504B010214
310
00140006080800B670623B68FC0B7272010000D40300000C00000000000000000000000000190300006662782F636F72652E786D6C504B01021400140006080800B670623B0F71DDB67E0000009D0000000B00000000000000000000000000B50400006662782F636E782E786D6C504B01021400140006080800B670623BE1
310
34B4FB280100001202000031000000000000000000000000005C0500006662782F38353834323741342D343835462D343034322D383541392D4331303331363839454531452F636F72652E786D6C504B01021400140006080800B670623B1B8617914E010000330300003000000000000000000000000000D3060000666278
310
2F38353834323741342D343835462D343034322D383541392D4331303331363839454531452F636E782E786D6C504B01021400140006080800B670623B5933D422630500003B10000034000000000000000000000000006F0800006662782F38353834323741342D343835462D343034322D383541392D4331303331363839
310
454531452F6F626A656374732E786D6C504B01021400140006080000B670623B0000000000000000000000003500000000000000000000000000240E00006662782F38353834323741342D343835462D343034322D383541392D4331303331363839454531452F76657274696365732E62696E504B01021400140006080800
310
B670623BF270F13306000000040000003600000000000000000000000000770E00006662782F38353834323741342D343835462D343034322D383541392D4331303331363839454531452F747269616E676C65732E62696E504B01021400140006080000B670623B0000000000000000000000003700000000000000000000
310
000000D10E00006662782F38353834323741342D343835462D343034322D383541392D4331303331363839454531452F617474726962757465732E62696E504B01021400140006080800B670623B08DA0BD190000000410100003600000000000000000000000000260F00006662782F38353834323741342D343835462D34
310
3034322D383541392D4331303331363839454531452F6469726563746F72792E786D6C504B01021400140006080800B670623BD9A3B367FE000000A00100003B000000000000000000000000000A1000006662782F38353834323741342D343835462D343034322D383541392D4331303331363839454531452F7265736F75
310
726365732F636F72652E786D6C504B0506000000000E000E0080040000611100000000
  0
XRECORD
  5
113
102
{ACAD_REACTORS
330
110
102
}
330
110
100
AcDbXrecord
280
     1
270
     1
271
     1
  0
XRECORD
  5
114
102
{ACAD_REACTORS
330
110
102
}
330
110
100
AcDbXrecord
280
     1
270
     1
271
     1
  0
CELLSTYLEMAP
  5
456
102
{ACAD_REACTORS
330
104
102
}
330
104
100
AcDbCellStyleMap
 90
        3
300
CELLSTYLE
  1
TABLEFORMAT_BEGIN
 90
        5
170
     1
 91
        0
 92
    32768
 62
   257
 93
        1
300
CONTENTFORMAT
  1
CONTENTFORMAT_BEGIN
 90
        0
 91
        0
 92
      512
 93
        0
300

 40
0.0
140
1.0
 94
        5
 62
     0
340
11
144
0.25
309
CONTENTFORMAT_END
171
     1
301
MARGIN
  1
CELLMARGIN_BEGIN
 40
0.06
 40
0.06
 40
0.06
 40
0.06
 40
0.18
 40
0.18
309
CELLMARGIN_END
 94
        6
 95
        1
302
GRIDFORMAT
  1
GRIDFORMAT_BEGIN
 90
        0
 91
        1
 62
     0
 92
       -2
340
0
 93
        0
 40
0.045
309
GRIDFORMAT_END
 95
        2
302
GRIDFORMAT
  1
GRIDFORMAT_BEGIN
 90
        0
 91
        1
 62
     0
 92
       -2
340
0
 93
        0
 40
0.045
309
GRIDFORMAT_END
 95
        4
302
GRIDFORMAT
  1
GRIDFORMAT_BEGIN
 90
        0
 91
        1
 62
     0
 92
       -2
340
0
 93
        0
 40
0.045
309
GRIDFORMAT_END
 95
        8
302
GRIDFORMAT
  1
GRIDFORMAT_BEGIN
 90
        0
 91
        1
 62
     0
 92
       -2
340
0
 93
        0
 40
0.045
309
GRIDFORMAT_END
 95
       16
302
GRIDFORMAT
  1
GRIDFORMAT_BEGIN
 90
        0
 91
        1
 62
     0
 92
       -2
340
0
 93
        0
 40
0.045
309
GRIDFORMAT_END
 95
       32
302
GRIDFORMAT
  1
GRIDFORMAT_BEGIN
 90
        0
 91
        1
 62
     0
 92
       -2
340
0
 93
        0
 40
0.045
309
GRIDFORMAT_END
309
TABLEFORMAT_END
  1
CELLSTYLE_BEGIN
 90
        1
 91
        1
300
_TITLE
309
CELLSTYLE_END
300
CELLSTYLE
  1
TABLEFORMAT_BEGIN
 90
        5
170
     1
 91
        0
 92
        0
 62
   257
 93
        1
300
CONTENTFORMAT
  1
CONTENTFORMAT_BEGIN
 90
        0
 91
        0
 92
      512
 93
        0
300

 40
0.0
140
1.0
 94
        5
 62
     0
340
11
144
0.18
309
CONTENTFORMAT_END
171
     1
301
MARGIN
  1
CELLMARGIN_BEGIN
 40
0.06
 40
0.06
 40
0.06
 40
0.06
 40
0.18
 40
0.18
309
CELLMARGIN_END
 94
        6
 95
        1
302
GRIDFORMAT
  1
GRIDFORMAT_BEGIN
 90
        0
 91
        1
 62
     0
 92
       -2
340
0
 93
        0
 40
0.045
309
GRIDFORMAT_END
 95
        2
302
GRIDFORMAT
  1
GRIDFORMAT_BEGIN
 90
        0
 91
        1
 62
     0
 92
       -2
340
0
 93
        0
 40
0.045
309
GRIDFORMAT_END
 95
        4
302
GRIDFORMAT
  1
GRIDFORMAT_BEGIN
 90
        0
 91
        1
 62
     0
 92
       -2
340
0
 93
        0
 40
0.045
309
GRIDFORMAT_END
 95
        8
302
GRIDFORMAT
  1
GRIDFORMAT_BEGIN
 90
        0
 91
        1
 62
     0
 92
       -2
340
0
 93
        0
 40
0.045
309
GRIDFORMAT_END
 95
       16
302
GRIDFORMAT
  1
GRIDFORMAT_BEGIN
 90
        0
 91
        1
 62
     0
 92
       -2
340
0
 93
        0
 40
0.045
309
GRIDFORMAT_END
 95
       32
302
GRIDFORMAT
  1
GRIDFORMAT_BEGIN
 90
        0
 91
        1
 62
     0
 92
       -2
340
0
 93
        0
 40
0.045
309
GRIDFORMAT_END
309
TABLEFORMAT_END
  1
CELLSTYLE_BEGIN
 90
        2
 91
        1
300
_HEADER
309
CELLSTYLE_END
300
CELLSTYLE
  1
TABLEFORMAT_BEGIN
 90
        5
170
     1
 91
        0
 92
        0
 62
   257
 93
        1
300
CONTENTFORMAT
  1
CONTENTFORMAT_BEGIN
 90
        0
 91
        0
 92
      512
 93
        0
300

 40
0.0
140
1.0
 94
        2
 62
     0
340
11
144
0.18
309
CONTENTFORMAT_END
171
     1
301
MARGIN
  1
CELLMARGIN_BEGIN
 40
0.06
 40
0.06
 40
0.06
 40
0.06
 40
0.18
 40
0.18
309
CELLMARGIN_END
 94
        6
 95
        1
302
GRIDFORMAT
  1
GRIDFORMAT_BEGIN
 90
        0
 91
        1
 62
     0
 92
       -2
340
0
 93
        0
 40
0.045
309
GRIDFORMAT_END
 95
        2
302
GRIDFORMAT
  1
GRIDFORMAT_BEGIN
 90
        0
 91
        1
 62
     0
 92
       -2
340
0
 93
        0
 40
0.045
309
GRIDFORMAT_END
 95
        4
302
GRIDFORMAT
  1
GRIDFORMAT_BEGIN
 90
        0
 91
        1
 62
     0
 92
       -2
340
0
 93
        0
 40
0.045
309
GRIDFORMAT_END
 95
        8
302
GRIDFORMAT
  1
GRIDFORMAT_BEGIN
 90
        0
 91
        1
 62
     0
 92
       -2
340
0
 93
        0
 40
0.045
309
GRIDFORMAT_END
 95
       16
302
GRIDFORMAT
  1
GRIDFORMAT_BEGIN
 90
        0
 91
        1
 62
     0
 92
       -2
340
0
 93
        0
 40
0.045
309
GRIDFORMAT_END
 95
       32
302
GRIDFORMAT
  1
GRIDFORMAT_BEGIN
 90
        0
 91
        1
 62
     0
 92
       -2
340
0
 93
        0
 40
0.045
309
GRIDFORMAT_END
309
TABLEFORMAT_END
  1
CELLSTYLE_BEGIN
 90
        3
 91
        2
300
_DATA
309
CELLSTYLE_END
  0
ENDSEC
  0
SECTION
  2
ACDSDATA
 70
     2
 71
     8
  0
ACDSSCHEMA
 90
        0
  1
AcDb_Thumbnail_Schema
  2
AcDbDs::ID
280
    10
 91
        8
  2
Thumbnail_Data
280
    15
 91
        0
101
ACDSRECORD
 95
        0
 90
        1
  2
AcDbDs::TreatedAsObjectData
280
     1
291
     1
101
ACDSRECORD
 95
        0
 90
        2
  2
AcDbDs::Legacy
280
     1
291
     1
101
ACDSRECORD
  1
AcDbDs::ID
 90
        3
  2
AcDs:Indexable
280
     1
291
     1
101
ACDSRECORD
  1
AcDbDs::ID
 90
        4
  2
AcDbDs::HandleAttribute
280
     7
282
     1
  0
ACDSSCHEMA
 90
        1
  1
AcDbDs::TreatedAsObjectDataSchema
  2
AcDbDs::TreatedAsObjectData
280
     1
 91
        0
  0
ACDSSCHEMA
 90
        2
  1
AcDbDs::LegacySchema
  2
AcDbDs::Legacy
280
     1
 91
        0
  0
ACDSSCHEMA
 90
        3
  1
AcDbDs::IndexedPropertySchema
  2
AcDs:Indexable
280
     1
 91
        0
  0
ACDSSCHEMA
 90
        4
  1
AcDbDs::HandleAttributeSchema
  2
AcDbDs::HandleAttribute
280
     7
 91
        1
284
     1
  0
ACDSRECORD
 90
        0
  2
AcDbDs::ID
280
    10
320
22
  2
Thumbnail_Data
280
    15
 94
      897
310
89504E470D0A1A0A0000000D49484452000001000000009508030000008070D41000000300504C5445212830FFFFFF2128300000000000000000000000000000000000000000000000000000330000660000990000CC0000FF0033000033330033660033990033CC0033FF0066000066330066660066990066CC0066FF0099
310
000099330099660099990099CC0099FF00CC0000CC3300CC6600CC9900CCCC00CCFF00FF0000FF3300FF6600FF9900FFCC00FFFF3300003300333300663300993300CC3300FF3333003333333333663333993333CC3333FF3366003366333366663366993366CC3366FF3399003399333399663399993399CC3399FF33CC00
310
33CC3333CC6633CC9933CCCC33CCFF33FF0033FF3333FF6633FF9933FFCC33FFFF6600006600336600666600996600CC6600FF6633006633336633666633996633CC6633FF6666006666336666666666996666CC6666FF6699006699336699666699996699CC6699FF66CC0066CC3366CC6666CC9966CCCC66CCFF66FF0066
310
FF3366FF6666FF9966FFCC66FFFF9900009900339900669900999900CC9900FF9933009933339933669933999933CC9933FF9966009966339966669966999966CC9966FF9999009999339999669999999999CC9999FF99CC0099CC3399CC6699CC9999CCCC99CCFF99FF0099FF3399FF6699FF9999FFCC99FFFFCC0000CC00
310
33CC0066CC0099CC00CCCC00FFCC3300CC3333CC3366CC3399CC33CCCC33FFCC6600CC6633CC6666CC6699CC66CCCC66FFCC9900CC9933CC9966CC9999CC99CCCC99FFCCCC00CCCC33CCCC66CCCC99CCCCCCCCCCFFCCFF00CCFF33CCFF66CCFF99CCFFCCCCFFFFFF0000FF0033FF0066FF0099FF00CCFF00FFFF3300FF3333
310
FF3366FF3399FF33CCFF33FFFF6600FF6633FF6666FF6699FF66CCFF66FFFF9900FF9933FF9966FF9999FF99CCFF99FFFFCC00FFCC33FFCC66FFCC99FFCCCCFFCCFFFFFF00FFFF33FFFF66FFFF99FFFFCCFFFFFF0000000D0D0D1A1A1A2828283535354343435050505D5D5D6B6B6B787878868686939393A1A1A1AEAEAEBB
310
BBBBC9C9C9D6D6D6E4E4E4F1F1F1FFFFFF0000000000000000000000000000000000000000000000000000000000002E4550F10000003C4944415478DAEDC13101000000C2A0F54F6D0B2FA0000000000000000000000000000000000000000000000000000000000000000000000000008E06959500014F4AD9C200000000
310
49454E44AE426082
  0
ENDSEC
  0
EOF
