  0
SECTION
  2
HEADER
  9
$ACADVER
  1
AC1032
  9
$ACADMAINTVER
 90
      179
  9
$DWGCODEPAGE
  3
ANSI_1252
  9
$LASTSAVEDBY
  1
mgortner
  9
$REQUIREDVERSIONS
160
                 0
  9
$INSBASE
 10
0.0
 20
0.0
 30
0.0
  9
$EXTMIN
 10
-0.9873046607096966
 20
-1.830184917699295
 30
-0.0015258207003583
  9
$EXTMAX
 10
1.136718765293153
 20
0.961029064330539
 30
1.000976598589893
  9
$LIMMIN
 10
0.0
 20
0.0
  9
$LIMMAX
 10
12.0
 20
9.0
  9
$ORTHOMODE
 70
     0
  9
$REGENMODE
 70
     1
  9
$FILLMODE
 70
     1
  9
$QTEXTMODE
 70
     0
  9
$MIRRTEXT
 70
     0
  9
$LTSCALE
 40
1.0
  9
$ATTMODE
 70
     1
  9
$TEXTSIZE
 40
0.2
  9
$TRACEWID
 40
0.05
  9
$TEXTSTYLE
  7
Standard
  9
$CLAYER
  8
0
  9
$CELTYPE
  6
ByLayer
  9
$CECOLOR
 62
   256
  9
$CELTSCALE
 40
1.0
  9
$DISPSILH
 70
     0
  9
$DIMSCALE
 40
1.0
  9
$DIMASZ
 40
0.18
  9
$DIMEXO
 40
0.0625
  9
$DIMDLI
 40
0.38
  9
$DIMRND
 40
0.0
  9
$DIMDLE
 40
0.0
  9
$DIMEXE
 40
0.18
  9
$DIMTP
 40
0.0
  9
$DIMTM
 40
0.0
  9
$DIMTXT
 40
0.18
  9
$DIMCEN
 40
0.09
  9
$DIMTSZ
 40
0.0
  9
$DIMTOL
 70
     0
  9
$DIMLIM
 70
     0
  9
$DIMTIH
 70
     1
  9
$DIMTOH
 70
     1
  9
$DIMSE1
 70
     0
  9
$DIMSE2
 70
     0
  9
$DIMTAD
 70
     0
  9
$DIMZIN
 70
     0
  9
$DIMBLK
  1

  9
$DIMASO
 70
     1
  9
$DIMSHO
 70
     1
  9
$DIMPOST
  1

  9
$DIMAPOST
  1

  9
$DIMALT
 70
     0
  9
$DIMALTD
 70
     2
  9
$DIMALTF
 40
25.4
  9
$DIMLFAC
 40
1.0
  9
$DIMTOFL
 70
     0
  9
$DIMTVP
 40
0.0
  9
$DIMTIX
 70
     0
  9
$DIMSOXD
 70
     0
  9
$DIMSAH
 70
     0
  9
$DIMBLK1
  1

  9
$DIMBLK2
  1

  9
$DIMSTYLE
  2
Standard
  9
$DIMCLRD
 70
     0
  9
$DIMCLRE
 70
     0
  9
$DIMCLRT
 70
     0
  9
$DIMTFAC
 40
1.0
  9
$DIMGAP
 40
0.09
  9
$DIMJUST
 70
     0
  9
$DIMSD1
 70
     0
  9
$DIMSD2
 70
     0
  9
$DIMTOLJ
 70
     1
  9
$DIMTZIN
 70
     0
  9
$DIMALTZ
 70
     0
  9
$DIMALTTZ
 70
     0
  9
$DIMUPT
 70
     0
  9
$DIMDEC
 70
     4
  9
$DIMTDEC
 70
     4
  9
$DIMALTU
 70
     2
  9
$DIMALTTD
 70
     2
  9
$DIMTXSTY
  7
Standard
  9
$DIMAUNIT
 70
     0
  9
$DIMADEC
 70
     0
  9
$DIMALTRND
 40
0.0
  9
$DIMAZIN
 70
     0
  9
$DIMDSEP
 70
    46
  9
$DIMATFIT
 70
     3
  9
$DIMFRAC
 70
     0
  9
$DIMLDRBLK
  1

  9
$DIMLUNIT
 70
     2
  9
$DIMLWD
 70
    -2
  9
$DIMLWE
 70
    -2
  9
$DIMTMOVE
 70
     0
  9
$DIMFXL
 40
1.0
  9
$DIMFXLON
 70
     0
  9
$DIMJOGANG
 40
0.7853981633974483
  9
$DIMTFILL
 70
     0
  9
$DIMTFILLCLR
 70
     0
  9
$DIMARCSYM
 70
     0
  9
$DIMLTYPE
  6

  9
$DIMLTEX1
  6

  9
$DIMLTEX2
  6

  9
$DIMTXTDIRECTION
 70
     0
  9
$LUNITS
 70
     2
  9
$LUPREC
 70
     8
  9
$SKETCHINC
 40
0.1
  9
$FILLETRAD
 40
0.0
  9
$AUNITS
 70
     0
  9
$AUPREC
 70
     0
  9
$MENU
  1
.
  9
$ELEVATION
 40
0.0
  9
$PELEVATION
 40
0.0
  9
$THICKNESS
 40
0.0
  9
$LIMCHECK
 70
     0
  9
$CHAMFERA
 40
0.0
  9
$CHAMFERB
 40
0.0
  9
$CHAMFERC
 40
0.0
  9
$CHAMFERD
 40
0.0
  9
$SKPOLY
 70
     0
  9
$TDCREATE
 40
2460914.619837963
  9
$TDUCREATE
 40
2460914.786504630
  9
$TDUPDATE
 40
2460914.621064815
  9
$TDUUPDATE
 40
2460914.787731482
  9
$TDINDWG
 40
0.0012268519
  9
$TDUSRTIMER
 40
0.0012268519
  9
$USRTIMER
 70
     1
  9
$ANGBASE
 50
0.0
  9
$ANGDIR
 70
     0
  9
$PDMODE
 70
     0
  9
$PDSIZE
 40
0.0
  9
$PLINEWID
 40
0.0
  9
$SPLFRAME
 70
     0
  9
$SPLINETYPE
 70
     6
  9
$SPLINESEGS
 70
     8
  9
$HANDSEED
  5
442
  9
$SURFTAB1
 70
     6
  9
$SURFTAB2
 70
     6
  9
$SURFTYPE
 70
     6
  9
$SURFU
 70
     6
  9
$SURFV
 70
     6
  9
$UCSBASE
  2

  9
$UCSNAME
  2

  9
$UCSORG
 10
0.0
 20
0.0
 30
0.0
  9
$UCSXDIR
 10
1.0
 20
0.0
 30
0.0
  9
$UCSYDIR
 10
0.0
 20
1.0
 30
0.0
  9
$UCSORTHOREF
  2

  9
$UCSORTHOVIEW
 70
     0
  9
$UCSORGTOP
 10
0.0
 20
0.0
 30
0.0
  9
$UCSORGBOTTOM
 10
0.0
 20
0.0
 30
0.0
  9
$UCSORGLEFT
 10
0.0
 20
0.0
 30
0.0
  9
$UCSORGRIGHT
 10
0.0
 20
0.0
 30
0.0
  9
$UCSORGFRONT
 10
0.0
 20
0.0
 30
0.0
  9
$UCSORGBACK
 10
0.0
 20
0.0
 30
0.0
  9
$PUCSBASE
  2

  9
$PUCSNAME
  2

  9
$PUCSORG
 10
0.0
 20
0.0
 30
0.0
  9
$PUCSXDIR
 10
1.0
 20
0.0
 30
0.0
  9
$PUCSYDIR
 10
0.0
 20
1.0
 30
0.0
  9
$PUCSORTHOREF
  2

  9
$PUCSORTHOVIEW
 70
     0
  9
$PUCSORGTOP
 10
0.0
 20
0.0
 30
0.0
  9
$PUCSORGBOTTOM
 10
0.0
 20
0.0
 30
0.0
  9
$PUCSORGLEFT
 10
0.0
 20
0.0
 30
0.0
  9
$PUCSORGRIGHT
 10
0.0
 20
0.0
 30
0.0
  9
$PUCSORGFRONT
 10
0.0
 20
0.0
 30
0.0
  9
$PUCSORGBACK
 10
0.0
 20
0.0
 30
0.0
  9
$USERI1
 70
     0
  9
$USERI2
 70
     0
  9
$USERI3
 70
     0
  9
$USERI4
 70
     0
  9
$USERI5
 70
     0
  9
$USERR1
 40
0.0
  9
$USERR2
 40
0.0
  9
$USERR3
 40
0.0
  9
$USERR4
 40
0.0
  9
$USERR5
 40
0.0
  9
$WORLDVIEW
 70
     1
  9
$SHADEDGE
 70
     3
  9
$SHADEDIF
 70
    70
  9
$TILEMODE
 70
     1
  9
$MAXACTVP
 70
    64
  9
$PINSBASE
 10
0.0
 20
0.0
 30
0.0
  9
$PLIMCHECK
 70
     0
  9
$PEXTMIN
 10
0.0
 20
0.0
 30
0.0
  9
$PEXTMAX
 10
0.0
 20
0.0
 30
0.0
  9
$PLIMMIN
 10
0.0
 20
0.0
  9
$PLIMMAX
 10
12.0
 20
9.0
  9
$UNITMODE
 70
     0
  9
$VISRETAIN
 70
     1
  9
$PLINEGEN
 70
     0
  9
$PSLTSCALE
 70
     1
  9
$TREEDEPTH
 70
  3020
  9
$CMLSTYLE
  2
Standard
  9
$CMLJUST
 70
     0
  9
$CMLSCALE
 40
1.0
  9
$PROXYGRAPHICS
 70
     1
  9
$MEASUREMENT
 70
     0
  9
$CELWEIGHT
370
    -1
  9
$ENDCAPS
280
     0
  9
$JOINSTYLE
280
     0
  9
$LWDISPLAY
290
     0
  9
$INSUNITS
 70
     1
  9
$HYPERLINKBASE
  1

  9
$STYLESHEET
  1

  9
$XEDIT
290
     1
  9
$CEPSNTYPE
380
     0
  9
$PSTYLEMODE
290
     1
  9
$FINGERPRINTGUID
  2
{AEE58DCD-7A5F-A542-BAC0-30187F3E5B0C}
  9
$VERSIONGUID
  2
{06D86064-CD17-124C-BCFF-33BB99E015CA}
  9
$EXTNAMES
290
     1
  9
$PSVPSCALE
 40
0.0
  9
$OLESTARTUP
290
     0
  9
$SORTENTS
280
   127
  9
$INDEXCTL
280
     0
  9
$HIDETEXT
280
     1
  9
$XCLIPFRAME
280
     2
  9
$HALOGAP
280
     0
  9
$OBSCOLOR
 70
   257
  9
$OBSLTYPE
280
     0
  9
$INTERSECTIONDISPLAY
280
     0
  9
$INTERSECTIONCOLOR
 70
   257
  9
$DIMASSOC
280
     2
  9
$PROJECTNAME
  1

  9
$CAMERADISPLAY
290
     0
  9
$LENSLENGTH
 40
50.0
  9
$CAMERAHEIGHT
 40
0.0
  9
$STEPSPERSEC
 40
2.0
  9
$STEPSIZE
 40
6.0
  9
$3DDWFPREC
 40
2.0
  9
$PSOLWIDTH
 40
0.25
  9
$PSOLHEIGHT
 40
4.0
  9
$LOFTANG1
 40
1.570796326794896
  9
$LOFTANG2
 40
1.570796326794896
  9
$LOFTMAG1
 40
0.0
  9
$LOFTMAG2
 40
0.0
  9
$LOFTPARAM
 70
     7
  9
$LOFTNORMALS
280
     1
  9
$LATITUDE
 40
37.795
  9
$LONGITUDE
 40
-122.394
  9
$NORTHDIRECTION
 40
0.0
  9
$TIMEZONE
 70
 -8000
  9
$LIGHTGLYPHDISPLAY
280
     1
  9
$TILEMODELIGHTSYNCH
280
     1
  9
$CMATERIAL
347
96
  9
$SOLIDHIST
280
     0
  9
$SHOWHIST
280
     1
  9
$DWFFRAME
280
     2
  9
$DGNFRAME
280
     0
  9
$REALWORLDSCALE
290
     1
  9
$INTERFERECOLOR
 62
     1
  9
$INTERFEREOBJVS
345
A3
  9
$INTERFEREVPVS
346
A0
  9
$CSHADOW
280
     0
  9
$SHADOWPLANELOCATION
 40
0.0
  0
ENDSEC
  0
SECTION
  2
CLASSES
  0
CLASS
  1
ACDBDICTIONARYWDFLT
  2
AcDbDictionaryWithDefault
  3
ObjectDBX Classes
 90
        0
 91
        1
280
     0
281
     0
  0
CLASS
  1
DICTIONARYVAR
  2
AcDbDictionaryVar
  3
ObjectDBX Classes
 90
        0
 91
        9
280
     0
281
     0
  0
CLASS
  1
TABLESTYLE
  2
AcDbTableStyle
  3
ObjectDBX Classes
 90
     4095
 91
        1
280
     0
281
     0
  0
CLASS
  1
MATERIAL
  2
AcDbMaterial
  3
ObjectDBX Classes
 90
     1153
 91
        3
280
     0
281
     0
  0
CLASS
  1
VISUALSTYLE
  2
AcDbVisualStyle
  3
ObjectDBX Classes
 90
     4095
 91
       24
280
     0
281
     0
  0
CLASS
  1
SCALE
  2
AcDbScale
  3
ObjectDBX Classes
 90
     1153
 91
       33
280
     0
281
     0
  0
CLASS
  1
MLEADERSTYLE
  2
AcDbMLeaderStyle
  3
ACDB_MLEADERSTYLE_CLASS
 90
     4095
 91
        3
280
     0
281
     0
  0
CLASS
  1
CELLSTYLEMAP
  2
AcDbCellStyleMap
  3
ObjectDBX Classes
 90
     1152
 91
        1
280
     0
281
     0
  0
CLASS
  1
EXACXREFPANELOBJECT
  2
ExAcXREFPanelObject
  3
EXAC_ESW
 90
     1025
 91
        0
280
     0
281
     0
  0
CLASS
  1
NPOCOLLECTION
  2
AcDbImpNonPersistentObjectsCollection
  3
ObjectDBX Classes
 90
     1153
 91
        0
280
     0
281
     0
  0
CLASS
  1
LAYER_INDEX
  2
AcDbLayerIndex
  3
ObjectDBX Classes
 90
        0
 91
        0
280
     0
281
     0
  0
CLASS
  1
SPATIAL_INDEX
  2
AcDbSpatialIndex
  3
ObjectDBX Classes
 90
        0
 91
        0
280
     0
281
     0
  0
CLASS
  1
IDBUFFER
  2
AcDbIdBuffer
  3
ObjectDBX Classes
 90
        0
 91
        0
280
     0
281
     0
  0
CLASS
  1
ACDBSECTIONVIEWSTYLE
  2
AcDbSectionViewStyle
  3
ObjectDBX Classes
 90
     1025
 91
        1
280
     0
281
     0
  0
CLASS
  1
ACDBDETAILVIEWSTYLE
  2
AcDbDetailViewStyle
  3
ObjectDBX Classes
 90
     1025
 91
        1
280
     0
281
     0
  0
CLASS
  1
MULTILEADER
  2
AcDbMLeader
  3
ACDB_MLEADER_CLASS
 90
     1025
 91
        2
280
     0
281
     1
  0
CLASS
  1
SORTENTSTABLE
  2
AcDbSortentsTable
  3
ObjectDBX Classes
 90
        0
 91
        1
280
     0
281
     0
  0
ENDSEC
  0
SECTION
  2
TABLES
  0
TABLE
  2
VPORT
  5
8
330
0
100
AcDbSymbolTable
 70
     1
  0
VPORT
  5
94
330
8
100
AcDbSymbolTableRecord
100
AcDbViewportTableRecord
  2
*Active
 70
     0
 10
0.0
 20
0.0
 11
1.0
 21
1.0
 12
0.0747070522917288
 22
-0.4345779266843782
 13
0.0
 23
0.0
 14
0.5
 24
0.5
 15
0.5
 25
0.5
 16
0.0
 26
0.0
 36
1.0
 17
0.0
 27
0.0
 37
0.0
 40
2.80125432009469
 41
1.699460107978404
 42
50.0
 43
0.0
 44
0.0
 50
0.0
 51
0.0
 71
     0
 72
  1000
 73
     1
 74
     3
 75
     0
 76
     1
 77
     0
 78
     0
281
     0
 65
     1
110
0.0
120
0.0
130
0.0
111
1.0
121
0.0
131
0.0
112
0.0
122
1.0
132
0.0
 79
     0
146
0.0
348
9F
 60
     3
 61
     5
292
     1
282
     1
141
0.0
142
0.0
 63
   250
421
  3355443
1001
ACAD_NAV_VCDISPLAY
1070
     3
  0
ENDTAB
  0
TABLE
  2
LTYPE
  5
5
330
0
100
AcDbSymbolTable
 70
     2
  0
LTYPE
  5
14
330
5
100
AcDbSymbolTableRecord
100
AcDbLinetypeTableRecord
  2
ByBlock
 70
     0
  3

 72
    65
 73
     0
 40
0.0
  0
LTYPE
  5
15
330
5
100
AcDbSymbolTableRecord
100
AcDbLinetypeTableRecord
  2
ByLayer
 70
     0
  3

 72
    65
 73
     0
 40
0.0
  0
LTYPE
  5
16
330
5
100
AcDbSymbolTableRecord
100
AcDbLinetypeTableRecord
  2
Continuous
 70
     0
  3
Solid line
 72
    65
 73
     0
 40
0.0
  0
ENDTAB
  0
TABLE
  2
LAYER
  5
2
102
{ACAD_XDICTIONARY
360
18E
102
}
330
0
100
AcDbSymbolTable
 70
    10
  0
LAYER
  5
10
102
{ACAD_XDICTIONARY
360
E6
102
}
330
2
100
AcDbSymbolTableRecord
100
AcDbLayerTableRecord
  2
0
 70
     0
 62
     7
  6
Continuous
370
    -3
390
F
347
98
348
0
  0
LAYER
  5
263
330
2
100
AcDbSymbolTableRecord
100
AcDbLayerTableRecord
  2
Defpoints
 70
     0
 62
     7
  6
Continuous
290
     0
370
    -3
390
F
347
98
348
0
  0
LAYER
  5
264
102
{ACAD_XDICTIONARY
360
265
102
}
330
2
100
AcDbSymbolTableRecord
100
AcDbLayerTableRecord
  2
PCB_Top
 70
     0
 62
   130
  6
Continuous
370
    -3
390
F
347
98
348
0
  0
LAYER
  5
266
330
2
100
AcDbSymbolTableRecord
100
AcDbLayerTableRecord
  2
Notes
 70
     0
 62
     7
  6
Continuous
370
    -3
390
F
347
98
348
0
  0
LAYER
  5
267
330
2
100
AcDbSymbolTableRecord
100
AcDbLayerTableRecord
  2
Component_Pads
 70
     0
 62
    40
  6
Continuous
370
    -3
390
F
347
98
348
0
1001
AcAecLayerStandard
1000

1000

1001
AcCmTransparency
1071
        0
  0
LAYER
  5
268
330
2
100
AcDbSymbolTableRecord
100
AcDbLayerTableRecord
  2
Component_Outline
 70
     0
 62
    10
  6
Continuous
370
    35
390
F
347
98
348
0
1001
AcAecLayerStandard
1000

1000

  0
LAYER
  5
269
330
2
100
AcDbSymbolTableRecord
100
AcDbLayerTableRecord
  2
PCB_Solder_Mask
 70
     0
 62
     3
  6
Continuous
370
    -3
390
F
347
98
348
0
1001
AcAecLayerStandard
1000

1000

1001
AcCmTransparency
1071
        0
  0
LAYER
  5
26A
102
{ACAD_XDICTIONARY
360
26B
102
}
330
2
100
AcDbSymbolTableRecord
100
AcDbLayerTableRecord
  2
PCB_Plated_Holes
 70
     0
 62
     6
  6
Continuous
370
    -3
390
F
347
98
348
0
  0
LAYER
  5
26C
330
2
100
AcDbSymbolTableRecord
100
AcDbLayerTableRecord
  2
PCB_Land_Pattern
 70
     0
 62
   190
  6
Continuous
370
    -3
390
F
347
98
348
0
1001
AcAecLayerStandard
1000

1000

1001
AcCmTransparency
1071
        0
  0
LAYER
  5
26D
330
2
100
AcDbSymbolTableRecord
100
AcDbLayerTableRecord
  2
PCB_Solder_Stencil
 70
     0
 62
     8
  6
Continuous
370
    -3
390
F
347
98
348
0
1001
AcAecLayerStandard
1000

1000

1001
AcCmTransparency
1071
        0
  0
ENDTAB
  0
TABLE
  2
STYLE
  5
3
330
0
100
AcDbSymbolTable
 70
     5
  0
STYLE
  5
11
330
3
100
AcDbSymbolTableRecord
100
AcDbTextStyleTableRecord
  2
Standard
 70
     0
 40
0.0
 41
1.0
 50
0.0
 71
     0
 42
0.2
  3
arial.ttf
  4

1001
ACAD
1000
Arial
1071
       34
  0
STYLE
  5
DC
330
3
100
AcDbSymbolTableRecord
100
AcDbTextStyleTableRecord
  2
Annotative
 70
     0
 40
0.0
 41
1.0
 50
0.0
 71
     0
 42
0.2
  3
arial.ttf
  4

1001
AcadAnnotative
1000
AnnotativeData
1002
{
1070
     1
1070
     1
1002
}
1001
ACAD
1000
Arial
1071
       34
  0
STYLE
  5
26E
330
3
100
AcDbSymbolTableRecord
100
AcDbTextStyleTableRecord
  2
wireless-tscat-v1
 70
     0
 40
0.0
 41
1.0
 50
0.0
 71
     0
 42
0.1
  3
arial.ttf
  4

1001
ACAD
1000
Arial
1071
       34
  0
STYLE
  5
26F
330
3
100
AcDbSymbolTableRecord
100
AcDbTextStyleTableRecord
  2
Arial
 70
     0
 40
0.0
 41
1.0
 50
0.0
 71
     0
 42
0.2
  3
arial.ttf
  4

1001
ACAD
1000
Arial
1071
       34
  0
STYLE
  5
270
330
3
100
AcDbSymbolTableRecord
100
AcDbTextStyleTableRecord
  2
RomanS
 70
     0
 40
0.0
 41
0.9
 50
0.0
 71
     0
 42
0.2
  3
romans.shx
  4

  0
ENDTAB
  0
TABLE
  2
VIEW
  5
6
330
0
100
AcDbSymbolTable
 70
     0
  0
ENDTAB
  0
TABLE
  2
UCS
  5
7
330
0
100
AcDbSymbolTable
 70
     0
  0
ENDTAB
  0
TABLE
  2
APPID
  5
9
330
0
100
AcDbSymbolTable
 70
    11
  0
APPID
  5
12
330
9
100
AcDbSymbolTableRecord
100
AcDbRegAppTableRecord
  2
ACAD
 70
     0
  0
APPID
  5
DD
330
9
100
AcDbSymbolTableRecord
100
AcDbRegAppTableRecord
  2
AcadAnnoPO
 70
     0
  0
APPID
  5
DE
330
9
100
AcDbSymbolTableRecord
100
AcDbRegAppTableRecord
  2
AcadAnnotative
 70
     0
  0
APPID
  5
DF
330
9
100
AcDbSymbolTableRecord
100
AcDbRegAppTableRecord
  2
ACAD_DSTYLE_DIMJAG
 70
     0
  0
APPID
  5
E0
330
9
100
AcDbSymbolTableRecord
100
AcDbRegAppTableRecord
  2
ACAD_DSTYLE_DIMTALN
 70
     0
  0
APPID
  5
107
330
9
100
AcDbSymbolTableRecord
100
AcDbRegAppTableRecord
  2
ACAD_MLEADERVER
 70
     0
  0
APPID
  5
1A6
330
9
100
AcDbSymbolTableRecord
100
AcDbRegAppTableRecord
  2
ACAD_NAV_VCDISPLAY
 70
     0
  0
APPID
  5
273
330
9
100
AcDbSymbolTableRecord
100
AcDbRegAppTableRecord
  2
AcAecLayerStandard
 70
     0
  0
APPID
  5
274
330
9
100
AcDbSymbolTableRecord
100
AcDbRegAppTableRecord
  2
AcCmTransparency
 70
     0
  0
APPID
  5
275
330
9
100
AcDbSymbolTableRecord
100
AcDbRegAppTableRecord
  2
ACAD_DSTYLE_DIMBREAK
 70
     0
  0
APPID
  5
43D
330
9
100
AcDbSymbolTableRecord
100
AcDbRegAppTableRecord
  2
ACAD_EXEMPT_FROM_CAD_STANDARDS
 70
     0
  0
ENDTAB
  0
TABLE
  2
DIMSTYLE
  5
A
330
0
100
AcDbSymbolTable
 70
     4
100
AcDbDimStyleTable
 71
     2
340
27
340
E1
  0
DIMSTYLE
105
27
330
A
100
AcDbSymbolTableRecord
100
AcDbDimStyleTableRecord
  2
Standard
 70
     0
340
11
  0
DIMSTYLE
105
E1
330
A
100
AcDbSymbolTableRecord
100
AcDbDimStyleTableRecord
  2
Annotative
 70
     0
 40
0.0
340
11
1001
AcadAnnotative
1000
AnnotativeData
1002
{
1070
     1
1070
     1
1002
}
1001
ACAD_DSTYLE_DIMJAG
1070
   388
1040
1.5
1001
ACAD_DSTYLE_DIMTALN
1070
   392
1070
     0
  0
DIMSTYLE
105
271
330
A
100
AcDbSymbolTableRecord
100
AcDbDimStyleTableRecord
  2
wireless-dscat-v1
 70
     0
 41
0.1
 42
0.05
 43
0.3
 44
0.1
 47
0.01
 48
0.01
 78
     4
 79
     2
140
0.1
141
0.0
146
0.71
147
0.05
170
     1
176
     7
177
     7
178
     7
271
     3
272
     3
284
     7
285
     1
340
26E
371
    -1
372
    -1
  0
DIMSTYLE
105
272
102
{ACAD_REACTORS
330
28D
330
28E
330
28F
330
291
330
345
330
346
330
347
330
349
102
}
330
A
100
AcDbSymbolTableRecord
100
AcDbDimStyleTableRecord
  2
Mounting
 70
     0
  3
\X
 40
0.15
 44
0.06
 49
0.18
 78
     4
140
0.12
146
0.71
147
0.03
170
     1
271
     3
272
     3
284
     4
340
26F
1001
ACAD_DSTYLE_DIMBREAK
1070
   391
1040
0.125
1001
ACAD_DSTYLE_DIMJAG
1070
   388
1040
1.5
1001
ACAD_DSTYLE_DIMTALN
1070
   392
1070
     0
  0
ENDTAB
  0
TABLE
  2
BLOCK_RECORD
  5
1
330
0
100
AcDbSymbolTable
 70
    10
  0
BLOCK_RECORD
  5
1F
102
{ACAD_XDICTIONARY
360
15D
102
}
330
1
100
AcDbSymbolTableRecord
100
AcDbBlockTableRecord
  2
*Model_Space
340
22
 70
     0
280
     1
281
     0
  0
BLOCK_RECORD
  5
58
330
1
100
AcDbSymbolTableRecord
100
AcDbBlockTableRecord
  2
*Paper_Space
340
59
 70
     0
280
     1
281
     0
  0
BLOCK_RECORD
  5
5D
330
1
100
AcDbSymbolTableRecord
100
AcDbBlockTableRecord
  2
*Paper_Space0
340
5E
 70
     0
280
     1
281
     0
  0
BLOCK_RECORD
  5
22F
330
1
100
AcDbSymbolTableRecord
100
AcDbBlockTableRecord
  2
*D1
340
0
 70
     0
280
     1
281
     0
  0
BLOCK_RECORD
  5
23C
330
1
100
AcDbSymbolTableRecord
100
AcDbBlockTableRecord
  2
*D2
340
0
 70
     0
280
     1
281
     0
  0
BLOCK_RECORD
  5
249
330
1
100
AcDbSymbolTableRecord
100
AcDbBlockTableRecord
  2
*D3
340
0
 70
     0
280
     1
281
     0
  0
BLOCK_RECORD
  5
256
330
1
100
AcDbSymbolTableRecord
100
AcDbBlockTableRecord
  2
*D4
340
0
 70
     0
280
     1
281
     0
  0
BLOCK_RECORD
  5
3E1
330
1
100
AcDbSymbolTableRecord
100
AcDbBlockTableRecord
  2
*D6
340
0
 70
     0
280
     1
281
     0
  0
BLOCK_RECORD
  5
3EE
330
1
100
AcDbSymbolTableRecord
100
AcDbBlockTableRecord
  2
*D7
340
0
 70
     0
280
     1
281
     0
  0
BLOCK_RECORD
  5
3FB
330
1
100
AcDbSymbolTableRecord
100
AcDbBlockTableRecord
  2
*D8
340
0
 70
     0
280
     1
281
     0
  0
BLOCK_RECORD
  5
408
330
1
100
AcDbSymbolTableRecord
100
AcDbBlockTableRecord
  2
*D9
340
0
 70
     0
280
     1
281
     0
  0
ENDTAB
  0
ENDSEC
  0
SECTION
  2
BLOCKS
  0
BLOCK
  5
20
330
1F
100
AcDbEntity
  8
0
100
AcDbBlockBegin
  2
*Model_Space
 70
     0
 10
0.0
 20
0.0
 30
0.0
  3
*Model_Space
  1

  0
ENDBLK
  5
21
330
1F
100
AcDbEntity
  8
0
100
AcDbBlockEnd
  0
BLOCK
  5
5A
330
58
100
AcDbEntity
 67
     1
  8
0
100
AcDbBlockBegin
  2
*Paper_Space
 70
     0
 10
0.0
 20
0.0
 30
0.0
  3
*Paper_Space
  1

  0
ENDBLK
  5
5B
330
58
100
AcDbEntity
 67
     1
  8
0
100
AcDbBlockEnd
  0
BLOCK
  5
5F
330
5D
100
AcDbEntity
 67
     1
  8
0
100
AcDbBlockBegin
  2
*Paper_Space0
 70
     0
 10
0.0
 20
0.0
 30
0.0
  3
*Paper_Space0
  1

  0
ENDBLK
  5
60
330
5D
100
AcDbEntity
 67
     1
  8
0
100
AcDbBlockEnd
  0
BLOCK
  5
230
330
22F
100
AcDbEntity
  8
0
100
AcDbBlockBegin
  2
*D1
 70
     1
 10
0.0
 20
0.0
 30
0.0
  3
*D1
  1

  0
LINE
  5
231
330
22F
100
AcDbEntity
  8
Notes
 62
     0
440
 16777216
370
    -2
100
AcDbLine
 10
29.54483089712057
 20
3.781553942279294
 30
0.0
 11
29.54483089712057
 21
4.002239190153239
 31
0.0
  0
LINE
  5
232
330
22F
100
AcDbEntity
  8
Notes
 62
     0
440
 16777216
370
    -2
100
AcDbLine
 10
29.49533089495163
 20
3.781553942279294
 30
0.0
 11
29.49533089495163
 21
4.002239190153239
 31
0.0
  0
LINE
  5
233
330
22F
100
AcDbEntity
  8
Notes
 62
     0
440
 16777216
370
    -2
100
AcDbLine
 10
29.58233089712057
 20
3.964739190153239
 30
0.0
 11
29.61983089712056
 21
3.964739190153239
 31
0.0
  0
LINE
  5
234
330
22F
100
AcDbEntity
  8
Notes
 62
     0
440
 16777216
370
    -2
100
AcDbLine
 10
29.45783089495163
 20
3.964739190153239
 30
0.0
 11
29.12547014422636
 21
3.964739190153239
 31
0.0
  0
SOLID
  5
235
330
22F
100
AcDbEntity
  8
Notes
 62
     0
440
 16777216
100
AcDbTrace
 10
29.58233089712057
 20
3.970989190153239
 30
0.0
 11
29.58233089712057
 21
3.958489190153239
 31
0.0
 12
29.54483089712057
 22
3.964739190153239
 32
0.0
 13
29.54483089712057
 23
3.964739190153239
 33
0.0
  0
SOLID
  5
236
330
22F
100
AcDbEntity
  8
Notes
 62
     0
440
 16777216
100
AcDbTrace
 10
29.45783089495163
 20
3.970989190153239
 30
0.0
 11
29.45783089495163
 21
3.958489190153239
 31
0.0
 12
29.49533089495163
 22
3.964739190153239
 32
0.0
 13
29.49533089495163
 23
3.964739190153239
 33
0.0
  0
MTEXT
  5
237
330
22F
100
AcDbEntity
  8
Notes
 62
     0
440
 16777216
100
AcDbMText
 10
29.11264419247674
 20
3.964739190153239
 30
0.0
 40
0.027
 41
0.352959965532154
 46
0.0
 71
     6
 72
     1
  1
\A1;1x 50 Ohm\PTransmission Line
  7
Arial
 73
     1
 44
1.0
  0
POINT
  5
238
330
22F
100
AcDbEntity
  8
Defpoints
 62
     0
440
 16777216
100
AcDbPoint
 10
29.54483089712057
 20
3.751553942279294
 30
0.0
  0
POINT
  5
239
330
22F
100
AcDbEntity
  8
Defpoints
 62
     0
440
 16777216
100
AcDbPoint
 10
29.49533089495163
 20
3.751553942279294
 30
0.0
  0
POINT
  5
23A
330
22F
100
AcDbEntity
  8
Defpoints
 62
     0
440
 16777216
100
AcDbPoint
 10
29.49533089495163
 20
3.964739190153239
 30
0.0
  0
ENDBLK
  5
23B
330
22F
100
AcDbEntity
  8
0
100
AcDbBlockEnd
  0
BLOCK
  5
23D
330
23C
100
AcDbEntity
  8
0
100
AcDbBlockBegin
  2
*D2
 70
     1
 10
0.0
 20
0.0
 30
0.0
  3
*D2
  1

  0
LINE
  5
23E
330
23C
100
AcDbEntity
  8
Notes
 62
     0
440
 16777216
370
    -2
100
AcDbLine
 10
29.39558089714859
 20
2.283225232300896
 30
0.0
 11
29.39558089714859
 21
2.212085888852508
 31
0.0
  0
LINE
  5
23F
330
23C
100
AcDbEntity
  8
Notes
 62
     0
440
 16777216
370
    -2
100
AcDbLine
 10
29.0155809012486
 20
2.283225232300898
 30
0.0
 11
29.0155809012486
 21
2.212085888852508
 31
0.0
  0
LINE
  5
240
330
23C
100
AcDbEntity
  8
Notes
 62
     0
440
 16777216
370
    -2
100
AcDbLine
 10
29.35808089714859
 20
2.249585888852508
 30
0.0
 11
29.0530809012486
 21
2.249585888852508
 31
0.0
  0
LINE
  5
241
330
23C
100
AcDbEntity
  8
Notes
 62
     0
440
 16777216
370
    -2
100
AcDbLine
 10
29.0155809012486
 20
2.249585888852508
 30
0.0
 11
28.80981586104589
 21
2.249585888852508
 31
0.0
  0
SOLID
  5
242
330
23C
100
AcDbEntity
  8
Notes
 62
     0
440
 16777216
100
AcDbTrace
 10
29.35808089714859
 20
2.255835888852508
 30
0.0
 11
29.35808089714859
 21
2.243335888852508
 31
0.0
 12
29.39558089714859
 22
2.249585888852508
 32
0.0
 13
29.39558089714859
 23
2.249585888852508
 33
0.0
  0
SOLID
  5
243
330
23C
100
AcDbEntity
  8
Notes
 62
     0
440
 16777216
100
AcDbTrace
 10
29.0530809012486
 20
2.255835888852508
 30
0.0
 11
29.0530809012486
 21
2.243335888852508
 31
0.0
 12
29.0155809012486
 22
2.249585888852508
 32
0.0
 13
29.0155809012486
 23
2.249585888852508
 33
0.0
  0
MTEXT
  5
244
330
23C
100
AcDbEntity
  8
Notes
 62
     0
440
 16777216
100
AcDbMText
 10
28.79698990929627
 20
2.249585888852508
 30
0.0
 40
0.027
 41
0.352959965532154
 46
0.0
 71
     6
 72
     1
  1
\A1;2x 12.5 Ohm\PTransmission Line
  7
Arial
 73
     1
 44
1.0
  0
POINT
  5
245
330
23C
100
AcDbEntity
  8
Defpoints
 62
     0
440
 16777216
100
AcDbPoint
 10
29.39558089714859
 20
2.313225232300895
 30
0.0
  0
POINT
  5
246
330
23C
100
AcDbEntity
  8
Defpoints
 62
     0
440
 16777216
100
AcDbPoint
 10
29.0155809012486
 20
2.313225232300898
 30
0.0
  0
POINT
  5
247
330
23C
100
AcDbEntity
  8
Defpoints
 62
     0
440
 16777216
100
AcDbPoint
 10
29.0155809012486
 20
2.249585888852508
 30
0.0
  0
ENDBLK
  5
248
330
23C
100
AcDbEntity
  8
0
100
AcDbBlockEnd
  0
BLOCK
  5
24A
330
249
100
AcDbEntity
  8
0
100
AcDbBlockBegin
  2
*D3
 70
     1
 10
0.0
 20
0.0
 30
0.0
  3
*D3
  1

  0
LINE
  5
24B
330
249
100
AcDbEntity
  8
Notes
 62
     0
440
 16777216
370
    -2
100
AcDbLine
 10
29.85558089254859
 20
2.283225232300896
 30
0.0
 11
29.85558089254859
 21
2.139047416730642
 31
0.0
  0
LINE
  5
24C
330
249
100
AcDbEntity
  8
Notes
 62
     0
440
 16777216
370
    -2
100
AcDbLine
 10
29.93058089254859
 20
2.276511218250734
 30
0.0
 11
29.93058089254859
 21
2.139047416730642
 31
0.0
  0
LINE
  5
24D
330
249
100
AcDbEntity
  8
Notes
 62
     0
440
 16777216
370
    -2
100
AcDbLine
 10
29.9680808925486
 20
2.176547416730642
 30
0.0
 11
30.00558089254859
 21
2.176547416730642
 31
0.0
  0
LINE
  5
24E
330
249
100
AcDbEntity
  8
Notes
 62
     0
440
 16777216
370
    -2
100
AcDbLine
 10
29.81808089254859
 20
2.176547416730642
 30
0.0
 11
29.78058089254859
 21
2.176547416730642
 31
0.0
  0
SOLID
  5
24F
330
249
100
AcDbEntity
  8
Notes
 62
     0
440
 16777216
100
AcDbTrace
 10
29.9680808925486
 20
2.182797416730642
 30
0.0
 11
29.9680808925486
 21
2.170297416730642
 31
0.0
 12
29.93058089254859
 22
2.176547416730642
 32
0.0
 13
29.93058089254859
 23
2.176547416730642
 33
0.0
  0
SOLID
  5
250
330
249
100
AcDbEntity
  8
Notes
 62
     0
440
 16777216
100
AcDbTrace
 10
29.81808089254859
 20
2.182797416730642
 30
0.0
 11
29.81808089254859
 21
2.170297416730642
 31
0.0
 12
29.85558089254859
 22
2.176547416730642
 32
0.0
 13
29.85558089254859
 23
2.176547416730642
 33
0.0
  0
MTEXT
  5
251
330
249
100
AcDbEntity
  8
Notes
 62
     0
440
 16777216
100
AcDbMText
 10
29.81067638887673
 20
2.176547416730642
 30
0.0
 40
0.027
 41
0.5206316474993891
 46
0.0
 71
     6
 72
     1
  1
\A1;3x 12.5 Ohm\PTransmission Line Gap
  7
Arial
 73
     1
 44
1.0
  0
POINT
  5
252
330
249
100
AcDbEntity
  8
Defpoints
 62
     0
440
 16777216
100
AcDbPoint
 10
29.85558089254859
 20
2.313225232300895
 30
0.0
  0
POINT
  5
253
330
249
100
AcDbEntity
  8
Defpoints
 62
     0
440
 16777216
100
AcDbPoint
 10
29.93058089254859
 20
2.306511218250734
 30
0.0
  0
POINT
  5
254
330
249
100
AcDbEntity
  8
Defpoints
 62
     0
440
 16777216
100
AcDbPoint
 10
29.93058089254859
 20
2.176547416730642
 30
0.0
  0
ENDBLK
  5
255
330
249
100
AcDbEntity
  8
0
100
AcDbBlockEnd
  0
BLOCK
  5
257
330
256
100
AcDbEntity
  8
0
100
AcDbBlockBegin
  2
*D4
 70
     1
 10
0.0
 20
0.0
 30
0.0
  3
*D4
  1

  0
LINE
  5
258
330
256
100
AcDbEntity
  8
Notes
 62
     0
440
 16777216
370
    -2
100
AcDbLine
 10
29.54483089712057
 20
3.781553942279294
 30
0.0
 11
29.54483089712057
 21
3.929496413869578
 31
0.0
  0
LINE
  5
259
330
256
100
AcDbEntity
  8
Notes
 62
     0
440
 16777216
370
    -2
100
AcDbLine
 10
29.58822409714885
 20
3.774502050466807
 30
0.0
 11
29.58822409714885
 21
3.929496413869578
 31
0.0
  0
LINE
  5
25A
330
256
100
AcDbEntity
  8
Notes
 62
     0
440
 16777216
370
    -2
100
AcDbLine
 10
29.50733089712056
 20
3.891996413869578
 30
0.0
 11
29.46983089712057
 21
3.891996413869578
 31
0.0
  0
LINE
  5
25B
330
256
100
AcDbEntity
  8
Notes
 62
     0
440
 16777216
370
    -2
100
AcDbLine
 10
29.62572409714885
 20
3.891996413869578
 30
0.0
 11
29.84427384116945
 21
3.891996413869578
 31
0.0
  0
SOLID
  5
25C
330
256
100
AcDbEntity
  8
Notes
 62
     0
440
 16777216
100
AcDbTrace
 10
29.50733089712056
 20
3.898246413869578
 30
0.0
 11
29.50733089712056
 21
3.885746413869578
 31
0.0
 12
29.54483089712057
 22
3.891996413869578
 32
0.0
 13
29.54483089712057
 23
3.891996413869578
 33
0.0
  0
SOLID
  5
25D
330
256
100
AcDbEntity
  8
Notes
 62
     0
440
 16777216
100
AcDbTrace
 10
29.62572409714885
 20
3.898246413869578
 30
0.0
 11
29.62572409714885
 21
3.885746413869578
 31
0.0
 12
29.58822409714885
 22
3.891996413869578
 32
0.0
 13
29.58822409714885
 23
3.891996413869578
 33
0.0
  0
MTEXT
  5
25E
330
256
100
AcDbEntity
  8
Notes
 62
     0
440
 16777216
100
AcDbMText
 10
30.3348099923407
 20
3.891996413869578
 30
0.0
 40
0.027
 41
0.5206316474993891
 46
0.0
 71
     6
 72
     1
  1
\A1;2x 50 Ohm\PTransmission Line Gap
  7
Arial
 73
     1
 44
1.0
  0
POINT
  5
25F
330
256
100
AcDbEntity
  8
Defpoints
 62
     0
440
 16777216
100
AcDbPoint
 10
29.54483089712057
 20
3.751553942279294
 30
0.0
  0
POINT
  5
260
330
256
100
AcDbEntity
  8
Defpoints
 62
     0
440
 16777216
100
AcDbPoint
 10
29.58822409714885
 20
3.744502050466807
 30
0.0
  0
POINT
  5
261
330
256
100
AcDbEntity
  8
Defpoints
 62
     0
440
 16777216
100
AcDbPoint
 10
29.58822409714885
 20
3.891996413869578
 30
0.0
  0
ENDBLK
  5
262
330
256
100
AcDbEntity
  8
0
100
AcDbBlockEnd
  0
BLOCK
  5
3E2
330
3E1
100
AcDbEntity
  8
0
100
AcDbBlockBegin
  2
*D6
 70
     1
 10
0.0
 20
0.0
 30
0.0
  3
*D6
  1

  0
LINE
  5
415
330
3E1
100
AcDbEntity
  8
Notes
 62
     0
440
 16777216
370
    -2
100
AcDbLine
 10
0.1304186984222468
 20
0.7343808138092907
 30
0.0
 11
0.1304186984222469
 21
0.9550660616832352
 31
0.0
  0
LINE
  5
416
330
3E1
100
AcDbEntity
  8
Notes
 62
     0
440
 16777216
370
    -2
100
AcDbLine
 10
0.0809186962533097
 20
0.7343808138092907
 30
0.0
 11
0.0809186962533098
 21
0.9550660616832352
 31
0.0
  0
LINE
  5
417
330
3E1
100
AcDbEntity
  8
Notes
 62
     0
440
 16777216
370
    -2
100
AcDbLine
 10
0.1679186984222468
 20
0.9175660616832352
 30
0.0
 11
0.2054186984222468
 21
0.9175660616832352
 31
0.0
  0
LINE
  5
418
330
3E1
100
AcDbEntity
  8
Notes
 62
     0
440
 16777216
370
    -2
100
AcDbLine
 10
0.0434186962533097
 20
0.9175660616832352
 30
0.0
 11
-0.2889420544719616
 21
0.9175660616832352
 31
0.0
  0
SOLID
  5
419
330
3E1
100
AcDbEntity
  8
Notes
 62
     0
440
 16777216
100
AcDbTrace
 10
0.1679186984222468
 20
0.9238160616832352
 30
0.0
 11
0.1679186984222468
 21
0.9113160616832352
 31
0.0
 12
0.1304186984222468
 22
0.9175660616832352
 32
0.0
 13
0.1304186984222468
 23
0.9175660616832352
 33
0.0
  0
SOLID
  5
41A
330
3E1
100
AcDbEntity
  8
Notes
 62
     0
440
 16777216
100
AcDbTrace
 10
0.0434186962533097
 20
0.9238160616832352
 30
0.0
 11
0.0434186962533097
 21
0.9113160616832352
 31
0.0
 12
0.0809186962533098
 22
0.9175660616832352
 32
0.0
 13
0.0809186962533098
 23
0.9175660616832352
 33
0.0
  0
MTEXT
  5
41B
330
3E1
100
AcDbEntity
  8
Notes
 62
     0
440
 16777216
100
AcDbMText
 10
-0.3017680062215735
 20
0.9175660616832352
 30
0.0
 40
0.027
 41
0.352959965532154
 46
0.0
 71
     6
 72
     1
  1
\A1;1x 50 Ohm\PTransmission Line
  7
Arial
 73
     1
 44
1.0
  0
POINT
  5
41C
330
3E1
100
AcDbEntity
  8
Defpoints
 62
     0
440
 16777216
100
AcDbPoint
 10
0.1304186984222468
 20
0.7043808138092907
 30
0.0
  0
POINT
  5
41D
330
3E1
100
AcDbEntity
  8
Defpoints
 62
     0
440
 16777216
100
AcDbPoint
 10
0.0809186962533097
 20
0.7043808138092907
 30
0.0
  0
POINT
  5
41E
330
3E1
100
AcDbEntity
  8
Defpoints
 62
     0
440
 16777216
100
AcDbPoint
 10
0.0809186962533098
 20
0.9175660616832352
 30
0.0
  0
ENDBLK
  5
3E3
330
3E1
100
AcDbEntity
  8
0
100
AcDbBlockEnd
  0
BLOCK
  5
3EF
330
3EE
100
AcDbEntity
  8
0
100
AcDbBlockBegin
  2
*D7
 70
     1
 10
0.0
 20
0.0
 30
0.0
  3
*D7
  1

  0
LINE
  5
41F
330
3EE
100
AcDbEntity
  8
Notes
 62
     0
440
 16777216
370
    -2
100
AcDbLine
 10
-0.0188313015497244
 20
-0.7639478961691085
 30
0.0
 11
-0.0188313015497244
 21
-0.8350872396174956
 31
0.0
  0
LINE
  5
420
330
3EE
100
AcDbEntity
  8
Notes
 62
     0
440
 16777216
370
    -2
100
AcDbLine
 10
-0.3988312974497177
 20
-0.7639478961691058
 30
0.0
 11
-0.3988312974497177
 21
-0.8350872396174956
 31
0.0
  0
LINE
  5
421
330
3EE
100
AcDbEntity
  8
Notes
 62
     0
440
 16777216
370
    -2
100
AcDbLine
 10
-0.0563313015497244
 20
-0.7975872396174957
 30
0.0
 11
-0.3613312974497177
 21
-0.7975872396174957
 31
0.0
  0
LINE
  5
422
330
3EE
100
AcDbEntity
  8
Notes
 62
     0
440
 16777216
370
    -2
100
AcDbLine
 10
-0.3988312974497177
 20
-0.7975872396174957
 30
0.0
 11
-0.6045963376524366
 21
-0.7975872396174957
 31
0.0
  0
SOLID
  5
423
330
3EE
100
AcDbEntity
  8
Notes
 62
     0
440
 16777216
100
AcDbTrace
 10
-0.0563313015497244
 20
-0.7913372396174957
 30
0.0
 11
-0.0563313015497244
 21
-0.8038372396174956
 31
0.0
 12
-0.0188313015497244
 22
-0.7975872396174957
 32
0.0
 13
-0.0188313015497244
 23
-0.7975872396174957
 33
0.0
  0
SOLID
  5
424
330
3EE
100
AcDbEntity
  8
Notes
 62
     0
440
 16777216
100
AcDbTrace
 10
-0.3613312974497177
 20
-0.7913372396174957
 30
0.0
 11
-0.3613312974497177
 21
-0.8038372396174956
 31
0.0
 12
-0.3988312974497177
 22
-0.7975872396174957
 32
0.0
 13
-0.3988312974497177
 23
-0.7975872396174957
 33
0.0
  0
MTEXT
  5
425
330
3EE
100
AcDbEntity
  8
Notes
 62
     0
440
 16777216
100
AcDbMText
 10
-0.6174222894020485
 20
-0.7975872396174957
 30
0.0
 40
0.027
 41
0.352959965532154
 46
0.0
 71
     6
 72
     1
  1
\A1;2x 12.5 Ohm\PTransmission Line
  7
Arial
 73
     1
 44
1.0
  0
POINT
  5
426
330
3EE
100
AcDbEntity
  8
Defpoints
 62
     0
440
 16777216
100
AcDbPoint
 10
-0.0188313015497244
 20
-0.7339478961691084
 30
0.0
  0
POINT
  5
427
330
3EE
100
AcDbEntity
  8
Defpoints
 62
     0
440
 16777216
100
AcDbPoint
 10
-0.3988312974497177
 20
-0.7339478961691058
 30
0.0
  0
POINT
  5
428
330
3EE
100
AcDbEntity
  8
Defpoints
 62
     0
440
 16777216
100
AcDbPoint
 10
-0.3988312974497177
 20
-0.7975872396174957
 30
0.0
  0
ENDBLK
  5
3F0
330
3EE
100
AcDbEntity
  8
0
100
AcDbBlockEnd
  0
BLOCK
  5
3FC
330
3FB
100
AcDbEntity
  8
0
100
AcDbBlockBegin
  2
*D8
 70
     1
 10
0.0
 20
0.0
 30
0.0
  3
*D8
  1

  0
LINE
  5
429
330
3FB
100
AcDbEntity
  8
Notes
 62
     0
440
 16777216
370
    -2
100
AcDbLine
 10
0.4411686938502726
 20
-0.7639478961691085
 30
0.0
 11
0.4411686938502726
 21
-0.908125711739362
 31
0.0
  0
LINE
  5
42A
330
3FB
100
AcDbEntity
  8
Notes
 62
     0
440
 16777216
370
    -2
100
AcDbLine
 10
0.5161686938502755
 20
-0.7706619102192695
 30
0.0
 11
0.5161686938502755
 21
-0.908125711739362
 31
0.0
  0
LINE
  5
42B
330
3FB
100
AcDbEntity
  8
Notes
 62
     0
440
 16777216
370
    -2
100
AcDbLine
 10
0.5536686938502755
 20
-0.870625711739362
 30
0.0
 11
0.5911686938502755
 21
-0.870625711739362
 31
0.0
  0
LINE
  5
42C
330
3FB
100
AcDbEntity
  8
Notes
 62
     0
440
 16777216
370
    -2
100
AcDbLine
 10
0.4036686938502726
 20
-0.870625711739362
 30
0.0
 11
0.3661686938502726
 21
-0.870625711739362
 31
0.0
  0
SOLID
  5
42D
330
3FB
100
AcDbEntity
  8
Notes
 62
     0
440
 16777216
100
AcDbTrace
 10
0.5536686938502755
 20
-0.864375711739362
 30
0.0
 11
0.5536686938502755
 21
-0.876875711739362
 31
0.0
 12
0.5161686938502755
 22
-0.870625711739362
 32
0.0
 13
0.5161686938502755
 23
-0.870625711739362
 33
0.0
  0
SOLID
  5
42E
330
3FB
100
AcDbEntity
  8
Notes
 62
     0
440
 16777216
100
AcDbTrace
 10
0.4036686938502726
 20
-0.864375711739362
 30
0.0
 11
0.4036686938502726
 21
-0.876875711739362
 31
0.0
 12
0.4411686938502726
 22
-0.870625711739362
 32
0.0
 13
0.4411686938502726
 23
-0.870625711739362
 33
0.0
  0
MTEXT
  5
42F
330
3FB
100
AcDbEntity
  8
Notes
 62
     0
440
 16777216
100
AcDbMText
 10
0.3962641901784119
 20
-0.870625711739362
 30
0.0
 40
0.027
 41
0.5206316474993891
 46
0.0
 71
     6
 72
     1
  1
\A1;3x 12.5 Ohm\PTransmission Line Gap
  7
Arial
 73
     1
 44
1.0
  0
POINT
  5
430
330
3FB
100
AcDbEntity
  8
Defpoints
 62
     0
440
 16777216
100
AcDbPoint
 10
0.4411686938502726
 20
-0.7339478961691084
 30
0.0
  0
POINT
  5
431
330
3FB
100
AcDbEntity
  8
Defpoints
 62
     0
440
 16777216
100
AcDbPoint
 10
0.5161686938502755
 20
-0.7406619102192696
 30
0.0
  0
POINT
  5
432
330
3FB
100
AcDbEntity
  8
Defpoints
 62
     0
440
 16777216
100
AcDbPoint
 10
0.5161686938502755
 20
-0.870625711739362
 30
0.0
  0
ENDBLK
  5
3FD
330
3FB
100
AcDbEntity
  8
0
100
AcDbBlockEnd
  0
BLOCK
  5
409
330
408
100
AcDbEntity
  8
0
100
AcDbBlockBegin
  2
*D9
 70
     1
 10
0.0
 20
0.0
 30
0.0
  3
*D9
  1

  0
LINE
  5
433
330
408
100
AcDbEntity
  8
Notes
 62
     0
440
 16777216
370
    -2
100
AcDbLine
 10
0.1304186984222468
 20
0.7343808138092907
 30
0.0
 11
0.1304186984222468
 21
0.882323285399574
 31
0.0
  0
LINE
  5
434
330
408
100
AcDbEntity
  8
Notes
 62
     0
440
 16777216
370
    -2
100
AcDbLine
 10
0.1738118984505306
 20
0.7273289219968032
 30
0.0
 11
0.1738118984505306
 21
0.882323285399574
 31
0.0
  0
LINE
  5
435
330
408
100
AcDbEntity
  8
Notes
 62
     0
440
 16777216
370
    -2
100
AcDbLine
 10
0.0929186984222469
 20
0.844823285399574
 30
0.0
 11
0.0554186984222469
 21
0.844823285399574
 31
0.0
  0
LINE
  5
436
330
408
100
AcDbEntity
  8
Notes
 62
     0
440
 16777216
370
    -2
100
AcDbLine
 10
0.2113118984505306
 20
0.844823285399574
 30
0.0
 11
0.4298616424711317
 21
0.844823285399574
 31
0.0
  0
SOLID
  5
437
330
408
100
AcDbEntity
  8
Notes
 62
     0
440
 16777216
100
AcDbTrace
 10
0.0929186984222469
 20
0.851073285399574
 30
0.0
 11
0.0929186984222469
 21
0.838573285399574
 31
0.0
 12
0.1304186984222468
 22
0.844823285399574
 32
0.0
 13
0.1304186984222468
 23
0.844823285399574
 33
0.0
  0
SOLID
  5
438
330
408
100
AcDbEntity
  8
Notes
 62
     0
440
 16777216
100
AcDbTrace
 10
0.2113118984505306
 20
0.851073285399574
 30
0.0
 11
0.2113118984505306
 21
0.838573285399574
 31
0.0
 12
0.1738118984505306
 22
0.844823285399574
 32
0.0
 13
0.1738118984505306
 23
0.844823285399574
 33
0.0
  0
MTEXT
  5
439
330
408
100
AcDbEntity
  8
Notes
 62
     0
440
 16777216
100
AcDbMText
 10
0.9203977936423815
 20
0.844823285399574
 30
0.0
 40
0.027
 41
0.5206316474993891
 46
0.0
 71
     6
 72
     1
  1
\A1;2x 50 Ohm\PTransmission Line Gap
  7
Arial
 73
     1
 44
1.0
  0
POINT
  5
43A
330
408
100
AcDbEntity
  8
Defpoints
 62
     0
440
 16777216
100
AcDbPoint
 10
0.1304186984222468
 20
0.7043808138092907
 30
0.0
  0
POINT
  5
43B
330
408
100
AcDbEntity
  8
Defpoints
 62
     0
440
 16777216
100
AcDbPoint
 10
0.1738118984505306
 20
0.6973289219968031
 30
0.0
  0
POINT
  5
43C
330
408
100
AcDbEntity
  8
Defpoints
 62
     0
440
 16777216
100
AcDbPoint
 10
0.1738118984505306
 20
0.844823285399574
 30
0.0
  0
ENDBLK
  5
40A
330
408
100
AcDbEntity
  8
0
100
AcDbBlockEnd
  0
ENDSEC
  0
SECTION
  2
ENTITIES
  0
LWPOLYLINE
  5
330
330
1F
100
AcDbEntity
  8
PCB_Top
370
    -3
100
AcDbPolyline
 90
      550
 70
     0
 43
0.0
 10
-0.4738312974497206
 20
-0.7176088230810849
 10
-0.474991085319946
 20
-0.7176459549746843
 10
-0.4816394785134293
 20
-0.717754062006879
 10
-0.4881904696761339
 20
-0.7177554468572756
 10
-0.4946447000388972
 20
-0.717651274949402
 10
-0.5010028108325529
 20
-0.7174427117067843
 10
-0.5072654432879383
 20
-0.7171309225529506
 10
-0.5134332386358871
 20
-0.7167170729114263
 10
-0.5195068381072403
 20
-0.7162023282057391
 10
-0.5254868829328246
 20
-0.7155878538594154
 10
-0.5313740143434842
 20
-0.7148748152959828
 10
-0.5371688735700531
 20
-0.7140643779389677
 10
-0.5428721018433649
 20
-0.7131577072118973
 10
-0.5484843403942535
 20
-0.7121559685382981
 10
-0.5540062304535596
 20
-0.7110603273416967
 10
-0.5594384132521171
 20
-0.7098719490456209
 10
-0.5647815300207597
 20
-0.7085919990735965
 10
-0.5700362219903284
 20
-0.7072216428491514
 10
-0.5752031303916532
 20
-0.7057620457958116
 10
-0.5802828964555716
 20
-0.7042143733371047
 10
-0.5852761614129208
 20
-0.7025797908965568
 10
-0.5901835664945346
 20
-0.7008594638976953
 10
-0.5950057529312503
 20
-0.6990545577640468
 10
-0.5997433619539052
 20
-0.6971662379191388
 10
-0.6043970347933332
 20
-0.6951956697864974
 10
-0.608967412680368
 20
-0.6931440187896501
 10
-0.6134551368458503
 20
-0.6910124503521229
 10
-0.6178608485206106
 20
-0.6888021298974439
 10
-0.6221851889354895
 20
-0.6865142228491386
 10
-0.6264287993213174
 20
-0.6841498946307345
 10
-0.6305923209089351
 20
-0.6817103106657592
 10
-0.6346763949291799
 20
-0.6791966363777382
 10
-0.6386816626128784
 20
-0.6766100371901996
 10
-0.6426087651908752
 20
-0.6739516785266697
 10
-0.646458343894004
 20
-0.6712227258106754
 10
-0.6502310399530949
 20
-0.6684243444657439
 10
-0.6539274945989924
 20
-0.665557699915401
 10
-0.6575483490625267
 20
-0.6626239575831745
 10
-0.6610942445745387
 20
-0.6596242828925916
 10
-0.6645658223658551
 20
-0.6565598412671783
 10
-0.6679637236673202
 20
-0.6534317981304621
 10
-0.6712885897097678
 20
-0.6502413189059695
 10
-0.6745410617240318
 20
-0.6469895690172276
 10
-0.6777217809409493
 20
-0.643677713887763
 10
-0.6808313885913542
 20
-0.6403069189411026
 10
-0.6838705259060838
 20
-0.6368783496007735
 10
-0.6868398341159754
 20
-0.6333931712903027
 10
-0.6897399544518628
 20
-0.6298525494332168
 10
-0.6925715281445797
 20
-0.6262576494530428
 10
-0.695335196424967
 20
-0.6226096367733076
 10
-0.6980316005238585
 20
-0.6189096768175375
 10
-0.700661381672088
 20
-0.6151589350092604
 10
-0.7032251811004926
 20
-0.6113585767720018
 10
-0.7057236400399099
 20
-0.6075097675292902
 10
-0.7081573997211699
 20
-0.6036136727046513
 10
-0.7105271013751171
 20
-0.5996714577216125
 10
-0.7128333862325782
 20
-0.5956842880037004
 10
-0.7150768955243976
 20
-0.5916533289744415
 10
-0.7172582704814055
 20
-0.5875797460573642
 10
-0.7193781523344392
 20
-0.5834647046759934
 10
-0.7214371823143324
 20
-0.5793093702538572
 10
-0.7234360016519226
 20
-0.5751149082144825
 10
-0.7272555733235429
 20
-0.5666132629781231
 10
-0.7308419971959808
 20
-0.5579690923551315
 10
-0.7342004031159206
 20
-0.5491917197337211
 10
-0.7373359209300539
 20
-0.5402904685021089
 10
-0.7402536804850613
 20
-0.5312746620485079
 10
-0.7429588116276343
 20
-0.5221536237611338
 10
-0.7454564442044572
 20
-0.5129366770282023
 10
-0.7477517080622178
 20
-0.5036331452379273
 10
-0.7498497330475971
 20
-0.4942523517785249
 10
-0.7517556490072863
 20
-0.4848036200382087
 10
-0.7534745857879699
 20
-0.4752962734051947
 10
-0.7550116732363357
 20
-0.4657396352676973
 10
-0.756372041199068
 20
-0.4561430290139321
 10
-0.7575608195228547
 20
-0.4465157780321132
 10
-0.7585831380543837
 20
-0.436867205710457
 10
-0.7594441266403358
 20
-0.4272066354371767
 10
-0.7601489151274024
 20
-0.4175433906004887
 10
-0.7607026333622678
 20
-0.4078867945886069
 10
-0.7611104111916163
 20
-0.3982461707897471
 10
-0.7613773784621359
 20
-0.3886308425921241
 10
-0.7615086650205143
 20
-0.3790501333839522
 10
-0.7615094007134396
 20
-0.3695133665534476
 10
-0.7613847153875924
 20
-0.3600298654888245
 10
-0.7611397388896571
 20
-0.3506089535782975
 10
-0.7607793562230114
 20
-0.3412582882225541
 10
-0.7603074730177469
 20
-0.3319788628721683
 10
-0.7597277500606446
 20
-0.3227700049901858
 10
-0.7590438481384787
 20
-0.3136310420396526
 10
-0.7582594280380342
 20
-0.3045613014836146
 10
-0.7573781505460851
 20
-0.2955601107851171
 10
-0.7564036764494091
 20
-0.286626797407207
 10
-0.7553396665347912
 20
-0.27776068881293
 10
-0.7541897815890053
 20
-0.2689611124653313
 10
-0.7529576823988329
 20
-0.2602273958274579
 10
-0.7516470297510516
 20
-0.2515588663623549
 10
-0.7502614844324392
 20
-0.2429548515330682
 10
-0.7488047072297768
 20
-0.2344146788026444
 10
-0.7472803589298423
 20
-0.2259376756341282
 10
-0.7456921003194133
 20
-0.2175231694905673
 10
-0.7440435921852675
 20
-0.2091704878350056
 10
-0.7423384953141899
 20
-0.2008789581304904
 10
-0.7405804704929509
 20
-0.1926479078400671
 10
-0.7387731785083354
 20
-0.1844766644267817
 10
-0.7369202801471211
 20
-0.1763645553536799
 10
-0.7330923074420106
 20
-0.1603150500802117
 10
-0.7291258386718447
 20
-0.1444940117240292
 10
-0.7250501601308593
 20
-0.1288960599895002
 10
-0.7208945581132831
 20
-0.1135158145809916
 10
-0.7166883189133486
 20
-0.0983478952028709
 10
-0.7124607288252847
 20
-0.0833869215595051
 10
-0.7082410741433201
 20
-0.0686275133552621
 10
-0.7040586411616907
 20
-0.0540642902945083
 10
-0.6999427161746219
 20
-0.0396918720816113
 10
-0.695922585476346
 20
-0.0255048784209384
 10
-0.6920275353610954
 20
-0.0114979290168571
 10
-0.688286852123099
 20
0.0023343564262657
 10
-0.684729822056589
 20
0.0159973582040629
 10
-0.6813857314557908
 20
0.0294964566121667
 10
-0.6798026904219832
 20
0.036186223394969
 10
-0.6782838666149438
 20
0.0428370319462101
 10
-0.6768329208214468
 20
0.0494495548028446
 10
-0.6754535138282698
 20
0.0560244645018262
 10
-0.6741493064221978
 20
0.0625624335801085
 10
-0.6729239593900083
 20
0.0690641345746466
 10
-0.6717811335184756
 20
0.0755302400223945
 10
-0.670724489594381
 20
0.0819614224603056
 10
-0.6697576884045056
 20
0.0883583544253344
 10
-0.6688843907356237
 20
0.094721708454435
 10
-0.6681082573745201
 20
0.1010521570845615
 10
-0.6674329491079689
 20
0.1073503728526672
 10
-0.666862126722748
 20
0.1136170282957076
 10
-0.6663994510056419
 20
0.1198527959506359
 10
-0.6660485827434251
 20
0.1260583483544071
 10
-0.6658131827228751
 20
0.1322343580439735
 10
-0.665695495996264
 20
0.1383815282814664
 10
-0.6656921046777882
 20
0.1445006852297155
 10
-0.6657981751471489
 20
0.1505926857767266
 10
-0.6660088737840333
 20
0.1566583868105047
 10
-0.6663193669681391
 20
0.1626986452190575
 10
-0.6667248210791535
 20
0.1687143178903896
 10
-0.6672204024967741
 20
0.1747062617125072
 10
-0.6678012776006917
 20
0.1806753335734159
 10
-0.6684626127706004
 20
0.1866223903611219
 10
-0.669199574386191
 20
0.1925482889636303
 10
-0.6708810424731908
 20
0.2043400391650803
 10
-0.6728070128992379
 20
0.216057439281812
 10
-0.674938816701868
 20
0.2277073444178717
 10
-0.6772377849186278
 20
0.2392966096773073
 10
-0.6796652485870603
 20
0.250832090164165
 10
-0.6847509864291013
 20
0.2737691172363323
 10
-0.6898866785283318
 20
0.2965732664667486
 10
-0.6923765850182449
 20
0.3079426496514159
 10
-0.6947629731850853
 20
0.3192993786877869
 10
-0.6970071740663891
 20
0.330650308679906
 10
-0.6990705186997026
 20
0.3420022947318211
 10
-0.7009143381225656
 20
0.3533621919475784
 10
-0.7024999633725173
 20
0.3647368554312251
 10
-0.7031838691318875
 20
0.3704318667435213
 10
-0.7037887254871045
 20
0.3761331402868073
 10
-0.7043096988178697
 20
0.3818415329490889
 10
-0.7047419555038701
 20
0.387557901618373
 10
-0.7050806619248001
 20
0.3932831031826636
 10
-0.7053209844603501
 20
0.3990179945299665
 10
-0.7054580894902181
 20
0.4047634325482897
 10
-0.7054871433940946
 20
0.4105202741256378
 10
-0.7054033125516704
 20
0.416289376150016
 10
-0.7052017633426395
 20
0.4220715955094301
 10
-0.7048776621466928
 20
0.4278677890918879
 10
-0.704426175343528
 20
0.4336788137853933
 10
-0.7038424693128356
 20
0.4395055264779524
 10
-0.7031217104343029
 20
0.4453487840575719
 10
-0.7022590650876311
 20
0.4512094434122567
 10
-0.7012496996525109
 20
0.4570883614300128
 10
-0.7000887805086294
 20
0.4629863949988469
 10
-0.6987714740356843
 20
0.468904401006764
 10
-0.69729294661337
 20
0.474843236341771
 10
-0.6956483646213734
 20
0.4808037578918718
 10
-0.6938328944393924
 20
0.4867868225450734
 10
-0.6918417024471176
 20
0.4927932871893824
 10
-0.6896699550242431
 20
0.4988240087128029
 10
-0.6873128185504598
 20
0.5048798440033418
 10
-0.6847655783130407
 20
0.5109605771103141
 10
-0.6820239952295851
 20
0.5170617007282648
 10
-0.6790839491252747
 20
0.5231776347130488
 10
-0.6759413198252844
 20
0.5293027989205204
 10
-0.6725919871547959
 20
0.5354316132065362
 10
-0.6690318309389838
 20
0.5415584974269497
 10
-0.6652567310030335
 20
0.5476778714376147
 10
-0.6612625671721162
 20
0.5537841550943883
 10
-0.6570452192714136
 20
0.5598717682531227
 10
-0.6526005671261075
 20
0.5659351307696748
 10
-0.6479244905613762
 20
0.5719686624998986
 10
-0.6430128694023943
 20
0.5779667832996474
 10
-0.6378615834743436
 20
0.583923913024778
 10
-0.6324665126024023
 20
0.5898344715311446
 10
-0.6268235366117488
 20
0.5956928786746012
 10
-0.6209285353275647
 20
0.601493554311003
 10
-0.6147773885750248
 20
0.6072309182962048
 10
-0.6083659761793108
 20
0.6128993904860609
 10
-0.601690177965601
 20
0.6184933907364272
 10
-0.5947458737590737
 20
0.6240073389031569
 10
-0.591171744353872
 20
0.6267325496601135
 10
-0.5875289433849069
 20
0.6294356548421059
 10
-0.5838169558303293
 20
0.6321159569311173
 10
-0.5800352666682827
 20
0.6347727584091283
 10
-0.5761833608769145
 20
0.6374053617581224
 10
-0.5722607234343755
 20
0.6400130694600792
 10
-0.5682668393188095
 20
0.642595183996983
 10
-0.5642011935083638
 20
0.6451510078508136
 10
-0.5600632709811891
 20
0.6476798435035534
 10
-0.5558525567154327
 20
0.6501809934371856
 10
-0.5515685356892384
 20
0.6526537601336902
 10
-0.547210692880757
 20
0.6550974460750494
 10
-0.5427785132681322
 20
0.6575113537432458
 10
-0.5382714818295149
 20
0.6598947856202618
 10
-0.5336890835430488
 20
0.662247044188077
 10
-0.5290308033868847
 20
0.664567431928675
 10
-0.5242961263391664
 20
0.6668552513240372
 10
-0.5194845373780482
 20
0.6691098048561459
 10
-0.5145955214816702
 20
0.671330395006982
 10
-0.5096285636281799
 20
0.6735163242585278
 10
-0.504583148795728
 20
0.6756668950927658
 10
-0.4994587619624653
 20
0.6777814099916766
 10
-0.4942548881065286
 20
0.6798591714372427
 10
-0.4889710122060756
 20
0.6818994819114455
 10
-0.4836066192392466
 20
0.6839016438962675
 10
-0.4781611941841959
 20
0.6858649598736913
 10
-0.4726342220190638
 20
0.6877887323256964
 10
-0.4670251877220011
 20
0.6896722637342663
 10
-0.461333576271155
 20
0.6915148565813825
 10
-0.4555588726446694
 20
0.6933158133490274
 10
-0.4497005618206984
 20
0.6950744365191817
 10
-0.443758128777386
 20
0.6967900285738278
 10
-0.4377310584928758
 20
0.6984618919949482
 10
-0.4316188359453222
 20
0.7000893292645234
 10
-0.4254209461128653
 20
0.7016716428645369
 10
-0.4191368739736597
 20
0.7032081352769684
 10
-0.4127661045058489
 20
0.7046981089838021
 10
-0.4063081226875767
 20
0.7061408664670177
 10
-0.3997624134969975
 20
0.7075357102085987
 10
-0.393128461912255
 20
0.7088819426905256
 10
-0.3864057529114966
 20
0.7101788663947817
 10
-0.379593771472873
 20
0.7114257838033478
 10
-0.3726920025745244
 20
0.7126219973982053
 10
-0.3656999311946052
 20
0.7137668096613377
 10
-0.3586170423112591
 20
0.7148595230747255
 10
-0.3514428209026335
 20
0.7158994401203512
 10
-0.3441767519468755
 20
0.7168858632801954
 10
-0.336818320422136
 20
0.7178180950362423
 10
-0.3293670113065588
 20
0.7186954378704718
 10
-0.321822309578291
 20
0.7195171942648653
 10
-0.3141837002154837
 20
0.7202826667014071
 10
-0.3064506681962804
 20
0.7209911576620769
 10
-0.2986226984988285
 20
0.7216419696288572
 10
-0.2906992761012788
 20
0.7222344050837295
 10
-0.2826798859817749
 20
0.7227677665086772
 10
-0.2745640131184679
 20
0.7232413563856799
 10
-0.2663511424895013
 20
0.7236544771967211
 10
-0.2580407590730225
 20
0.7240064314237813
 10
-0.2496323478471822
 20
0.724296521548844
 10
-0.2411253937901279
 20
0.7245240500538897
 10
-0.2325193818800031
 20
0.7246883194209
 10
-0.2238137970949587
 20
0.7247886321318582
 10
-0.2150081244131421
 20
0.724824290668745
 10
-0.2061018488126969
 20
0.7247945975135428
 10
-0.1970944552717704
 20
0.7246988551482332
 10
-0.187985428768517
 20
0.7245363660547977
 10
-0.1787742542810768
 20
0.7243064327152196
 10
-0.1694604167875973
 20
0.7240083576114787
 10
-0.1600434012662326
 20
0.7236414432255583
 10
-0.1505226926951231
 20
0.723204992039439
 10
-0.1408977760524195
 20
0.7226983065351034
 10
-0.1311681363162656
 20
0.7221206891945338
 10
-0.1213332584648157
 20
0.7214714424997118
 10
-0.11139262747621
 20
0.7207498689326189
 10
-0.1013457283285994
 20
0.7199552709752366
 10
-0.0911920460001312
 20
0.7190869511095475
 10
-0.0809310654689526
 20
0.718144211817533
 10
-0.0705622717132108
 20
0.7171263555811756
 10
-0.0600851497110533
 20
0.7160326848824559
 10
-0.0494991844406272
 20
0.7148625022033573
 10
-0.0388038608800763
 20
0.7136151100258603
 10
-0.0279986640075549
 20
0.7122898108319467
 10
-0.0170830788012069
 20
0.7108859071035996
 10
-0.0060565902391758
 20
0.7094027013227997
 10
0.0050813167003838
 20
0.7078394959715295
 10
0.0163311570393283
 20
0.7061955935317715
 10
0.0276934457995104
 20
0.7044702964855052
 10
0.0391686980027828
 20
0.7026629073147142
 10
0.0391686980027828
 20
0.4527164545200942
 10
0.0181686982127758
 20
0.4527164545200942
 10
0.0181686982127829
 20
0.3227164558200881
 10
0.1931686964627772
 20
0.3227164558201023
 10
0.1931686964627772
 20
0.4527164545200942
 10
0.172168696672756
 20
0.4527164545200942
 10
0.1738118984505306
 20
0.6973289219968031
 10
0.1868325661613603
 20
0.7013703811972274
 10
0.1998246784013595
 20
0.7052275105494426
 10
0.2127838863445604
 20
0.7088999573056905
 10
0.225705841164995
 20
0.7123873687182094
 10
0.2385861940366958
 20
0.7156893920392431
 10
0.2514205961336984
 20
0.7188056745210299
 10
0.2642046986300386
 20
0.7217358634158116
 10
0.2769341526997451
 20
0.7244796059758292
 10
0.2896046095168572
 20
0.7270365494533238
 10
0.3022117202554
 20
0.7294063411005345
 10
0.3147511360894164
 20
0.7315886281697042
 10
0.3272185081929351
 20
0.733583057913072
 10
0.3396094877399918
 20
0.735389277582879
 10
0.3519197259046187
 20
0.737006934431367
 10
0.3641448738608481
 20
0.7384356757107762
 10
0.3762805827827158
 20
0.7396751486733466
 10
0.3883225038442539
 20
0.7407250005713193
 10
0.4002662882194983
 20
0.7415848786569362
 10
0.4121075870824811
 20
0.7422544301824372
 10
0.4238420516072381
 20
0.7427333024000627
 10
0.435465332967798
 20
0.7430211425620544
 10
0.4469730823381966
 20
0.7431175979206515
 10
0.4583609508924696
 20
0.7430223157280969
 10
0.4696245898046456
 20
0.7427349432366297
 10
0.4807596502487677
 20
0.7422551276984919
 10
0.4917617833988573
 20
0.7415825163659236
 10
0.5026266404289573
 20
0.7407167564911648
 10
0.5133498725130999
 20
0.7396574953264575
 10
0.5239271308253138
 20
0.7384043801240426
 10
0.5343540665396383
 20
0.7369570581361602
 10
0.5446263308301021
 20
0.7353151766150506
 10
0.5547395748707409
 20
0.7334783828129554
 10
0.5646894498355906
 20
0.7314463239821159
 10
0.5744716068986833
 20
0.7292186473747711
 10
0.5840816972340477
 20
0.7267950002431638
 10
0.5935153720157267
 20
0.7241750298395333
 10
0.6027682824177454
 20
0.7213583834161206
 10
0.6118360796141431
 20
0.7183447082251675
 10
0.6207144147789521
 20
0.7151336515189133
 10
0.6293989390862045
 20
0.7117248605495999
 10
0.6378853037099326
 20
0.7081179825694673
 10
0.6461691598241722
 20
0.7043126648307565
 10
0.6542461586029589
 20
0.7003085545857087
 10
0.6621119512203216
 20
0.6961052990865646
 10
0.6697621888502994
 20
0.6917025455855646
 10
0.6771925226669211
 20
0.6870999413349495
 10
0.6843986038442225
 20
0.6822971335869604
 10
0.6913760835562357
 20
0.6772937695938373
 10
0.6981206129769966
 20
0.6720894966078222
 10
0.7046278432805373
 20
0.6666839618811551
 10
0.7108934256408901
 20
0.6610768126660762
 10
0.7169130112320908
 20
0.6552676962148283
 10
0.722682251228175
 20
0.6492562597796497
 10
0.7281967968031715
 20
0.6430421506127831
 10
0.7334522991311161
 20
0.6366250159664677
 10
0.738444409386041
 20
0.6300045030929456
 10
0.7431687787419854
 20
0.6231802592444567
 10
0.7476210583729746
 20
0.616151931673242
 10
0.7517968994530478
 20
0.6089191676315427
 10
0.7556919681511865
 20
0.6014816213747692
 10
0.759305109565208
 20
0.593840431830583
 10
0.7626422614030375
 20
0.5860000504265149
 10
0.7657103210492302
 20
0.5779653767930411
 10
0.7685161858883376
 20
0.5697413105606364
 10
0.7710667533049147
 20
0.5613327513597764
 10
0.7733689206835166
 20
0.5527445988209357
 10
0.7754295854086948
 20
0.5439817525745898
 10
0.7772556448650079
 20
0.5350491122512136
 10
0.7788539964370074
 20
0.5259515774812824
 10
0.7802315375092484
 20
0.516694047895272
 10
0.7813951654662823
 20
0.5072814231236569
 10
0.7823517776926643
 20
0.4977186027969128
 10
0.7831082715729494
 20
0.4880104865455151
 10
0.7836715444916927
 20
0.4781619739999377
 10
0.7840484938334491
 20
0.4681779647906579
 10
0.7842460169827668
 20
0.4580633585481487
 10
0.7842710113242042
 20
0.4478230549028872
 10
0.7841303742423165
 20
0.4374619534853475
 10
0.7838310031216551
 20
0.4269849539260049
 10
0.7833797953467752
 20
0.4163969558553342
 10
0.7827836483022317
 20
0.4057028589038119
 10
0.7820494593725798
 20
0.3949075627019125
 10
0.7811841259423673
 20
0.3840159668801117
 10
0.7801945453961566
 20
0.3730329710688833
 10
0.7790876151184954
 20
0.3619634748987037
 10
0.7778702324939389
 20
0.3508123780000485
 10
0.7765492949070456
 20
0.3395845800033914
 10
0.7751316997423637
 20
0.328284980539209
 10
0.7736243443844515
 20
0.3169184792379758
 10
0.7720341262178643
 20
0.3054899757301674
 10
0.77036794262715
 20
0.2940043696462586
 10
0.7686326909968671
 20
0.2824665606167249
 10
0.7668352687115672
 20
0.270881448272041
 10
0.7649825731558089
 20
0.2592539322426832
 10
0.7630815017141437
 20
0.2475889121591255
 10
0.7611389517711232
 20
0.2358912876518442
 10
0.7591618207113058
 20
0.2241659583513131
 10
0.7571570059192397
 20
0.2124178238880088
 10
0.7551314047794869
 20
0.2006517838924058
 10
0.7530919146765953
 20
0.1888727379949797
 10
0.7510454329951202
 20
0.1770855858262057
 10
0.74899885711962
 20
0.1652952270165588
 10
0.7469590844346428
 20
0.1535065611965134
 10
0.7449330123247471
 20
0.1417244879965462
 10
0.7429275381744809
 20
0.1299539070471321
 10
0.7409495593684064
 20
0.1181997179787455
 10
0.7390059732910715
 20
0.1064668204218617
 10
0.7371036773270348
 20
0.0947601140069567
 10
0.7352495688608478
 20
0.0830844983645047
 10
0.7334505452770657
 20
0.0714448731249826
 10
0.7317135039602399
 20
0.0598461379188633
 10
0.7300453422949254
 20
0.0482931923766241
 10
0.7284529576656809
 20
0.0367909361287389
 10
0.7269432474570543
 20
0.0253442688056831
 10
0.7255231090536008
 20
0.0139580900379328
 10
0.7241994398398788
 20
0.0026372994559623
 10
0.72297913720044
 20
-0.0086132033097535
 10
0.7218690985198358
 20
-0.0197885186287383
 10
0.7208762211826248
 20
-0.0308837468705177
 10
0.7200072863235612
 20
-0.0418940429487305
 10
0.719264555866733
 20
-0.0528166821794871
 10
0.7186444211216916
 20
-0.0636516943567003
 10
0.7181428810549484
 20
-0.0743992933606736
 10
0.7177559346330078
 20
-0.0850596930717087
 10
0.7174795808223778
 20
-0.0956331073701087
 10
0.7173098185895697
 20
-0.1061197501361746
 10
0.7172426469010845
 20
-0.1165198352502097
 10
0.7172740647234371
 20
-0.1268335765925164
 10
0.7174000710231319
 20
-0.1370611880433969
 10
0.7176166647666733
 20
-0.1472028834831534
 10
0.7179198449205764
 20
-0.1572588767920884
 10
0.7183056104513419
 20
-0.1672293818505039
 10
0.7187699603254849
 20
-0.1771146125387024
 10
0.7193088935095027
 20
-0.186914782736987
 10
0.7199184089699138
 20
-0.1966301063256583
 10
0.7205945056732191
 20
-0.206260797185021
 10
0.72133318258593
 20
-0.2158070691953755
 10
0.7221304386745509
 20
-0.2252691362370252
 10
0.7229822729055897
 20
-0.2346472121902723
 10
0.723884684245558
 20
-0.2439415109354184
 10
0.7248336716609636
 20
-0.2531522463527667
 10
0.7258252341183074
 20
-0.2622796323226195
 10
0.7268553705841044
 20
-0.2713238827252784
 10
0.7279200800248553
 20
-0.2802852114410466
 10
0.7290153614070754
 20
-0.2891638323502263
 10
0.7301372136972688
 20
-0.2979599593331192
 10
0.7312816358619401
 20
-0.3066738062700285
 10
0.7324446268676042
 20
-0.315305587041256
 10
0.7336221856807619
 20
-0.3238555155271041
 10
0.7348103112679248
 20
-0.3323238056078752
 10
0.7360050025956007
 20
-0.3407106711638721
 10
0.737202258630294
 20
-0.3490163260753967
 10
0.7383980783385163
 20
-0.3572409842227513
 10
0.7395884606867753
 20
-0.3653848594862383
 10
0.7407694046415756
 20
-0.3734481657461606
 10
0.741936909169425
 20
-0.381431116882819
 10
0.7430869732368351
 20
-0.3893339267765179
 10
0.7442155958103065
 20
-0.3971568093075586
 10
0.7453187758563545
 20
-0.4048999783562431
 10
0.7463925123414868
 20
-0.4125636478028741
 10
0.7474328042322043
 20
-0.4201480315277544
 10
0.7484356504950185
 20
-0.427653343411186
 10
0.7493970500964374
 20
-0.4350797973334708
 10
0.7503130020029723
 20
-0.4424276071749116
 10
0.7511795051811241
 20
-0.4496969868158108
 10
0.7519925585974008
 20
-0.456888150136471
 10
0.7527481612183174
 20
-0.4640013110171939
 10
0.7534423120103746
 20
-0.4710366833382822
 10
0.7540710099400841
 20
-0.4779944809800383
 10
0.75463025397395
 20
-0.4848749178227641
 10
0.7551160430784841
 20
-0.4916782077467632
 10
0.7555243762201905
 20
-0.4984045646323363
 10
0.7558512523655772
 20
-0.5050542023597862
 10
0.7560926704811557
 20
-0.5116273348094165
 10
0.7562446295334305
 20
-0.5181241758615283
 10
0.7563031284889093
 20
-0.5245449393964239
 10
0.7562641663141037
 20
-0.5308898392944062
 10
0.7561237419755145
 20
-0.537159089435777
 10
0.7558778544396532
 20
-0.54335290370084
 10
0.7555226890125866
 20
-0.549471457729811
 10
0.7550572191922527
 20
-0.555514354977948
 10
0.754482564832216
 20
-0.5614807584313866
 10
0.7537999009977768
 20
-0.567369819745871
 10
0.7530104027542173
 20
-0.5731806905771429
 10
0.7521152451668272
 20
-0.5789125225809455
 10
0.7511156033008995
 20
-0.5845644674130202
 10
0.7500126522217237
 20
-0.5901356767291102
 10
0.7488075669945858
 20
-0.5956253021849589
 10
0.7475015226847788
 20
-0.6010324954363071
 10
0.7460956943575923
 20
-0.6063564081388995
 10
0.7445912570783158
 20
-0.6115961919484763
 10
0.7429893859122388
 20
-0.6167509985207818
 10
0.7412912559246472
 20
-0.621819979511558
 10
0.7394980421808377
 20
-0.6268022865765471
 10
0.7376109197460963
 20
-0.6316970713714927
 10
0.7356310636857124
 20
-0.6365034855521357
 10
0.7335596490649757
 20
-0.6412206807742203
 10
0.7313978509491755
 20
-0.6458478086934881
 10
0.7291468444036014
 20
-0.6503840209656815
 10
0.7268078044935465
 20
-0.6548284692465441
 10
0.7243819062842967
 20
-0.6591803051918177
 10
0.7218703248411451
 20
-0.6634386804572446
 10
0.7192742352293778
 20
-0.6676027466985684
 10
0.7165948125142876
 20
-0.6716716555715303
 10
0.7138332317611607
 20
-0.6756445587318734
 10
0.71099066803529
 20
-0.6795206078353413
 10
0.7080682964019652
 20
-0.6832989545376745
 10
0.705067291926472
 20
-0.6869787504946175
 10
0.7019888296741037
 20
-0.6905591473619115
 10
0.6988340847101498
 20
-0.6940392967953004
 10
0.6956042320998997
 20
-0.6974183504505254
 10
0.6923004469086429
 20
-0.7006954599833293
 10
0.6889239042016691
 20
-0.7038697770494556
 10
0.6854757790442676
 20
-0.7069404533046458
 10
0.6819572465017281
 20
-0.7099066404046433
 10
0.67836948163934
 20
-0.7127674900051897
 10
0.6747136595223929
 20
-0.715522153762028
 10
0.6709909552161797
 20
-0.7181697833309011
 10
0.6672025437859866
 20
-0.7207095303675515
 10
0.6633496002971029
 20
-0.7231405465277217
 10
0.6594332998148218
 20
-0.7254619834671532
 10
0.6554548174044293
 20
-0.7276729928415904
 10
0.6514153281312183
 20
-0.7297727263067744
 10
0.6473160070604749
 20
-0.7317603355184481
 10
0.6431580292574921
 20
-0.7336349721323546
 10
0.638942569787556
 20
-0.7353957878042357
 10
0.634670803715963
 20
-0.7370419341898345
 10
0.6303439061079957
 20
-0.7385725629448939
 10
0.625963052028947
 20
-0.739986825725155
 10
0.6215294165441066
 20
-0.7412838741863617
 10
0.6170441747187639
 20
-0.742462859984256
 10
0.6125085016182048
 20
-0.7435229347745809
 10
0.6079235723077261
 20
-0.7444632502130784
 10
0.6032905618526137
 20
-0.7452829579554914
 10
0.598610645318157
 20
-0.7459812096575625
 10
0.5938849977696457
 20
-0.746557156975034
 10
0.5891147942723727
 20
-0.7470099515636486
 10
0.5843012098916241
 20
-0.7473387450791487
 10
0.5794454196926893
 20
-0.7475426891772763
 10
0.574548848019699
 20
-0.747621361586206
 10
0.5696147615431891
 20
-0.747577488975665
 10
0.5646472526698432
 20
-0.747415209380308
 10
0.559650417701338
 20
-0.7471386674921701
 10
0.5546283529393392
 20
-0.7467520080032877
 10
0.5495851546855164
 20
-0.746259375605697
 10
0.5445249192415389
 20
-0.7456649149914334
 10
0.5394517429090798
 20
-0.7449727708525327
 10
0.5343697219898012
 20
-0.7441870878810306
 10
0.5292829527853798
 20
-0.7433120107689631
 10
0.5241955315974849
 20
-0.7423516842083667
 10
0.519111554727779
 20
-0.7413102528912763
 10
0.5161686938502755
 20
-0.7406619102192696
  0
CIRCLE
  5
331
330
1F
100
AcDbEntity
  8
Component_Outline
100
AcDbCircle
 10
0.1056686973377872
 20
0.2927164555201012
 30
0.0
 40
0.01
  0
LWPOLYLINE
  5
332
330
1F
100
AcDbEntity
  8
Component_Outline
100
AcDbPolyline
 90
       26
 70
     1
 43
0.0
 39
1.0
 10
0.4499116503742293
 20
-0.3472835444799092
 42
0.1916945513180615
 10
0.4298118991319591
 20
-0.339283544479887
 10
0.0723118991319431
 20
-0.339283544479887
 42
0.1916945513180662
 10
0.0522121478896729
 20
-0.3472835444799092
 10
-0.0100883496257502
 20
-0.3472835444799092
 42
0.1916945513180662
 10
-0.0301881008680205
 20
-0.339283544479887
 10
-0.3876881008680364
 20
-0.339283544479887
 42
0.1916945513180615
 10
-0.4077878521102925
 20
-0.3472835444799092
 10
-0.4789413026622107
 20
-0.3472835444799092
 10
-0.4789413026622107
 20
-0.161426511041328
 42
0.9178887105958699
 10
-0.4789413026622107
 20
-0.1031405779184888
 10
-0.4789413026622107
 20
0.088573488958672
 42
0.9178887105958699
 10
-0.4789413026622107
 20
0.1468594220815111
 10
-0.4789413026622107
 20
0.4027164555200909
 10
-0.1234842692236278
 20
0.4027164555200909
 42
0.917888710595869
 10
-0.0651983361007957
 20
0.4027164555200909
 10
0.0765157307763751
 20
0.4027164555200909
 42
0.917888710595869
 10
0.1348016638992071
 20
0.4027164555200909
 10
0.2765257307763669
 20
0.4027164555200909
 42
0.917888710595869
 10
0.3348116638992131
 20
0.4027164555200909
 10
0.5210586973377894
 20
0.4027164555200909
 10
0.5210586973377894
 20
0.1468594220815111
 42
0.9178887105958699
 10
0.5210586973377894
 20
0.088573488958672
 10
0.5210586973377894
 20
-0.1031405779184888
 42
0.9178887105958699
 10
0.5210586973377894
 20
-0.161426511041328
 10
0.5210586973377894
 20
-0.3472835444799092
  0
LWPOLYLINE
  5
333
330
1F
100
AcDbEntity
  8
Component_Pads
100
AcDbPolyline
 90
       10
 70
     1
 43
0.0
 39
1.0
 10
0.1436686973377839
 20
0.4027164555200909
 10
0.1436686973377839
 20
0.396716455520079
 10
0.1631686973377633
 20
0.396716455520079
 10
0.1631686973377633
 20
0.3527164555200999
 10
0.0481686973377968
 20
0.3527164555200999
 10
0.0481686973377684
 20
0.396716455520079
 10
0.0676686973377763
 20
0.396716455520079
 10
0.0676686973377763
 20
0.4027164555200909
 10
0.0765157307763751
 20
0.4027164555200909
 42
0.917888710595869
 10
0.1348016638992071
 20
0.4027164555200909
  0
LWPOLYLINE
  5
334
330
1F
100
AcDbEntity
  8
Component_Pads
100
AcDbPolyline
 90
       10
 70
     1
 43
0.0
 39
1.0
 10
0.0369565600726496
 20
-0.3472835444799092
 42
-0.1227173895842048
 10
0.0510618991319483
 20
-0.333178205420583
 10
0.0510618991319483
 20
-0.2972835444798845
 10
0.451061899131954
 20
-0.2972835444798845
 10
0.451061899131954
 20
-0.3331782054205581
 42
-0.1227173895845199
 10
0.4651672381913024
 20
-0.3472835444799092
 10
0.4499116503742293
 20
-0.3472835444799092
 42
0.1916945513180479
 10
0.4298118991319591
 20
-0.339283544479887
 10
0.0723118991319431
 20
-0.339283544479887
 42
0.1916945513180662
 10
0.0522121478896729
 20
-0.3472835444799092
  0
LWPOLYLINE
  5
335
330
1F
100
AcDbEntity
  8
Component_Pads
100
AcDbPolyline
 90
       10
 70
     1
 43
0.0
 39
1.0
 10
-0.42304343992733
 20
-0.3472835444799092
 42
-0.1227173895842048
 10
-0.4089381008680313
 20
-0.333178205420583
 10
-0.4089381008680313
 20
-0.2972835444798845
 10
-0.0089381008680256
 20
-0.2972835444798845
 10
-0.0089381008680256
 20
-0.3331782054205581
 42
-0.1227173895845596
 10
0.0051672381913299
 20
-0.3472835444799092
 10
-0.0100883496257502
 20
-0.3472835444799092
 42
0.1916945513180662
 10
-0.0301881008680205
 20
-0.339283544479887
 10
-0.3876881008680364
 20
-0.339283544479887
 42
0.1916945513180615
 10
-0.4077878521102925
 20
-0.3472835444799092
  0
LWPOLYLINE
  5
336
330
1F
100
AcDbEntity
  8
Component_Pads
100
AcDbPolyline
 90
       44
 70
     1
 43
0.0
 10
-0.4789413026622107
 20
0.088573488958672
 42
0.9178887105958416
 10
-0.4789413026622107
 20
0.1468594220815111
 10
-0.4789413026622107
 20
0.1557164555200972
 10
-0.4729381008680243
 20
0.1557164555200972
 10
-0.4729381008680243
 20
0.396716455520079
 10
-0.1323313026622124
 20
0.396716455520079
 10
-0.1323313026622124
 20
0.4027164555200909
 10
-0.1234842692236278
 20
0.4027164555200909
 42
0.917888710595869
 10
-0.0651983361007957
 20
0.4027164555200909
 10
-0.0563313026622048
 20
0.4027164555200909
 10
-0.0563313026622048
 20
0.396716455520079
 10
0.0181686973377815
 20
0.396716455520079
 10
0.0181686973377815
 20
0.3227164555200881
 10
0.1931686973377786
 20
0.3227164555201201
 10
0.1931686973377786
 20
0.396716455520079
 10
0.2676686973377933
 20
0.396716455520079
 10
0.2676686973377933
 20
0.4027164555200909
 10
0.2765257307763669
 20
0.4027164555200909
 42
0.917888710595869
 10
0.3348116638992131
 20
0.4027164555200909
 10
0.3436686973378009
 20
0.4027164555200909
 10
0.3436686973378009
 20
0.396716455520079
 10
0.5150618991319753
 20
0.396716455520079
 10
0.5150618991319753
 20
0.1557164555200972
 10
0.5210586973377894
 20
0.1557164555200972
 10
0.5210586973377894
 20
0.1468594220815111
 42
0.9178887105958699
 10
0.5210586973377894
 20
0.088573488958672
 10
0.5210586973377894
 20
0.0797164555200967
 10
0.5150618991319753
 20
0.0797164555200967
 10
0.5150618991319753
 20
-0.0942835444799029
 10
0.5210586973377894
 20
-0.0942835444799029
 10
0.5210586973377894
 20
-0.1031405779184888
 42
0.9178887105958699
 10
0.5210586973377894
 20
-0.161426511041328
 10
0.5210586973377894
 20
-0.1702835444799033
 10
0.5150618991319753
 20
-0.1702835444799033
 10
0.5150618991319753
 20
-0.2672835444799046
 10
-0.4729381008680243
 20
-0.2672835444799046
 10
-0.4729381008680243
 20
-0.1702835444799033
 10
-0.4789413026622107
 20
-0.1702835444799033
 10
-0.4789413026622107
 20
-0.161426511041328
 42
0.9178887105958699
 10
-0.4789413026622107
 20
-0.1031405779184888
 10
-0.4789348990738667
 20
-0.0942835444799029
 10
-0.4729381008680527
 20
-0.0942835444799029
 10
-0.4729381008680527
 20
0.0797164555200967
 10
-0.4789348990738667
 20
0.0797164555200967
  0
LWPOLYLINE
  5
337
330
1F
100
AcDbEntity
  8
PCB_Land_Pattern
100
AcDbPolyline
 90
        4
 70
     1
 43
0.0
 10
-0.4138312974497183
 20
-0.2972835379799035
 10
-0.0038313015497238
 20
-0.2972835379799035
 10
-0.0038313015497238
 20
-0.3772835371799035
 10
-0.4138312974497183
 20
-0.3772835371799035
  0
LWPOLYLINE
  5
338
330
1F
100
AcDbEntity
  8
PCB_Solder_Mask
100
AcDbPolyline
 90
        4
 70
     1
 43
0.0
 10
-0.4158312974497172
 20
-0.2952835379799037
 10
-0.0018313015497249
 20
-0.2952835379799037
 10
-0.0018313015497249
 20
-0.3792835371799033
 10
-0.4158312974497172
 20
-0.3792835371799033
  0
LWPOLYLINE
  5
339
330
1F
100
AcDbEntity
  8
PCB_Land_Pattern
100
AcDbPolyline
 90
        4
 70
     1
 43
0.0
 10
0.0461686979502787
 20
-0.2972835379799035
 10
0.4561686938502732
 20
-0.2972835379799035
 10
0.4561686938502732
 20
-0.3772835371799035
 10
0.0461686979502787
 20
-0.3772835371799035
  0
LWPOLYLINE
  5
33A
330
1F
100
AcDbEntity
  8
PCB_Solder_Mask
100
AcDbPolyline
 90
        4
 70
     1
 43
0.0
 10
0.0441686979502798
 20
-0.2952835379799037
 10
0.4581686938502721
 20
-0.2952835379799037
 10
0.4581686938502721
 20
-0.3792835371799033
 10
0.0441686979502798
 20
-0.3792835371799033
  0
LWPOLYLINE
  5
33B
330
1F
100
AcDbEntity
  8
PCB_Land_Pattern
100
AcDbPolyline
 90
        4
 70
     1
 43
0.0
 10
0.1631686967627814
 20
0.3527164555200999
 10
0.0481686979127787
 20
0.3527164555200999
 10
0.0481686979127787
 20
0.4227164548200859
 10
0.1631686967627814
 20
0.4227164548200859
  0
LWPOLYLINE
  5
33C
330
1F
100
AcDbEntity
  8
PCB_Solder_Mask
100
AcDbPolyline
 90
        4
 70
     1
 43
0.0
 10
0.1651686967627803
 20
0.3507164555201001
 10
0.0461686979127798
 20
0.3507164555201001
 10
0.0461686979127798
 20
0.4247164548200857
 10
0.1651686967627803
 20
0.4247164548200857
  0
LWPOLYLINE
  5
33D
330
1F
100
AcDbEntity
  8
PCB_Top
100
AcDbPolyline
 90
        5
 70
     1
 43
0.0
 10
0.1304186984222468
 20
0.7043808138092907
 10
0.1304186984222468
 20
0.4227164548200859
 10
0.0809186962533097
 20
0.4227164548200859
 10
0.0809186962533097
 20
0.7043808138092907
 42
-0.6578187733730747
 10
0.1037964547974326
 20
0.7043808138092907
 42
0.7115521451456692
  0
LWPOLYLINE
  5
33E
330
1F
100
AcDbEntity
  8
PCB_Top
100
AcDbPolyline
 90
        5
 70
     1
 43
0.0
 10
-0.3988312974497177
 20
-0.7339478961691084
 10
-0.3988312974497177
 20
-0.3772835371799035
 10
-0.0188313015497244
 20
-0.3772835371799035
 10
-0.0188313015497244
 20
-0.7339478961691084
 42
-0.2612467874809232
 10
-0.2275728878864989
 20
-0.7368435952314174
 42
0.2474955425858492
  0
LWPOLYLINE
  5
33F
330
1F
100
AcDbEntity
  8
PCB_Land_Pattern
100
AcDbPolyline
 90
        9
 70
     0
 43
0.0
 10
0.1931686973377786
 20
0.3227164558201023
 10
0.1931686973377751
 20
0.4227164548200859
 10
0.5320586973377886
 20
0.4227164548200859
 10
0.5320586973377886
 20
-0.2672835444799046
 10
-0.48994130266221
 20
-0.2672835444799046
 10
-0.48994130266221
 20
0.4227164548200859
 10
0.0181686982127758
 20
0.4227164548201161
 10
0.0181686982127829
 20
0.3227164558200881
 10
0.1931686964627772
 20
0.3227164558201023
  0
LWPOLYLINE
  5
340
330
1F
100
AcDbEntity
  8
PCB_Solder_Stencil
100
AcDbPolyline
 90
        8
 70
     1
 43
0.0
 10
0.1951686973377775
 20
0.3207164558201025
 10
0.195168697337774
 20
0.4207164548200862
 10
0.5300586973377897
 20
0.4207164548200862
 10
0.5300586973377897
 20
-0.2652835444799049
 10
-0.4879413026622111
 20
-0.2652835444799049
 10
-0.4879413026622111
 20
0.4207164548200862
 10
0.0161686982127769
 20
0.4207164548201164
 10
0.016168698212784
 20
0.3207164558200883
  0
LWPOLYLINE
  5
341
330
1F
100
AcDbEntity
  8
PCB_Solder_Mask
100
AcDbPolyline
 90
        8
 70
     1
 43
0.0
 10
0.1911686973377797
 20
0.3247164558201021
 10
0.1911686973377762
 20
0.4247164548200857
 10
0.5340586973377875
 20
0.4247164548200857
 10
0.5340586973377875
 20
-0.2692835444799049
 10
-0.4919413026622089
 20
-0.2692835444799049
 10
-0.4919413026622089
 20
0.4247164548200857
 10
0.0201686982127747
 20
0.4247164548201159
 10
0.0201686982127818
 20
0.3247164558200879
  0
LWPOLYLINE
  5
342
330
1F
100
AcDbEntity
  8
PCB_Solder_Stencil
100
AcDbPolyline
 90
        4
 70
     1
 43
0.0
 10
0.1631686967627814
 20
0.3527164555200999
 10
0.0481686979127787
 20
0.3527164555200999
 10
0.0481686979127787
 20
0.4027164555200909
 10
0.1631686967627814
 20
0.4027164555200909
  0
LWPOLYLINE
  5
343
330
1F
100
AcDbEntity
  8
PCB_Solder_Stencil
100
AcDbPolyline
 90
        4
 70
     1
 43
0.0
 10
-0.4138312974497183
 20
-0.2972835379799035
 10
-0.0038313015497238
 20
-0.2972835379799035
 10
-0.0038313015497238
 20
-0.3472835444799092
 10
-0.4138312974497183
 20
-0.3472835444799092
  0
LWPOLYLINE
  5
344
330
1F
100
AcDbEntity
  8
PCB_Solder_Stencil
100
AcDbPolyline
 90
        4
 70
     1
 43
0.0
 10
0.0461686979502787
 20
-0.2972835379799035
 10
0.4561686938502732
 20
-0.2972835379799035
 10
0.4561686938502732
 20
-0.3472835444799092
 10
0.0461686979502787
 20
-0.3472835444799092
  0
DIMENSION
  5
345
330
1F
100
AcDbEntity
  8
Notes
 62
     7
100
AcDbDimension
280
     0
  2
*D6
 10
0.0809186962533098
 20
0.9175660616832352
 30
0.0
 11
-0.4782479889876506
 21
0.9175660616832352
 31
0.0
 70
   160
  1
1x 50 Ohm\PTransmission Line
 71
     6
 42
0.0495000021689371
 73
     0
 74
     0
 75
     0
  3
Mounting
100
AcDbAlignedDimension
 13
0.1304186984222468
 23
0.7043808138092907
 33
0.0
 14
0.0809186962533097
 24
0.7043808138092907
 34
0.0
100
AcDbRotatedDimension
1001
ACAD
1000
DSTYLE
1002
{
1070
    41
1040
0.25
1070
    42
1040
0.2
1070
    44
1040
0.25
1070
   140
1040
0.18
1070
   147
1040
0.25
1002
}
  0
DIMENSION
  5
346
330
1F
100
AcDbEntity
  8
Notes
 62
     7
100
AcDbDimension
280
     0
  2
*D7
 10
-0.3988312974497177
 20
-0.7975872396174957
 30
0.0
 11
-0.7939022721681255
 21
-0.7975872396174957
 31
0.0
 70
   160
  1
2x 12.5 Ohm\PTransmission Line
 71
     6
 42
0.3799999958999933
 73
     0
 74
     0
 75
     0
  3
Mounting
100
AcDbAlignedDimension
 13
-0.0188313015497244
 23
-0.7339478961691084
 33
0.0
 14
-0.3988312974497177
 24
-0.7339478961691058
 34
0.0
100
AcDbRotatedDimension
1001
ACAD
1000
DSTYLE
1002
{
1070
    41
1040
0.25
1070
    42
1040
0.2
1070
    44
1040
0.25
1070
   140
1040
0.18
1070
   147
1040
0.25
1002
}
  0
DIMENSION
  5
347
330
1F
100
AcDbEntity
  8
Notes
 62
     7
100
AcDbDimension
280
     0
  2
*D8
 10
0.5161686938502755
 20
-0.870625711739362
 30
0.0
 11
0.1359483664287173
 21
-0.870625711739362
 31
0.0
 70
   160
  1
3x 12.5 Ohm\PTransmission Line Gap
 71
     6
 42
0.0750000000000029
 73
     0
 74
     0
 75
     0
  3
Mounting
100
AcDbAlignedDimension
 13
0.4411686938502726
 23
-0.7339478961691084
 33
0.0
 14
0.5161686938502755
 24
-0.7406619102192696
 34
0.0
 50
180.0
100
AcDbRotatedDimension
1001
ACAD
1000
DSTYLE
1002
{
1070
    41
1040
0.25
1070
    42
1040
0.2
1070
    44
1040
0.25
1070
   140
1040
0.18
1070
   147
1040
0.25
1002
}
  0
MULTILEADER
  5
348
330
1F
100
AcDbEntity
  8
Notes
160
               852
310
54030000190000000C00000016000000000000C00C00000033000000000000000C00000013000000993A0000D8000000260000008A95EF69925FEA3F5AE01C2E2F9ABA3F000000000000000000000000000000000000000000000000000000000000F03F000000000000F03F0000000000000000000000000000000050006C
310
00610074006500640020005400680072007500200048006F006C006500200054006F00000013000000010000009A9999999999993F000000000000F03F0000000000000000000000000000F03F00000000000000000000000000000000000000000000000000000000010000002200000041007200690061006C0000000000
310
660000000000B8000000260000009B1D14CF6A66EA3F5EE0C9C227A7AF3F000000000000000000000000000000000000000000000000000000000000F03F000000000000F03F0000000000000000000000000000000047004E004400000003000000010000009A9999999999993F000000000000F03F000000000000000000
310
0000000000F03F00000000000000000000000000000000000000000000000000000000010000002200000041007200690061006C00000000007300000000000C00000033000000000000000C00000010000000030000000C00000016000000000000C00C00000012000000FF7F00000C00000013000000010000000C000000
310
140000000100000054000000070000000300000016CB06B71BB6DC3FB76401AAC583C9BF0000000000000000803C5CE2A77DDB3F405BF121C9A6CBBF00000000000000006EEE1498834CDC3FE1F98A26ABD6C8BF00000000000000000C00000014000000010000000C00000013000000891300003C00000006000000020000
310
00C2DC8DA74F81DC3F4C2F4668382DC9BF000000000000000020D46FFEA475E63FC07049106ABFBD3F00000000000000000C00000013000000112700003C000000060000000200000020D46FFEA475E63FC07049106ABFBD3F00000000000000005307A331D8A8E93FC07049106ABFBD3F00000000000000000C0000001600
310
0000000000C00C00000012000000FF7F00000C00000017000000000000000C000000130000009A3A00000C00000016000000000000C00C00000012000000FF7F00000C00000017000000FFFFFFFF0C0000003300000000000000
100
AcDbMLeader
270
     2
300
CONTEXT_DATA{
 40
1.0
 10
0.8018609017819734
 20
0.1162020005953677
 30
0.0
 41
0.025
140
0.025
145
0.025
174
     1
175
     1
176
     0
177
     0
290
     1
304
Plated Thru Hole To GND
 11
0.0
 21
0.0
 31
1.0
340
DC
 12
0.8268609017819734
 22
0.1289151656704019
 32
0.0
 13
1.0
 23
0.0
 33
0.0
 42
0.0
 43
0.3698292346132204
 44
0.0
 45
1.0
170
     1
 90
-1073741824
171
     1
172
     5
 91
-1073741824
141
0.0
 92
        0
291
     0
292
     0
173
     0
293
     0
142
0.0
143
0.0
294
     0
295
     0
296
     0
110
0.5879326889181407
120
0.420270655192919
130
0.0
111
1.0
121
0.0
131
0.0
112
0.0
122
1.0
132
0.0
297
     0
302
LEADER{
290
     1
291
     1
 10
0.7018609017819735
 20
0.1162020005953677
 30
0.0
 11
1.0
 21
0.0
 31
0.0
 90
        0
 40
0.1
304
LEADER_LINE{
 10
0.4295444212484157
 20
-0.216027394841797
 30
0.0
 91
        0
305
}
271
     0
303
}
272
     9
273
     9
301
}
340
276
 90
   345632
170
     1
 91
-1056964608
341
14
171
    -2
290
     1
291
     1
 41
0.1
 42
0.025
172
     2
343
DC
173
     1
 95
        1
174
     1
175
     0
 92
-1056964608
292
     0
 93
-1056964608
 10
1.0
 20
1.0
 30
1.0
 43
0.0
176
     0
293
     0
294
     0
178
     0
179
     1
 45
1.0
271
     0
272
     9
273
     9
295
     0
  0
DIMENSION
  5
349
330
1F
100
AcDbEntity
  8
Notes
 62
     7
100
AcDbDimension
280
     0
  2
*D9
 10
0.1738118984505306
 20
0.844823285399574
 30
0.0
 11
0.660081969892687
 21
0.844823285399574
 31
0.0
 70
   160
  1
2x 50 Ohm\PTransmission Line Gap
 71
     6
 42
0.0433932000282837
 73
     0
 74
     0
 75
     0
  3
Mounting
100
AcDbAlignedDimension
 13
0.1304186984222468
 23
0.7043808138092907
 33
0.0
 14
0.1738118984505306
 24
0.6973289219968031
 34
0.0
 50
180.0
100
AcDbRotatedDimension
1001
ACAD
1000
DSTYLE
1002
{
1070
    41
1040
0.25
1070
    42
1040
0.2
1070
    44
1040
0.25
1070
   140
1040
0.18
1070
   147
1040
0.25
1002
}
  0
MTEXT
  5
34A
102
{ACAD_XDICTIONARY
360
34B
102
}
330
1F
100
AcDbEntity
  8
Notes
100
AcDbMText
 10
0.0027459519284854
 20
-1.41151391386728
 30
0.0
 40
0.024
 41
2.020470711610352
 46
0.0
 71
     5
 72
     5
  3
\pxi-3,l4,ql,t4;{\fArial|b0|i0|c0|p34;\W1;\C7;1.^IThe component has been designed and qualified with this mounting footprint with a 0.030" test board with Dk value of approximately 3.5 comprised of commonly used board substrate materials such as RO435
  3
0 and Isola I-tera MT40. Deviations from the recommended mounting footprint may reduce RF and power handling performance. It is the customer's responsibility to qualify the component in the end application. \P\pi1,l0,tz;\P\pi-3,l4,t4;2.^I1x 50 ohm and
  3
 2x 12.5 ohm transmission lines are for reference only and can be oriented in any direction. Customer to determine transmission line and gap dimensions to achieve 50 and 12.5 ohm impedance for end application. \P\pi1,l0,tz;\P\pi-3,l4,t4;3.^ITo ensure 
  3
proper electrical and thermal performance there must be a ground plane with 100% solder connection underneath the part orientated as shown with text facing up.\P\pi1,l0,tz;\P\pi-3,l4,t4;4.^IPTH connecting pads to ground are representative. \P\pi1,l0,t
  3
z;\P\pi-3,l4,t4;5.^IGround vias under part should be filled to prevent solder wicking.\P\pi1,l0,tz;\P\pi-3,l4,t4;6.^ISolder mask and solder stencil dimensions may vary due to different manufacturer capabilities and process variations. Layers may be mod
  1
ified to account for manufacturer capabilities.\P\pi1,l0,tz;\P\pi-3,l4,t4;7.^IDimensions are in inches.\P\pi1,l0,tz;\P\pqr;XMB0810G3-5025G_Mounting_Footprint_250819.dxf}
  7
RomanS
 73
     1
 44
1.0
101
Embedded Object
 70
     5
 10
1.0
 20
0.0
 30
0.0
 11
0.0027459519284854
 21
-1.41151391386728
 31
0.0
 40
2.020470711610352
 41
0.0
 42
1.986548431105047
 43
0.8359836289222375
 71
     2
 72
     1
 44
2.020470711610352
 45
0.375
 73
     0
 74
     0
 46
1.035285266794354
1001
AcadAnnotative
1000
AnnotativeData
1002
{
1070
     1
1070
     0
1002
}
  0
LWPOLYLINE
  5
34E
330
1F
100
AcDbEntity
  8
PCB_Top
100
AcDbPolyline
 90
        5
 70
     1
 43
0.0
 10
0.0611686979502793
 20
-0.7339478961691084
 10
0.0611686979502793
 20
-0.3772835371799035
 10
0.4411686938502726
 20
-0.3772835371799035
 10
0.4411686938502726
 20
-0.7339478961691084
 42
-0.2612467874809232
 10
0.232427107513498
 20
-0.7368435952314174
 42
0.2474955425858492
  0
LWPOLYLINE
  5
34F
330
1F
100
AcDbEntity
  8
PCB_Top
370
    -3
100
AcDbPolyline
 90
        8
 70
     0
 43
0.0
 10
0.5161686938502755
 20
-0.7406619102192696
 10
0.5161686938502719
 20
-0.4522835364299081
 10
0.5361686930502785
 20
-0.4522835364298965
 10
0.5361686930502785
 20
-0.267283538279905
 10
-0.4938312966497236
 20
-0.2672835382799086
 10
-0.4938312966497094
 20
-0.4522835364298948
 10
-0.473831297449717
 20
-0.452283536429925
 10
-0.4738312974497206
 20
-0.7176088230810849
  0
CIRCLE
  5
350
330
1F
100
AcDbEntity
  8
PCB_Plated_Holes
100
AcDbCircle
 10
-0.6820260867679231
 20
-0.0323406821942545
 30
0.0
 40
0.02
  0
CIRCLE
  5
351
330
1F
100
AcDbEntity
  8
PCB_Plated_Holes
100
AcDbCircle
 10
-0.6820260867679231
 20
-0.1323406821942541
 30
0.0
 40
0.02
  0
CIRCLE
  5
352
330
1F
100
AcDbEntity
  8
PCB_Plated_Holes
100
AcDbCircle
 10
-0.6820260867679231
 20
-0.2323406821942542
 30
0.0
 40
0.02
  0
CIRCLE
  5
353
330
1F
100
AcDbEntity
  8
PCB_Plated_Holes
100
AcDbCircle
 10
-0.6820260867679231
 20
-0.3323406821942543
 30
0.0
 40
0.02
  0
CIRCLE
  5
354
330
1F
100
AcDbEntity
  8
PCB_Plated_Holes
100
AcDbCircle
 10
-0.6820260867679231
 20
-0.4323406821942544
 30
0.0
 40
0.02
  0
CIRCLE
  5
355
330
1F
100
AcDbEntity
  8
PCB_Plated_Holes
100
AcDbCircle
 10
-0.6820260867679231
 20
-0.5323406821942545
 30
0.0
 40
0.02
  0
CIRCLE
  5
356
330
1F
100
AcDbEntity
  8
PCB_Plated_Holes
100
AcDbCircle
 10
-0.5820260867679217
 20
0.5676593178057457
 30
0.0
 40
0.02
  0
CIRCLE
  5
357
330
1F
100
AcDbEntity
  8
PCB_Plated_Holes
100
AcDbCircle
 10
-0.5820260867679217
 20
0.4676593178057456
 30
0.0
 40
0.02
  0
CIRCLE
  5
358
330
1F
100
AcDbEntity
  8
PCB_Plated_Holes
100
AcDbCircle
 10
-0.5820260867679217
 20
0.3676593178057459
 30
0.0
 40
0.02
  0
CIRCLE
  5
359
330
1F
100
AcDbEntity
  8
PCB_Plated_Holes
100
AcDbCircle
 10
-0.5820260867679217
 20
0.2676593178057458
 30
0.0
 40
0.02
  0
CIRCLE
  5
35A
330
1F
100
AcDbEntity
  8
PCB_Plated_Holes
100
AcDbCircle
 10
-0.5820260867679217
 20
0.1676593178057457
 30
0.0
 40
0.02
  0
CIRCLE
  5
35B
330
1F
100
AcDbEntity
  8
PCB_Plated_Holes
100
AcDbCircle
 10
-0.5820260867679217
 20
0.0676593178057456
 30
0.0
 40
0.02
  0
CIRCLE
  5
35C
330
1F
100
AcDbEntity
  8
PCB_Plated_Holes
100
AcDbCircle
 10
-0.5820260867679217
 20
-0.0323406821942545
 30
0.0
 40
0.02
  0
CIRCLE
  5
35D
330
1F
100
AcDbEntity
  8
PCB_Plated_Holes
100
AcDbCircle
 10
-0.5820260867679217
 20
-0.1323406821942541
 30
0.0
 40
0.02
  0
CIRCLE
  5
35E
330
1F
100
AcDbEntity
  8
PCB_Plated_Holes
100
AcDbCircle
 10
-0.5820260867679217
 20
-0.2323406821942542
 30
0.0
 40
0.02
  0
CIRCLE
  5
35F
330
1F
100
AcDbEntity
  8
PCB_Plated_Holes
100
AcDbCircle
 10
-0.5820260867679217
 20
-0.3323406821942543
 30
0.0
 40
0.02
  0
CIRCLE
  5
360
330
1F
100
AcDbEntity
  8
PCB_Plated_Holes
100
AcDbCircle
 10
-0.5820260867679217
 20
-0.4323406821942544
 30
0.0
 40
0.02
  0
CIRCLE
  5
361
330
1F
100
AcDbEntity
  8
PCB_Plated_Holes
100
AcDbCircle
 10
-0.5820260867679217
 20
-0.5323406821942545
 30
0.0
 40
0.02
  0
CIRCLE
  5
362
330
1F
100
AcDbEntity
  8
PCB_Plated_Holes
100
AcDbCircle
 10
-0.5820260867679217
 20
-0.6323406821942541
 30
0.0
 40
0.02
  0
CIRCLE
  5
363
330
1F
100
AcDbEntity
  8
PCB_Plated_Holes
100
AcDbCircle
 10
-0.4820260867679238
 20
0.5676593178057457
 30
0.0
 40
0.02
  0
CIRCLE
  5
364
330
1F
100
AcDbEntity
  8
PCB_Plated_Holes
100
AcDbCircle
 10
-0.4820260867679238
 20
0.4676593178057456
 30
0.0
 40
0.02
  0
CIRCLE
  5
365
330
1F
100
AcDbEntity
  8
PCB_Plated_Holes
100
AcDbCircle
 10
-0.4820260867679238
 20
0.3676593178057459
 30
0.0
 40
0.02
  0
CIRCLE
  5
366
330
1F
100
AcDbEntity
  8
PCB_Plated_Holes
100
AcDbCircle
 10
-0.4820260867679238
 20
0.2676593178057458
 30
0.0
 40
0.02
  0
CIRCLE
  5
367
330
1F
100
AcDbEntity
  8
PCB_Plated_Holes
100
AcDbCircle
 10
-0.4820260867679238
 20
0.1676593178057457
 30
0.0
 40
0.02
  0
CIRCLE
  5
368
330
1F
100
AcDbEntity
  8
PCB_Plated_Holes
100
AcDbCircle
 10
-0.4820260867679238
 20
0.0676593178057456
 30
0.0
 40
0.02
  0
CIRCLE
  5
369
330
1F
100
AcDbEntity
  8
PCB_Plated_Holes
100
AcDbCircle
 10
-0.4820260867679238
 20
-0.0323406821942545
 30
0.0
 40
0.02
  0
CIRCLE
  5
36A
330
1F
100
AcDbEntity
  8
PCB_Plated_Holes
100
AcDbCircle
 10
-0.4820260867679238
 20
-0.1323406821942541
 30
0.0
 40
0.02
  0
CIRCLE
  5
36B
330
1F
100
AcDbEntity
  8
PCB_Plated_Holes
100
AcDbCircle
 10
-0.4820260867679238
 20
-0.2323406821942542
 30
0.0
 40
0.02
  0
CIRCLE
  5
36C
330
1F
100
AcDbEntity
  8
PCB_Plated_Holes
100
AcDbCircle
 10
-0.3820260867679224
 20
0.6676593178057458
 30
0.0
 40
0.02
  0
CIRCLE
  5
36D
330
1F
100
AcDbEntity
  8
PCB_Plated_Holes
100
AcDbCircle
 10
-0.3820260867679224
 20
0.5676593178057457
 30
0.0
 40
0.02
  0
CIRCLE
  5
36E
330
1F
100
AcDbEntity
  8
PCB_Plated_Holes
100
AcDbCircle
 10
-0.3820260867679224
 20
0.4676593178057456
 30
0.0
 40
0.02
  0
CIRCLE
  5
36F
330
1F
100
AcDbEntity
  8
PCB_Plated_Holes
100
AcDbCircle
 10
-0.3820260867679224
 20
0.3676593178057459
 30
0.0
 40
0.02
  0
CIRCLE
  5
370
330
1F
100
AcDbEntity
  8
PCB_Plated_Holes
100
AcDbCircle
 10
-0.3820260867679224
 20
0.2676593178057458
 30
0.0
 40
0.02
  0
CIRCLE
  5
371
330
1F
100
AcDbEntity
  8
PCB_Plated_Holes
100
AcDbCircle
 10
-0.3820260867679224
 20
0.1676593178057457
 30
0.0
 40
0.02
  0
CIRCLE
  5
372
330
1F
100
AcDbEntity
  8
PCB_Plated_Holes
100
AcDbCircle
 10
-0.3820260867679224
 20
0.0676593178057456
 30
0.0
 40
0.02
  0
CIRCLE
  5
373
330
1F
100
AcDbEntity
  8
PCB_Plated_Holes
100
AcDbCircle
 10
-0.3820260867679224
 20
-0.0323406821942545
 30
0.0
 40
0.02
  0
CIRCLE
  5
374
330
1F
100
AcDbEntity
  8
PCB_Plated_Holes
100
AcDbCircle
 10
-0.3820260867679224
 20
-0.1323406821942541
 30
0.0
 40
0.02
  0
CIRCLE
  5
375
330
1F
100
AcDbEntity
  8
PCB_Plated_Holes
100
AcDbCircle
 10
-0.3820260867679224
 20
-0.2323406821942542
 30
0.0
 40
0.02
  0
CIRCLE
  5
376
330
1F
100
AcDbEntity
  8
PCB_Plated_Holes
100
AcDbCircle
 10
-0.2820260867679245
 20
0.6676593178057458
 30
0.0
 40
0.02
  0
CIRCLE
  5
377
330
1F
100
AcDbEntity
  8
PCB_Plated_Holes
100
AcDbCircle
 10
-0.2820260867679245
 20
0.5676593178057457
 30
0.0
 40
0.02
  0
CIRCLE
  5
378
330
1F
100
AcDbEntity
  8
PCB_Plated_Holes
100
AcDbCircle
 10
-0.2820260867679245
 20
0.4676593178057456
 30
0.0
 40
0.02
  0
CIRCLE
  5
379
330
1F
100
AcDbEntity
  8
PCB_Plated_Holes
100
AcDbCircle
 10
-0.2820260867679245
 20
0.3676593178057459
 30
0.0
 40
0.02
  0
CIRCLE
  5
37A
330
1F
100
AcDbEntity
  8
PCB_Plated_Holes
100
AcDbCircle
 10
-0.2820260867679245
 20
0.2676593178057458
 30
0.0
 40
0.02
  0
CIRCLE
  5
37B
330
1F
100
AcDbEntity
  8
PCB_Plated_Holes
100
AcDbCircle
 10
-0.2820260867679245
 20
0.1676593178057457
 30
0.0
 40
0.02
  0
CIRCLE
  5
37C
330
1F
100
AcDbEntity
  8
PCB_Plated_Holes
100
AcDbCircle
 10
-0.2820260867679245
 20
0.0676593178057456
 30
0.0
 40
0.02
  0
CIRCLE
  5
37D
330
1F
100
AcDbEntity
  8
PCB_Plated_Holes
100
AcDbCircle
 10
-0.2820260867679245
 20
-0.0323406821942545
 30
0.0
 40
0.02
  0
CIRCLE
  5
37E
330
1F
100
AcDbEntity
  8
PCB_Plated_Holes
100
AcDbCircle
 10
-0.2820260867679245
 20
-0.1323406821942541
 30
0.0
 40
0.02
  0
CIRCLE
  5
37F
330
1F
100
AcDbEntity
  8
PCB_Plated_Holes
100
AcDbCircle
 10
-0.2820260867679245
 20
-0.2323406821942542
 30
0.0
 40
0.02
  0
CIRCLE
  5
380
330
1F
100
AcDbEntity
  8
PCB_Plated_Holes
100
AcDbCircle
 10
-0.1820260867679231
 20
0.6676593178057458
 30
0.0
 40
0.02
  0
CIRCLE
  5
381
330
1F
100
AcDbEntity
  8
PCB_Plated_Holes
100
AcDbCircle
 10
-0.1820260867679231
 20
0.5676593178057457
 30
0.0
 40
0.02
  0
CIRCLE
  5
382
330
1F
100
AcDbEntity
  8
PCB_Plated_Holes
100
AcDbCircle
 10
-0.1820260867679231
 20
0.4676593178057456
 30
0.0
 40
0.02
  0
CIRCLE
  5
383
330
1F
100
AcDbEntity
  8
PCB_Plated_Holes
100
AcDbCircle
 10
-0.1820260867679231
 20
0.3676593178057459
 30
0.0
 40
0.02
  0
CIRCLE
  5
384
330
1F
100
AcDbEntity
  8
PCB_Plated_Holes
100
AcDbCircle
 10
-0.1820260867679231
 20
0.2676593178057458
 30
0.0
 40
0.02
  0
CIRCLE
  5
385
330
1F
100
AcDbEntity
  8
PCB_Plated_Holes
100
AcDbCircle
 10
-0.1820260867679231
 20
0.1676593178057457
 30
0.0
 40
0.02
  0
CIRCLE
  5
386
330
1F
100
AcDbEntity
  8
PCB_Plated_Holes
100
AcDbCircle
 10
-0.1820260867679231
 20
0.0676593178057456
 30
0.0
 40
0.02
  0
CIRCLE
  5
387
330
1F
100
AcDbEntity
  8
PCB_Plated_Holes
100
AcDbCircle
 10
-0.1820260867679231
 20
-0.0323406821942545
 30
0.0
 40
0.02
  0
CIRCLE
  5
388
330
1F
100
AcDbEntity
  8
PCB_Plated_Holes
100
AcDbCircle
 10
-0.1820260867679231
 20
-0.1323406821942541
 30
0.0
 40
0.02
  0
CIRCLE
  5
389
330
1F
100
AcDbEntity
  8
PCB_Plated_Holes
100
AcDbCircle
 10
-0.1820260867679231
 20
-0.2323406821942542
 30
0.0
 40
0.02
  0
CIRCLE
  5
38A
330
1F
100
AcDbEntity
  8
PCB_Plated_Holes
100
AcDbCircle
 10
-0.0820260867679217
 20
0.6676593178057458
 30
0.0
 40
0.02
  0
CIRCLE
  5
38B
330
1F
100
AcDbEntity
  8
PCB_Plated_Holes
100
AcDbCircle
 10
-0.0820260867679217
 20
0.5676593178057457
 30
0.0
 40
0.02
  0
CIRCLE
  5
38C
330
1F
100
AcDbEntity
  8
PCB_Plated_Holes
100
AcDbCircle
 10
-0.0820260867679217
 20
0.4676593178057456
 30
0.0
 40
0.02
  0
CIRCLE
  5
38D
330
1F
100
AcDbEntity
  8
PCB_Plated_Holes
100
AcDbCircle
 10
-0.0820260867679217
 20
0.3676593178057459
 30
0.0
 40
0.02
  0
CIRCLE
  5
38E
330
1F
100
AcDbEntity
  8
PCB_Plated_Holes
100
AcDbCircle
 10
-0.0820260867679217
 20
0.2676593178057458
 30
0.0
 40
0.02
  0
CIRCLE
  5
38F
330
1F
100
AcDbEntity
  8
PCB_Plated_Holes
100
AcDbCircle
 10
-0.0820260867679217
 20
0.1676593178057457
 30
0.0
 40
0.02
  0
CIRCLE
  5
390
330
1F
100
AcDbEntity
  8
PCB_Plated_Holes
100
AcDbCircle
 10
-0.0820260867679217
 20
0.0676593178057456
 30
0.0
 40
0.02
  0
CIRCLE
  5
391
330
1F
100
AcDbEntity
  8
PCB_Plated_Holes
100
AcDbCircle
 10
-0.0820260867679217
 20
-0.0323406821942545
 30
0.0
 40
0.02
  0
CIRCLE
  5
392
330
1F
100
AcDbEntity
  8
PCB_Plated_Holes
100
AcDbCircle
 10
-0.0820260867679217
 20
-0.1323406821942541
 30
0.0
 40
0.02
  0
CIRCLE
  5
393
330
1F
100
AcDbEntity
  8
PCB_Plated_Holes
100
AcDbCircle
 10
-0.0820260867679217
 20
-0.2323406821942542
 30
0.0
 40
0.02
  0
CIRCLE
  5
394
330
1F
100
AcDbEntity
  8
PCB_Plated_Holes
100
AcDbCircle
 10
0.0179739132320762
 20
0.2676593178057458
 30
0.0
 40
0.02
  0
CIRCLE
  5
395
330
1F
100
AcDbEntity
  8
PCB_Plated_Holes
100
AcDbCircle
 10
0.0179739132320762
 20
0.1676593178057457
 30
0.0
 40
0.02
  0
CIRCLE
  5
396
330
1F
100
AcDbEntity
  8
PCB_Plated_Holes
100
AcDbCircle
 10
0.0179739132320762
 20
0.0676593178057456
 30
0.0
 40
0.02
  0
CIRCLE
  5
397
330
1F
100
AcDbEntity
  8
PCB_Plated_Holes
100
AcDbCircle
 10
0.0179739132320762
 20
-0.0323406821942545
 30
0.0
 40
0.02
  0
CIRCLE
  5
398
330
1F
100
AcDbEntity
  8
PCB_Plated_Holes
100
AcDbCircle
 10
0.0179739132320762
 20
-0.1323406821942541
 30
0.0
 40
0.02
  0
CIRCLE
  5
399
330
1F
100
AcDbEntity
  8
PCB_Plated_Holes
100
AcDbCircle
 10
0.0179739132320762
 20
-0.2323406821942542
 30
0.0
 40
0.02
  0
CIRCLE
  5
39A
330
1F
100
AcDbEntity
  8
PCB_Plated_Holes
100
AcDbCircle
 10
0.1179739132320776
 20
0.2676593178057458
 30
0.0
 40
0.02
  0
CIRCLE
  5
39B
330
1F
100
AcDbEntity
  8
PCB_Plated_Holes
100
AcDbCircle
 10
0.1179739132320776
 20
0.1676593178057457
 30
0.0
 40
0.02
  0
CIRCLE
  5
39C
330
1F
100
AcDbEntity
  8
PCB_Plated_Holes
100
AcDbCircle
 10
0.1179739132320776
 20
0.0676593178057456
 30
0.0
 40
0.02
  0
CIRCLE
  5
39D
330
1F
100
AcDbEntity
  8
PCB_Plated_Holes
100
AcDbCircle
 10
0.1179739132320776
 20
-0.0323406821942545
 30
0.0
 40
0.02
  0
CIRCLE
  5
39E
330
1F
100
AcDbEntity
  8
PCB_Plated_Holes
100
AcDbCircle
 10
0.1179739132320776
 20
-0.1323406821942541
 30
0.0
 40
0.02
  0
CIRCLE
  5
39F
330
1F
100
AcDbEntity
  8
PCB_Plated_Holes
100
AcDbCircle
 10
0.1179739132320776
 20
-0.2323406821942542
 30
0.0
 40
0.02
  0
CIRCLE
  5
3A0
330
1F
100
AcDbEntity
  8
PCB_Plated_Holes
100
AcDbCircle
 10
0.212941963178995
 20
0.5927164545200943
 30
0.0
 40
0.02
  0
CIRCLE
  5
3A1
330
1F
100
AcDbEntity
  8
PCB_Plated_Holes
100
AcDbCircle
 10
0.212941963178995
 20
0.4927164545200942
 30
0.0
 40
0.02
  0
CIRCLE
  5
3A2
330
1F
100
AcDbEntity
  8
PCB_Plated_Holes
100
AcDbCircle
 10
0.2179739132320755
 20
0.3676593178057459
 30
0.0
 40
0.02
  0
CIRCLE
  5
3A3
330
1F
100
AcDbEntity
  8
PCB_Plated_Holes
100
AcDbCircle
 10
0.2179739132320755
 20
0.2676593178057458
 30
0.0
 40
0.02
  0
CIRCLE
  5
3A4
330
1F
100
AcDbEntity
  8
PCB_Plated_Holes
100
AcDbCircle
 10
0.2179739132320755
 20
0.1676593178057457
 30
0.0
 40
0.02
  0
CIRCLE
  5
3A5
330
1F
100
AcDbEntity
  8
PCB_Plated_Holes
100
AcDbCircle
 10
0.2179739132320755
 20
0.0676593178057456
 30
0.0
 40
0.02
  0
CIRCLE
  5
3A6
330
1F
100
AcDbEntity
  8
PCB_Plated_Holes
100
AcDbCircle
 10
0.2179739132320755
 20
-0.0323406821942545
 30
0.0
 40
0.02
  0
CIRCLE
  5
3A7
330
1F
100
AcDbEntity
  8
PCB_Plated_Holes
100
AcDbCircle
 10
0.2179739132320755
 20
-0.1323406821942541
 30
0.0
 40
0.02
  0
CIRCLE
  5
3A8
330
1F
100
AcDbEntity
  8
PCB_Plated_Holes
100
AcDbCircle
 10
0.2179739132320755
 20
-0.2323406821942542
 30
0.0
 40
0.02
  0
CIRCLE
  5
3A9
330
1F
100
AcDbEntity
  8
PCB_Plated_Holes
100
AcDbCircle
 10
0.3179739132320769
 20
0.6676593178057458
 30
0.0
 40
0.02
  0
CIRCLE
  5
3AA
330
1F
100
AcDbEntity
  8
PCB_Plated_Holes
100
AcDbCircle
 10
0.3179739132320769
 20
0.5676593178057457
 30
0.0
 40
0.02
  0
CIRCLE
  5
3AB
330
1F
100
AcDbEntity
  8
PCB_Plated_Holes
100
AcDbCircle
 10
0.3179739132320769
 20
0.4676593178057456
 30
0.0
 40
0.02
  0
CIRCLE
  5
3AC
330
1F
100
AcDbEntity
  8
PCB_Plated_Holes
100
AcDbCircle
 10
0.3179739132320769
 20
0.3676593178057459
 30
0.0
 40
0.02
  0
CIRCLE
  5
3AD
330
1F
100
AcDbEntity
  8
PCB_Plated_Holes
100
AcDbCircle
 10
0.3179739132320769
 20
0.2676593178057458
 30
0.0
 40
0.02
  0
CIRCLE
  5
3AE
330
1F
100
AcDbEntity
  8
PCB_Plated_Holes
100
AcDbCircle
 10
0.3179739132320769
 20
0.1676593178057457
 30
0.0
 40
0.02
  0
CIRCLE
  5
3AF
330
1F
100
AcDbEntity
  8
PCB_Plated_Holes
100
AcDbCircle
 10
0.3179739132320769
 20
0.0676593178057456
 30
0.0
 40
0.02
  0
CIRCLE
  5
3B0
330
1F
100
AcDbEntity
  8
PCB_Plated_Holes
100
AcDbCircle
 10
0.3179739132320769
 20
-0.0323406821942545
 30
0.0
 40
0.02
  0
CIRCLE
  5
3B1
330
1F
100
AcDbEntity
  8
PCB_Plated_Holes
100
AcDbCircle
 10
0.3179739132320769
 20
-0.1323406821942541
 30
0.0
 40
0.02
  0
CIRCLE
  5
3B2
330
1F
100
AcDbEntity
  8
PCB_Plated_Holes
100
AcDbCircle
 10
0.3179739132320769
 20
-0.2323406821942542
 30
0.0
 40
0.02
  0
CIRCLE
  5
3B3
330
1F
100
AcDbEntity
  8
PCB_Plated_Holes
100
AcDbCircle
 10
0.4179739132320784
 20
0.6676593178057458
 30
0.0
 40
0.02
  0
CIRCLE
  5
3B4
330
1F
100
AcDbEntity
  8
PCB_Plated_Holes
100
AcDbCircle
 10
0.4179739132320784
 20
0.5676593178057457
 30
0.0
 40
0.02
  0
CIRCLE
  5
3B5
330
1F
100
AcDbEntity
  8
PCB_Plated_Holes
100
AcDbCircle
 10
0.4179739132320784
 20
0.4676593178057456
 30
0.0
 40
0.02
  0
CIRCLE
  5
3B6
330
1F
100
AcDbEntity
  8
PCB_Plated_Holes
100
AcDbCircle
 10
0.4179739132320784
 20
0.3676593178057459
 30
0.0
 40
0.02
  0
CIRCLE
  5
3B7
330
1F
100
AcDbEntity
  8
PCB_Plated_Holes
100
AcDbCircle
 10
0.4179739132320784
 20
0.2676593178057458
 30
0.0
 40
0.02
  0
CIRCLE
  5
3B8
330
1F
100
AcDbEntity
  8
PCB_Plated_Holes
100
AcDbCircle
 10
0.4179739132320784
 20
0.1676593178057457
 30
0.0
 40
0.02
  0
CIRCLE
  5
3B9
330
1F
100
AcDbEntity
  8
PCB_Plated_Holes
100
AcDbCircle
 10
0.4179739132320784
 20
0.0676593178057456
 30
0.0
 40
0.02
  0
CIRCLE
  5
3BA
330
1F
100
AcDbEntity
  8
PCB_Plated_Holes
100
AcDbCircle
 10
0.4179739132320784
 20
-0.0323406821942545
 30
0.0
 40
0.02
  0
CIRCLE
  5
3BB
330
1F
100
AcDbEntity
  8
PCB_Plated_Holes
100
AcDbCircle
 10
0.4179739132320784
 20
-0.1323406821942541
 30
0.0
 40
0.02
  0
CIRCLE
  5
3BC
330
1F
100
AcDbEntity
  8
PCB_Plated_Holes
100
AcDbCircle
 10
0.4179739132320784
 20
-0.2323406821942542
 30
0.0
 40
0.02
  0
CIRCLE
  5
3BD
330
1F
100
AcDbEntity
  8
PCB_Plated_Holes
100
AcDbCircle
 10
0.5179739132320762
 20
0.6676593178057458
 30
0.0
 40
0.02
  0
CIRCLE
  5
3BE
330
1F
100
AcDbEntity
  8
PCB_Plated_Holes
100
AcDbCircle
 10
0.5179739132320762
 20
0.5676593178057457
 30
0.0
 40
0.02
  0
CIRCLE
  5
3BF
330
1F
100
AcDbEntity
  8
PCB_Plated_Holes
100
AcDbCircle
 10
0.5179739132320762
 20
0.4676593178057456
 30
0.0
 40
0.02
  0
CIRCLE
  5
3C0
330
1F
100
AcDbEntity
  8
PCB_Plated_Holes
100
AcDbCircle
 10
0.5179739132320762
 20
0.3676593178057459
 30
0.0
 40
0.02
  0
CIRCLE
  5
3C1
330
1F
100
AcDbEntity
  8
PCB_Plated_Holes
100
AcDbCircle
 10
0.5179739132320762
 20
0.2676593178057458
 30
0.0
 40
0.02
  0
CIRCLE
  5
3C2
330
1F
100
AcDbEntity
  8
PCB_Plated_Holes
100
AcDbCircle
 10
0.5179739132320762
 20
0.1676593178057457
 30
0.0
 40
0.02
  0
CIRCLE
  5
3C3
330
1F
100
AcDbEntity
  8
PCB_Plated_Holes
100
AcDbCircle
 10
0.5179739132320762
 20
0.0676593178057456
 30
0.0
 40
0.02
  0
CIRCLE
  5
3C4
330
1F
100
AcDbEntity
  8
PCB_Plated_Holes
100
AcDbCircle
 10
0.5179739132320762
 20
-0.0323406821942545
 30
0.0
 40
0.02
  0
CIRCLE
  5
3C5
330
1F
100
AcDbEntity
  8
PCB_Plated_Holes
100
AcDbCircle
 10
0.5179739132320762
 20
-0.1323406821942541
 30
0.0
 40
0.02
  0
CIRCLE
  5
3C6
330
1F
100
AcDbEntity
  8
PCB_Plated_Holes
100
AcDbCircle
 10
0.5179739132320762
 20
-0.2323406821942542
 30
0.0
 40
0.02
  0
CIRCLE
  5
3C7
330
1F
100
AcDbEntity
  8
PCB_Plated_Holes
100
AcDbCircle
 10
0.6179739132320777
 20
0.6676593178057458
 30
0.0
 40
0.02
  0
CIRCLE
  5
3C8
330
1F
100
AcDbEntity
  8
PCB_Plated_Holes
100
AcDbCircle
 10
0.6179739132320777
 20
0.5676593178057457
 30
0.0
 40
0.02
  0
CIRCLE
  5
3C9
330
1F
100
AcDbEntity
  8
PCB_Plated_Holes
100
AcDbCircle
 10
0.6179739132320777
 20
0.4676593178057456
 30
0.0
 40
0.02
  0
CIRCLE
  5
3CA
330
1F
100
AcDbEntity
  8
PCB_Plated_Holes
100
AcDbCircle
 10
0.6179739132320777
 20
0.3676593178057459
 30
0.0
 40
0.02
  0
CIRCLE
  5
3CB
330
1F
100
AcDbEntity
  8
PCB_Plated_Holes
100
AcDbCircle
 10
0.6179739132320777
 20
0.2676593178057458
 30
0.0
 40
0.02
  0
CIRCLE
  5
3CC
330
1F
100
AcDbEntity
  8
PCB_Plated_Holes
100
AcDbCircle
 10
0.6179739132320777
 20
0.1676593178057457
 30
0.0
 40
0.02
  0
CIRCLE
  5
3CD
330
1F
100
AcDbEntity
  8
PCB_Plated_Holes
100
AcDbCircle
 10
0.6179739132320777
 20
0.0676593178057456
 30
0.0
 40
0.02
  0
CIRCLE
  5
3CE
330
1F
100
AcDbEntity
  8
PCB_Plated_Holes
100
AcDbCircle
 10
0.6179739132320777
 20
-0.0323406821942545
 30
0.0
 40
0.02
  0
CIRCLE
  5
3CF
330
1F
100
AcDbEntity
  8
PCB_Plated_Holes
100
AcDbCircle
 10
0.6179739132320777
 20
-0.1323406821942541
 30
0.0
 40
0.02
  0
CIRCLE
  5
3D0
330
1F
100
AcDbEntity
  8
PCB_Plated_Holes
100
AcDbCircle
 10
0.6179739132320777
 20
-0.2323406821942542
 30
0.0
 40
0.02
  0
CIRCLE
  5
3D1
330
1F
100
AcDbEntity
  8
PCB_Plated_Holes
100
AcDbCircle
 10
0.6179739132320777
 20
-0.3323406821942543
 30
0.0
 40
0.02
  0
CIRCLE
  5
3D2
330
1F
100
AcDbEntity
  8
PCB_Plated_Holes
100
AcDbCircle
 10
0.5561686938502711
 20
-0.4921690347102108
 30
0.0
 40
0.02
  0
CIRCLE
  5
3D3
330
1F
100
AcDbEntity
  8
PCB_Plated_Holes
100
AcDbCircle
 10
0.5561686938502711
 20
-0.5921690347102109
 30
0.0
 40
0.02
  0
CIRCLE
  5
3D4
330
1F
100
AcDbEntity
  8
PCB_Plated_Holes
100
AcDbCircle
 10
0.5561686938502711
 20
-0.6921690347102106
 30
0.0
 40
0.02
  0
CIRCLE
  5
3D5
330
1F
100
AcDbEntity
  8
PCB_Plated_Holes
100
AcDbCircle
 10
0.7179739132320755
 20
0.5676593178057457
 30
0.0
 40
0.02
  0
CIRCLE
  5
3D6
330
1F
100
AcDbEntity
  8
PCB_Plated_Holes
100
AcDbCircle
 10
0.7179739132320755
 20
0.4676593178057456
 30
0.0
 40
0.02
  0
CIRCLE
  5
3D7
330
1F
100
AcDbEntity
  8
PCB_Plated_Holes
100
AcDbCircle
 10
0.7179739132320755
 20
0.3676593178057459
 30
0.0
 40
0.02
  0
CIRCLE
  5
3D8
330
1F
100
AcDbEntity
  8
PCB_Plated_Holes
100
AcDbCircle
 10
0.7179739132320755
 20
0.2676593178057458
 30
0.0
 40
0.02
  0
CIRCLE
  5
3D9
330
1F
100
AcDbEntity
  8
PCB_Plated_Holes
100
AcDbCircle
 10
0.7179739132320755
 20
0.1676593178057457
 30
0.0
 40
0.02
  0
CIRCLE
  5
3DA
330
1F
100
AcDbEntity
  8
PCB_Plated_Holes
100
AcDbCircle
 10
0.6582130862514824
 20
-0.4323406821942544
 30
0.0
 40
0.02
  0
CIRCLE
  5
3DB
330
1F
100
AcDbEntity
  8
PCB_Plated_Holes
100
AcDbCircle
 10
0.6582130862514824
 20
-0.5323406821942545
 30
0.0
 40
0.02
  0
CIRCLE
  5
3DC
330
1F
100
AcDbEntity
  8
PCB_Plated_Holes
100
AcDbCircle
 10
-0.0016045685034349
 20
0.5927164545200943
 30
0.0
 40
0.02
  0
CIRCLE
  5
3DD
330
1F
100
AcDbEntity
  8
PCB_Plated_Holes
100
AcDbCircle
 10
-0.0016045685034349
 20
0.4927164545200942
 30
0.0
 40
0.02
  0
CIRCLE
  5
3DE
330
1F
100
AcDbEntity
  8
PCB_Plated_Holes
100
AcDbCircle
 10
-0.5138312974497162
 20
-0.4921690347102108
 30
0.0
 40
0.02
  0
CIRCLE
  5
3DF
330
1F
100
AcDbEntity
  8
PCB_Plated_Holes
100
AcDbCircle
 10
-0.5138312974497162
 20
-0.5921690347102109
 30
0.0
 40
0.02
  0
CIRCLE
  5
3E0
330
1F
100
AcDbEntity
  8
PCB_Plated_Holes
100
AcDbCircle
 10
-0.5138312974497162
 20
-0.6921690347102106
 30
0.0
 40
0.02
  0
ENDSEC
  0
SECTION
  2
OBJECTS
  0
DICTIONARY
  5
C
330
0
100
AcDbDictionary
281
     1
  3
ACAD_CIP_PREVIOUS_PRODUCT_INFO
350
1A5
  3
ACAD_COLOR
350
73
  3
ACAD_DETAILVIEWSTYLE
350
1AB
  3
ACAD_GROUP
350
D
  3
ACAD_LAYOUT
350
1A
  3
ACAD_MATERIAL
350
72
  3
ACAD_MLEADERSTYLE
350
D7
  3
ACAD_MLINESTYLE
350
17
  3
ACAD_PLOTSETTINGS
350
19
  3
ACAD_PLOTSTYLENAME
350
E
  3
ACAD_SCALELIST
350
B6
  3
ACAD_SECTIONVIEWSTYLE
350
1A8
  3
ACAD_TABLESTYLE
350
86
  3
ACAD_VISUALSTYLE
350
99
  3
ACDB_RECOMPOSE_DATA
350
441
  3
AcDbVariableDictionary
350
66
  0
DICTIONARY
  5
18E
330
2
100
AcDbDictionary
280
     1
281
     1
  3
ACAD_LAYERSTATES
360
18F
  0
DICTIONARY
  5
E6
330
10
100
AcDbDictionary
280
     1
281
     1
  0
DICTIONARY
  5
265
330
264
100
AcDbDictionary
280
     1
281
     1
  0
DICTIONARY
  5
26B
330
26A
100
AcDbDictionary
280
     1
281
     1
  0
DICTIONARY
  5
15D
330
1F
100
AcDbDictionary
280
     1
281
     1
  0
DICTIONARY
  5
34B
330
34A
100
AcDbDictionary
280
     1
281
     1
  3
AcDbContextDataManager
360
34C
  0
XRECORD
  5
1A5
102
{ACAD_REACTORS
330
C
102
}
330
C
100
AcDbXrecord
280
     1
300
ACD
300
2021
300

  0
DICTIONARY
  5
73
102
{ACAD_REACTORS
330
C
102
}
330
C
100
AcDbDictionary
281
     1
  0
DICTIONARY
  5
1AB
102
{ACAD_REACTORS
330
C
102
}
330
C
100
AcDbDictionary
281
     1
  3
Imperial24
350
1AC
  0
DICTIONARY
  5
D
102
{ACAD_REACTORS
330
C
102
}
330
C
100
AcDbDictionary
281
     1
  0
DICTIONARY
  5
1A
102
{ACAD_REACTORS
330
C
102
}
330
C
100
AcDbDictionary
281
     1
  3
Layout1
350
59
  3
Layout2
350
5E
  3
Model
350
22
  0
DICTIONARY
  5
72
102
{ACAD_REACTORS
330
C
102
}
330
C
100
AcDbDictionary
281
     1
  3
ByBlock
350
97
  3
ByLayer
350
96
  3
Global
350
98
  0
DICTIONARY
  5
D7
102
{ACAD_REACTORS
330
C
102
}
330
C
100
AcDbDictionary
281
     1
  3
Annotative
350
E5
  3
datasheet
350
276
  3
Standard
350
D8
  0
DICTIONARY
  5
17
102
{ACAD_REACTORS
330
C
102
}
330
C
100
AcDbDictionary
281
     1
  3
Standard
350
18
  0
DICTIONARY
  5
19
102
{ACAD_REACTORS
330
C
102
}
330
C
100
AcDbDictionary
281
     1
  0
ACDBDICTIONARYWDFLT
  5
E
102
{ACAD_REACTORS
330
C
102
}
330
C
100
AcDbDictionary
281
     1
  3
Normal
350
F
100
AcDbDictionaryWithDefault
340
F
  0
DICTIONARY
  5
B6
102
{ACAD_REACTORS
330
C
102
}
330
C
100
AcDbDictionary
281
     1
  3
A0
350
B7
  3
A1
350
124
  3
A2
350
125
  3
A3
350
126
  3
A4
350
127
  3
A5
350
128
  3
A6
350
129
  3
A7
350
12A
  3
A8
350
12B
  3
A9
350
12C
  3
B0
350
12D
  3
B1
350
12E
  3
B2
350
12F
  3
B3
350
130
  3
B4
350
131
  3
B5
350
132
  3
B6
350
133
  3
B7
350
134
  3
B8
350
135
  3
B9
350
136
  3
C0
350
137
  3
C1
350
138
  3
C2
350
139
  3
C3
350
13A
  3
C4
350
13B
  3
C5
350
13C
  3
C6
350
13D
  3
C7
350
13E
  3
C8
350
13F
  3
C9
350
140
  3
D0
350
141
  3
D1
350
142
  3
D2
350
143
  0
DICTIONARY
  5
1A8
102
{ACAD_REACTORS
330
C
102
}
330
C
100
AcDbDictionary
281
     1
  3
Imperial24
350
1AA
  0
DICTIONARY
  5
86
102
{ACAD_REACTORS
330
C
102
}
330
C
100
AcDbDictionary
281
     1
  3
Standard
350
87
  0
DICTIONARY
  5
99
102
{ACAD_REACTORS
330
C
102
}
330
C
100
AcDbDictionary
281
     1
  3
2dWireframe
350
9F
  3
Basic
350
9E
  3
Brighten
350
A5
  3
ColorChange
350
A9
  3
Conceptual
350
A2
  3
Dim
350
A4
  3
EdgeColorOff
350
175
  3
Facepattern
350
A8
  3
Flat
350
9A
  3
FlatWithEdges
350
9B
  3
Gouraud
350
9C
  3
GouraudWithEdges
350
9D
  3
Hidden
350
A1
  3
JitterOff
350
173
  3
Linepattern
350
A7
  3
OverhangOff
350
174
  3
Realistic
350
A3
  3
Shaded
350
182
  3
Shaded with edges
350
181
  3
Shades of Gray
350
17E
  3
Sketchy
350
17F
  3
Thicken
350
A6
  3
Wireframe
350
A0
  3
X-Ray
350
180
  0
XRECORD
  5
441
102
{ACAD_REACTORS
330
C
102
}
330
C
100
AcDbXrecord
280
     1
 90
        1
330
87
  0
DICTIONARY
  5
66
102
{ACAD_REACTORS
330
C
102
}
330
C
100
AcDbDictionary
281
     1
  3
CANNOSCALE
350
F0
  3
CMLEADERSTYLE
350
EF
  3
CTABLESTYLE
350
89
  3
CVIEWDETAILSTYLE
350
1B7
  3
CVIEWSECTIONSTYLE
350
1B8
  3
DIMASSOC
350
67
  3
HIDETEXT
350
6B
  3
LAYEREVAL
350
14D
  3
LAYERNOTIFY
350
14E
  0
DICTIONARY
  5
18F
102
{ACAD_REACTORS
330
18E
102
}
330
18E
100
AcDbDictionary
281
     1
  0
DICTIONARY
  5
34C
102
{ACAD_REACTORS
330
34B
102
}
330
34B
100
AcDbDictionary
281
     1
  3
ACDB_ANNOTATIONSCALES
350
34D
  0
ACDBDETAILVIEWSTYLE
  5
1AC
102
{ACAD_REACTORS
330
1AB
102
}
330
1AB
100
AcDbModelDocViewStyle
 70
     0
  3
Imperial24
290
     0
300
Imperial24
 90
        0
100
AcDbDetailViewStyle
 70
     0
 71
     0
 90
        3
 71
     1
340
11
 62
   256
 40
0.24
340
0
 62
   256
 40
0.24
300

 40
0.36
280
     3
 71
     2
340
16
 90
       25
 62
   256
 71
     3
340
11
 62
   256
 40
0.24
 90
        1
 40
0.75
 90
        1
300
%<\AcVar ViewType \f "%tc1">% %<\AcVar ViewDetailId>%\PSCALE %<\AcVar ViewScale \f "%sn">%
 71
     4
340
16
 90
       25
 62
   256
340
16
 90
       25
 62
   256
280
     0
  0
LAYOUT
  5
59
102
{ACAD_REACTORS
330
1A
102
}
330
1A
100
AcDbPlotSettings
  1

  2
None
  4

  6

 40
0.0
 41
0.0
 42
0.0
 43
0.0
 44
0.0
 45
0.0
 46
0.0
 47
0.0
 48
0.0
 49
0.0
140
0.0
141
0.0
142
1.0
143
1.0
 70
   688
 72
     0
 73
     0
 74
     5
  7

 75
    16
147
1.0
 76
     0
 77
     2
 78
   300
148
0.0
149
0.0
100
AcDbLayout
  1
Layout1
 70
     1
 71
     1
 10
0.0
 20
0.0
 11
12.0
 21
9.0
 12
0.0
 22
0.0
 32
0.0
 14
0.0
 24
0.0
 34
0.0
 15
0.0
 25
0.0
 35
0.0
146
0.0
 13
0.0
 23
0.0
 33
0.0
 16
1.0
 26
0.0
 36
0.0
 17
0.0
 27
1.0
 37
0.0
 76
     0
330
58
  0
LAYOUT
  5
5E
102
{ACAD_REACTORS
330
1A
102
}
330
1A
100
AcDbPlotSettings
  1

  2
None
  4

  6

 40
0.0
 41
0.0
 42
0.0
 43
0.0
 44
0.0
 45
0.0
 46
0.0
 47
0.0
 48
0.0
 49
0.0
140
0.0
141
0.0
142
1.0
143
1.0
 70
   688
 72
     0
 73
     0
 74
     5
  7

 75
    16
147
1.0
 76
     0
 77
     2
 78
   300
148
0.0
149
0.0
100
AcDbLayout
  1
Layout2
 70
     1
 71
     2
 10
0.0
 20
0.0
 11
12.0
 21
9.0
 12
0.0
 22
0.0
 32
0.0
 14
0.0
 24
0.0
 34
0.0
 15
0.0
 25
0.0
 35
0.0
146
0.0
 13
0.0
 23
0.0
 33
0.0
 16
1.0
 26
0.0
 36
0.0
 17
0.0
 27
1.0
 37
0.0
 76
     0
330
5D
  0
LAYOUT
  5
22
102
{ACAD_XDICTIONARY
360
194
102
}
102
{ACAD_REACTORS
330
1A
102
}
330
1A
100
AcDbPlotSettings
  1

  2
none_device
  4
ANSI_A_(8.50_x_11.00_Inches)
  6

 40
6.349999904632568
 41
19.04999923706055
 42
6.350006103515625
 43
19.04998779296875
 44
215.8999938964844
 45
279.3999938964844
 46
0.0
 47
0.0
 48
0.0
 49
0.0
140
0.0
141
0.0
142
1.0
143
2.584895464708373
 70
 11952
 72
     0
 73
     1
 74
     0
  7

 75
     0
147
0.3868628397755418
 76
     0
 77
     2
 78
   300
148
0.0
149
0.0
100
AcDbLayout
  1
Model
 70
     1
 71
     0
 10
0.0
 20
0.0
 11
12.0
 21
9.0
 12
0.0
 22
0.0
 32
0.0
 14
0.0
 24
0.0
 34
0.0
 15
0.0
 25
0.0
 35
0.0
146
0.0
 13
0.0
 23
0.0
 33
0.0
 16
1.0
 26
0.0
 36
0.0
 17
0.0
 27
1.0
 37
0.0
 76
     0
330
1F
331
94
  0
MATERIAL
  5
97
102
{ACAD_XDICTIONARY
360
188
102
}
102
{ACAD_REACTORS
330
72
102
}
330
72
100
AcDbMaterial
  1
ByBlock
 94
       63
  0
MATERIAL
  5
96
102
{ACAD_XDICTIONARY
360
186
102
}
102
{ACAD_REACTORS
330
72
102
}
330
72
100
AcDbMaterial
  1
ByLayer
 94
       63
  0
MATERIAL
  5
98
102
{ACAD_XDICTIONARY
360
110
102
}
102
{ACAD_REACTORS
330
72
102
}
330
72
100
AcDbMaterial
  1
Global
 43
0.0208000000566244
 43
0.0
 43
0.0
 43
0.0
 43
0.0
 43
0.0208000000566244
 43
0.0
 43
0.0
 43
0.0
 43
0.0
 43
1.0
 43
0.0
 43
0.0
 43
0.0
 43
0.0
 43
1.0
 49
0.0208000000566244
 49
0.0
 49
0.0
 49
0.0
 49
0.0
 49
0.0208000000566244
 49
0.0
 49
0.0
 49
0.0
 49
0.0
 49
1.0
 49
0.0
 49
0.0
 49
0.0
 49
0.0
 49
1.0
142
0.0208000000566244
142
0.0
142
0.0
142
0.0
142
0.0
142
0.0208000000566244
142
0.0
142
0.0
142
0.0
142
0.0
142
1.0
142
0.0
142
0.0
142
0.0
142
0.0
142
1.0
144
0.0208000000566244
144
0.0
144
0.0
144
0.0
144
0.0
144
0.0208000000566244
144
0.0
144
0.0
144
0.0
144
0.0
144
1.0
144
0.0
144
0.0
144
0.0
144
0.0
144
1.0
 94
       63
1001
ACAD
1070
    -1
1070
     3
1070
     0
1000

1071
        0
1070
     0
  0
MLEADERSTYLE
  5
E5
102
{ACAD_REACTORS
330
D7
102
}
330
D7
100
AcDbMLeaderStyle
179
     2
170
     2
171
     1
172
     0
 90
        2
 40
0.0
 41
0.0
173
     1
 91
-1056964608
340
14
 92
       -2
290
     1
 42
0.09
291
     1
 43
0.36
  3
Standard
 44
0.18
300

342
11
174
     1
178
     1
175
     1
176
     0
 93
-1056964608
 45
0.18
292
     0
297
     0
 46
0.18
 94
-1056964608
 47
1.0
 49
1.0
140
1.0
293
     1
141
0.0
294
     1
177
     0
142
1.0
295
     0
296
     1
143
0.125
271
     0
272
     9
273
     9
298
     0
  0
MLEADERSTYLE
  5
276
102
{ACAD_REACTORS
330
290
330
D7
330
348
102
}
330
D7
100
AcDbMLeaderStyle
179
     2
170
     2
171
     1
172
     0
 90
        2
 40
0.0
 41
0.0
173
     1
 91
-1056964608
340
14
 92
       -2
290
     1
 42
0.05
291
     1
 43
0.1
  3
Standard
 44
0.075
300

342
DC
174
     1
178
     1
175
     1
176
     0
 93
-1056964608
 45
0.1
292
     0
297
     0
 46
0.18
 94
-1056964608
 47
1.0
 49
1.0
140
1.0
293
     1
141
0.0
294
     1
177
     0
142
1.0
295
     0
296
     0
143
0.1
271
     0
272
     9
273
     9
298
     0
  0
MLEADERSTYLE
  5
D8
102
{ACAD_REACTORS
330
D7
102
}
330
D7
100
AcDbMLeaderStyle
179
     2
170
     2
171
     1
172
     0
 90
        2
 40
0.0
 41
0.0
173
     1
 91
-1056964608
340
14
 92
       -2
290
     1
 42
0.09
291
     1
 43
0.36
  3
Standard
 44
0.18
300

342
11
174
     1
178
     1
175
     1
176
     0
 93
-1056964608
 45
0.18
292
     0
297
     0
 46
0.18
 94
-1056964608
 47
1.0
 49
1.0
140
1.0
293
     1
141
0.0
294
     1
177
     0
142
1.0
295
     0
296
     0
143
0.125
271
     0
272
     9
273
     9
298
     0
  0
MLINESTYLE
  5
18
102
{ACAD_REACTORS
330
17
102
}
330
17
100
AcDbMlineStyle
  2
STANDARD
 70
     0
  3

 62
   256
 51
90.0
 52
90.0
 71
     2
 49
0.5
 62
   256
  6
BYLAYER
 49
-0.5
 62
   256
  6
BYLAYER
  0
ACDBPLACEHOLDER
  5
F
102
{ACAD_REACTORS
330
E
102
}
330
E
  0
SCALE
  5
B7
102
{ACAD_REACTORS
330
B6
102
}
330
B6
100
AcDbScale
 70
     0
300
1:1
140
1.0
141
1.0
290
     1
  0
SCALE
  5
124
102
{ACAD_REACTORS
330
B6
102
}
330
B6
100
AcDbScale
 70
     0
300
1:2
140
1.0
141
2.0
290
     0
  0
SCALE
  5
125
102
{ACAD_REACTORS
330
B6
102
}
330
B6
100
AcDbScale
 70
     0
300
1:4
140
1.0
141
4.0
290
     0
  0
SCALE
  5
126
102
{ACAD_REACTORS
330
B6
102
}
330
B6
100
AcDbScale
 70
     0
300
1:5
140
1.0
141
5.0
290
     0
  0
SCALE
  5
127
102
{ACAD_REACTORS
330
B6
102
}
330
B6
100
AcDbScale
 70
     0
300
1:8
140
1.0
141
8.0
290
     0
  0
SCALE
  5
128
102
{ACAD_REACTORS
330
B6
102
}
330
B6
100
AcDbScale
 70
     0
300
1:10
140
1.0
141
10.0
290
     0
  0
SCALE
  5
129
102
{ACAD_REACTORS
330
B6
102
}
330
B6
100
AcDbScale
 70
     0
300
1:16
140
1.0
141
16.0
290
     0
  0
SCALE
  5
12A
102
{ACAD_REACTORS
330
B6
102
}
330
B6
100
AcDbScale
 70
     0
300
1:20
140
1.0
141
20.0
290
     0
  0
SCALE
  5
12B
102
{ACAD_REACTORS
330
B6
102
}
330
B6
100
AcDbScale
 70
     0
300
1:30
140
1.0
141
30.0
290
     0
  0
SCALE
  5
12C
102
{ACAD_REACTORS
330
B6
102
}
330
B6
100
AcDbScale
 70
     0
300
1:40
140
1.0
141
40.0
290
     0
  0
SCALE
  5
12D
102
{ACAD_REACTORS
330
B6
102
}
330
B6
100
AcDbScale
 70
     0
300
1:50
140
1.0
141
50.0
290
     0
  0
SCALE
  5
12E
102
{ACAD_REACTORS
330
B6
102
}
330
B6
100
AcDbScale
 70
     0
300
1:100
140
1.0
141
100.0
290
     0
  0
SCALE
  5
12F
102
{ACAD_REACTORS
330
B6
102
}
330
B6
100
AcDbScale
 70
     0
300
2:1
140
2.0
141
1.0
290
     0
  0
SCALE
  5
130
102
{ACAD_REACTORS
330
B6
102
}
330
B6
100
AcDbScale
 70
     0
300
4:1
140
4.0
141
1.0
290
     0
  0
SCALE
  5
131
102
{ACAD_REACTORS
330
B6
102
}
330
B6
100
AcDbScale
 70
     0
300
8:1
140
8.0
141
1.0
290
     0
  0
SCALE
  5
132
102
{ACAD_REACTORS
330
B6
102
}
330
B6
100
AcDbScale
 70
     0
300
10:1
140
10.0
141
1.0
290
     0
  0
SCALE
  5
133
102
{ACAD_REACTORS
330
B6
102
}
330
B6
100
AcDbScale
 70
     0
300
100:1
140
100.0
141
1.0
290
     0
  0
SCALE
  5
134
102
{ACAD_REACTORS
330
B6
102
}
330
B6
100
AcDbScale
 70
     0
300
1/128" = 1'-0"
140
0.0078125
141
12.0
290
     0
  0
SCALE
  5
135
102
{ACAD_REACTORS
330
B6
102
}
330
B6
100
AcDbScale
 70
     0
300
1/64" = 1'-0"
140
0.015625
141
12.0
290
     0
  0
SCALE
  5
136
102
{ACAD_REACTORS
330
B6
102
}
330
B6
100
AcDbScale
 70
     0
300
1/32" = 1'-0"
140
0.03125
141
12.0
290
     0
  0
SCALE
  5
137
102
{ACAD_REACTORS
330
B6
102
}
330
B6
100
AcDbScale
 70
     0
300
1/16" = 1'-0"
140
0.0625
141
12.0
290
     0
  0
SCALE
  5
138
102
{ACAD_REACTORS
330
B6
102
}
330
B6
100
AcDbScale
 70
     0
300
3/32" = 1'-0"
140
0.09375
141
12.0
290
     0
  0
SCALE
  5
139
102
{ACAD_REACTORS
330
B6
102
}
330
B6
100
AcDbScale
 70
     0
300
1/8" = 1'-0"
140
0.125
141
12.0
290
     0
  0
SCALE
  5
13A
102
{ACAD_REACTORS
330
B6
102
}
330
B6
100
AcDbScale
 70
     0
300
3/16" = 1'-0"
140
0.1875
141
12.0
290
     0
  0
SCALE
  5
13B
102
{ACAD_REACTORS
330
B6
102
}
330
B6
100
AcDbScale
 70
     0
300
1/4" = 1'-0"
140
0.25
141
12.0
290
     0
  0
SCALE
  5
13C
102
{ACAD_REACTORS
330
B6
102
}
330
B6
100
AcDbScale
 70
     0
300
3/8" = 1'-0"
140
0.375
141
12.0
290
     0
  0
SCALE
  5
13D
102
{ACAD_REACTORS
330
B6
102
}
330
B6
100
AcDbScale
 70
     0
300
1/2" = 1'-0"
140
0.5
141
12.0
290
     0
  0
SCALE
  5
13E
102
{ACAD_REACTORS
330
B6
102
}
330
B6
100
AcDbScale
 70
     0
300
3/4" = 1'-0"
140
0.75
141
12.0
290
     0
  0
SCALE
  5
13F
102
{ACAD_REACTORS
330
B6
102
}
330
B6
100
AcDbScale
 70
     0
300
1" = 1'-0"
140
1.0
141
12.0
290
     0
  0
SCALE
  5
140
102
{ACAD_REACTORS
330
B6
102
}
330
B6
100
AcDbScale
 70
     0
300
1-1/2" = 1'-0"
140
1.5
141
12.0
290
     0
  0
SCALE
  5
141
102
{ACAD_REACTORS
330
B6
102
}
330
B6
100
AcDbScale
 70
     0
300
3" = 1'-0"
140
3.0
141
12.0
290
     0
  0
SCALE
  5
142
102
{ACAD_REACTORS
330
B6
102
}
330
B6
100
AcDbScale
 70
     0
300
6" = 1'-0"
140
6.0
141
12.0
290
     0
  0
SCALE
  5
143
102
{ACAD_REACTORS
330
B6
102
}
330
B6
100
AcDbScale
 70
     0
300
1'-0" = 1'-0"
140
12.0
141
12.0
290
     0
  0
ACDBSECTIONVIEWSTYLE
  5
1AA
102
{ACAD_REACTORS
330
1A8
102
}
330
1A8
100
AcDbModelDocViewStyle
 70
     0
  3
Imperial24
290
     0
300
Imperial24
 90
        0
100
AcDbSectionViewStyle
 70
     0
 71
     0
 90
       78
 71
     1
340
11
 62
   256
 40
0.24
340
0
340
0
 62
   256
 40
0.24
300
I, O, Q, S, X, Z
 40
0.48
 90
        3
 40
0.18
 90
        1
 71
     2
340
16
 90
       25
 62
   256
340
16
 90
       50
 62
   256
 40
0.24
 40
0.0
 40
0.24
 71
     3
340
11
 62
   256
 40
0.24
 90
        1
 40
0.75
 90
        1
300
%<\AcVar ViewType \f "%tc1">% %<\AcVar ViewSectionStartId>%-%<\AcVar ViewSectionEndId>%\PSCALE %<\AcVar ViewScale \f "%sn">%
 71
     4
 62
   256
 62
   257
300
ANSI31
 40
1.0
 90
        0
290
     0
290
     0
 90
        6
 40
0.0
 40
1.570796326794896
 40
0.2617993877991494
 40
1.308996938995747
 40
-0.2617993877991494
 40
1.832595714594046
  0
TABLESTYLE
  5
87
102
{ACAD_XDICTIONARY
360
104
102
}
102
{ACAD_REACTORS
330
86
102
}
330
86
100
AcDbTableStyle
280
     0
  3
Standard
 70
     0
 71
     0
 40
0.06
 41
0.06
280
     0
281
     0
  7
Standard
140
0.18
170
     2
 62
     0
 63
     7
283
     0
 90
      512
 91
        0
  1

274
    -2
284
     1
 64
     0
275
    -2
285
     1
 65
     0
276
    -2
286
     1
 66
     0
277
    -2
287
     1
 67
     0
278
    -2
288
     1
 68
     0
279
    -2
289
     1
 69
     0
  7
Standard
140
0.25
170
     5
 62
     0
 63
     7
283
     0
 90
      512
 91
        0
  1

274
    -2
284
     1
 64
     0
275
    -2
285
     1
 65
     0
276
    -2
286
     1
 66
     0
277
    -2
287
     1
 67
     0
278
    -2
288
     1
 68
     0
279
    -2
289
     1
 69
     0
  7
Standard
140
0.18
170
     5
 62
     0
 63
     7
283
     0
 90
      512
 91
        0
  1

274
    -2
284
     1
 64
     0
275
    -2
285
     1
 65
     0
276
    -2
286
     1
 66
     0
277
    -2
287
     1
 67
     0
278
    -2
288
     1
 68
     0
279
    -2
289
     1
 69
     0
  0
VISUALSTYLE
  5
9F
102
{ACAD_REACTORS
330
99
102
}
330
99
100
AcDbVisualStyle
  2
2dWireframe
 70
     4
177
     3
291
     0
 70
    58
 90
        0
176
     1
 90
        2
176
     1
 90
        1
176
     1
 90
        0
176
     1
 40
0.6
176
     1
 40
30.0
176
     1
 62
     7
420
 16777215
176
     1
 90
        1
176
     1
 90
        4
176
     1
 62
     7
176
     1
 62
   257
176
     1
 90
        1
176
     1
 90
        1
176
     1
 40
1.0
176
     1
 90
        0
176
     1
 62
   257
176
     1
 40
1.0
176
     1
 90
        1
176
     1
 90
        6
176
     1
 90
        2
176
     1
 62
     7
176
     1
 90
        5
176
     1
 90
        0
176
     1
 90
        0
176
     1
290
     0
176
     1
 90
        1
176
     1
 40
0.0
176
     1
 90
        0
176
     1
290
     1
176
     1
290
     1
176
     1
290
     0
176
     1
290
     0
176
     1
290
     0
176
     1
290
     0
176
     1
290
     0
176
     1
290
     0
176
     1
290
     0
176
     1
 90
       50
176
     1
 40
0.0
176
     1
 40
1.0
176
     1
 90
        0
176
     1
 62
    18
420
        0
176
     1
 90
       50
176
     1
 90
        3
176
     1
 62
     5
420
      255
176
     1
290
     0
176
     1
 90
       50
176
     1
 90
       50
176
     1
 90
       50
176
     1
290
     0
176
     1
 90
       50
176
     1
 62
   256
176
     0
 40
1.0
176
     0
 90
        2
176
     1
  1
strokes_ogs.tif
176
     1
290
     0
176
     1
 40
1.0
176
     1
 40
1.0
176
     1
  0
VISUALSTYLE
  5
9E
102
{ACAD_REACTORS
330
99
102
}
330
99
100
AcDbVisualStyle
  2
Basic
 70
     7
177
     3
291
     1
 70
    58
 90
        1
176
     1
 90
        0
176
     1
 90
        1
176
     1
 90
        0
176
     1
 40
0.6
176
     1
 40
30.0
176
     1
 62
     7
420
 16777215
176
     1
 90
        0
176
     1
 90
        4
176
     1
 62
     7
176
     1
 62
   257
176
     1
 90
        1
176
     1
 90
        1
176
     1
 40
1.0
176
     1
 90
        8
176
     1
 62
     7
176
     1
 40
1.0
176
     1
 90
        1
176
     1
 90
        6
176
     1
 90
        2
176
     1
 62
     7
176
     1
 90
        5
176
     1
 90
        0
176
     1
 90
        0
176
     1
290
     0
176
     1
 90
        1
176
     1
 40
0.0
176
     1
 90
        0
176
     1
290
     0
176
     1
290
     1
176
     1
290
     1
176
     1
290
     0
176
     1
290
     0
176
     1
290
     0
176
     1
290
     0
176
     1
290
     0
176
     1
290
     0
176
     1
 90
       50
176
     1
 40
0.0
176
     1
 40
1.0
176
     1
 90
        0
176
     1
 62
    18
420
        0
176
     1
 90
       50
176
     1
 90
        3
176
     1
 62
     5
420
      255
176
     1
290
     0
176
     1
 90
       50
176
     1
 90
       50
176
     1
 90
       50
176
     1
290
     0
176
     1
 90
       50
176
     1
 62
   256
176
     0
 40
1.0
176
     0
 90
        2
176
     1
  1
strokes_ogs.tif
176
     1
290
     0
176
     1
 40
1.0
176
     1
 40
1.0
176
     1
  0
VISUALSTYLE
  5
A5
102
{ACAD_REACTORS
330
99
102
}
330
99
100
AcDbVisualStyle
  2
Brighten
 70
    12
177
     3
291
     1
 70
    58
 90
        2
176
     1
 90
        2
176
     1
 90
        1
176
     1
 90
        0
176
     1
 40
0.6
176
     1
 40
30.0
176
     1
 62
     7
420
 16777215
176
     1
 90
        1
176
     1
 90
        4
176
     1
 62
     7
176
     1
 62
   257
176
     1
 90
        1
176
     1
 90
        1
176
     1
 40
1.0
176
     1
 90
        8
176
     1
 62
     7
176
     1
 40
1.0
176
     1
 90
        1
176
     1
 90
        6
176
     1
 90
        2
176
     1
 62
     7
176
     1
 90
        5
176
     1
 90
        0
176
     1
 90
        0
176
     1
290
     0
176
     1
 90
        1
176
     1
 40
50.0
176
     1
 90
        0
176
     1
290
     0
176
     1
290
     1
176
     1
290
     1
176
     1
290
     0
176
     1
290
     0
176
     1
290
     0
176
     1
290
     0
176
     1
290
     0
176
     1
290
     0
176
     1
 90
       50
176
     1
 40
0.0
176
     1
 40
1.0
176
     1
 90
        0
176
     1
 62
    18
420
        0
176
     1
 90
       50
176
     1
 90
        3
176
     1
 62
     5
420
      255
176
     1
290
     0
176
     1
 90
       50
176
     1
 90
       50
176
     1
 90
       50
176
     1
290
     0
176
     1
 90
       50
176
     1
 62
   256
176
     0
 40
1.0
176
     0
 90
        2
176
     1
  1
strokes_ogs.tif
176
     1
290
     0
176
     1
 40
1.0
176
     1
 40
1.0
176
     1
  0
VISUALSTYLE
  5
A9
102
{ACAD_REACTORS
330
99
102
}
330
99
100
AcDbVisualStyle
  2
ColorChange
 70
    16
177
     3
291
     1
 70
    58
 90
        2
176
     1
 90
        2
176
     1
 90
        3
176
     1
 90
        0
176
     1
 40
0.6
176
     1
 40
30.0
176
     1
 62
     8
420
  8421504
176
     1
 90
        1
176
     1
 90
        4
176
     1
 62
     7
176
     1
 62
   257
176
     1
 90
        1
176
     1
 90
        1
176
     1
 40
1.0
176
     1
 90
        8
176
     1
 62
     8
420
  8421504
176
     1
 40
1.0
176
     1
 90
        1
176
     1
 90
        6
176
     1
 90
        2
176
     1
 62
     7
176
     1
 90
        5
176
     1
 90
        0
176
     1
 90
        0
176
     1
290
     0
176
     1
 90
        1
176
     1
 40
0.0
176
     1
 90
        0
176
     1
290
     0
176
     1
290
     1
176
     1
290
     1
176
     1
290
     0
176
     1
290
     0
176
     1
290
     0
176
     1
290
     0
176
     1
290
     0
176
     1
290
     0
176
     1
 90
       50
176
     1
 40
0.0
176
     1
 40
1.0
176
     1
 90
        0
176
     1
 62
    18
420
        0
176
     1
 90
       50
176
     1
 90
        3
176
     1
 62
     5
420
      255
176
     1
290
     0
176
     1
 90
       50
176
     1
 90
       50
176
     1
 90
       50
176
     1
290
     0
176
     1
 90
       50
176
     1
 62
   256
176
     0
 40
1.0
176
     0
 90
        2
176
     1
  1
strokes_ogs.tif
176
     1
290
     0
176
     1
 40
1.0
176
     1
 40
1.0
176
     1
  0
VISUALSTYLE
  5
A2
102
{ACAD_REACTORS
330
99
102
}
330
99
100
AcDbVisualStyle
  2
Conceptual
 70
     9
177
     3
291
     0
 70
    58
 90
        3
176
     1
 90
        2
176
     1
 90
        1
176
     1
 90
        0
176
     1
 40
0.6
176
     1
 40
30.0
176
     1
 62
     7
420
 16777215
176
     1
 90
        2
176
     1
 90
        2
176
     1
 62
     7
176
     1
 62
   257
176
     1
 90
        1
176
     1
 90
        1
176
     1
 40
40.0
176
     1
 90
        8
176
     1
 62
     7
176
     1
 40
1.0
176
     1
 90
        1
176
     1
 90
        6
176
     1
 90
        2
176
     1
 62
     7
176
     1
 90
        3
176
     1
 90
        0
176
     1
 90
        0
176
     1
290
     0
176
     1
 90
        1
176
     1
 40
0.0
176
     1
 90
        0
176
     1
290
     0
176
     1
290
     1
176
     1
290
     1
176
     1
290
     0
176
     1
290
     0
176
     1
290
     0
176
     1
290
     0
176
     1
290
     0
176
     1
290
     0
176
     1
 90
       50
176
     1
 40
0.0
176
     1
 40
1.0
176
     1
 90
        0
176
     1
 62
    18
420
        0
176
     1
 90
       50
176
     1
 90
        3
176
     1
 62
     5
420
      255
176
     1
290
     0
176
     1
 90
       50
176
     1
 90
       50
176
     1
 90
       50
176
     1
290
     0
176
     1
 90
       50
176
     1
 62
   256
176
     0
 40
1.0
176
     0
 90
        2
176
     1
  1
strokes_ogs.tif
176
     1
290
     0
176
     1
 40
1.0
176
     1
 40
1.0
176
     1
  0
VISUALSTYLE
  5
A4
102
{ACAD_REACTORS
330
99
102
}
330
99
100
AcDbVisualStyle
  2
Dim
 70
    11
177
     3
291
     1
 70
    58
 90
        2
176
     1
 90
        2
176
     1
 90
        1
176
     1
 90
        0
176
     1
 40
0.6
176
     1
 40
30.0
176
     1
 62
     7
420
 16777215
176
     1
 90
        1
176
     1
 90
        4
176
     1
 62
     7
176
     1
 62
   257
176
     1
 90
        1
176
     1
 90
        1
176
     1
 40
1.0
176
     1
 90
        8
176
     1
 62
     7
176
     1
 40
1.0
176
     1
 90
        1
176
     1
 90
        6
176
     1
 90
        2
176
     1
 62
     7
176
     1
 90
        5
176
     1
 90
        0
176
     1
 90
        0
176
     1
290
     0
176
     1
 90
        1
176
     1
 40
-50.0
176
     1
 90
        0
176
     1
290
     0
176
     1
290
     1
176
     1
290
     1
176
     1
290
     0
176
     1
290
     0
176
     1
290
     0
176
     1
290
     0
176
     1
290
     0
176
     1
290
     0
176
     1
 90
       50
176
     1
 40
0.0
176
     1
 40
1.0
176
     1
 90
        0
176
     1
 62
    18
420
        0
176
     1
 90
       50
176
     1
 90
        3
176
     1
 62
     5
420
      255
176
     1
290
     0
176
     1
 90
       50
176
     1
 90
       50
176
     1
 90
       50
176
     1
290
     0
176
     1
 90
       50
176
     1
 62
   256
176
     0
 40
1.0
176
     0
 90
        2
176
     1
  1
strokes_ogs.tif
176
     1
290
     0
176
     1
 40
1.0
176
     1
 40
1.0
176
     1
  0
VISUALSTYLE
  5
175
102
{ACAD_REACTORS
330
99
102
}
330
99
100
AcDbVisualStyle
  2
EdgeColorOff
 70
    22
177
     3
291
     1
 70
    58
 90
        2
176
     0
 90
        2
176
     0
 90
        0
176
     0
 90
        0
176
     0
 40
0.6
176
     0
 40
30.0
176
     0
 62
     7
420
 16777215
176
     0
 90
        1
176
     0
 90
        4
176
     0
 62
     7
176
     0
 62
   257
176
     0
 90
        1
176
     0
 90
        1
176
     0
 40
1.0
176
     0
 90
        8
176
     2
 62
     7
176
     0
 40
1.0
176
     0
 90
        1
176
     0
 90
        6
176
     0
 90
        2
176
     0
 62
     7
176
     0
 90
        5
176
     0
 90
        0
176
     0
 90
        0
176
     0
290
     0
176
     0
 90
        1
176
     0
 40
0.0
176
     0
 90
        0
176
     0
290
     0
176
     1
290
     1
176
     1
290
     1
176
     1
290
     0
176
     1
290
     0
176
     1
290
     0
176
     1
290
     0
176
     1
290
     0
176
     1
290
     0
176
     1
 90
       50
176
     1
 40
0.0
176
     1
 40
1.0
176
     1
 90
        0
176
     1
 62
    18
420
        0
176
     1
 90
       50
176
     1
 90
        3
176
     1
 62
     5
420
      255
176
     1
290
     0
176
     1
 90
       50
176
     1
 90
       50
176
     1
 90
       50
176
     1
290
     0
176
     1
 90
       50
176
     1
 62
   256
176
     0
 40
1.0
176
     0
 90
        2
176
     1
  1
strokes_ogs.tif
176
     1
290
     0
176
     1
 40
1.0
176
     1
 40
1.0
176
     1
  0
VISUALSTYLE
  5
A8
102
{ACAD_REACTORS
330
99
102
}
330
99
100
AcDbVisualStyle
  2
Facepattern
 70
    15
177
     3
291
     1
 70
    58
 90
        2
176
     1
 90
        2
176
     1
 90
        1
176
     1
 90
        0
176
     1
 40
0.6
176
     1
 40
30.0
176
     1
 62
     7
420
 16777215
176
     1
 90
        1
176
     1
 90
        4
176
     1
 62
     7
176
     1
 62
   257
176
     1
 90
        1
176
     1
 90
        1
176
     1
 40
1.0
176
     1
 90
        8
176
     1
 62
     7
176
     1
 40
1.0
176
     1
 90
        1
176
     1
 90
        6
176
     1
 90
        2
176
     1
 62
     7
176
     1
 90
        5
176
     1
 90
        0
176
     1
 90
        0
176
     1
290
     0
176
     1
 90
        1
176
     1
 40
0.0
176
     1
 90
        0
176
     1
290
     0
176
     1
290
     1
176
     1
290
     1
176
     1
290
     0
176
     1
290
     0
176
     1
290
     0
176
     1
290
     0
176
     1
290
     0
176
     1
290
     0
176
     1
 90
       50
176
     1
 40
0.0
176
     1
 40
1.0
176
     1
 90
        0
176
     1
 62
    18
420
        0
176
     1
 90
       50
176
     1
 90
        3
176
     1
 62
     5
420
      255
176
     1
290
     0
176
     1
 90
       50
176
     1
 90
       50
176
     1
 90
       50
176
     1
290
     0
176
     1
 90
       50
176
     1
 62
   256
176
     0
 40
1.0
176
     0
 90
        2
176
     1
  1
strokes_ogs.tif
176
     1
290
     0
176
     1
 40
1.0
176
     1
 40
1.0
176
     1
  0
VISUALSTYLE
  5
9A
102
{ACAD_REACTORS
330
99
102
}
330
99
100
AcDbVisualStyle
  2
Flat
 70
     0
177
     3
291
     1
 70
    58
 90
        2
176
     1
 90
        1
176
     1
 90
        1
176
     1
 90
        2
176
     1
 40
0.6
176
     1
 40
30.0
176
     1
 62
     7
420
 16777215
176
     1
 90
        0
176
     1
 90
        0
176
     1
 62
     7
176
     1
 62
   257
176
     1
 90
        1
176
     1
 90
        1
176
     1
 40
1.0
176
     1
 90
        8
176
     1
 62
     7
176
     1
 40
1.0
176
     1
 90
        1
176
     1
 90
        6
176
     1
 90
        2
176
     1
 62
     7
176
     1
 90
        5
176
     1
 90
        0
176
     1
 90
        0
176
     1
290
     0
176
     1
 90
       13
176
     1
 40
0.0
176
     1
 90
        0
176
     1
290
     0
176
     1
290
     1
176
     1
290
     1
176
     1
290
     0
176
     1
290
     0
176
     1
290
     0
176
     1
290
     0
176
     1
290
     0
176
     1
290
     0
176
     1
 90
       50
176
     1
 40
0.0
176
     1
 40
1.0
176
     1
 90
        0
176
     1
 62
    18
420
        0
176
     1
 90
       50
176
     1
 90
        3
176
     1
 62
     5
420
      255
176
     1
290
     0
176
     1
 90
       50
176
     1
 90
       50
176
     1
 90
       50
176
     1
290
     0
176
     1
 90
       50
176
     1
 62
   256
176
     0
 40
1.0
176
     0
 90
        2
176
     1
  1
strokes_ogs.tif
176
     1
290
     0
176
     1
 40
1.0
176
     1
 40
1.0
176
     1
  0
VISUALSTYLE
  5
9B
102
{ACAD_REACTORS
330
99
102
}
330
99
100
AcDbVisualStyle
  2
FlatWithEdges
 70
     1
177
     3
291
     1
 70
    58
 90
        2
176
     1
 90
        1
176
     1
 90
        1
176
     1
 90
        2
176
     1
 40
0.6
176
     1
 40
30.0
176
     1
 62
     7
420
 16777215
176
     1
 90
        1
176
     1
 90
        0
176
     1
 62
     7
176
     1
 62
   257
176
     1
 90
        1
176
     1
 90
        1
176
     1
 40
1.0
176
     1
 90
        0
176
     1
 62
   257
176
     1
 40
1.0
176
     1
 90
        1
176
     1
 90
        6
176
     1
 90
        2
176
     1
 62
     7
176
     1
 90
        5
176
     1
 90
        0
176
     1
 90
        0
176
     1
290
     0
176
     1
 90
       13
176
     1
 40
0.0
176
     1
 90
        0
176
     1
290
     0
176
     1
290
     1
176
     1
290
     1
176
     1
290
     0
176
     1
290
     0
176
     1
290
     0
176
     1
290
     0
176
     1
290
     0
176
     1
290
     0
176
     1
 90
       50
176
     1
 40
0.0
176
     1
 40
1.0
176
     1
 90
        0
176
     1
 62
    18
420
        0
176
     1
 90
       50
176
     1
 90
        3
176
     1
 62
     5
420
      255
176
     1
290
     0
176
     1
 90
       50
176
     1
 90
       50
176
     1
 90
       50
176
     1
290
     0
176
     1
 90
       50
176
     1
 62
   256
176
     0
 40
1.0
176
     0
 90
        2
176
     1
  1
strokes_ogs.tif
176
     1
290
     0
176
     1
 40
1.0
176
     1
 40
1.0
176
     1
  0
VISUALSTYLE
  5
9C
102
{ACAD_REACTORS
330
99
102
}
330
99
100
AcDbVisualStyle
  2
Gouraud
 70
     2
177
     3
291
     1
 70
    58
 90
        2
176
     1
 90
        2
176
     1
 90
        1
176
     1
 90
        2
176
     1
 40
0.6
176
     1
 40
30.0
176
     1
 62
     7
420
 16777215
176
     1
 90
        0
176
     1
 90
        0
176
     1
 62
     7
176
     1
 62
   257
176
     1
 90
        1
176
     1
 90
        1
176
     1
 40
1.0
176
     1
 90
        0
176
     1
 62
     7
176
     1
 40
1.0
176
     1
 90
        1
176
     1
 90
        6
176
     1
 90
        2
176
     1
 62
     7
176
     1
 90
        5
176
     1
 90
        0
176
     1
 90
        0
176
     1
290
     0
176
     1
 90
       13
176
     1
 40
0.0
176
     1
 90
        0
176
     1
290
     0
176
     1
290
     1
176
     1
290
     1
176
     1
290
     0
176
     1
290
     0
176
     1
290
     0
176
     1
290
     0
176
     1
290
     0
176
     1
290
     0
176
     1
 90
       50
176
     1
 40
0.0
176
     1
 40
1.0
176
     1
 90
        0
176
     1
 62
    18
420
        0
176
     1
 90
       50
176
     1
 90
        3
176
     1
 62
     5
420
      255
176
     1
290
     0
176
     1
 90
       50
176
     1
 90
       50
176
     1
 90
       50
176
     1
290
     0
176
     1
 90
       50
176
     1
 62
   256
176
     0
 40
1.0
176
     0
 90
        2
176
     1
  1
strokes_ogs.tif
176
     1
290
     0
176
     1
 40
1.0
176
     1
 40
1.0
176
     1
  0
VISUALSTYLE
  5
9D
102
{ACAD_REACTORS
330
99
102
}
330
99
100
AcDbVisualStyle
  2
GouraudWithEdges
 70
     3
177
     3
291
     1
 70
    58
 90
        2
176
     1
 90
        2
176
     1
 90
        1
176
     1
 90
        2
176
     1
 40
0.6
176
     1
 40
30.0
176
     1
 62
     7
420
 16777215
176
     1
 90
        1
176
     1
 90
        0
176
     1
 62
     7
176
     1
 62
   257
176
     1
 90
        1
176
     1
 90
        1
176
     1
 40
1.0
176
     1
 90
        0
176
     1
 62
   257
176
     1
 40
1.0
176
     1
 90
        1
176
     1
 90
        6
176
     1
 90
        2
176
     1
 62
     7
176
     1
 90
        5
176
     1
 90
        0
176
     1
 90
        0
176
     1
290
     0
176
     1
 90
       13
176
     1
 40
0.0
176
     1
 90
        0
176
     1
290
     0
176
     1
290
     1
176
     1
290
     1
176
     1
290
     0
176
     1
290
     0
176
     1
290
     0
176
     1
290
     0
176
     1
290
     0
176
     1
290
     0
176
     1
 90
       50
176
     1
 40
0.0
176
     1
 40
1.0
176
     1
 90
        0
176
     1
 62
    18
420
        0
176
     1
 90
       50
176
     1
 90
        3
176
     1
 62
     5
420
      255
176
     1
290
     0
176
     1
 90
       50
176
     1
 90
       50
176
     1
 90
       50
176
     1
290
     0
176
     1
 90
       50
176
     1
 62
   256
176
     0
 40
1.0
176
     0
 90
        2
176
     1
  1
strokes_ogs.tif
176
     1
290
     0
176
     1
 40
1.0
176
     1
 40
1.0
176
     1
  0
VISUALSTYLE
  5
A1
102
{ACAD_REACTORS
330
99
102
}
330
99
100
AcDbVisualStyle
  2
Hidden
 70
     6
177
     3
291
     0
 70
    58
 90
        1
176
     1
 90
        2
176
     1
 90
        2
176
     1
 90
        0
176
     1
 40
0.6
176
     1
 40
30.0
176
     1
 62
     7
420
 16777215
176
     1
 90
        2
176
     1
 90
        2
176
     1
 62
     7
176
     1
 62
   257
176
     1
 90
        2
176
     1
 90
        1
176
     1
 40
40.0
176
     1
 90
        0
176
     1
 62
   257
176
     1
 40
1.0
176
     1
 90
        1
176
     1
 90
        6
176
     1
 90
        2
176
     1
 62
     7
176
     1
 90
        3
176
     1
 90
        0
176
     1
 90
        0
176
     1
290
     0
176
     1
 90
        1
176
     1
 40
0.0
176
     1
 90
        0
176
     1
290
     0
176
     1
290
     1
176
     1
290
     1
176
     1
290
     0
176
     1
290
     0
176
     1
290
     0
176
     1
290
     0
176
     1
290
     0
176
     1
290
     0
176
     1
 90
       50
176
     1
 40
0.0
176
     1
 40
1.0
176
     1
 90
        0
176
     1
 62
    18
420
        0
176
     1
 90
       50
176
     1
 90
        3
176
     1
 62
     5
420
      255
176
     1
290
     0
176
     1
 90
       50
176
     1
 90
       50
176
     1
 90
       50
176
     1
290
     0
176
     1
 90
       50
176
     1
 62
   256
176
     0
 40
1.0
176
     0
 90
        2
176
     1
  1
strokes_ogs.tif
176
     1
290
     0
176
     1
 40
1.0
176
     1
 40
1.0
176
     1
  0
VISUALSTYLE
  5
173
102
{ACAD_REACTORS
330
99
102
}
330
99
100
AcDbVisualStyle
  2
JitterOff
 70
    20
177
     3
291
     1
 70
    58
 90
        2
176
     0
 90
        2
176
     0
 90
        0
176
     0
 90
        0
176
     0
 40
0.6
176
     0
 40
30.0
176
     0
 62
     7
420
 16777215
176
     0
 90
        1
176
     0
 90
        4
176
     0
 62
     7
176
     0
 62
   257
176
     0
 90
        1
176
     0
 90
        1
176
     0
 40
1.0
176
     0
 90
       10
176
     2
 62
     7
176
     0
 40
1.0
176
     0
 90
        1
176
     0
 90
        6
176
     0
 90
        2
176
     0
 62
     7
176
     0
 90
        5
176
     0
 90
        0
176
     0
 90
        0
176
     0
290
     0
176
     0
 90
        1
176
     0
 40
0.0
176
     0
 90
        0
176
     0
290
     0
176
     1
290
     1
176
     1
290
     1
176
     1
290
     0
176
     1
290
     0
176
     1
290
     0
176
     1
290
     0
176
     1
290
     0
176
     1
290
     0
176
     1
 90
       50
176
     1
 40
0.0
176
     1
 40
1.0
176
     1
 90
        0
176
     1
 62
    18
420
        0
176
     1
 90
       50
176
     1
 90
        3
176
     1
 62
     5
420
      255
176
     1
290
     0
176
     1
 90
       50
176
     1
 90
       50
176
     1
 90
       50
176
     1
290
     0
176
     1
 90
       50
176
     1
 62
   256
176
     0
 40
1.0
176
     0
 90
        2
176
     1
  1
strokes_ogs.tif
176
     1
290
     0
176
     1
 40
1.0
176
     1
 40
1.0
176
     1
  0
VISUALSTYLE
  5
A7
102
{ACAD_REACTORS
330
99
102
}
330
99
100
AcDbVisualStyle
  2
Linepattern
 70
    14
177
     3
291
     1
 70
    58
 90
        2
176
     1
 90
        2
176
     1
 90
        1
176
     1
 90
        0
176
     1
 40
0.6
176
     1
 40
30.0
176
     1
 62
     7
420
 16777215
176
     1
 90
        1
176
     1
 90
        4
176
     1
 62
     7
176
     1
 62
   257
176
     1
 90
        7
176
     1
 90
        7
176
     1
 40
1.0
176
     1
 90
        8
176
     1
 62
     7
176
     1
 40
1.0
176
     1
 90
        1
176
     1
 90
        6
176
     1
 90
        2
176
     1
 62
     7
176
     1
 90
        5
176
     1
 90
        0
176
     1
 90
        0
176
     1
290
     0
176
     1
 90
        1
176
     1
 40
0.0
176
     1
 90
        0
176
     1
290
     0
176
     1
290
     1
176
     1
290
     1
176
     1
290
     0
176
     1
290
     0
176
     1
290
     0
176
     1
290
     0
176
     1
290
     0
176
     1
290
     0
176
     1
 90
       50
176
     1
 40
0.0
176
     1
 40
1.0
176
     1
 90
        0
176
     1
 62
    18
420
        0
176
     1
 90
       50
176
     1
 90
        3
176
     1
 62
     5
420
      255
176
     1
290
     0
176
     1
 90
       50
176
     1
 90
       50
176
     1
 90
       50
176
     1
290
     0
176
     1
 90
       50
176
     1
 62
   256
176
     0
 40
1.0
176
     0
 90
        2
176
     1
  1
strokes_ogs.tif
176
     1
290
     0
176
     1
 40
1.0
176
     1
 40
1.0
176
     1
  0
VISUALSTYLE
  5
174
102
{ACAD_REACTORS
330
99
102
}
330
99
100
AcDbVisualStyle
  2
OverhangOff
 70
    21
177
     3
291
     1
 70
    58
 90
        2
176
     0
 90
        2
176
     0
 90
        0
176
     0
 90
        0
176
     0
 40
0.6
176
     0
 40
30.0
176
     0
 62
     7
420
 16777215
176
     0
 90
        1
176
     0
 90
        4
176
     0
 62
     7
176
     0
 62
   257
176
     0
 90
        1
176
     0
 90
        1
176
     0
 40
1.0
176
     0
 90
        9
176
     2
 62
     7
176
     0
 40
1.0
176
     0
 90
        1
176
     0
 90
        6
176
     0
 90
        2
176
     0
 62
     7
176
     0
 90
        5
176
     0
 90
        0
176
     0
 90
        0
176
     0
290
     0
176
     0
 90
        1
176
     0
 40
0.0
176
     0
 90
        0
176
     0
290
     0
176
     1
290
     1
176
     1
290
     1
176
     1
290
     0
176
     1
290
     0
176
     1
290
     0
176
     1
290
     0
176
     1
290
     0
176
     1
290
     0
176
     1
 90
       50
176
     1
 40
0.0
176
     1
 40
1.0
176
     1
 90
        0
176
     1
 62
    18
420
        0
176
     1
 90
       50
176
     1
 90
        3
176
     1
 62
     5
420
      255
176
     1
290
     0
176
     1
 90
       50
176
     1
 90
       50
176
     1
 90
       50
176
     1
290
     0
176
     1
 90
       50
176
     1
 62
   256
176
     0
 40
1.0
176
     0
 90
        2
176
     1
  1
strokes_ogs.tif
176
     1
290
     0
176
     1
 40
1.0
176
     1
 40
1.0
176
     1
  0
VISUALSTYLE
  5
A3
102
{ACAD_REACTORS
330
99
102
}
330
99
100
AcDbVisualStyle
  2
Realistic
 70
     8
177
     3
291
     0
 70
    58
 90
        2
176
     1
 90
        3
176
     1
 90
        0
176
     1
 90
        2
176
     1
 40
0.6
176
     1
 40
30.0
176
     1
 62
     7
420
 16777215
176
     1
 90
        0
176
     1
 90
        0
176
     1
 62
     7
176
     1
 62
   257
176
     1
 90
        1
176
     1
 90
        1
176
     1
 40
1.0
176
     1
 90
        8
176
     1
 62
   257
176
     1
 40
1.0
176
     1
 90
        1
176
     1
 90
        6
176
     1
 90
        2
176
     1
 62
     7
176
     1
 90
        3
176
     1
 90
        0
176
     1
 90
        0
176
     1
290
     0
176
     1
 90
       13
176
     1
 40
0.0
176
     1
 90
        0
176
     1
290
     0
176
     1
290
     1
176
     1
290
     1
176
     1
290
     0
176
     1
290
     0
176
     1
290
     0
176
     1
290
     0
176
     1
290
     0
176
     1
290
     0
176
     1
 90
       50
176
     1
 40
0.0
176
     1
 40
1.0
176
     1
 90
        0
176
     1
 62
    18
420
        0
176
     1
 90
       50
176
     1
 90
        3
176
     1
 62
     5
420
      255
176
     1
290
     0
176
     1
 90
       50
176
     1
 90
       50
176
     1
 90
       50
176
     1
290
     0
176
     1
 90
       50
176
     1
 62
   256
176
     0
 40
1.0
176
     0
 90
        2
176
     1
  1
strokes_ogs.tif
176
     1
290
     0
176
     1
 40
1.0
176
     1
 40
1.0
176
     1
  0
VISUALSTYLE
  5
182
102
{ACAD_REACTORS
330
99
102
}
330
99
100
AcDbVisualStyle
  2
Shaded
 70
    27
177
     3
291
     0
 70
    58
 90
        2
176
     1
 90
        2
176
     1
 90
        1
176
     1
 90
        2
176
     1
 40
0.6
176
     1
 40
30.0
176
     1
 62
     7
420
 16777215
176
     1
 90
        0
176
     1
 90
        4
176
     1
 62
     7
176
     1
 62
   257
176
     1
 90
        1
176
     1
 90
        1
176
     1
 40
1.0
176
     1
 90
        8
176
     1
 62
   257
176
     1
 40
1.0
176
     1
 90
        1
176
     1
 90
        6
176
     1
 90
        2
176
     1
 62
     8
420
  7895160
176
     1
 90
        3
176
     1
 90
        0
176
     1
 90
        0
176
     1
290
     0
176
     1
 90
        5
176
     1
 40
0.0
176
     1
 90
        0
176
     1
290
     0
176
     1
290
     1
176
     1
290
     1
176
     1
290
     0
176
     1
290
     0
176
     1
290
     0
176
     1
290
     0
176
     1
290
     0
176
     1
290
     0
176
     1
 90
       50
176
     1
 40
0.0
176
     1
 40
1.0
176
     1
 90
        0
176
     1
 62
    18
420
        0
176
     1
 90
       50
176
     1
 90
        3
176
     1
 62
     5
420
      255
176
     1
290
     0
176
     1
 90
       50
176
     1
 90
       50
176
     1
 90
       50
176
     1
290
     0
176
     1
 90
       50
176
     1
 62
   256
176
     0
 40
1.0
176
     0
 90
        2
176
     1
  1
strokes_ogs.tif
176
     1
290
     0
176
     1
 40
1.0
176
     1
 40
1.0
176
     1
  0
VISUALSTYLE
  5
181
102
{ACAD_REACTORS
330
99
102
}
330
99
100
AcDbVisualStyle
  2
Shaded with edges
 70
    26
177
     3
291
     0
 70
    58
 90
        2
176
     1
 90
        2
176
     1
 90
        1
176
     1
 90
        2
176
     1
 40
0.6
176
     1
 40
30.0
176
     1
 62
     7
420
 16777215
176
     1
 90
        1
176
     1
 90
        2
176
     1
 62
     7
176
     1
 62
   257
176
     1
 90
        2
176
     1
 90
        1
176
     1
 40
1.0
176
     1
 90
        8
176
     1
 62
   257
176
     1
 40
1.0
176
     1
 90
        1
176
     1
 90
        6
176
     1
 90
        2
176
     1
 62
     7
176
     1
 90
        3
176
     1
 90
        0
176
     1
 90
        0
176
     1
290
     0
176
     1
 90
        5
176
     1
 40
0.0
176
     1
 90
        0
176
     1
290
     0
176
     1
290
     1
176
     1
290
     1
176
     1
290
     0
176
     1
290
     0
176
     1
290
     0
176
     1
290
     0
176
     1
290
     0
176
     1
290
     0
176
     1
 90
       50
176
     1
 40
0.0
176
     1
 40
1.0
176
     1
 90
        0
176
     1
 62
    18
420
        0
176
     1
 90
       50
176
     1
 90
        3
176
     1
 62
     5
420
      255
176
     1
290
     0
176
     1
 90
       50
176
     1
 90
       50
176
     1
 90
       50
176
     1
290
     0
176
     1
 90
       50
176
     1
 62
   256
176
     0
 40
1.0
176
     0
 90
        2
176
     1
  1
strokes_ogs.tif
176
     1
290
     0
176
     1
 40
1.0
176
     1
 40
1.0
176
     1
  0
VISUALSTYLE
  5
17E
102
{ACAD_REACTORS
330
99
102
}
330
99
100
AcDbVisualStyle
  2
Shades of Gray
 70
    23
177
     3
291
     0
 70
    58
 90
        2
176
     1
 90
        2
176
     1
 90
        3
176
     1
 90
        0
176
     1
 40
0.6
176
     1
 40
30.0
176
     1
 62
     7
420
 16777215
176
     1
 90
        2
176
     1
 90
        2
176
     1
 62
     7
176
     1
 62
     7
176
     1
 90
        1
176
     1
 90
        1
176
     1
 40
40.0
176
     1
 90
        8
176
     1
 62
     7
176
     1
 40
1.0
176
     1
 90
        1
176
     1
 90
        6
176
     1
 90
        2
176
     1
 62
     7
176
     1
 90
        3
176
     1
 90
        0
176
     1
 90
        0
176
     1
290
     0
176
     1
 90
        1
176
     1
 40
0.0
176
     1
 90
        0
176
     1
290
     0
176
     1
290
     1
176
     1
290
     1
176
     1
290
     0
176
     1
290
     0
176
     1
290
     0
176
     1
290
     0
176
     1
290
     0
176
     1
290
     0
176
     1
 90
       50
176
     1
 40
0.0
176
     1
 40
1.0
176
     1
 90
        0
176
     1
 62
    18
420
        0
176
     1
 90
       50
176
     1
 90
        3
176
     1
 62
     5
420
      255
176
     1
290
     0
176
     1
 90
       50
176
     1
 90
       50
176
     1
 90
       50
176
     1
290
     0
176
     1
 90
       50
176
     1
 62
   256
176
     0
 40
1.0
176
     0
 90
        2
176
     1
  1
strokes_ogs.tif
176
     1
290
     0
176
     1
 40
1.0
176
     1
 40
1.0
176
     1
  0
VISUALSTYLE
  5
17F
102
{ACAD_REACTORS
330
99
102
}
330
99
100
AcDbVisualStyle
  2
Sketchy
 70
    24
177
     3
291
     0
 70
    58
 90
        1
176
     1
 90
        2
176
     1
 90
        2
176
     1
 90
        0
176
     1
 40
0.6
176
     1
 40
30.0
176
     1
 62
     7
420
 16777215
176
     1
 90
        2
176
     1
 90
        2
176
     1
 62
     7
176
     1
 62
     7
176
     1
 90
        1
176
     1
 90
        1
176
     1
 40
40.0
176
     1
 90
       11
176
     1
 62
     7
176
     1
 40
1.0
176
     1
 90
        1
176
     1
 90
        6
176
     1
 90
        2
176
     1
 62
     7
176
     1
 90
        6
176
     1
 90
        0
176
     1
 90
        0
176
     1
290
     0
176
     1
 90
        1
176
     1
 40
0.0
176
     1
 90
        0
176
     1
290
     0
176
     1
290
     1
176
     1
290
     1
176
     1
290
     0
176
     1
290
     0
176
     1
290
     0
176
     1
290
     0
176
     1
290
     0
176
     1
290
     0
176
     1
 90
       50
176
     1
 40
0.0
176
     1
 40
1.0
176
     1
 90
        0
176
     1
 62
    18
420
        0
176
     1
 90
       50
176
     1
 90
        3
176
     1
 62
     5
420
      255
176
     1
290
     0
176
     1
 90
       50
176
     1
 90
       50
176
     1
 90
       50
176
     1
290
     0
176
     1
 90
       50
176
     1
 62
   256
176
     0
 40
1.0
176
     0
 90
        2
176
     1
  1
strokes_ogs.tif
176
     1
290
     0
176
     1
 40
1.0
176
     1
 40
1.0
176
     1
  0
VISUALSTYLE
  5
A6
102
{ACAD_REACTORS
330
99
102
}
330
99
100
AcDbVisualStyle
  2
Thicken
 70
    13
177
     3
291
     1
 70
    58
 90
        2
176
     1
 90
        2
176
     1
 90
        1
176
     1
 90
        0
176
     1
 40
0.6
176
     1
 40
30.0
176
     1
 62
     7
420
 16777215
176
     1
 90
        1
176
     1
 90
        4
176
     1
 62
     7
176
     1
 62
   257
176
     1
 90
        1
176
     1
 90
        1
176
     1
 40
1.0
176
     1
 90
       12
176
     1
 62
     7
176
     1
 40
1.0
176
     1
 90
        1
176
     1
 90
        6
176
     1
 90
        2
176
     1
 62
     7
176
     1
 90
        5
176
     1
 90
        0
176
     1
 90
        0
176
     1
290
     0
176
     1
 90
        1
176
     1
 40
0.0
176
     1
 90
        0
176
     1
290
     0
176
     1
290
     1
176
     1
290
     1
176
     1
290
     0
176
     1
290
     0
176
     1
290
     0
176
     1
290
     0
176
     1
290
     0
176
     1
290
     0
176
     1
 90
       50
176
     1
 40
0.0
176
     1
 40
1.0
176
     1
 90
        0
176
     1
 62
    18
420
        0
176
     1
 90
       50
176
     1
 90
        3
176
     1
 62
     5
420
      255
176
     1
290
     0
176
     1
 90
       50
176
     1
 90
       50
176
     1
 90
       50
176
     1
290
     0
176
     1
 90
       50
176
     1
 62
   256
176
     0
 40
1.0
176
     0
 90
        2
176
     1
  1
strokes_ogs.tif
176
     1
290
     0
176
     1
 40
1.0
176
     1
 40
1.0
176
     1
  0
VISUALSTYLE
  5
A0
102
{ACAD_REACTORS
330
99
102
}
330
99
100
AcDbVisualStyle
  2
Wireframe
 70
     5
177
     3
291
     0
 70
    58
 90
        0
176
     1
 90
        2
176
     1
 90
        0
176
     1
 90
        0
176
     1
 40
0.6
176
     1
 40
30.0
176
     1
 62
     7
420
 16777215
176
     1
 90
        1
176
     1
 90
        4
176
     1
 62
     7
176
     1
 62
   257
176
     1
 90
        1
176
     1
 90
        1
176
     1
 40
1.0
176
     1
 90
        0
176
     1
 62
   257
176
     1
 40
1.0
176
     1
 90
        1
176
     1
 90
        6
176
     1
 90
        2
176
     1
 62
     7
176
     1
 90
        3
176
     1
 90
        0
176
     1
 90
        0
176
     1
290
     0
176
     1
 90
        1
176
     1
 40
0.0
176
     1
 90
        0
176
     1
290
     0
176
     1
290
     1
176
     1
290
     1
176
     1
290
     0
176
     1
290
     0
176
     1
290
     0
176
     1
290
     0
176
     1
290
     0
176
     1
290
     0
176
     1
 90
       50
176
     1
 40
0.0
176
     1
 40
1.0
176
     1
 90
        0
176
     1
 62
    18
420
        0
176
     1
 90
       50
176
     1
 90
        3
176
     1
 62
     5
420
      255
176
     1
290
     0
176
     1
 90
       50
176
     1
 90
       50
176
     1
 90
       50
176
     1
290
     0
176
     1
 90
       50
176
     1
 62
   256
176
     0
 40
1.0
176
     0
 90
        2
176
     1
  1
strokes_ogs.tif
176
     1
290
     0
176
     1
 40
1.0
176
     1
 40
1.0
176
     1
  0
VISUALSTYLE
  5
180
102
{ACAD_REACTORS
330
99
102
}
330
99
100
AcDbVisualStyle
  2
X-Ray
 70
    25
177
     3
291
     0
 70
    58
 90
        2
176
     1
 90
        2
176
     1
 90
        1
176
     1
 90
        1
176
     1
 40
0.5
176
     1
 40
30.0
176
     1
 62
     7
420
 16777215
176
     1
 90
        1
176
     1
 90
        0
176
     1
 62
     7
176
     1
 62
   257
176
     1
 90
        1
176
     1
 90
        1
176
     1
 40
1.0
176
     1
 90
        8
176
     1
 62
     7
176
     1
 40
1.0
176
     1
 90
        1
176
     1
 90
        6
176
     1
 90
        2
176
     1
 62
     7
176
     1
 90
        3
176
     1
 90
        0
176
     1
 90
        0
176
     1
290
     0
176
     1
 90
       13
176
     1
 40
0.0
176
     1
 90
        0
176
     1
290
     0
176
     1
290
     1
176
     1
290
     1
176
     1
290
     0
176
     1
290
     0
176
     1
290
     0
176
     1
290
     0
176
     1
290
     0
176
     1
290
     0
176
     1
 90
       50
176
     1
 40
0.0
176
     1
 40
1.0
176
     1
 90
        0
176
     1
 62
    18
420
        0
176
     1
 90
       50
176
     1
 90
        3
176
     1
 62
     5
420
      255
176
     1
290
     0
176
     1
 90
       50
176
     1
 90
       50
176
     1
 90
       50
176
     1
290
     0
176
     1
 90
       50
176
     1
 62
   256
176
     0
 40
1.0
176
     0
 90
        2
176
     1
  1
strokes_ogs.tif
176
     1
290
     0
176
     1
 40
1.0
176
     1
 40
1.0
176
     1
  0
DICTIONARYVAR
  5
F0
102
{ACAD_REACTORS
330
66
102
}
330
66
100
DictionaryVariables
280
     0
  1
1:1
  0
DICTIONARYVAR
  5
EF
102
{ACAD_REACTORS
330
66
102
}
330
66
100
DictionaryVariables
280
     0
  1
STANDARD
  0
DICTIONARYVAR
  5
89
102
{ACAD_REACTORS
330
66
102
}
330
66
100
DictionaryVariables
280
     0
  1
STANDARD
  0
DICTIONARYVAR
  5
1B7
102
{ACAD_REACTORS
330
66
102
}
330
66
100
DictionaryVariables
280
     0
  1
Imperial24
  0
DICTIONARYVAR
  5
1B8
102
{ACAD_REACTORS
330
66
102
}
330
66
100
DictionaryVariables
280
     0
  1
Imperial24
  0
DICTIONARYVAR
  5
67
102
{ACAD_REACTORS
330
66
102
}
330
66
100
DictionaryVariables
280
     0
  1
2
  0
DICTIONARYVAR
  5
6B
102
{ACAD_REACTORS
330
66
102
}
330
66
100
DictionaryVariables
280
     0
  1
1
  0
DICTIONARYVAR
  5
14D
102
{ACAD_REACTORS
330
66
102
}
330
66
100
DictionaryVariables
280
     0
  1
0
  0
DICTIONARYVAR
  5
14E
102
{ACAD_REACTORS
330
66
102
}
330
66
100
DictionaryVariables
280
     0
  1
0
  0
DICTIONARY
  5
34D
102
{ACAD_REACTORS
330
34C
102
}
330
34C
100
AcDbDictionary
281
     1
  0
DICTIONARY
  5
194
330
22
100
AcDbDictionary
280
     1
281
     1
  0
DICTIONARY
  5
188
330
97
100
AcDbDictionary
280
     1
281
     1
  3
FBXASSET
360
189
  0
DICTIONARY
  5
186
330
96
100
AcDbDictionary
280
     1
281
     1
  3
FBXASSET
360
187
  0
DICTIONARY
  5
110
330
98
100
AcDbDictionary
280
     1
281
     1
  3
BUMPTILE
360
112
  3
DIFFUSETILE
360
111
  3
FBXASSET
360
18A
  3
OPACITYTILE
360
113
  3
REFLECTIONTILE
360
114
  0
DICTIONARY
  5
104
330
87
100
AcDbDictionary
280
     1
281
     1
  3
ACAD_ROUNDTRIP_2008_TABLESTYLE_CELLSTYLEMAP
360
440
  0
XRECORD
  5
189
102
{ACAD_REACTORS
330
188
102
}
330
188
100
AcDbXrecord
280
     1
 70
     1
 90
429727718
  1
508B35C9-AEE7-456F-BE74-D52651303AC6
310
504B03040A0000080000B670623B3DEE336E79000000790000001B0000006175746F6465736B2D64657369676E2D7061636B6167652E786D6C3C3F786D6C2076657273696F6E3D22312E302220656E636F64696E673D227574662D3822203F3E3C666F726D6174733E3C666F726D61743E687474703A2F2F736368656D612E
310
6175746F6465736B2E636F6D2F64657369676E2D7061636B6167652F323030393C2F666F726D61743E3C2F666F726D6174733E504B0304140006080800B670623BD486FD9CA0000000F4000000130000005B436F6E74656E745F54797065735D2E786D6C7D8EC10E82300C865F65E91D8A1E8C310C0EEA1BF002731658846E
310
D98AC1B77784ABF1D8FE5FBFBF75BBCE937A534CCEB38643598122B6FEE978D0B0485F9C41B54DDD7D022595594E1A469170414C76A4D9A4D207E29CF43ECE46F218070CC6BECC4078ACAA135ACF422C856C0E68EA1BF5669944DDD7BCDE7B1F8E415D77AECB980613C2E4AC91FC167A2B244592486606FC29C8FD7F045B9A
310
EF7053A7E60B504B0304140006080800B670623B28ED286BEB0000007C01000008000000636F72652E786D6C8D90416EC3201045AF82665B6183218D6D61A254764FD00B204C5C94182C03558F5F9C3852BBEB6A467FFE9B197D71FA9E6FE8CBACC17AD7012D0820E3B41FAD9B3A48F1826B40272956EFE32F1B20A766D3C1
310
268314D3EAD3B24BDABB685CCCAAF3A3D94515828980F42D371D04FD696655A814B3235C8B45E9AB9A4C419F5D8653B2237A1CB163DE672FD6AC209BF3C08E0D1B30EB19C3FC9D72FCC6EB231EFA33EDE96BDD341517E5064B11EDFCBCAF57A3A2194156843498524CAA0FCA5B7268F9E185D42D21A2DCEC7FA0B48CFF8492
310
759155FBBB0F2C80A4F991FB408A72CB22977B50B96EB9C91F504B0304140006080800B670623B55019EA25F0000007C00000007000000636E782E786D6C4DCB3B0E80201045D1AD90E915ED2CF8AC45050C11660C8261F98AB1B07AC9C97D42D718D865D3E909258CFD00CCE24AC6E326A164D74DC0B4128928FF32603847
310
2BA13128B1252AC747C6BAB984FC68F0B87FE8960A5C09FE86CFB69FBA01504B0304140006080800B670623B7BC41AC871010000D40300000C0000006662782F636F72652E786D6CC553ED6E8320147D15C2DF4501B56B6D90A64BBB27D80B50A5CE54C120983EFEAE1F4DD7A56BBA5FF3879273EEE59E7310BE393735EA95
310
ED2AA333CC428A91D2B9292A5D66D8BB63B0C26823B835C67D2BC348CB46657880B1E0A535BE9DA1DC68A7B403549B42CDA0EC3AE530CA6B5864B8CB3F552343E91D5474A7B095F949962A6421D0502778E72C0840D390E18DC5F170E664C205F7BE2A66B62A605A75AC94C522DDEEE3651AEF837817C741F2CE92E02D592D
310
83FD6ECB76EC7595A651C2C9D02CB8AB9A8BBADC2AE954814544691A3016D0E883256BBA58278B17BA5A53CAC9507ED3E4DBE2C9265F691747B3DCA9ADC382819091F8E1162272A8933DE82182932144F88C09DF060D8140C84E1EEA8B8F1340BDCA9DB1093085F157AA97B557309586747CD0EF0B4EA64E983A6E0EAEEFCE
310
889E9EF17847386AA94B30211D2C0FDE0D3AF9A4610EAD5536E8DD1969631B593F67E381C33F5157F17725E5A636F6BF1491F980C8FC7B90E13E8A2F504B0304140006080800B670623B70102A487D0000009D0000000B0000006662782F636E782E786D6C4DCCD10A83201886E15B91FFDC95A5C30335ACCDFB886521330D
310
A76397BF1A1DECE883878F57749FD5A3B74D2F17830472A901D9F088930B8B849267CC01754AA418F3DF0D5018572BE160506249B16C274D761E8BCFBB7A179E27F65CB39A0F14D396184C9921B81F34C3ACA1B4B99ABB6E6F062A25AA5F69DF23ACBE504B0304140006080800B670623B3610CA3329010000120200003100
310
00006662782F42384135303843342D343331462D343546312D424341352D3532343432364645413344462F636F72652E786D6C8D515B6EC32010BC0AE22B55850D0E446E848992B43E412FE000495162B07854397EA176A4F62F3F2C9A9D991D58BEBB8F37F0AD7D30CE76905418026DA553C65E3A98E219B510EC04F7CEC5
310
3F3408EC30EA0E16180A7EF12E4D0B249D8DDAC68C5AA7F4020E21E80881BCE54B0783FCD2E3500D296646B856D320AFC34557A4CAEDCC133C449F0380794839A138B47B86DB2345744D7A44594FD0E1B867883594369BFE63BF7EEF793D0B054FC9A8456E548E63CE46FB674D8A58F068C6477CE9F510B582A2C1F80D1182
310
70F349E816B32D65AFB8DD62CCEB42FF274A937A52948C8DEB66893BCB021484D7734370E5D2E9F608A3EF93F3119479ABA0E50B14B8C298119A43CCC4FCFCECB8A18B6388CEE7EF5D5D4F994BD86CBBA182D76543B9FCAE2FD7B24DF103504B0304140006080800B670623B1B8617914E0100003303000030000000666278
310
2F42384135303843342D343331462D343546312D424341352D3532343432364645413344462F636E782E786D6CD593C16EC32010447F0571AD6CE3D489D20813A9877E410FBD62D82434182CC055F3F75D1292E692438FBD206B7698593D61BEFD1E2DF982108D773D6D6B460938E5B571FB9ECE6957AD29D90A1EBC4F7736
310
4A9C1CA1A759A682EF839FA72269D8C9D92654AD71C72206887E0E0A22CAF926B15E498B01E0AA19451807D01A34B919F16B070157417138917400F2F6FA41FCF0092A45DEE414C19BDC21783E4BD39D891265658C3D8DEA00A3ACE59CBC8678ACB54CB26EEB6BD7839D7E9348BE70AD9C8321B9BCA7F9A4A26C542347DEE0
310
50F09802D22BA6749A800A394DD62899107273365E3C82CFC6A55557BC06C10774B7ABE7AEC3B0F34CF06446280E154026D0542C187BA9DAB6628BF7B6DBB0E5A65B3EB1F58631DE64BBE083F7B65CC218087E22CABB042E51D1F2268F1FE12B3EA24D40D63E9CFE00120194D60B9D5BC67FE6D39CDF37E20AF817881F504B
310
0304140006080800B670623BBFEF2E3B690500003C100000340000006662782F42384135303843342D343331462D343546312D424341352D3532343432364645413344462F6F626A656374732E786D6CAD575D739B3814FD2B0CFB0C98D84E931D4227B6938EA793B6534F3BFB90198F0099B001899144EAECAFDF231018B0
310
D37A3FFC609090EEE7B94757C1FB7D915B2F54C88CB31BDB7727B64559CC938CA53776A576CE956DBD0F03C1B9EA2DB32D460A7A63EB693B0C52C1ABD24C257447AA5C8D66EF177F5832A68CDA569C13296F6C193FD182B8A4523CA1F2D94D88226EBADBBBBEDB2C1C8A4D05299F46424B222853B014F30C52ACC6287F389C
310
D85E1878FA7B18E87FB36AFAF62AAFF667A83F635211161F291B8999FAB3D5DDC5FCDA99CF6653677679E13B8BFBC5CAF1DF4D27CBCBE5F2FAF6EE1A8AA51290642C117467871F101B91C581D77CEA2C36869F3229E68CD1B8F61F1ED6361B89092D294B90C78C4A68EB793D190E7D1D9BDEE7A91E1B95FDE9F3BCEAEFE809
310
6A6D6F9F7D4B79F4275C90E7A04248AA51D5C4C738DAE06F72885AC4796EBE65D22A88A22223B995679120E2D50EB1542F098381188D4EA111AE3DB043FF20AF6F2B4AE3D7D83D65E5AECA730D4D3BAC91BD05FEA992B565D95F549CD6069B90AB2A63EACA38A45E4B6A87D781574F86817E4C2FCCC72690D62E2729520E37
310
9BAF234797BAF6D62B3BFC781FED37BA1E4F2B2F052FA9501A3E80569BB8F6A9A364D4FA67654E6F803383981F82F21591FF84F23D9882BC896C3FDBCF8C162508933B2E0AE4C69DD43F6BD2BE38DDDBF10BF86CB4FA784D37F3AF16075E67EC9030DECA1FC0A55373F5DFF3378C591FA9BDF485C10B0A8C8BA909E5262639
310
A8E72163488806A595734C81CB77D1DE0ED7604A303B76913CEC0272F412782FF88EFF4636D8AA56DF7B322474C4B767303F625997056C7B032C473C592B36CEBD15F3F9FF5233B7ABCDC74D257624A60F8658567497B14CE1EC3C80B76FD02011038F9EE9EB0F2E12387A9C844D3F09855125116D1D731DF8B43D2CF4E0A0
310
79A020C6BE946BCE0B7EA1E1219331CD73C228AF5A2DDD31A4B1DA918CE91350854D40A71723140BFA92E94E62B0626016CEFA5864A50E5977E8753CEDBEE1CBB7F52780D20E17AF0BA0F5F9B02A3AD07DCC732EB6D1EBB661421BE0C39E21BABF0FE16D22EA6929407C8DE596724C88B749B6DB5512BC7B228ADFD7CB7EA6
310
3A22397E690BA8D5D8D4E40CEC8CDA23C2C0B7D5898640101CEC9C6D331CE328CB93CAFBBAC70A642DF70DF95155945B52F08AA973C23469FD69ADEF84F7BB18F983A8F8C90E37F5D35980B2139A1C523540813E824EF83448CF7C72B598CE97D7CEEDDDDD3B6736BFBC771677EF66CE6A7E7139F7A793E9EDF2B2B3A8B624
310
0CDA13AA5F8388264EC4A0129909F3B7F5A16CEDF08128E97D680ACA4B9BE7B7B58BB638F0B00700EF36AE8B32A705658A68F83EE897FC2B41573190D1CCAF0B92D233A47CFEB019D9809933F67DD1A5467F8CF69AD9A5AE859342D45355448C64F968A371DC2D596ADC6E43D93D1B466F877A64E2893E54F23C4B40388995
310
525E5005DA3983ED45412510D3EFCA13737B3863F74BD30F2A12E5B4B5E489A025CE25500DB855B11ACE5BBFA185D35DD48D8DC3CE7DC69F2944DB42AA6F6CF09BCA622ADD08C7A36E7C6AE18000BAB08E040135C2D21C9D75B3A91B77BB746C403F38018DFE6EC939DD92F16B40BC05294B9CDA035AAD6D330AE27FE4786B
310
8E45145EA34A75BE1C263A676A35A8ACC6297337400BF16C54EF515F3F77CB77EB3583889C754FFA29081AA98E2222ADEF05DA3E63D2EDEA8B8756C05A7FB6CABC4A91CBF325398202CC952E70A008A830324BA200D5E5EF8F5F04C75DB4B0EE3340E071C98B823333B83577596BF3849B69F2085AA0FAFA212F26BEFF5877
310
FDE622B28D88A42E49E43326DA82D31E8CB006401E1DA726059ECEC168F97A6599036306A135688F9AD2E61A6EA178F4CD51974A9F2CCB9F36FE5EBD14601068D9C3BF01504B0304140006080000B670623B000000000000000000000000350000006662782F42384135303843342D343331462D343546312D424341352D35
310
32343432364645413344462F76657274696365732E62696E504B0304140006080800B670623BF270F1330600000004000000360000006662782F42384135303843342D343331462D343546312D424341352D3532343432364645413344462F747269616E676C65732E62696E636660600000504B0304140006080000B67062
310
3B000000000000000000000000370000006662782F42384135303843342D343331462D343546312D424341352D3532343432364645413344462F617474726962757465732E62696E504B0304140006080800B670623B08DA0BD19000000041010000360000006662782F42384135303843342D343331462D343546312D4243
310
41352D3532343432364645413344462F6469726563746F72792E786D6C858F410AC3201045AF22B36F53E9A60B35CBEEBAE80D244E44489C6234F4F835464A48035D0DF398FF9F8AF63D0E6CC63039F212F8F9020C7D47C6792B21C5FE7403D62A1188E2E60C98D7234A5830286103A55745067B9D86B8A3CF9C7F90C11DE6
310
07FB144396D7B6A82D282E9A152AD114D5EF2CB866EEE831B8EEA07A7BB5A8D7D61A2BAAEB7FD5F70921FF497D00504B0304140006080800B670623B3B4606F3FE000000A00100003B0000006662782F42384135303843342D343331462D343546312D424341352D3532343432364645413344462F7265736F75726365732F
310
636F72652E786D6C8D504B6E833010BD0A9A6D65B08134808CA354A427E8052C332156828DFCA97AFC9A40A576D7CDCCE87D344F8F9FBEE647F689CE6B6B7A6039850C8DB2A336530F315C4903D94970676DF82583CCC8197B5861107C72362E3BA4AC096842428D1D7107A5F71820538F74F4E0D50D6799CB1892C2DFF345
310
AABB9C306779A2934E701F5C0A906D4FD609C2A1B7D129F4BCD858C163D4E3AED163FAA9AF1A1D88F67CA98E6D35906AA82A52BFB39ABCD5CD915C86331BD86BD3B665CD8BD52C78D0F34F46E550061C419494B6843142CB0F5677F4D0D58717DA7494F26295FF31C565FCA7296A13AA728FBBD93C0896823C09C18BB5AFB4
310
9E65A6BD762BBE01504B010214000A0000080000B670623B3DEE336E79000000790000001B00000000000000000000000000000000006175746F6465736B2D64657369676E2D7061636B6167652E786D6C504B01021400140006080800B670623BD486FD9CA0000000F40000001300000000000000000000000000B2000000
310
5B436F6E74656E745F54797065735D2E786D6C504B01021400140006080800B670623B28ED286BEB0000007C010000080000000000000000000000000083010000636F72652E786D6C504B01021400140006080800B670623B55019EA25F0000007C000000070000000000000000000000000094020000636E782E786D6C50
310
4B01021400140006080800B670623B7BC41AC871010000D40300000C00000000000000000000000000180300006662782F636F72652E786D6C504B01021400140006080800B670623B70102A487D0000009D0000000B00000000000000000000000000B30400006662782F636E782E786D6C504B01021400140006080800B6
310
70623B3610CA3329010000120200003100000000000000000000000000590500006662782F42384135303843342D343331462D343546312D424341352D3532343432364645413344462F636F72652E786D6C504B01021400140006080800B670623B1B8617914E010000330300003000000000000000000000000000D10600
310
006662782F42384135303843342D343331462D343546312D424341352D3532343432364645413344462F636E782E786D6C504B01021400140006080800B670623BBFEF2E3B690500003C10000034000000000000000000000000006D0800006662782F42384135303843342D343331462D343546312D424341352D35323434
310
32364645413344462F6F626A656374732E786D6C504B01021400140006080000B670623B0000000000000000000000003500000000000000000000000000280E00006662782F42384135303843342D343331462D343546312D424341352D3532343432364645413344462F76657274696365732E62696E504B010214001400
310
06080800B670623BF270F133060000000400000036000000000000000000000000007B0E00006662782F42384135303843342D343331462D343546312D424341352D3532343432364645413344462F747269616E676C65732E62696E504B01021400140006080000B670623B00000000000000000000000037000000000000
310
00000000000000D50E00006662782F42384135303843342D343331462D343546312D424341352D3532343432364645413344462F617474726962757465732E62696E504B01021400140006080800B670623B08DA0BD1900000004101000036000000000000000000000000002A0F00006662782F42384135303843342D3433
310
31462D343546312D424341352D3532343432364645413344462F6469726563746F72792E786D6C504B01021400140006080800B670623B3B4606F3FE000000A00100003B000000000000000000000000000E1000006662782F42384135303843342D343331462D343546312D424341352D3532343432364645413344462F72
310
65736F75726365732F636F72652E786D6C504B0506000000000E000E0080040000651100000000
  0
XRECORD
  5
187
102
{ACAD_REACTORS
330
186
102
}
330
186
100
AcDbXrecord
280
     1
 70
     1
 90
429727718
  1
887D55A9-D0DD-414E-B741-A7DCD4DA2B4C
310
504B03040A0000080000B670623B3DEE336E79000000790000001B0000006175746F6465736B2D64657369676E2D7061636B6167652E786D6C3C3F786D6C2076657273696F6E3D22312E302220656E636F64696E673D227574662D3822203F3E3C666F726D6174733E3C666F726D61743E687474703A2F2F736368656D612E
310
6175746F6465736B2E636F6D2F64657369676E2D7061636B6167652F323030393C2F666F726D61743E3C2F666F726D6174733E504B0304140006080800B670623BD486FD9CA0000000F4000000130000005B436F6E74656E745F54797065735D2E786D6C7D8EC10E82300C865F65E91D8A1E8C310C0EEA1BF002731658846E
310
D98AC1B77784ABF1D8FE5FBFBF75BBCE937A534CCEB38643598122B6FEE978D0B0485F9C41B54DDD7D022595594E1A469170414C76A4D9A4D207E29CF43ECE46F218070CC6BECC4078ACAA135ACF422C856C0E68EA1BF5669944DDD7BCDE7B1F8E415D77AECB980613C2E4AC91FC167A2B244592486606FC29C8FD7F045B9A
310
EF7053A7E60B504B0304140006080800B670623BBC1638F5EC0000007C01000008000000636F72652E786D6C8D90416EC3201045AF82665B61836BE2D8C24471DB9CA01740401C94182C03558F5F9C3852BBEB6A467FFE9B197D7EF89E6EE8CB2CC17AD7032D0820E394D7D68D3DA478C67B4007C117EFE32F1B202727D3C3
310
2A83E0E3E2D3BC49CABB685CCCAAF3DA6CA20CC14440EA969B1E82BA98491632C5EC08D76296EA2A4753D06797E194AC468F2356E77DF66CCD02825543D50CACC62D39ED70FDC68EB8FD68F6F8787A6784342D1DDA1D2F5758F068A7E77DB518198D065111D2624A31A93E69DD11D6D5EC85EC3B4278B9DAFF4069D6FF8492
310
75F1B5DADE7D600104CD8FDC0782976B16B9DC83CA75CD4DFC00504B0304140006080800B670623B55019EA25F0000007C00000007000000636E782E786D6C4DCB3B0E80201045D1AD90E915ED2CF8AC45050C11660C8261F98AB1B07AC9C97D42D718D865D3E909258CFD00CCE24AC6E326A164D74DC0B4128928FF326038
310
472BA13128B1252AC747C6BAB984FC68F0B87FE8960A5C09FE86CFB69FBA01504B0304140006080800B670623B3586FFB671010000D40300000C0000006662782F636F72652E786D6CC553ED6E8320147D15C2DF4541A76D6D90A6DDD627D80B50A4CE54C120983EFEAE1F4DD7A55BBA5FF3879273EEE59E7310B6393735EA
310
95ED2AA3731C851423A5A5292A5DE6D8BB63B0C268C39935C67D29C3488B46E578803167A535BE9D2169B453DA01AA4DA16650749D7218C91A1639EEE4876A4428BC838AEE14B6429E44A9C228041AEA38EB9C0501681A32BC313F1ECE8C4C3867DE57C5CC56054CAB8E95B298A7F12E5EEED224C8E87E11242FE936C8DE96
310
AB60BB7F4D295D66D12E5B30323473E6AAE6A24E5A259C2A308F29CD82280A68FC1E256B9AAE93F489AED694323294DF34F9B678B0C957DA3DC7B3DCA9ADC33C022123F1CD2D44E450277AD04338234388F01913BE0D1A0281909D38D4171F27807A259DB1093085F157AA17B557309586747CD0CF0B46A64E983A6E0EAEEF
310
CE881F9EF1FB8E70D44297604238581EBC1B74B249C31C5AAB6CD0BB33D2C636A27ECCC62F0EFF445DC5DF95244D6DEC7F2922F30191F9F720C37DE49F504B0304140006080800B670623B4220A0FF7D0000009D0000000B0000006662782F636E782E786D6C4DCCD10A83201886E15B91FFDCE542CB0335D0EC3E6259C84A
310
C3E9D8E5AF46073BFAE0E1E315DD675BD1DBA5978F41C2FD4600B9F088930F8B849267CC01754AA418F3DF0D50183727E164506249B1EC174D6E1ECB9A0F5D7D785E68DB8151CD286E5A5363CA6B8A39E90D36D40E96B086F55A43A544F52B1D7B86D517504B0304140006080800B670623B2FA3FEDE290100001202000031
310
0000006662782F45374635344235342D363743322D343832342D383044432D4334454645303536354442422F636F72652E786D6C8D515B6EC32010BC0AE22B55850D2E386E848994D7097A0117488A1283C5A3CAF10BB523B57FF961D1ECCCECC0F2ED7DBC816FED8371B687A4C210682B9D32F6D2C314CFA883602BB8772E
310
FEA141608751F7B0C050F08B77695A20E96CD43666D43AA5177008414708E42D5F7A18E4971E876A483133C2B59A06791D2EBA22556E679EE021FA1C00CC43CA09C5717D6274C7286AD7FB06D1AEA1A8C3873DDAD3E3E98859CB0EBB1DAF67A1E02919B5C88DCA71CCD968FFAC49110B1ECDF8882FBD1EA256503418BF2342
310
106E3E08DD60B6A1EC15771B8C795DE8FF4469524F8A92B1F1AD59E2CEB20005E1F5DC105CB9F4797B84D1F7C9F908CABC55D0F2050A5C61CC1AD2F27A26E6E767C7962E8E213A9FBF7775FDCC5CC266DB960A5E970DE5F2BBBE5CCB36C50F504B0304140006080800B670623B1B8617914E01000033030000300000006662
310
782F45374635344235342D363743322D343832342D383044432D4334454645303536354442422F636E782E786D6CD593C16EC32010447F0571AD6CE3D489D20813A9877E410FBD62D82434182CC055F3F75D1292E692438FBD206B7698593D61BEFD1E2DF982108D773D6D6B460938E5B571FB9ECE6957AD29D90A1EBC4F77
310
364A9C1CA1A759A682EF839FA72269D8C9D92654AD71C72206887E0E0A22CAF926B15E498B01E0AA19451807D01A34B919F16B070157417138917400F2F6FA41FCF0092A45DEE414C19BDC21783E4BD39D891265658C3D8DEA00A3ACE59CBC8678ACB54CB26EEB6BD7839D7E9348BE70AD9C8321B9BCA7F9A4A26C542347DE
310
E050F09802D22BA6749A800A394DD62899107273365E3C82CFC6A55557BC06C10774B7ABE7AEC3B0F34CF06446280E154026D0542C187BA9DAB6628BF7B6DBB0E5A65B3EB1F58631DE64BBE083F7B65CC218087E22CABB042E51D1F2268F1FE12B3EA24D40D63E9CFE00120194D60B9D5BC67FE6D39CDF37E20AF817881F50
310
4B0304140006080800B670623B29652116630500003C100000340000006662782F45374635344235342D363743322D343832342D383044432D4334454645303536354442422F6F626A656374732E786D6CAD575D739B3814FD2B0CFB0C989834C90EA1639B24E3E9A6EDD4D3CE3E64C623834CD8006224913AFDF57B040203
310
B65BEF871F0C12D2FD3CF7E8CA7FBFCB33E3957291B2E2D674ED8969D02262715A24B76625B7D6B569BC0F7CCE98EC2D338D82E4F4D654D366E0279C55A59E8AE99654991CCDDECFFF3444440B6A1A514684B83545F44C7362934AB2988A173B2692D8C97667BB76B3702836E1A47C1E092D09A78584A5982F20C5688C7287
310
C389E904BEA3BE07BEFAD7ABA6A75739B53F43FD69212429A20365233153D70BEF2E2E6FAC4BCF9B5ADEBB0BD79ADFCF43CBBD9A4E16EF168B9BD9DD0D140BC921495BC2E9D60C1E101B9E46BED37CEA2CD6861F3329624541A3DA7F7858DBAC25C6B4A4458C3CA654405BCFEBC970E8AAD8F43E4FD558ABEC4F9FE7557F47
310
4F506B7BFBEC5BCA367FC105710E2AB8A00A554D7CB4A30DFE26FBA86D18CBF4B75418399194A72433B274C3097F33032C554B027F2046A1932B842B0FCCC0DDCBEBDB8AD2F835768F59B9ADB24C41D30C6A64AF817F2A456D59FA83F2E3DA60137255A585BCD60EC9B7929AC18DEFD49381AF1ED30BFDB109A4B1CD488294
310
C3CDE6EBC8D185AABD6568061FEE37BB95AAC7E3CA4BCE4ACAA5820FA0D526AE7DAA2869B5EE5999531BE0CC20E6FBA07C41E43FA27CF7A6206F3CDD793B4F6B919C1462CB788EDCD893FA674CDA17AB7B3B7C019F8D561FAEE966FED562DFE98C1D12C6A9FC015C2A35D7FF3D7FC398F591DA4B5FE0BFA2C0189FEA50AE22
310
92817A1ED3020951A03432862970F976B33383259812CC8E5D240BBA801CBCF8CE2BBEE3BF910DB6AAD5F79E05123AE2DB33981FB1ACCB02B69D00CB014FD68AB573A7627EF9BFD4CC2C5C7D58557C4B22FAA88925A4DBB44825CECE3D78FB060D1231F0E885BE7D673C86A3874958F593906B5502D1563157814FDAC3420D
310
F69A070A22EC4B98E23CFF171A1E5311D12C23056555ABA53B8614563B92D17D02AAB009E8F46284624E5F53D5490C560CCCC2591FF1B45421EB0EBD8EA7ED13BE7C5D7E0428CD60FEF60779EB13E6664FF711CB185F6FDED60D139A001FF60CD1FD6D086F1D51474901E26B2CB794A343BC8ED3EDB612E0DD2351FCB65CF4
310
33D511C9E14B5B40ADC6A6263DB0336A8F700DDF56271A024E70B0B3629DE21847591E55DED73D56206AB927E46FAABC5C939C55853C274C93D69FD6FA4E78BF8B11DF898C9ECD60553FAD39283BA6F18984AA23E8884F83F45C5F5F859797B31B2B9C84A1E5B9DE9D35BFF25C6B76152E422F9C5DCC3D847F5801ED09D5AF
310
41441327A25FF15487F9EB725FB666F048A4701E9A827292E6F97569A32DF61DEC01C0BB8DCBBCCC684E0B49147C1FD54BF685A0AB18C868E6973949E819523E3DAC463660E68C7D9F55A9D1EFA3BD7A76A16AE1A810F95CE59B82A4D968A376DC2E8B44BBDD86B27B368CDE0ED548C7137DA860591A83706223A12CA712B4
310
7306DBF39C0A20A6DF95C7FAF670C6EED7A61F946493D1D6926782963813403548A78AE470DEF80D2D9CEAA26E4D1C76F60BFE74219A06527D6B82DF641A51616F703CAAC6A7160E08A00BEB4810A0274592A1B36E3675E36E978A0DE80727A0D6DF2D39A75BD27E0D8837276589537B40ABB56D5A41F48F1C6FCD3188C4EB
310
A6929D2FFB89CE995A4D00AE813BDD032DC48B56BD437DFDDC2DD7AED70C2272D63DE9A72068A45A92F0A4BE17A8A06B9366E16707AD80B1FC649459952097E74BB23805982B55E0401150A165964402AA8BDF9F3E7386BB686EDCA780C0D382E5392BF460A6EFB2C6EA1937D3F809B440D5F5435C4C5CF7A9EEFAF54564BD
310
2182DA24162F98680B4E7930C21A0079709CEAEB99A372305ABE0C0D7D6078105A83F6A0296DAEE1068A47DD1C55A9F4C9B2FC69E3EFD44B81028E963DF81B504B0304140006080000B670623B000000000000000000000000350000006662782F45374635344235342D363743322D343832342D383044432D433445464530
310
3536354442422F76657274696365732E62696E504B0304140006080800B670623BF270F1330600000004000000360000006662782F45374635344235342D363743322D343832342D383044432D4334454645303536354442422F747269616E676C65732E62696E636660600000504B0304140006080000B670623B00000000
310
0000000000000000370000006662782F45374635344235342D363743322D343832342D383044432D4334454645303536354442422F617474726962757465732E62696E504B0304140006080800B670623B08DA0BD19000000041010000360000006662782F45374635344235342D363743322D343832342D383044432D4334
310
454645303536354442422F6469726563746F72792E786D6C858F410AC3201045AF22B36F53E9A60B35CBEEBAE80D244E44489C6234F4F835464A48035D0DF398FF9F8AF63D0E6CC63039F212F8F9020C7D47C6792B21C5FE7403D62A1188E2E60C98D7234A5830286103A55745067B9D86B8A3CF9C7F90C11DE607FB144396
310
D7B6A82D282E9A152AD114D5EF2CB866EEE831B8EEA07A7BB5A8D7D61A2BAAEB7FD5F70921FF497D00504B0304140006080800B670623B6378F24DFF000000A00100003B0000006662782F45374635344235342D363743322D343832342D383044432D4334454645303536354442422F7265736F75726365732F636F72652E
310
786D6C8D504B6E833010BD0A9A6D65B0094E42641C85B639412F6099496225D8C89FAAC7AF09546A77DDCC8CDE47F3F4C4F16B7C149FE88371B603565228D06A37187BED20C50BD9437194C23B177FC9A0B06AC40E6618A4B87A97A615D2CE46B431A3D60DB8822A048C50E8473E3A08FA86A32A558A5911EEE5A4F45D5DB1
310
6465A6B34E8A107D0E502C4FE609D26370C96B0CA25A58295232C3AA3143FE692E063D485EF7F5AEE71BD2D2F39634AFFC44DAF7DD9E9CCE6F9CD25DCBFA762BAAD92C4534E34F46ED51451C40D694B6843142EB0FD61C283F34FC85EE0F948A6A96FF31A569F8A729191B37F51A77B105902C0779125254735F793DCBCC7B
310
EE567E03504B010214000A0000080000B670623B3DEE336E79000000790000001B00000000000000000000000000000000006175746F6465736B2D64657369676E2D7061636B6167652E786D6C504B01021400140006080800B670623BD486FD9CA0000000F40000001300000000000000000000000000B20000005B436F6E
310
74656E745F54797065735D2E786D6C504B01021400140006080800B670623BBC1638F5EC0000007C010000080000000000000000000000000083010000636F72652E786D6C504B01021400140006080800B670623B55019EA25F0000007C000000070000000000000000000000000095020000636E782E786D6C504B010214
310
00140006080800B670623B3586FFB671010000D40300000C00000000000000000000000000190300006662782F636F72652E786D6C504B01021400140006080800B670623B4220A0FF7D0000009D0000000B00000000000000000000000000B40400006662782F636E782E786D6C504B01021400140006080800B670623B2F
310
A3FEDE290100001202000031000000000000000000000000005A0500006662782F45374635344235342D363743322D343832342D383044432D4334454645303536354442422F636F72652E786D6C504B01021400140006080800B670623B1B8617914E010000330300003000000000000000000000000000D2060000666278
310
2F45374635344235342D363743322D343832342D383044432D4334454645303536354442422F636E782E786D6C504B01021400140006080800B670623B29652116630500003C10000034000000000000000000000000006E0800006662782F45374635344235342D363743322D343832342D383044432D4334454645303536
310
354442422F6F626A656374732E786D6C504B01021400140006080000B670623B0000000000000000000000003500000000000000000000000000230E00006662782F45374635344235342D363743322D343832342D383044432D4334454645303536354442422F76657274696365732E62696E504B01021400140006080800
310
B670623BF270F13306000000040000003600000000000000000000000000760E00006662782F45374635344235342D363743322D343832342D383044432D4334454645303536354442422F747269616E676C65732E62696E504B01021400140006080000B670623B0000000000000000000000003700000000000000000000
310
000000D00E00006662782F45374635344235342D363743322D343832342D383044432D4334454645303536354442422F617474726962757465732E62696E504B01021400140006080800B670623B08DA0BD190000000410100003600000000000000000000000000250F00006662782F45374635344235342D363743322D34
310
3832342D383044432D4334454645303536354442422F6469726563746F72792E786D6C504B01021400140006080800B670623B6378F24DFF000000A00100003B00000000000000000000000000091000006662782F45374635344235342D363743322D343832342D383044432D4334454645303536354442422F7265736F75
310
726365732F636F72652E786D6C504B0506000000000E000E0080040000611100000000
  0
XRECORD
  5
112
102
{ACAD_REACTORS
330
110
102
}
330
110
100
AcDbXrecord
280
     1
270
     1
271
     1
  0
XRECORD
  5
111
102
{ACAD_REACTORS
330
110
102
}
330
110
100
AcDbXrecord
280
     1
270
     1
271
     1
  0
XRECORD
  5
18A
102
{ACAD_REACTORS
330
110
102
}
330
110
100
AcDbXrecord
280
     1
 70
     0
 90
1778669749
  1
9BF507EE-FAF7-4A99-A33D-4EE51894BC40
310
504B03040A0000080000B670623B3DEE336E79000000790000001B0000006175746F6465736B2D64657369676E2D7061636B6167652E786D6C3C3F786D6C2076657273696F6E3D22312E302220656E636F64696E673D227574662D3822203F3E3C666F726D6174733E3C666F726D61743E687474703A2F2F736368656D612E
310
6175746F6465736B2E636F6D2F64657369676E2D7061636B6167652F323030393C2F666F726D61743E3C2F666F726D6174733E504B0304140006080800B670623BD486FD9CA0000000F4000000130000005B436F6E74656E745F54797065735D2E786D6C7D8EC10E82300C865F65E91D8A1E8C310C0EEA1BF002731658846E
310
D98AC1B77784ABF1D8FE5FBFBF75BBCE937A534CCEB38643598122B6FEE978D0B0485F9C41B54DDD7D022595594E1A469170414C76A4D9A4D207E29CF43ECE46F218070CC6BECC4078ACAA135ACF422C856C0E68EA1BF5669944DDD7BCDE7B1F8E415D77AECB980613C2E4AC91FC167A2B244592486606FC29C8FD7F045B9A
310
EF7053A7E60B504B0304140006080800B670623BCA089DFFEC0000007C01000008000000636F72652E786D6C8D90416E83301045AF62CDB632D8402020E32882F604BD80653BC44AB011B6AB1EBF262152BBEB6A467FFE9B197D76FA9EEFE84BAFDE38DB03CD08206DA553C64E3DC470C1474027CE56E7C22F1B202B66DDC3
310
260367D3EAE2B24BD2D9A06D48AA754AEFA2F05E0740F29E9A1EBCBCEA59642286E4F0B76C11F226269DD15797E0188D42CF2346A57DE662F40ABCAEC77628C6120F654571D50C04B7F5B9C1E3997CD4F550BE3745C3F20DE62C98F9755FAE5A04AD801784B498524C8A4F5A75E4D055873772EC0861F966FF03C545FD138A
310
C686B2D8DF7D621E384D8F3C069CE55B16A93C824A75CB8DFF00504B0304140006080800B670623B55019EA25F0000007C00000007000000636E782E786D6C4DCB3B0E80201045D1AD90E915ED2CF8AC45050C11660C8261F98AB1B07AC9C97D42D718D865D3E909258CFD00CCE24AC6E326A164D74DC0B4128928FF326038
310
472BA13128B1252AC747C6BAB984FC68F0B87FE8960A5C09FE86CFB69FBA01504B0304140006080800B670623B68FC0B7272010000D40300000C0000006662782F636F72652E786D6CC5535B6E833010BC8AE5DF0A6C1E8124328E22D29EA01770C0A128602363A31CBFCB234A53A555FA553EC09AD9F5CE8C31DB5DDA060D
310
D2F4B556190E7C8A9154852E6B5565D8D993B7C668C799D1DA7E29C3488956667884316795D1AE5BA0422B2B950554E9522EA0E87B69312A1A5864B82F3E642B7CE12C54F467BF13C55954D20F7CA0A18EB3DE1A1080E621E31BF3D3F1C2C88C73E65C5D2E6C5DC2B4FA544B8379921C36797888BC3C8A032F4E73EA6D927D
310
EA1DF6F42D49F2E8350D5346C666CE6CDD5ED515460A2B4BCC434A375E1078347C0FE22D5D6DE3D50B5D6F2965642CBF6B725DF96493AB958DC245EEDCD6631E809089F8E61622B2A81703E8219C913144F84C09DF070D8140C8561C9BAB8F3340832CAC363130A576376A108D933095FA747AD0CF0B46E64E983A6D0EAE1F
310
CE089F9EF1FB8E70D44255604258581E9D1D75B259C3125A278D37D80B52DAB4A279CEC62F0EFF44DDC43F9454E8469BFF5244960322CBEF41C6FBC83F01504B0304140006080800B670623B0F71DDB67E0000009D0000000B0000006662782F636E782E786D6C4DCCD10A83201886E15B91FFDCA54DB73F502386BB8F5816
310
32D3703976F9ABD1C18E3E78F87855FB990379BBFCF2296AE02706C4C5471A7C9C349475A408A4352AA7B4FEDD80C47E761A7606A3A69CCA72D0E0C6BE8475D3E0E3F3409428EA6B27A84079A782899AA2EC1A7AE3ECCC2FD858CB2D544655BFD2B67BD87C01504B0304140006080800B670623BE134B4FB28010000120200
310
00310000006662782F38353834323741342D343835462D343034322D383541392D4331303331363839454531452F636F72652E786D6C8D515B6EC32010BC0AE22B55850D0EA424C24451959EA0172086A42831583CAA1CBF503B52FB971F16CDCECC0EACD8DFC71BF836215AEF7A481A0C817183D7D65D7A98D3197108F652
310
04EFD31F1A044E8DA6871586525C82CFD3020DDE25E352419DD76601558C264130DCCAA58771F832A36A544E8511AFCDA486ABBA988634A55D7852C4144A00300FA927949C71DABD1D28A29C7D208A6987383B6CD13BC16BB2E1DBE3911C453B0BA5C8D9EA456E758963CFD684674DAA588A64C747FC2118958C86B2C3788B
310
0841B8FB247487D98EB257CC77188BB6D2FF89F2A49F1465EBD2BA5BE2CEB2082511EDDC9042FB7CBA3DC298FBE4430275DE2A9AE1054ADC60CC08E3A29D89E5F9C5714317C7987C28DFBBBA9E0A97B0D97643A568EB864AF95D5FA9759BF207504B0304140006080800B670623B1B8617914E010000330300003000000066
310
62782F38353834323741342D343835462D343034322D383541392D4331303331363839454531452F636E782E786D6CD593C16EC32010447F0571AD6CE3D489D20813A9877E410FBD62D82434182CC055F3F75D1292E692438FBD206B7698593D61BEFD1E2DF982108D773D6D6B460938E5B571FB9ECE6957AD29D90A1EBC4F
310
77364A9C1CA1A759A682EF839FA72269D8C9D92654AD71C72206887E0E0A22CAF926B15E498B01E0AA19451807D01A34B919F16B070157417138917400F2F6FA41FCF0092A45DEE414C19BDC21783E4BD39D891265658C3D8DEA00A3ACE59CBC8678ACB54CB26EEB6BD7839D7E9348BE70AD9C8321B9BCA7F9A4A26C542347
310
DEE050F09802D22BA6749A800A394DD62899107273365E3C82CFC6A55557BC06C10774B7ABE7AEC3B0F34CF06446280E154026D0542C187BA9DAB6628BF7B6DBB0E5A65B3EB1F58631DE64BBE083F7B65CC218087E22CABB042E51D1F2268F1FE12B3EA24D40D63E9CFE00120194D60B9D5BC67FE6D39CDF37E20AF817881F
310
504B0304140006080800B670623B5933D422630500003B100000340000006662782F38353834323741342D343835462D343034322D383541392D4331303331363839454531452F6F626A656374732E786D6CAD575B6FA33814FE2B887D0642934E9B156594264D158D3A534DD4D13E548A0C38942D60649B4EBABF7E3F8321
310
40924EF6928780CDF1B97EE762EFF32E4B8D37CA45C2F21BD3B547A641F39045491EDF98A5DC5AD7A6F1D9F73863B243661A39C9E88DA9B64DDF8B392B0BBD15D12D295339D85DDEFE618890E6D434C2940871638AF08566C426A5641115AF764424B1E3EDCE76ED9AB0CF36E6A47819302D08A7B984A6D8CFC1C5A89572FB
310
CB91E9F89EA3BEFB9EFAD754E3D3544E654F5F7E920B49F2F040D880CDD89D2CEE2E2EA7D6E56432B6269F2E5CEB7679BBB0DCABF168FE693E9FCEEEA6102C240727AD09A75BD3BF876F78127A4EFDA9D5582B7E4CA590E5390D2BFB6161A5B3E618D182E611E2985001691DAB47FDA5AB7CD3F93C566B2DB2BB7D9E55DD13
310
1D468DEECDB3AB290BFE8409E21C54704115AA6AFF68436BFC8DF65E0B184BF5B74418199194272435D224E084BF9B3E481589EFF5D828747285706581E9BB7B7E5D5D911ABFC6EE312DB7659A2A689A7E85EC0DF04FA5A8344BFEA2FCB834E8845895492EAFB541F2BDA0A63FF59C6AD3F7D4637CA13FD68E34B629891172
310
98597F1D183A57B9B75A98FE9765B05BAB7C3C2EBCE0ACA05C2AF8005A4DE09AA7F29216EB9E15397500C6F47CBE77CA7778FE2BD277AF0AE2C693DD6437D1522427B9D8329E2136F6A8FA19A3E6C56ADF0E5F50CF06D48734EDCEBF22F69C56D97EC138153F804B85E6FABFC7AFEFB32E523BE1F3BD372418E363EDCA7548
310
52949E8724474014288D94610BB57C1BEC4C7F854A89CA8E5324F55B871CBC78CE1BBEE3BFE68D6A5589EF3C730474506FCFA8FCF0659516D0ED04580EEA6425581B77CAE797FF4BCECC16EB2FEB926F49481F746159D06D922712BD730FDEAE42BD40F42C7AA5EF3F198F60E86110D6DD20645A9480B795CF95E3E3A659A8
310
C55E724F408873315335CFFB8584874484344D494E59D94869DB90C26A5B64F49C802CAC1D3ABE18A098D3B7444D123D8A9E5AE8F5214F0AE5B2B6E9B575DA3E61CBD3EA2B4009FA940524DD1305FB6A1FB294F14DF0BEA90BA109ECE1481FDC3FFAE8D60E75141700BE82725371B4873751B2DD960265F788137FACE6DD40
310
B575E4F0A5C99F46629D92131467A41EE11ABD8D4CCC039CA0AFB37C93A08B232B8F0AEFCA1E0A1015DF13FC83322B362463652ECF71D3A8B1A7D1BE65DE1D62C44F22C317D35F574FEB16153BA2D13E543D10A80E74C4A65E78A6B7CBCBD1D5DD9DB59C2DAFACC96C3AB566E3F1C29ADCDD5DBAD7D3C9ED7C822ED74F80A6
310
41755310DE4443F44A9E68373FADF6596BFA0F440AE7BECE2727AE9F4F2B1B53B1E7E00CF0DD1E5C65454A339A4BA2D0FBA05ED2EF0443458F47BDBFCA484CCFE0F2ED7E3DD0013B679C7B5499467F0ECEEADDB9CA85A34CE44B99053949D2C1416DB85DE4B136BB7165FBAC0B7AB3542BED4F8CA182A549847A1319316519
310
95A83A67147B9E5101C47487F2485F1ECE38FD568F839204296D3479219888530154036E6528FBFBC66F98E0D4107563A2D7D9AFF8D389681A08F58D89F22693900A3B407754734FC51C10C010D6D640809EE4718AC1BA3ED4AEDB53CA37283F68805A7E4B72CEB0A4EDEAD5DD8C14059A76AFAA56BA6901E13F32BC51C720
310
12AF41295B5BF61BAD3195181FB506E6B40F4C10AF5AF40EF9F5B159AE5DD1F43C72D635E94310D45C2D49785C5D0B94D3B54AB3C5A38349C0587D338AB48C11CBF339599C02CCA54A70A008A8D03C0B2201D5F9EFCF8F9CE12A9A19CB0410789EB32C63B95ECCF455D658BFE0621A3DA32C5075FB101723D77DAE867E7D0F
310
D90444509B44E2151B4DC2290B065803200FBAA9BE9D392A0603F2D5C2D00D6302A615680F66D2FA166E2079D4C551A54AB758161FCEFD4E450A14704CECFEDF504B0304140006080000B670623B000000000000000000000000350000006662782F38353834323741342D343835462D343034322D383541392D4331303331
310
363839454531452F76657274696365732E62696E504B0304140006080800B670623BF270F1330600000004000000360000006662782F38353834323741342D343835462D343034322D383541392D4331303331363839454531452F747269616E676C65732E62696E636660600000504B0304140006080000B670623B000000
310
000000000000000000370000006662782F38353834323741342D343835462D343034322D383541392D4331303331363839454531452F617474726962757465732E62696E504B0304140006080800B670623B08DA0BD19000000041010000360000006662782F38353834323741342D343835462D343034322D383541392D43
310
31303331363839454531452F6469726563746F72792E786D6C858F410AC3201045AF22B36F53E9A60B35CBEEBAE80D244E44489C6234F4F835464A48035D0DF398FF9F8AF63D0E6CC63039F212F8F9020C7D47C6792B21C5FE7403D62A1188E2E60C98D7234A5830286103A55745067B9D86B8A3CF9C7F90C11DE607FB1443
310
96D7B6A82D282E9A152AD114D5EF2CB866EEE831B8EEA07A7BB5A8D7D61A2BAAEB7FD5F70921FF497D00504B0304140006080800B670623BD9A3B367FE000000A00100003B0000006662782F38353834323741342D343835462D343034322D383541392D4331303331363839454531452F7265736F75726365732F636F7265
310
2E786D6C8D504B6E833010BD0A9A6D65B01D0201194711694FD00B586642AD043BF2A7EAF16B122AB5BB6E6646EFA3797AE2F8B5DC8A4FF4C1383B002B291468B59B8C9D0748F1420E501CA5F0CEC55F3228AC5A708015062966EFD27D83B4B3116DCCA875136EA00A012314FA968F0182FEC045952AC5AC08D7F2AEF455CD
310
58B232D3592745883E07289E4FD609D26370C96B0CA27AB252A464A64D63A6FCD35C0C7A904D73EE467EE664DCD58CD4ED4849D79C5A723ED1B7A61977AF2D6F45B59AA58866F9C9A83DAA8813484E6947182394BFB3BAA7FBBEDEBFD0434FA9A856F91F53BA4FFF342563E38E6F719FB60092E5200F428A6AED2BAF479979
310
AFDDCA6F504B010214000A0000080000B670623B3DEE336E79000000790000001B00000000000000000000000000000000006175746F6465736B2D64657369676E2D7061636B6167652E786D6C504B01021400140006080800B670623BD486FD9CA0000000F40000001300000000000000000000000000B20000005B436F6E
310
74656E745F54797065735D2E786D6C504B01021400140006080800B670623BCA089DFFEC0000007C010000080000000000000000000000000083010000636F72652E786D6C504B01021400140006080800B670623B55019EA25F0000007C000000070000000000000000000000000095020000636E782E786D6C504B010214
310
00140006080800B670623B68FC0B7272010000D40300000C00000000000000000000000000190300006662782F636F72652E786D6C504B01021400140006080800B670623B0F71DDB67E0000009D0000000B00000000000000000000000000B50400006662782F636E782E786D6C504B01021400140006080800B670623BE1
310
34B4FB280100001202000031000000000000000000000000005C0500006662782F38353834323741342D343835462D343034322D383541392D4331303331363839454531452F636F72652E786D6C504B01021400140006080800B670623B1B8617914E010000330300003000000000000000000000000000D3060000666278
310
2F38353834323741342D343835462D343034322D383541392D4331303331363839454531452F636E782E786D6C504B01021400140006080800B670623B5933D422630500003B10000034000000000000000000000000006F0800006662782F38353834323741342D343835462D343034322D383541392D4331303331363839
310
454531452F6F626A656374732E786D6C504B01021400140006080000B670623B0000000000000000000000003500000000000000000000000000240E00006662782F38353834323741342D343835462D343034322D383541392D4331303331363839454531452F76657274696365732E62696E504B01021400140006080800
310
B670623BF270F13306000000040000003600000000000000000000000000770E00006662782F38353834323741342D343835462D343034322D383541392D4331303331363839454531452F747269616E676C65732E62696E504B01021400140006080000B670623B0000000000000000000000003700000000000000000000
310
000000D10E00006662782F38353834323741342D343835462D343034322D383541392D4331303331363839454531452F617474726962757465732E62696E504B01021400140006080800B670623B08DA0BD190000000410100003600000000000000000000000000260F00006662782F38353834323741342D343835462D34
310
3034322D383541392D4331303331363839454531452F6469726563746F72792E786D6C504B01021400140006080800B670623BD9A3B367FE000000A00100003B000000000000000000000000000A1000006662782F38353834323741342D343835462D343034322D383541392D4331303331363839454531452F7265736F75
310
726365732F636F72652E786D6C504B0506000000000E000E0080040000611100000000
  0
XRECORD
  5
113
102
{ACAD_REACTORS
330
110
102
}
330
110
100
AcDbXrecord
280
     1
270
     1
271
     1
  0
XRECORD
  5
114
102
{ACAD_REACTORS
330
110
102
}
330
110
100
AcDbXrecord
280
     1
270
     1
271
     1
  0
CELLSTYLEMAP
  5
440
102
{ACAD_REACTORS
330
104
102
}
330
104
100
AcDbCellStyleMap
 90
        3
300
CELLSTYLE
  1
TABLEFORMAT_BEGIN
 90
        5
170
     1
 91
        0
 92
    32768
 62
   257
 93
        1
300
CONTENTFORMAT
  1
CONTENTFORMAT_BEGIN
 90
        0
 91
        0
 92
      512
 93
        0
300

 40
0.0
140
1.0
 94
        5
 62
     0
340
11
144
0.25
309
CONTENTFORMAT_END
171
     1
301
MARGIN
  1
CELLMARGIN_BEGIN
 40
0.06
 40
0.06
 40
0.06
 40
0.06
 40
0.18
 40
0.18
309
CELLMARGIN_END
 94
        6
 95
        1
302
GRIDFORMAT
  1
GRIDFORMAT_BEGIN
 90
        0
 91
        1
 62
     0
 92
       -2
340
0
 93
        0
 40
0.045
309
GRIDFORMAT_END
 95
        2
302
GRIDFORMAT
  1
GRIDFORMAT_BEGIN
 90
        0
 91
        1
 62
     0
 92
       -2
340
0
 93
        0
 40
0.045
309
GRIDFORMAT_END
 95
        4
302
GRIDFORMAT
  1
GRIDFORMAT_BEGIN
 90
        0
 91
        1
 62
     0
 92
       -2
340
0
 93
        0
 40
0.045
309
GRIDFORMAT_END
 95
        8
302
GRIDFORMAT
  1
GRIDFORMAT_BEGIN
 90
        0
 91
        1
 62
     0
 92
       -2
340
0
 93
        0
 40
0.045
309
GRIDFORMAT_END
 95
       16
302
GRIDFORMAT
  1
GRIDFORMAT_BEGIN
 90
        0
 91
        1
 62
     0
 92
       -2
340
0
 93
        0
 40
0.045
309
GRIDFORMAT_END
 95
       32
302
GRIDFORMAT
  1
GRIDFORMAT_BEGIN
 90
        0
 91
        1
 62
     0
 92
       -2
340
0
 93
        0
 40
0.045
309
GRIDFORMAT_END
309
TABLEFORMAT_END
  1
CELLSTYLE_BEGIN
 90
        1
 91
        1
300
_TITLE
309
CELLSTYLE_END
300
CELLSTYLE
  1
TABLEFORMAT_BEGIN
 90
        5
170
     1
 91
        0
 92
        0
 62
   257
 93
        1
300
CONTENTFORMAT
  1
CONTENTFORMAT_BEGIN
 90
        0
 91
        0
 92
      512
 93
        0
300

 40
0.0
140
1.0
 94
        5
 62
     0
340
11
144
0.18
309
CONTENTFORMAT_END
171
     1
301
MARGIN
  1
CELLMARGIN_BEGIN
 40
0.06
 40
0.06
 40
0.06
 40
0.06
 40
0.18
 40
0.18
309
CELLMARGIN_END
 94
        6
 95
        1
302
GRIDFORMAT
  1
GRIDFORMAT_BEGIN
 90
        0
 91
        1
 62
     0
 92
       -2
340
0
 93
        0
 40
0.045
309
GRIDFORMAT_END
 95
        2
302
GRIDFORMAT
  1
GRIDFORMAT_BEGIN
 90
        0
 91
        1
 62
     0
 92
       -2
340
0
 93
        0
 40
0.045
309
GRIDFORMAT_END
 95
        4
302
GRIDFORMAT
  1
GRIDFORMAT_BEGIN
 90
        0
 91
        1
 62
     0
 92
       -2
340
0
 93
        0
 40
0.045
309
GRIDFORMAT_END
 95
        8
302
GRIDFORMAT
  1
GRIDFORMAT_BEGIN
 90
        0
 91
        1
 62
     0
 92
       -2
340
0
 93
        0
 40
0.045
309
GRIDFORMAT_END
 95
       16
302
GRIDFORMAT
  1
GRIDFORMAT_BEGIN
 90
        0
 91
        1
 62
     0
 92
       -2
340
0
 93
        0
 40
0.045
309
GRIDFORMAT_END
 95
       32
302
GRIDFORMAT
  1
GRIDFORMAT_BEGIN
 90
        0
 91
        1
 62
     0
 92
       -2
340
0
 93
        0
 40
0.045
309
GRIDFORMAT_END
309
TABLEFORMAT_END
  1
CELLSTYLE_BEGIN
 90
        2
 91
        1
300
_HEADER
309
CELLSTYLE_END
300
CELLSTYLE
  1
TABLEFORMAT_BEGIN
 90
        5
170
     1
 91
        0
 92
        0
 62
   257
 93
        1
300
CONTENTFORMAT
  1
CONTENTFORMAT_BEGIN
 90
        0
 91
        0
 92
      512
 93
        0
300

 40
0.0
140
1.0
 94
        2
 62
     0
340
11
144
0.18
309
CONTENTFORMAT_END
171
     1
301
MARGIN
  1
CELLMARGIN_BEGIN
 40
0.06
 40
0.06
 40
0.06
 40
0.06
 40
0.18
 40
0.18
309
CELLMARGIN_END
 94
        6
 95
        1
302
GRIDFORMAT
  1
GRIDFORMAT_BEGIN
 90
        0
 91
        1
 62
     0
 92
       -2
340
0
 93
        0
 40
0.045
309
GRIDFORMAT_END
 95
        2
302
GRIDFORMAT
  1
GRIDFORMAT_BEGIN
 90
        0
 91
        1
 62
     0
 92
       -2
340
0
 93
        0
 40
0.045
309
GRIDFORMAT_END
 95
        4
302
GRIDFORMAT
  1
GRIDFORMAT_BEGIN
 90
        0
 91
        1
 62
     0
 92
       -2
340
0
 93
        0
 40
0.045
309
GRIDFORMAT_END
 95
        8
302
GRIDFORMAT
  1
GRIDFORMAT_BEGIN
 90
        0
 91
        1
 62
     0
 92
       -2
340
0
 93
        0
 40
0.045
309
GRIDFORMAT_END
 95
       16
302
GRIDFORMAT
  1
GRIDFORMAT_BEGIN
 90
        0
 91
        1
 62
     0
 92
       -2
340
0
 93
        0
 40
0.045
309
GRIDFORMAT_END
 95
       32
302
GRIDFORMAT
  1
GRIDFORMAT_BEGIN
 90
        0
 91
        1
 62
     0
 92
       -2
340
0
 93
        0
 40
0.045
309
GRIDFORMAT_END
309
TABLEFORMAT_END
  1
CELLSTYLE_BEGIN
 90
        3
 91
        2
300
_DATA
309
CELLSTYLE_END
  0
ENDSEC
  0
SECTION
  2
ACDSDATA
 70
     2
 71
     8
  0
ACDSSCHEMA
 90
        0
  1
AcDb_Thumbnail_Schema
  2
AcDbDs::ID
280
    10
 91
        8
  2
Thumbnail_Data
280
    15
 91
        0
101
ACDSRECORD
 95
        0
 90
        1
  2
AcDbDs::TreatedAsObjectData
280
     1
291
     1
101
ACDSRECORD
 95
        0
 90
        2
  2
AcDbDs::Legacy
280
     1
291
     1
101
ACDSRECORD
  1
AcDbDs::ID
 90
        3
  2
AcDs:Indexable
280
     1
291
     1
101
ACDSRECORD
  1
AcDbDs::ID
 90
        4
  2
AcDbDs::HandleAttribute
280
     7
282
     1
  0
ACDSSCHEMA
 90
        1
  1
AcDbDs::TreatedAsObjectDataSchema
  2
AcDbDs::TreatedAsObjectData
280
     1
 91
        0
  0
ACDSSCHEMA
 90
        2
  1
AcDbDs::LegacySchema
  2
AcDbDs::Legacy
280
     1
 91
        0
  0
ACDSSCHEMA
 90
        3
  1
AcDbDs::IndexedPropertySchema
  2
AcDs:Indexable
280
     1
 91
        0
  0
ACDSSCHEMA
 90
        4
  1
AcDbDs::HandleAttributeSchema
  2
AcDbDs::HandleAttribute
280
     7
 91
        1
284
     1
  0
ACDSRECORD
 90
        0
  2
AcDbDs::ID
280
    10
320
22
  2
Thumbnail_Data
280
    15
 94
      897
310
89504E470D0A1A0A0000000D49484452000001000000009508030000008070D41000000300504C5445212830FFFFFF2128300000000000000000000000000000000000000000000000000000330000660000990000CC0000FF0033000033330033660033990033CC0033FF0066000066330066660066990066CC0066FF0099
310
000099330099660099990099CC0099FF00CC0000CC3300CC6600CC9900CCCC00CCFF00FF0000FF3300FF6600FF9900FFCC00FFFF3300003300333300663300993300CC3300FF3333003333333333663333993333CC3333FF3366003366333366663366993366CC3366FF3399003399333399663399993399CC3399FF33CC00
310
33CC3333CC6633CC9933CCCC33CCFF33FF0033FF3333FF6633FF9933FFCC33FFFF6600006600336600666600996600CC6600FF6633006633336633666633996633CC6633FF6666006666336666666666996666CC6666FF6699006699336699666699996699CC6699FF66CC0066CC3366CC6666CC9966CCCC66CCFF66FF0066
310
FF3366FF6666FF9966FFCC66FFFF9900009900339900669900999900CC9900FF9933009933339933669933999933CC9933FF9966009966339966669966999966CC9966FF9999009999339999669999999999CC9999FF99CC0099CC3399CC6699CC9999CCCC99CCFF99FF0099FF3399FF6699FF9999FFCC99FFFFCC0000CC00
310
33CC0066CC0099CC00CCCC00FFCC3300CC3333CC3366CC3399CC33CCCC33FFCC6600CC6633CC6666CC6699CC66CCCC66FFCC9900CC9933CC9966CC9999CC99CCCC99FFCCCC00CCCC33CCCC66CCCC99CCCCCCCCCCFFCCFF00CCFF33CCFF66CCFF99CCFFCCCCFFFFFF0000FF0033FF0066FF0099FF00CCFF00FFFF3300FF3333
310
FF3366FF3399FF33CCFF33FFFF6600FF6633FF6666FF6699FF66CCFF66FFFF9900FF9933FF9966FF9999FF99CCFF99FFFFCC00FFCC33FFCC66FFCC99FFCCCCFFCCFFFFFF00FFFF33FFFF66FFFF99FFFFCCFFFFFF0000000D0D0D1A1A1A2828283535354343435050505D5D5D6B6B6B787878868686939393A1A1A1AEAEAEBB
310
BBBBC9C9C9D6D6D6E4E4E4F1F1F1FFFFFF0000000000000000000000000000000000000000000000000000000000002E4550F10000003C4944415478DAEDC13101000000C2A0F54F6D0B2FA0000000000000000000000000000000000000000000000000000000000000000000000000008E06959500014F4AD9C200000000
310
49454E44AE426082
  0
ENDSEC
  0
EOF
