  0
SECTION
  2
HEADER
  9
$ACADVER
  1
AC1032
  9
$ACADMAINTVER
 90
      179
  9
$DWGCODEPAGE
  3
ANSI_1252
  9
$LASTSAVEDBY
  1
mgortner
  9
$REQUIREDVERSIONS
160
                 0
  9
$INSBASE
 10
0.0
 20
0.0
 30
0.0
  9
$EXTMIN
 10
-0.842651340228798
 20
-1.88374326737102
 30
-0.0015258207003583
  9
$EXTMAX
 10
1.164184585637627
 20
1.035873424769231
 30
0.0000000349246037
  9
$LIMMIN
 10
0.0
 20
0.0
  9
$LIMMAX
 10
12.0
 20
9.0
  9
$ORTHOMODE
 70
     0
  9
$REGENMODE
 70
     1
  9
$FILLMODE
 70
     1
  9
$QTEXTMODE
 70
     0
  9
$MIRRTEXT
 70
     0
  9
$LTSCALE
 40
1.0
  9
$ATTMODE
 70
     1
  9
$TEXTSIZE
 40
0.2
  9
$TRACEWID
 40
0.05
  9
$TEXTSTYLE
  7
Standard
  9
$CLAYER
  8
0
  9
$CELTYPE
  6
ByLayer
  9
$CECOLOR
 62
   256
  9
$CELTSCALE
 40
1.0
  9
$DISPSILH
 70
     0
  9
$DIMSCALE
 40
1.0
  9
$DIMASZ
 40
0.18
  9
$DIMEXO
 40
0.0625
  9
$DIMDLI
 40
0.38
  9
$DIMRND
 40
0.0
  9
$DIMDLE
 40
0.0
  9
$DIMEXE
 40
0.18
  9
$DIMTP
 40
0.0
  9
$DIMTM
 40
0.0
  9
$DIMTXT
 40
0.18
  9
$DIMCEN
 40
0.09
  9
$DIMTSZ
 40
0.0
  9
$DIMTOL
 70
     0
  9
$DIMLIM
 70
     0
  9
$DIMTIH
 70
     1
  9
$DIMTOH
 70
     1
  9
$DIMSE1
 70
     0
  9
$DIMSE2
 70
     0
  9
$DIMTAD
 70
     0
  9
$DIMZIN
 70
     0
  9
$DIMBLK
  1

  9
$DIMASO
 70
     1
  9
$DIMSHO
 70
     1
  9
$DIMPOST
  1

  9
$DIMAPOST
  1

  9
$DIMALT
 70
     0
  9
$DIMALTD
 70
     2
  9
$DIMALTF
 40
25.4
  9
$DIMLFAC
 40
1.0
  9
$DIMTOFL
 70
     0
  9
$DIMTVP
 40
0.0
  9
$DIMTIX
 70
     0
  9
$DIMSOXD
 70
     0
  9
$DIMSAH
 70
     0
  9
$DIMBLK1
  1

  9
$DIMBLK2
  1

  9
$DIMSTYLE
  2
Standard
  9
$DIMCLRD
 70
     0
  9
$DIMCLRE
 70
     0
  9
$DIMCLRT
 70
     0
  9
$DIMTFAC
 40
1.0
  9
$DIMGAP
 40
0.09
  9
$DIMJUST
 70
     0
  9
$DIMSD1
 70
     0
  9
$DIMSD2
 70
     0
  9
$DIMTOLJ
 70
     1
  9
$DIMTZIN
 70
     0
  9
$DIMALTZ
 70
     0
  9
$DIMALTTZ
 70
     0
  9
$DIMUPT
 70
     0
  9
$DIMDEC
 70
     4
  9
$DIMTDEC
 70
     4
  9
$DIMALTU
 70
     2
  9
$DIMALTTD
 70
     2
  9
$DIMTXSTY
  7
Standard
  9
$DIMAUNIT
 70
     0
  9
$DIMADEC
 70
     0
  9
$DIMALTRND
 40
0.0
  9
$DIMAZIN
 70
     0
  9
$DIMDSEP
 70
    46
  9
$DIMATFIT
 70
     3
  9
$DIMFRAC
 70
     0
  9
$DIMLDRBLK
  1

  9
$DIMLUNIT
 70
     2
  9
$DIMLWD
 70
    -2
  9
$DIMLWE
 70
    -2
  9
$DIMTMOVE
 70
     0
  9
$DIMFXL
 40
1.0
  9
$DIMFXLON
 70
     0
  9
$DIMJOGANG
 40
0.7853981633974483
  9
$DIMTFILL
 70
     0
  9
$DIMTFILLCLR
 70
     0
  9
$DIMARCSYM
 70
     0
  9
$DIMLTYPE
  6

  9
$DIMLTEX1
  6

  9
$DIMLTEX2
  6

  9
$DIMTXTDIRECTION
 70
     0
  9
$LUNITS
 70
     2
  9
$LUPREC
 70
     8
  9
$SKETCHINC
 40
0.1
  9
$FILLETRAD
 40
0.0
  9
$AUNITS
 70
     0
  9
$AUPREC
 70
     0
  9
$MENU
  1
.
  9
$ELEVATION
 40
0.0
  9
$PELEVATION
 40
0.0
  9
$THICKNESS
 40
0.0
  9
$LIMCHECK
 70
     0
  9
$CHAMFERA
 40
0.0
  9
$CHAMFERB
 40
0.0
  9
$CHAMFERC
 40
0.0
  9
$CHAMFERD
 40
0.0
  9
$SKPOLY
 70
     0
  9
$TDCREATE
 40
2460914.621273149
  9
$TDUCREATE
 40
2460914.787939815
  9
$TDUPDATE
 40
2460914.621851852
  9
$TDUUPDATE
 40
2460914.788518519
  9
$TDINDWG
 40
0.0005787037
  9
$TDUSRTIMER
 40
0.0005787037
  9
$USRTIMER
 70
     1
  9
$ANGBASE
 50
0.0
  9
$ANGDIR
 70
     0
  9
$PDMODE
 70
     0
  9
$PDSIZE
 40
0.0
  9
$PLINEWID
 40
0.0
  9
$SPLFRAME
 70
     0
  9
$SPLINETYPE
 70
     6
  9
$SPLINESEGS
 70
     8
  9
$HANDSEED
  5
45C
  9
$SURFTAB1
 70
     6
  9
$SURFTAB2
 70
     6
  9
$SURFTYPE
 70
     6
  9
$SURFU
 70
     6
  9
$SURFV
 70
     6
  9
$UCSBASE
  2

  9
$UCSNAME
  2

  9
$UCSORG
 10
0.0
 20
0.0
 30
0.0
  9
$UCSXDIR
 10
1.0
 20
0.0
 30
0.0
  9
$UCSYDIR
 10
0.0
 20
1.0
 30
0.0
  9
$UCSORTHOREF
  2

  9
$UCSORTHOVIEW
 70
     0
  9
$UCSORGTOP
 10
0.0
 20
0.0
 30
0.0
  9
$UCSORGBOTTOM
 10
0.0
 20
0.0
 30
0.0
  9
$UCSORGLEFT
 10
0.0
 20
0.0
 30
0.0
  9
$UCSORGRIGHT
 10
0.0
 20
0.0
 30
0.0
  9
$UCSORGFRONT
 10
0.0
 20
0.0
 30
0.0
  9
$UCSORGBACK
 10
0.0
 20
0.0
 30
0.0
  9
$PUCSBASE
  2

  9
$PUCSNAME
  2

  9
$PUCSORG
 10
0.0
 20
0.0
 30
0.0
  9
$PUCSXDIR
 10
1.0
 20
0.0
 30
0.0
  9
$PUCSYDIR
 10
0.0
 20
1.0
 30
0.0
  9
$PUCSORTHOREF
  2

  9
$PUCSORTHOVIEW
 70
     0
  9
$PUCSORGTOP
 10
0.0
 20
0.0
 30
0.0
  9
$PUCSORGBOTTOM
 10
0.0
 20
0.0
 30
0.0
  9
$PUCSORGLEFT
 10
0.0
 20
0.0
 30
0.0
  9
$PUCSORGRIGHT
 10
0.0
 20
0.0
 30
0.0
  9
$PUCSORGFRONT
 10
0.0
 20
0.0
 30
0.0
  9
$PUCSORGBACK
 10
0.0
 20
0.0
 30
0.0
  9
$USERI1
 70
     0
  9
$USERI2
 70
     0
  9
$USERI3
 70
     0
  9
$USERI4
 70
     0
  9
$USERI5
 70
     0
  9
$USERR1
 40
0.0
  9
$USERR2
 40
0.0
  9
$USERR3
 40
0.0
  9
$USERR4
 40
0.0
  9
$USERR5
 40
0.0
  9
$WORLDVIEW
 70
     1
  9
$SHADEDGE
 70
     3
  9
$SHADEDIF
 70
    70
  9
$TILEMODE
 70
     1
  9
$MAXACTVP
 70
    64
  9
$PINSBASE
 10
0.0
 20
0.0
 30
0.0
  9
$PLIMCHECK
 70
     0
  9
$PEXTMIN
 10
0.0
 20
0.0
 30
0.0
  9
$PEXTMAX
 10
0.0
 20
0.0
 30
0.0
  9
$PLIMMIN
 10
0.0
 20
0.0
  9
$PLIMMAX
 10
12.0
 20
9.0
  9
$UNITMODE
 70
     0
  9
$VISRETAIN
 70
     1
  9
$PLINEGEN
 70
     0
  9
$PSLTSCALE
 70
     1
  9
$TREEDEPTH
 70
  3020
  9
$CMLSTYLE
  2
Standard
  9
$CMLJUST
 70
     0
  9
$CMLSCALE
 40
1.0
  9
$PROXYGRAPHICS
 70
     1
  9
$MEASUREMENT
 70
     0
  9
$CELWEIGHT
370
    -1
  9
$ENDCAPS
280
     0
  9
$JOINSTYLE
280
     0
  9
$LWDISPLAY
290
     0
  9
$INSUNITS
 70
     1
  9
$HYPERLINKBASE
  1

  9
$STYLESHEET
  1

  9
$XEDIT
290
     1
  9
$CEPSNTYPE
380
     0
  9
$PSTYLEMODE
290
     1
  9
$FINGERPRINTGUID
  2
{AF7624ED-801A-354F-8BAE-9EC810729933}
  9
$VERSIONGUID
  2
{CBE5023F-33A9-E04D-9672-153D3A03E57E}
  9
$EXTNAMES
290
     1
  9
$PSVPSCALE
 40
0.0
  9
$OLESTARTUP
290
     0
  9
$SORTENTS
280
   127
  9
$INDEXCTL
280
     0
  9
$HIDETEXT
280
     1
  9
$XCLIPFRAME
280
     2
  9
$HALOGAP
280
     0
  9
$OBSCOLOR
 70
   257
  9
$OBSLTYPE
280
     0
  9
$INTERSECTIONDISPLAY
280
     0
  9
$INTERSECTIONCOLOR
 70
   257
  9
$DIMASSOC
280
     2
  9
$PROJECTNAME
  1

  9
$CAMERADISPLAY
290
     0
  9
$LENSLENGTH
 40
50.0
  9
$CAMERAHEIGHT
 40
0.0
  9
$STEPSPERSEC
 40
2.0
  9
$STEPSIZE
 40
6.0
  9
$3DDWFPREC
 40
2.0
  9
$PSOLWIDTH
 40
0.25
  9
$PSOLHEIGHT
 40
4.0
  9
$LOFTANG1
 40
1.570796326794896
  9
$LOFTANG2
 40
1.570796326794896
  9
$LOFTMAG1
 40
0.0
  9
$LOFTMAG2
 40
0.0
  9
$LOFTPARAM
 70
     7
  9
$LOFTNORMALS
280
     1
  9
$LATITUDE
 40
37.795
  9
$LONGITUDE
 40
-122.394
  9
$NORTHDIRECTION
 40
0.0
  9
$TIMEZONE
 70
 -8000
  9
$LIGHTGLYPHDISPLAY
280
     1
  9
$TILEMODELIGHTSYNCH
280
     1
  9
$CMATERIAL
347
96
  9
$SOLIDHIST
280
     0
  9
$SHOWHIST
280
     1
  9
$DWFFRAME
280
     2
  9
$DGNFRAME
280
     0
  9
$REALWORLDSCALE
290
     1
  9
$INTERFERECOLOR
 62
     1
  9
$INTERFEREOBJVS
345
A3
  9
$INTERFEREVPVS
346
A0
  9
$CSHADOW
280
     0
  9
$SHADOWPLANELOCATION
 40
0.0
  0
ENDSEC
  0
SECTION
  2
CLASSES
  0
CLASS
  1
ACDBDICTIONARYWDFLT
  2
AcDbDictionaryWithDefault
  3
ObjectDBX Classes
 90
        0
 91
        1
280
     0
281
     0
  0
CLASS
  1
DICTIONARYVAR
  2
AcDbDictionaryVar
  3
ObjectDBX Classes
 90
        0
 91
        9
280
     0
281
     0
  0
CLASS
  1
TABLESTYLE
  2
AcDbTableStyle
  3
ObjectDBX Classes
 90
     4095
 91
        1
280
     0
281
     0
  0
CLASS
  1
MATERIAL
  2
AcDbMaterial
  3
ObjectDBX Classes
 90
     1153
 91
        3
280
     0
281
     0
  0
CLASS
  1
VISUALSTYLE
  2
AcDbVisualStyle
  3
ObjectDBX Classes
 90
     4095
 91
       24
280
     0
281
     0
  0
CLASS
  1
SCALE
  2
AcDbScale
  3
ObjectDBX Classes
 90
     1153
 91
       33
280
     0
281
     0
  0
CLASS
  1
MLEADERSTYLE
  2
AcDbMLeaderStyle
  3
ACDB_MLEADERSTYLE_CLASS
 90
     4095
 91
        3
280
     0
281
     0
  0
CLASS
  1
CELLSTYLEMAP
  2
AcDbCellStyleMap
  3
ObjectDBX Classes
 90
     1152
 91
        1
280
     0
281
     0
  0
CLASS
  1
EXACXREFPANELOBJECT
  2
ExAcXREFPanelObject
  3
EXAC_ESW
 90
     1025
 91
        0
280
     0
281
     0
  0
CLASS
  1
NPOCOLLECTION
  2
AcDbImpNonPersistentObjectsCollection
  3
ObjectDBX Classes
 90
     1153
 91
        0
280
     0
281
     0
  0
CLASS
  1
LAYER_INDEX
  2
AcDbLayerIndex
  3
ObjectDBX Classes
 90
        0
 91
        0
280
     0
281
     0
  0
CLASS
  1
SPATIAL_INDEX
  2
AcDbSpatialIndex
  3
ObjectDBX Classes
 90
        0
 91
        0
280
     0
281
     0
  0
CLASS
  1
IDBUFFER
  2
AcDbIdBuffer
  3
ObjectDBX Classes
 90
        0
 91
        0
280
     0
281
     0
  0
CLASS
  1
ACDBSECTIONVIEWSTYLE
  2
AcDbSectionViewStyle
  3
ObjectDBX Classes
 90
     1025
 91
        1
280
     0
281
     0
  0
CLASS
  1
ACDBDETAILVIEWSTYLE
  2
AcDbDetailViewStyle
  3
ObjectDBX Classes
 90
     1025
 91
        1
280
     0
281
     0
  0
CLASS
  1
MULTILEADER
  2
AcDbMLeader
  3
ACDB_MLEADER_CLASS
 90
     1025
 91
        2
280
     0
281
     1
  0
CLASS
  1
SORTENTSTABLE
  2
AcDbSortentsTable
  3
ObjectDBX Classes
 90
        0
 91
        1
280
     0
281
     0
  0
ENDSEC
  0
SECTION
  2
TABLES
  0
TABLE
  2
VPORT
  5
8
330
0
100
AcDbSymbolTable
 70
     1
  0
VPORT
  5
94
330
8
100
AcDbSymbolTableRecord
100
AcDbViewportTableRecord
  2
*Active
 70
     0
 10
0.0
 20
0.0
 11
1.0
 21
1.0
 12
0.1607666227044149
 22
-0.4239349213008943
 13
0.0
 23
0.0
 14
0.5
 24
0.5
 15
0.5
 25
0.5
 16
0.0
 26
0.0
 36
1.0
 17
0.0
 27
0.0
 37
0.0
 40
2.979335064922093
 41
1.671386430678465
 42
50.0
 43
0.0
 44
0.0
 50
0.0
 51
0.0
 71
     0
 72
  1000
 73
     1
 74
     3
 75
     0
 76
     1
 77
     0
 78
     0
281
     0
 65
     1
110
0.0
120
0.0
130
0.0
111
1.0
121
0.0
131
0.0
112
0.0
122
1.0
132
0.0
 79
     0
146
0.0
348
9F
 60
     3
 61
     5
292
     1
282
     1
141
0.0
142
0.0
 63
   250
421
  3355443
1001
ACAD_NAV_VCDISPLAY
1070
     3
  0
ENDTAB
  0
TABLE
  2
LTYPE
  5
5
330
0
100
AcDbSymbolTable
 70
     1
  0
LTYPE
  5
14
330
5
100
AcDbSymbolTableRecord
100
AcDbLinetypeTableRecord
  2
ByBlock
 70
     0
  3

 72
    65
 73
     0
 40
0.0
  0
LTYPE
  5
15
330
5
100
AcDbSymbolTableRecord
100
AcDbLinetypeTableRecord
  2
ByLayer
 70
     0
  3

 72
    65
 73
     0
 40
0.0
  0
LTYPE
  5
16
330
5
100
AcDbSymbolTableRecord
100
AcDbLinetypeTableRecord
  2
Continuous
 70
     0
  3
Solid line
 72
    65
 73
     0
 40
0.0
  0
ENDTAB
  0
TABLE
  2
LAYER
  5
2
102
{ACAD_XDICTIONARY
360
18E
102
}
330
0
100
AcDbSymbolTable
 70
    10
  0
LAYER
  5
10
102
{ACAD_XDICTIONARY
360
E6
102
}
330
2
100
AcDbSymbolTableRecord
100
AcDbLayerTableRecord
  2
0
 70
     0
 62
     7
  6
Continuous
370
    -3
390
F
347
98
348
0
  0
LAYER
  5
264
330
2
100
AcDbSymbolTableRecord
100
AcDbLayerTableRecord
  2
Defpoints
 70
     0
 62
     7
  6
Continuous
290
     0
370
    -3
390
F
347
98
348
0
  0
LAYER
  5
265
102
{ACAD_XDICTIONARY
360
266
102
}
330
2
100
AcDbSymbolTableRecord
100
AcDbLayerTableRecord
  2
PCB_Top
 70
     0
 62
   130
  6
Continuous
370
    -3
390
F
347
98
348
0
  0
LAYER
  5
267
330
2
100
AcDbSymbolTableRecord
100
AcDbLayerTableRecord
  2
Notes
 70
     0
 62
     7
  6
Continuous
370
    -3
390
F
347
98
348
0
  0
LAYER
  5
268
330
2
100
AcDbSymbolTableRecord
100
AcDbLayerTableRecord
  2
Component_Pads
 70
     0
 62
    40
  6
Continuous
370
    -3
390
F
347
98
348
0
1001
AcAecLayerStandard
1000

1000

1001
AcCmTransparency
1071
        0
  0
LAYER
  5
269
330
2
100
AcDbSymbolTableRecord
100
AcDbLayerTableRecord
  2
Component_Outline
 70
     0
 62
    10
  6
Continuous
370
    35
390
F
347
98
348
0
1001
AcAecLayerStandard
1000

1000

  0
LAYER
  5
26A
330
2
100
AcDbSymbolTableRecord
100
AcDbLayerTableRecord
  2
PCB_Solder_Mask
 70
     0
 62
     3
  6
Continuous
370
    -3
390
F
347
98
348
0
1001
AcAecLayerStandard
1000

1000

1001
AcCmTransparency
1071
        0
  0
LAYER
  5
26B
102
{ACAD_XDICTIONARY
360
26C
102
}
330
2
100
AcDbSymbolTableRecord
100
AcDbLayerTableRecord
  2
PCB_Plated_Holes
 70
     0
 62
     6
  6
Continuous
370
    -3
390
F
347
98
348
0
  0
LAYER
  5
26D
330
2
100
AcDbSymbolTableRecord
100
AcDbLayerTableRecord
  2
PCB_Land_Pattern
 70
     0
 62
   190
  6
Continuous
370
    -3
390
F
347
98
348
0
1001
AcAecLayerStandard
1000

1000

1001
AcCmTransparency
1071
        0
  0
LAYER
  5
26E
330
2
100
AcDbSymbolTableRecord
100
AcDbLayerTableRecord
  2
PCB_Solder_Stencil
 70
     0
 62
     8
  6
Continuous
370
    -3
390
F
347
98
348
0
1001
AcAecLayerStandard
1000

1000

1001
AcCmTransparency
1071
        0
  0
ENDTAB
  0
TABLE
  2
STYLE
  5
3
330
0
100
AcDbSymbolTable
 70
     5
  0
STYLE
  5
11
330
3
100
AcDbSymbolTableRecord
100
AcDbTextStyleTableRecord
  2
Standard
 70
     0
 40
0.0
 41
1.0
 50
0.0
 71
     0
 42
0.2
  3
arial.ttf
  4

1001
ACAD
1000
Arial
1071
       34
  0
STYLE
  5
DC
330
3
100
AcDbSymbolTableRecord
100
AcDbTextStyleTableRecord
  2
Annotative
 70
     0
 40
0.0
 41
1.0
 50
0.0
 71
     0
 42
0.2
  3
arial.ttf
  4

1001
AcadAnnotative
1000
AnnotativeData
1002
{
1070
     1
1070
     1
1002
}
1001
ACAD
1000
Arial
1071
       34
  0
STYLE
  5
26F
330
3
100
AcDbSymbolTableRecord
100
AcDbTextStyleTableRecord
  2
wireless-tscat-v1
 70
     0
 40
0.0
 41
1.0
 50
0.0
 71
     0
 42
0.1
  3
arial.ttf
  4

1001
ACAD
1000
Arial
1071
       34
  0
STYLE
  5
270
330
3
100
AcDbSymbolTableRecord
100
AcDbTextStyleTableRecord
  2
Arial
 70
     0
 40
0.0
 41
1.0
 50
0.0
 71
     0
 42
0.2
  3
arial.ttf
  4

1001
ACAD
1000
Arial
1071
       34
  0
STYLE
  5
271
330
3
100
AcDbSymbolTableRecord
100
AcDbTextStyleTableRecord
  2
RomanS
 70
     0
 40
0.0
 41
0.9
 50
0.0
 71
     0
 42
0.2
  3
romans.shx
  4

  0
ENDTAB
  0
TABLE
  2
VIEW
  5
6
330
0
100
AcDbSymbolTable
 70
     0
  0
ENDTAB
  0
TABLE
  2
UCS
  5
7
330
0
100
AcDbSymbolTable
 70
     0
  0
ENDTAB
  0
TABLE
  2
APPID
  5
9
330
0
100
AcDbSymbolTable
 70
    10
  0
APPID
  5
12
330
9
100
AcDbSymbolTableRecord
100
AcDbRegAppTableRecord
  2
ACAD
 70
     0
  0
APPID
  5
DD
330
9
100
AcDbSymbolTableRecord
100
AcDbRegAppTableRecord
  2
AcadAnnoPO
 70
     0
  0
APPID
  5
DE
330
9
100
AcDbSymbolTableRecord
100
AcDbRegAppTableRecord
  2
AcadAnnotative
 70
     0
  0
APPID
  5
DF
330
9
100
AcDbSymbolTableRecord
100
AcDbRegAppTableRecord
  2
ACAD_DSTYLE_DIMJAG
 70
     0
  0
APPID
  5
E0
330
9
100
AcDbSymbolTableRecord
100
AcDbRegAppTableRecord
  2
ACAD_DSTYLE_DIMTALN
 70
     0
  0
APPID
  5
107
330
9
100
AcDbSymbolTableRecord
100
AcDbRegAppTableRecord
  2
ACAD_MLEADERVER
 70
     0
  0
APPID
  5
1A6
330
9
100
AcDbSymbolTableRecord
100
AcDbRegAppTableRecord
  2
ACAD_NAV_VCDISPLAY
 70
     0
  0
APPID
  5
274
330
9
100
AcDbSymbolTableRecord
100
AcDbRegAppTableRecord
  2
AcAecLayerStandard
 70
     0
  0
APPID
  5
275
330
9
100
AcDbSymbolTableRecord
100
AcDbRegAppTableRecord
  2
AcCmTransparency
 70
     0
  0
APPID
  5
276
330
9
100
AcDbSymbolTableRecord
100
AcDbRegAppTableRecord
  2
ACAD_DSTYLE_DIMBREAK
 70
     0
  0
ENDTAB
  0
TABLE
  2
DIMSTYLE
  5
A
330
0
100
AcDbSymbolTable
 70
     4
100
AcDbDimStyleTable
 71
     2
340
27
340
E1
  0
DIMSTYLE
105
27
330
A
100
AcDbSymbolTableRecord
100
AcDbDimStyleTableRecord
  2
Standard
 70
     0
340
11
  0
DIMSTYLE
105
E1
330
A
100
AcDbSymbolTableRecord
100
AcDbDimStyleTableRecord
  2
Annotative
 70
     0
 40
0.0
340
11
1001
AcadAnnotative
1000
AnnotativeData
1002
{
1070
     1
1070
     1
1002
}
1001
ACAD_DSTYLE_DIMJAG
1070
   388
1040
1.5
1001
ACAD_DSTYLE_DIMTALN
1070
   392
1070
     0
  0
DIMSTYLE
105
272
330
A
100
AcDbSymbolTableRecord
100
AcDbDimStyleTableRecord
  2
wireless-dscat-v1
 70
     0
 41
0.1
 42
0.05
 43
0.3
 44
0.1
 47
0.01
 48
0.01
 78
     4
 79
     2
140
0.1
141
0.0
146
0.71
147
0.05
170
     1
176
     7
177
     7
178
     7
271
     3
272
     3
284
     7
285
     1
340
26F
371
    -1
372
    -1
  0
DIMSTYLE
105
273
102
{ACAD_REACTORS
330
27D
330
27E
330
280
330
281
330
343
330
344
330
346
330
347
102
}
330
A
100
AcDbSymbolTableRecord
100
AcDbDimStyleTableRecord
  2
Mounting
 70
     0
  3
\X
 40
0.15
 44
0.06
 49
0.18
 78
     4
140
0.12
146
0.71
147
0.03
170
     1
271
     3
272
     3
284
     4
340
270
1001
ACAD_DSTYLE_DIMBREAK
1070
   391
1040
0.125
1001
ACAD_DSTYLE_DIMJAG
1070
   388
1040
1.5
1001
ACAD_DSTYLE_DIMTALN
1070
   392
1070
     0
  0
ENDTAB
  0
TABLE
  2
BLOCK_RECORD
  5
1
330
0
100
AcDbSymbolTable
 70
    10
  0
BLOCK_RECORD
  5
1F
102
{ACAD_XDICTIONARY
360
15D
102
}
330
1
100
AcDbSymbolTableRecord
100
AcDbBlockTableRecord
  2
*Model_Space
340
22
 70
     0
280
     1
281
     0
  0
BLOCK_RECORD
  5
58
330
1
100
AcDbSymbolTableRecord
100
AcDbBlockTableRecord
  2
*Paper_Space
340
59
 70
     0
280
     1
281
     0
  0
BLOCK_RECORD
  5
5D
330
1
100
AcDbSymbolTableRecord
100
AcDbBlockTableRecord
  2
*Paper_Space0
340
5E
 70
     0
280
     1
281
     0
  0
BLOCK_RECORD
  5
230
330
1
100
AcDbSymbolTableRecord
100
AcDbBlockTableRecord
  2
*D1
340
0
 70
     0
280
     1
281
     0
  0
BLOCK_RECORD
  5
23D
330
1
100
AcDbSymbolTableRecord
100
AcDbBlockTableRecord
  2
*D2
340
0
 70
     0
280
     1
281
     0
  0
BLOCK_RECORD
  5
24A
330
1
100
AcDbSymbolTableRecord
100
AcDbBlockTableRecord
  2
*D3
340
0
 70
     0
280
     1
281
     0
  0
BLOCK_RECORD
  5
257
330
1
100
AcDbSymbolTableRecord
100
AcDbBlockTableRecord
  2
*D4
340
0
 70
     0
280
     1
281
     0
  0
BLOCK_RECORD
  5
3FE
330
1
100
AcDbSymbolTableRecord
100
AcDbBlockTableRecord
  2
*D6
340
0
 70
     0
280
     1
281
     0
  0
BLOCK_RECORD
  5
40B
330
1
100
AcDbSymbolTableRecord
100
AcDbBlockTableRecord
  2
*D7
340
0
 70
     0
280
     1
281
     0
  0
BLOCK_RECORD
  5
418
330
1
100
AcDbSymbolTableRecord
100
AcDbBlockTableRecord
  2
*D8
340
0
 70
     0
280
     1
281
     0
  0
BLOCK_RECORD
  5
425
330
1
100
AcDbSymbolTableRecord
100
AcDbBlockTableRecord
  2
*D9
340
0
 70
     0
280
     1
281
     0
  0
ENDTAB
  0
ENDSEC
  0
SECTION
  2
BLOCKS
  0
BLOCK
  5
20
330
1F
100
AcDbEntity
  8
0
100
AcDbBlockBegin
  2
*Model_Space
 70
     0
 10
0.0
 20
0.0
 30
0.0
  3
*Model_Space
  1

  0
ENDBLK
  5
21
330
1F
100
AcDbEntity
  8
0
100
AcDbBlockEnd
  0
BLOCK
  5
5A
330
58
100
AcDbEntity
 67
     1
  8
0
100
AcDbBlockBegin
  2
*Paper_Space
 70
     0
 10
0.0
 20
0.0
 30
0.0
  3
*Paper_Space
  1

  0
ENDBLK
  5
5B
330
58
100
AcDbEntity
 67
     1
  8
0
100
AcDbBlockEnd
  0
BLOCK
  5
5F
330
5D
100
AcDbEntity
 67
     1
  8
0
100
AcDbBlockBegin
  2
*Paper_Space0
 70
     0
 10
0.0
 20
0.0
 30
0.0
  3
*Paper_Space0
  1

  0
ENDBLK
  5
60
330
5D
100
AcDbEntity
 67
     1
  8
0
100
AcDbBlockEnd
  0
BLOCK
  5
231
330
230
100
AcDbEntity
  8
0
100
AcDbBlockBegin
  2
*D1
 70
     1
 10
0.0
 20
0.0
 30
0.0
  3
*D1
  1

  0
LINE
  5
232
330
230
100
AcDbEntity
  8
Notes
 62
     0
440
 16777216
370
    -2
100
AcDbLine
 10
29.57734055270848
 20
-1.153694504881917
 30
0.0
 11
29.57734055270848
 21
-0.8492530186903209
 31
0.0
  0
LINE
  5
233
330
230
100
AcDbEntity
  8
Notes
 62
     0
440
 16777216
370
    -2
100
AcDbLine
 10
29.53234055270847
 20
-1.153694504881917
 30
0.0
 11
29.53234055270847
 21
-0.8492530186903209
 31
0.0
  0
LINE
  5
234
330
230
100
AcDbEntity
  8
Notes
 62
     0
440
 16777216
370
    -2
100
AcDbLine
 10
29.61484055270848
 20
-0.8867530186903209
 30
0.0
 11
29.65234055270848
 21
-0.8867530186903209
 31
0.0
  0
LINE
  5
235
330
230
100
AcDbEntity
  8
Notes
 62
     0
440
 16777216
370
    -2
100
AcDbLine
 10
29.49484055270847
 20
-0.8867530186903209
 30
0.0
 11
29.20808376561216
 21
-0.8867530186903209
 31
0.0
  0
SOLID
  5
236
330
230
100
AcDbEntity
  8
Notes
 62
     0
440
 16777216
100
AcDbTrace
 10
29.61484055270848
 20
-0.8805030186903209
 30
0.0
 11
29.61484055270848
 21
-0.8930030186903209
 31
0.0
 12
29.57734055270848
 22
-0.8867530186903209
 32
0.0
 13
29.57734055270848
 23
-0.8867530186903209
 33
0.0
  0
SOLID
  5
237
330
230
100
AcDbEntity
  8
Notes
 62
     0
440
 16777216
100
AcDbTrace
 10
29.49484055270847
 20
-0.8805030186903209
 30
0.0
 11
29.49484055270847
 21
-0.8930030186903209
 31
0.0
 12
29.53234055270847
 22
-0.8867530186903209
 32
0.0
 13
29.53234055270847
 23
-0.8867530186903209
 33
0.0
  0
MTEXT
  5
238
330
230
100
AcDbEntity
  8
Notes
 62
     0
440
 16777216
100
AcDbMText
 10
29.19525781386255
 20
-0.8867530186903209
 30
0.0
 40
0.027
 41
0.352959965532154
 46
0.0
 71
     6
 72
     1
  1
\A1;1x 50 Ohm\PTransmission Line
  7
Arial
 73
     1
 44
1.0
  0
POINT
  5
239
330
230
100
AcDbEntity
  8
Defpoints
 62
     0
440
 16777216
100
AcDbPoint
 10
29.57734055270848
 20
-1.183694504881917
 30
0.0
  0
POINT
  5
23A
330
230
100
AcDbEntity
  8
Defpoints
 62
     0
440
 16777216
100
AcDbPoint
 10
29.53234055270847
 20
-1.183694504881917
 30
0.0
  0
POINT
  5
23B
330
230
100
AcDbEntity
  8
Defpoints
 62
     0
440
 16777216
100
AcDbPoint
 10
29.53234055270847
 20
-0.8867530186903209
 30
0.0
  0
ENDBLK
  5
23C
330
230
100
AcDbEntity
  8
0
100
AcDbBlockEnd
  0
BLOCK
  5
23E
330
23D
100
AcDbEntity
  8
0
100
AcDbBlockBegin
  2
*D2
 70
     1
 10
0.0
 20
0.0
 30
0.0
  3
*D2
  1

  0
LINE
  5
23F
330
23D
100
AcDbEntity
  8
Notes
 62
     0
440
 16777216
370
    -2
100
AcDbLine
 10
29.182829826961
 20
-2.546021825298038
 30
0.0
 11
29.182829826961
 21
-2.734148067142909
 31
0.0
  0
LINE
  5
240
330
23D
100
AcDbEntity
  8
Notes
 62
     0
440
 16777216
370
    -2
100
AcDbLine
 10
29.117829826961
 20
-2.546021825298033
 30
0.0
 11
29.117829826961
 21
-2.734148067142909
 31
0.0
  0
LINE
  5
241
330
23D
100
AcDbEntity
  8
Notes
 62
     0
440
 16777216
370
    -2
100
AcDbLine
 10
29.220329826961
 20
-2.696648067142909
 30
0.0
 11
29.257829826961
 21
-2.696648067142909
 31
0.0
  0
LINE
  5
242
330
23D
100
AcDbEntity
  8
Notes
 62
     0
440
 16777216
370
    -2
100
AcDbLine
 10
29.080329826961
 20
-2.696648067142909
 30
0.0
 11
28.98442221334776
 21
-2.696648067142909
 31
0.0
  0
SOLID
  5
243
330
23D
100
AcDbEntity
  8
Notes
 62
     0
440
 16777216
100
AcDbTrace
 10
29.220329826961
 20
-2.690398067142909
 30
0.0
 11
29.220329826961
 21
-2.702898067142909
 31
0.0
 12
29.182829826961
 22
-2.696648067142909
 32
0.0
 13
29.182829826961
 23
-2.696648067142909
 33
0.0
  0
SOLID
  5
244
330
23D
100
AcDbEntity
  8
Notes
 62
     0
440
 16777216
100
AcDbTrace
 10
29.080329826961
 20
-2.690398067142909
 30
0.0
 11
29.080329826961
 21
-2.702898067142909
 31
0.0
 12
29.117829826961
 22
-2.696648067142909
 32
0.0
 13
29.117829826961
 23
-2.696648067142909
 33
0.0
  0
MTEXT
  5
245
330
23D
100
AcDbEntity
  8
Notes
 62
     0
440
 16777216
100
AcDbMText
 10
28.97159626159814
 20
-2.696648067142909
 30
0.0
 40
0.027
 41
0.352959965532154
 46
0.0
 71
     6
 72
     1
  1
\A1;2x 25 Ohm\PTransmission Line
  7
Arial
 73
     1
 44
1.0
  0
POINT
  5
246
330
23D
100
AcDbEntity
  8
Defpoints
 62
     0
440
 16777216
100
AcDbPoint
 10
29.182829826961
 20
-2.516021825298039
 30
0.0
  0
POINT
  5
247
330
23D
100
AcDbEntity
  8
Defpoints
 62
     0
440
 16777216
100
AcDbPoint
 10
29.117829826961
 20
-2.516021825298033
 30
0.0
  0
POINT
  5
248
330
23D
100
AcDbEntity
  8
Defpoints
 62
     0
440
 16777216
100
AcDbPoint
 10
29.117829826961
 20
-2.696648067142909
 30
0.0
  0
ENDBLK
  5
249
330
23D
100
AcDbEntity
  8
0
100
AcDbBlockEnd
  0
BLOCK
  5
24B
330
24A
100
AcDbEntity
  8
0
100
AcDbBlockBegin
  2
*D3
 70
     1
 10
0.0
 20
0.0
 30
0.0
  3
*D3
  1

  0
LINE
  5
24C
330
24A
100
AcDbEntity
  8
Notes
 62
     0
440
 16777216
370
    -2
100
AcDbLine
 10
29.84280817809373
 20
-2.546021825298038
 30
0.0
 11
29.84280817809373
 21
-2.700274201710796
 31
0.0
  0
LINE
  5
24D
330
24A
100
AcDbEntity
  8
Notes
 62
     0
440
 16777216
370
    -2
100
AcDbLine
 10
29.87680817809377
 20
-2.541652382456283
 30
0.0
 11
29.87680817809377
 21
-2.700274201710796
 31
0.0
  0
LINE
  5
24E
330
24A
100
AcDbEntity
  8
Notes
 62
     0
440
 16777216
370
    -2
100
AcDbLine
 10
29.91430817809377
 20
-2.662774201710796
 30
0.0
 11
29.95180817809377
 21
-2.662774201710796
 31
0.0
  0
LINE
  5
24F
330
24A
100
AcDbEntity
  8
Notes
 62
     0
440
 16777216
370
    -2
100
AcDbLine
 10
29.80530817809373
 20
-2.662774201710796
 30
0.0
 11
29.72884946675423
 21
-2.662774201710796
 31
0.0
  0
SOLID
  5
250
330
24A
100
AcDbEntity
  8
Notes
 62
     0
440
 16777216
100
AcDbTrace
 10
29.91430817809377
 20
-2.656524201710796
 30
0.0
 11
29.91430817809377
 21
-2.669024201710796
 31
0.0
 12
29.87680817809377
 22
-2.662774201710796
 32
0.0
 13
29.87680817809377
 23
-2.662774201710796
 33
0.0
  0
SOLID
  5
251
330
24A
100
AcDbEntity
  8
Notes
 62
     0
440
 16777216
100
AcDbTrace
 10
29.80530817809373
 20
-2.656524201710796
 30
0.0
 11
29.80530817809373
 21
-2.669024201710796
 31
0.0
 12
29.84280817809373
 22
-2.662774201710796
 32
0.0
 13
29.84280817809373
 23
-2.662774201710796
 33
0.0
  0
MTEXT
  5
252
330
24A
100
AcDbEntity
  8
Notes
 62
     0
440
 16777216
100
AcDbMText
 10
29.75894496308237
 20
-2.662774201710796
 30
0.0
 40
0.027
 41
0.5206316474993891
 46
0.0
 71
     6
 72
     1
  1
\A1;4x 25 Ohm\PTransmission Line Gap
  7
Arial
 73
     1
 44
1.0
  0
POINT
  5
253
330
24A
100
AcDbEntity
  8
Defpoints
 62
     0
440
 16777216
100
AcDbPoint
 10
29.84280817809373
 20
-2.516021825298039
 30
0.0
  0
POINT
  5
254
330
24A
100
AcDbEntity
  8
Defpoints
 62
     0
440
 16777216
100
AcDbPoint
 10
29.87680817809377
 20
-2.511652382456283
 30
0.0
  0
POINT
  5
255
330
24A
100
AcDbEntity
  8
Defpoints
 62
     0
440
 16777216
100
AcDbPoint
 10
29.87680817809377
 20
-2.662774201710796
 30
0.0
  0
ENDBLK
  5
256
330
24A
100
AcDbEntity
  8
0
100
AcDbBlockEnd
  0
BLOCK
  5
258
330
257
100
AcDbEntity
  8
0
100
AcDbBlockBegin
  2
*D4
 70
     1
 10
0.0
 20
0.0
 30
0.0
  3
*D4
  1

  0
LINE
  5
259
330
257
100
AcDbEntity
  8
Notes
 62
     0
440
 16777216
370
    -2
100
AcDbLine
 10
29.57734055270848
 20
-1.153694504881903
 30
0.0
 11
29.57734055270848
 21
-0.9824122472973058
 31
0.0
  0
LINE
  5
25A
330
257
100
AcDbEntity
  8
Notes
 62
     0
440
 16777216
370
    -2
100
AcDbLine
 10
29.60870096302551
 20
-1.183940993567533
 30
0.0
 11
29.60870096302551
 21
-0.9824122472973058
 31
0.0
  0
LINE
  5
25B
330
257
100
AcDbEntity
  8
Notes
 62
     0
440
 16777216
370
    -2
100
AcDbLine
 10
29.53984055270847
 20
-1.019912247297305
 30
0.0
 11
29.50234055270848
 21
-1.019912247297305
 31
0.0
  0
LINE
  5
25C
330
257
100
AcDbEntity
  8
Notes
 62
     0
440
 16777216
370
    -2
100
AcDbLine
 10
29.64620096302552
 20
-1.019912247297305
 30
0.0
 11
29.7253405527085
 21
-1.019912247297305
 31
0.0
  0
SOLID
  5
25D
330
257
100
AcDbEntity
  8
Notes
 62
     0
440
 16777216
100
AcDbTrace
 10
29.53984055270847
 20
-1.013662247297305
 30
0.0
 11
29.53984055270847
 21
-1.026162247297305
 31
0.0
 12
29.57734055270848
 22
-1.019912247297305
 32
0.0
 13
29.57734055270848
 23
-1.019912247297305
 33
0.0
  0
SOLID
  5
25E
330
257
100
AcDbEntity
  8
Notes
 62
     0
440
 16777216
100
AcDbTrace
 10
29.64620096302552
 20
-1.013662247297305
 30
0.0
 11
29.64620096302552
 21
-1.026162247297305
 31
0.0
 12
29.60870096302551
 22
-1.019912247297305
 32
0.0
 13
29.60870096302551
 23
-1.019912247297305
 33
0.0
  0
MTEXT
  5
25F
330
257
100
AcDbEntity
  8
Notes
 62
     0
440
 16777216
100
AcDbMText
 10
30.21587670387975
 20
-1.019912247297305
 30
0.0
 40
0.027
 41
0.5206316474993891
 46
0.0
 71
     6
 72
     1
  1
\A1;2x 50 Ohm\PTransmission Line Gap
  7
Arial
 73
     1
 44
1.0
  0
POINT
  5
260
330
257
100
AcDbEntity
  8
Defpoints
 62
     0
440
 16777216
100
AcDbPoint
 10
29.57734055270848
 20
-1.183694504881903
 30
0.0
  0
POINT
  5
261
330
257
100
AcDbEntity
  8
Defpoints
 62
     0
440
 16777216
100
AcDbPoint
 10
29.60870096302551
 20
-1.213940993567533
 30
0.0
  0
POINT
  5
262
330
257
100
AcDbEntity
  8
Defpoints
 62
     0
440
 16777216
100
AcDbPoint
 10
29.60870096302551
 20
-1.019912247297305
 30
0.0
  0
ENDBLK
  5
263
330
257
100
AcDbEntity
  8
0
100
AcDbBlockEnd
  0
BLOCK
  5
3FF
330
3FE
100
AcDbEntity
  8
0
100
AcDbBlockBegin
  2
*D6
 70
     1
 10
0.0
 20
0.0
 30
0.0
  3
*D6
  1

  0
LINE
  5
432
330
3FE
100
AcDbEntity
  8
Notes
 62
     0
440
 16777216
370
    -2
100
AcDbLine
 10
0.0676378351435112
 20
0.7255272755078089
 30
0.0
 11
0.0676378351435112
 21
1.029968761699405
 31
0.0
  0
LINE
  5
433
330
3FE
100
AcDbEntity
  8
Notes
 62
     0
440
 16777216
370
    -2
100
AcDbLine
 10
0.0226378351435095
 20
0.7255272755078089
 30
0.0
 11
0.0226378351435095
 21
1.029968761699405
 31
0.0
  0
LINE
  5
434
330
3FE
100
AcDbEntity
  8
Notes
 62
     0
440
 16777216
370
    -2
100
AcDbLine
 10
0.1051378351435112
 20
0.9924687616994054
 30
0.0
 11
0.1426378351435112
 21
0.9924687616994054
 31
0.0
  0
LINE
  5
435
330
3FE
100
AcDbEntity
  8
Notes
 62
     0
440
 16777216
370
    -2
100
AcDbLine
 10
-0.0148621648564905
 20
0.9924687616994054
 30
0.0
 11
-0.3016189519528058
 21
0.9924687616994054
 31
0.0
  0
SOLID
  5
436
330
3FE
100
AcDbEntity
  8
Notes
 62
     0
440
 16777216
100
AcDbTrace
 10
0.1051378351435112
 20
0.9987187616994054
 30
0.0
 11
0.1051378351435112
 21
0.9862187616994054
 31
0.0
 12
0.0676378351435112
 22
0.9924687616994054
 32
0.0
 13
0.0676378351435112
 23
0.9924687616994054
 33
0.0
  0
SOLID
  5
437
330
3FE
100
AcDbEntity
  8
Notes
 62
     0
440
 16777216
100
AcDbTrace
 10
-0.0148621648564905
 20
0.9987187616994054
 30
0.0
 11
-0.0148621648564905
 21
0.9862187616994054
 31
0.0
 12
0.0226378351435095
 22
0.9924687616994054
 32
0.0
 13
0.0226378351435095
 23
0.9924687616994054
 33
0.0
  0
MTEXT
  5
438
330
3FE
100
AcDbEntity
  8
Notes
 62
     0
440
 16777216
100
AcDbMText
 10
-0.3144449037024177
 20
0.9924687616994054
 30
0.0
 40
0.027
 41
0.352959965532154
 46
0.0
 71
     6
 72
     1
  1
\A1;1x 50 Ohm\PTransmission Line
  7
Arial
 73
     1
 44
1.0
  0
POINT
  5
439
330
3FE
100
AcDbEntity
  8
Defpoints
 62
     0
440
 16777216
100
AcDbPoint
 10
0.0676378351435112
 20
0.6955272755078088
 30
0.0
  0
POINT
  5
43A
330
3FE
100
AcDbEntity
  8
Defpoints
 62
     0
440
 16777216
100
AcDbPoint
 10
0.0226378351435095
 20
0.6955272755078088
 30
0.0
  0
POINT
  5
43B
330
3FE
100
AcDbEntity
  8
Defpoints
 62
     0
440
 16777216
100
AcDbPoint
 10
0.0226378351435095
 20
0.9924687616994054
 30
0.0
  0
ENDBLK
  5
400
330
3FE
100
AcDbEntity
  8
0
100
AcDbBlockEnd
  0
BLOCK
  5
40C
330
40B
100
AcDbEntity
  8
0
100
AcDbBlockBegin
  2
*D7
 70
     1
 10
0.0
 20
0.0
 30
0.0
  3
*D7
  1

  0
LINE
  5
43C
330
40B
100
AcDbEntity
  8
Notes
 62
     0
440
 16777216
370
    -2
100
AcDbLine
 10
-0.3268728906039655
 20
-0.6668000449083128
 30
0.0
 11
-0.3268728906039655
 21
-0.8549262867531831
 31
0.0
  0
LINE
  5
43D
330
40B
100
AcDbEntity
  8
Notes
 62
     0
440
 16777216
370
    -2
100
AcDbLine
 10
-0.3918728906039668
 20
-0.6668000449083074
 30
0.0
 11
-0.3918728906039668
 21
-0.8549262867531831
 31
0.0
  0
LINE
  5
43E
330
40B
100
AcDbEntity
  8
Notes
 62
     0
440
 16777216
370
    -2
100
AcDbLine
 10
-0.2893728906039655
 20
-0.8174262867531831
 30
0.0
 11
-0.2518728906039655
 21
-0.8174262867531831
 31
0.0
  0
LINE
  5
43F
330
40B
100
AcDbEntity
  8
Notes
 62
     0
440
 16777216
370
    -2
100
AcDbLine
 10
-0.4293728906039668
 20
-0.8174262867531831
 30
0.0
 11
-0.5252805042172089
 21
-0.8174262867531831
 31
0.0
  0
SOLID
  5
440
330
40B
100
AcDbEntity
  8
Notes
 62
     0
440
 16777216
100
AcDbTrace
 10
-0.2893728906039655
 20
-0.8111762867531831
 30
0.0
 11
-0.2893728906039655
 21
-0.8236762867531831
 31
0.0
 12
-0.3268728906039655
 22
-0.8174262867531831
 32
0.0
 13
-0.3268728906039655
 23
-0.8174262867531831
 33
0.0
  0
SOLID
  5
441
330
40B
100
AcDbEntity
  8
Notes
 62
     0
440
 16777216
100
AcDbTrace
 10
-0.4293728906039668
 20
-0.8111762867531831
 30
0.0
 11
-0.4293728906039668
 21
-0.8236762867531831
 31
0.0
 12
-0.3918728906039668
 22
-0.8174262867531831
 32
0.0
 13
-0.3918728906039668
 23
-0.8174262867531831
 33
0.0
  0
MTEXT
  5
442
330
40B
100
AcDbEntity
  8
Notes
 62
     0
440
 16777216
100
AcDbMText
 10
-0.5381064559668208
 20
-0.8174262867531831
 30
0.0
 40
0.027
 41
0.352959965532154
 46
0.0
 71
     6
 72
     1
  1
\A1;2x 25 Ohm\PTransmission Line
  7
Arial
 73
     1
 44
1.0
  0
POINT
  5
443
330
40B
100
AcDbEntity
  8
Defpoints
 62
     0
440
 16777216
100
AcDbPoint
 10
-0.3268728906039655
 20
-0.6368000449083127
 30
0.0
  0
POINT
  5
444
330
40B
100
AcDbEntity
  8
Defpoints
 62
     0
440
 16777216
100
AcDbPoint
 10
-0.3918728906039668
 20
-0.6368000449083074
 30
0.0
  0
POINT
  5
445
330
40B
100
AcDbEntity
  8
Defpoints
 62
     0
440
 16777216
100
AcDbPoint
 10
-0.3918728906039668
 20
-0.8174262867531831
 30
0.0
  0
ENDBLK
  5
40D
330
40B
100
AcDbEntity
  8
0
100
AcDbBlockEnd
  0
BLOCK
  5
419
330
418
100
AcDbEntity
  8
0
100
AcDbBlockBegin
  2
*D8
 70
     1
 10
0.0
 20
0.0
 30
0.0
  3
*D8
  1

  0
LINE
  5
446
330
418
100
AcDbEntity
  8
Notes
 62
     0
440
 16777216
370
    -2
100
AcDbLine
 10
0.3331054605287598
 20
-0.6668000449083128
 30
0.0
 11
0.3331054605287598
 21
-0.8210524213210698
 31
0.0
  0
LINE
  5
447
330
418
100
AcDbEntity
  8
Notes
 62
     0
440
 16777216
370
    -2
100
AcDbLine
 10
0.3671054605287978
 20
-0.662430602066557
 30
0.0
 11
0.3671054605287978
 21
-0.8210524213210698
 31
0.0
  0
LINE
  5
448
330
418
100
AcDbEntity
  8
Notes
 62
     0
440
 16777216
370
    -2
100
AcDbLine
 10
0.4046054605287978
 20
-0.7835524213210699
 30
0.0
 11
0.4421054605287978
 21
-0.7835524213210699
 31
0.0
  0
LINE
  5
449
330
418
100
AcDbEntity
  8
Notes
 62
     0
440
 16777216
370
    -2
100
AcDbLine
 10
0.2956054605287598
 20
-0.7835524213210699
 30
0.0
 11
0.2191467491892669
 21
-0.7835524213210699
 31
0.0
  0
SOLID
  5
44A
330
418
100
AcDbEntity
  8
Notes
 62
     0
440
 16777216
100
AcDbTrace
 10
0.4046054605287978
 20
-0.7773024213210699
 30
0.0
 11
0.4046054605287978
 21
-0.7898024213210699
 31
0.0
 12
0.3671054605287978
 22
-0.7835524213210699
 32
0.0
 13
0.3671054605287978
 23
-0.7835524213210699
 33
0.0
  0
SOLID
  5
44B
330
418
100
AcDbEntity
  8
Notes
 62
     0
440
 16777216
100
AcDbTrace
 10
0.2956054605287598
 20
-0.7773024213210699
 30
0.0
 11
0.2956054605287598
 21
-0.7898024213210699
 31
0.0
 12
0.3331054605287598
 22
-0.7835524213210699
 32
0.0
 13
0.3331054605287598
 23
-0.7835524213210699
 33
0.0
  0
MTEXT
  5
44C
330
418
100
AcDbEntity
  8
Notes
 62
     0
440
 16777216
100
AcDbMText
 10
0.2492422455174061
 20
-0.7835524213210699
 30
0.0
 40
0.027
 41
0.5206316474993891
 46
0.0
 71
     6
 72
     1
  1
\A1;4x 25 Ohm\PTransmission Line Gap
  7
Arial
 73
     1
 44
1.0
  0
POINT
  5
44D
330
418
100
AcDbEntity
  8
Defpoints
 62
     0
440
 16777216
100
AcDbPoint
 10
0.3331054605287598
 20
-0.6368000449083127
 30
0.0
  0
POINT
  5
44E
330
418
100
AcDbEntity
  8
Defpoints
 62
     0
440
 16777216
100
AcDbPoint
 10
0.3671054605287978
 20
-0.6324306020665569
 30
0.0
  0
POINT
  5
44F
330
418
100
AcDbEntity
  8
Defpoints
 62
     0
440
 16777216
100
AcDbPoint
 10
0.3671054605287978
 20
-0.7835524213210699
 30
0.0
  0
ENDBLK
  5
41A
330
418
100
AcDbEntity
  8
0
100
AcDbBlockEnd
  0
BLOCK
  5
426
330
425
100
AcDbEntity
  8
0
100
AcDbBlockBegin
  2
*D9
 70
     1
 10
0.0
 20
0.0
 30
0.0
  3
*D9
  1

  0
LINE
  5
450
330
425
100
AcDbEntity
  8
Notes
 62
     0
440
 16777216
370
    -2
100
AcDbLine
 10
0.0676378351435112
 20
0.7255272755078231
 30
0.0
 11
0.0676378351435112
 21
0.8968095330924205
 31
0.0
  0
LINE
  5
451
330
425
100
AcDbEntity
  8
Notes
 62
     0
440
 16777216
370
    -2
100
AcDbLine
 10
0.0989982454605461
 20
0.6952807868221934
 30
0.0
 11
0.0989982454605461
 21
0.8968095330924205
 31
0.0
  0
LINE
  5
452
330
425
100
AcDbEntity
  8
Notes
 62
     0
440
 16777216
370
    -2
100
AcDbLine
 10
0.0301378351435112
 20
0.8593095330924205
 30
0.0
 11
-0.0073621648564888
 21
0.8593095330924205
 31
0.0
  0
LINE
  5
453
330
425
100
AcDbEntity
  8
Notes
 62
     0
440
 16777216
370
    -2
100
AcDbLine
 10
0.136498245460546
 20
0.8593095330924205
 30
0.0
 11
0.2156378351435327
 21
0.8593095330924205
 31
0.0
  0
SOLID
  5
454
330
425
100
AcDbEntity
  8
Notes
 62
     0
440
 16777216
100
AcDbTrace
 10
0.0301378351435112
 20
0.8655595330924205
 30
0.0
 11
0.0301378351435112
 21
0.8530595330924205
 31
0.0
 12
0.0676378351435112
 22
0.8593095330924205
 32
0.0
 13
0.0676378351435112
 23
0.8593095330924205
 33
0.0
  0
SOLID
  5
455
330
425
100
AcDbEntity
  8
Notes
 62
     0
440
 16777216
100
AcDbTrace
 10
0.136498245460546
 20
0.8655595330924205
 30
0.0
 11
0.136498245460546
 21
0.8530595330924205
 31
0.0
 12
0.0989982454605461
 22
0.8593095330924205
 32
0.0
 13
0.0989982454605461
 23
0.8593095330924205
 33
0.0
  0
MTEXT
  5
456
330
425
100
AcDbEntity
  8
Notes
 62
     0
440
 16777216
100
AcDbMText
 10
0.7061739863147825
 20
0.8593095330924205
 30
0.0
 40
0.027
 41
0.5206316474993891
 46
0.0
 71
     6
 72
     1
  1
\A1;2x 50 Ohm\PTransmission Line Gap
  7
Arial
 73
     1
 44
1.0
  0
POINT
  5
457
330
425
100
AcDbEntity
  8
Defpoints
 62
     0
440
 16777216
100
AcDbPoint
 10
0.0676378351435112
 20
0.695527275507823
 30
0.0
  0
POINT
  5
458
330
425
100
AcDbEntity
  8
Defpoints
 62
     0
440
 16777216
100
AcDbPoint
 10
0.0989982454605461
 20
0.6652807868221933
 30
0.0
  0
POINT
  5
459
330
425
100
AcDbEntity
  8
Defpoints
 62
     0
440
 16777216
100
AcDbPoint
 10
0.0989982454605461
 20
0.8593095330924205
 30
0.0
  0
ENDBLK
  5
427
330
425
100
AcDbEntity
  8
0
100
AcDbBlockEnd
  0
ENDSEC
  0
SECTION
  2
ENTITIES
  0
LWPOLYLINE
  5
33F
330
1F
100
AcDbEntity
  8
Component_Outline
100
AcDbPolyline
 90
       24
 70
     1
 43
0.0
 10
0.3656378351444331
 20
0.3645509565058385
 10
0.3656378351444331
 20
-0.0959775176445481
 42
0.3936109468349859
 10
0.3656378351444331
 20
-0.1798166493201441
 10
0.3656378351444331
 20
-0.315974203417503
 42
0.1985010364767537
 10
0.3566846886805806
 20
-0.3371370834826513
 10
0.2671933381980267
 20
-0.3371370834826655
 42
0.2015127546084039
 10
0.2457690529136585
 20
-0.3461370834813797
 10
0.0875574009805185
 20
-0.3461370834813797
 42
0.3936109468171583
 10
0.0037182693077007
 20
-0.3461370834813797
 10
-0.0624225990194844
 20
-0.3461370834813797
 42
0.3936109468171583
 10
-0.1462617306922986
 20
-0.3461370834813797
 10
-0.3045562856180837
 20
-0.3461370834813797
 42
0.2015127546084394
 10
-0.3259805709024555
 20
-0.3371370834826655
 10
-0.415476532334349
 20
-0.3371370834826513
 42
0.1993688312586308
 10
-0.4243621648555625
 20
-0.3159460078252598
 10
-0.4243621648555625
 20
-0.1798381087436658
 42
0.3938864130464558
 10
-0.4243621648555625
 20
-0.0959560582210335
 10
-0.4243621648555625
 20
0.3643790338962143
 42
0.1795792728607788
 10
-0.407852998872901
 20
0.4038629165186203
 10
-0.1345586820677482
 20
0.4038629165186203
 42
0.9205043423739887
 10
-0.0742656476440331
 20
0.4038629165186203
 10
0.015491317932252
 20
0.4038629165186203
 42
0.9205043423739887
 10
0.0757843523559672
 20
0.4038629165186203
 10
0.349288669161119
 20
0.4038629165186203
 42
0.1785939534988935
  0
CIRCLE
  5
340
330
1F
100
AcDbEntity
  8
Component_Outline
100
AcDbCircle
 10
0.165637835143535
 20
0.3728629165186037
 30
0.0
 40
0.01
  0
LWPOLYLINE
  5
341
330
1F
100
AcDbEntity
  8
PCB_Top
100
AcDbPolyline
 90
        5
 70
     1
 43
0.0
 10
0.0676378351435112
 20
0.695527275507823
 10
0.0676378351435112
 20
0.4138629165186183
 10
0.0226378351435095
 20
0.4138629165186183
 10
0.0226378351435095
 20
0.695527275507823
 42
-0.6578187733730747
 10
0.0455155936876324
 20
0.695527275507823
 42
0.7115521451456692
  0
LWPOLYLINE
  5
342
330
1F
100
AcDbEntity
  8
PCB_Top
100
AcDbPolyline
 90
        5
 70
     1
 43
0.0
 10
-0.3918836163523807
 20
-0.6368014424712385
 10
-0.3918836163523807
 20
-0.3551370834820338
 10
-0.3268836163523794
 20
-0.3551370834820338
 10
-0.3268836163523794
 20
-0.6368014424712385
 42
-0.4813247739323174
 10
-0.3588752047391566
 20
-0.6396971415335475
 42
0.3836105632872154
  0
DIMENSION
  5
343
330
1F
100
AcDbEntity
  8
Notes
 62
     7
100
AcDbDimension
280
     0
  2
*D6
 10
0.0226378351435095
 20
0.9924687616994054
 30
0.0
 11
-0.4909248864684948
 21
0.9924687616994054
 31
0.0
 70
   160
  1
1x 50 Ohm\PTransmission Line
 71
     6
 42
0.0450000000000017
 73
     0
 74
     0
 75
     0
  3
Mounting
100
AcDbAlignedDimension
 13
0.0676378351435112
 23
0.6955272755078088
 33
0.0
 14
0.0226378351435095
 24
0.6955272755078088
 34
0.0
100
AcDbRotatedDimension
1001
ACAD
1000
DSTYLE
1002
{
1070
    41
1040
0.25
1070
    42
1040
0.2
1070
    44
1040
0.25
1070
   140
1040
0.18
1070
   147
1040
0.25
1002
}
  0
DIMENSION
  5
344
330
1F
100
AcDbEntity
  8
Notes
 62
     7
100
AcDbDimension
280
     0
  2
*D7
 10
-0.3918728906039668
 20
-0.8174262867531831
 30
0.0
 11
-0.7145864387328978
 21
-0.8174262867531831
 31
0.0
 70
   160
  1
2x 25 Ohm\PTransmission Line
 71
     6
 42
0.0650000000000013
 73
     0
 74
     0
 75
     0
  3
Mounting
100
AcDbAlignedDimension
 13
-0.3268728906039655
 23
-0.6368000449083127
 33
0.0
 14
-0.3918728906039668
 24
-0.6368000449083074
 34
0.0
100
AcDbRotatedDimension
1001
ACAD
1000
DSTYLE
1002
{
1070
    41
1040
0.25
1070
    42
1040
0.2
1070
    44
1040
0.25
1070
   140
1040
0.18
1070
   147
1040
0.25
1002
}
  0
MULTILEADER
  5
345
330
1F
100
AcDbEntity
  8
Notes
160
               852
310
54030000190000000C00000016000000000000C00C00000033000000000000000C00000013000000993A0000D8000000260000002A8527FEF922EB3F46020C62971FB0BF000000000000000000000000000000000000000000000000000000000000F03F000000000000F03F0000000000000000000000000000000050006C
310
00610074006500640020005400680072007500200048006F006C006500200054006F00000013000000010000009A9999999999993F000000000000F03F0000000000000000000000000000F03F00000000000000000000000000000000000000000000000000000000010000002200000041007200690061006C0000000000
310
000000000000B8000000260000003B0D4C63D229EB3F71F2C3AE32E6BABF000000000000000000000000000000000000000000000000000000000000F03F000000000000F03F0000000000000000000000000000000047004E004400000003000000010000009A9999999999993F000000000000F03F000000000000000000
310
0000000000F03F00000000000000000000000000000000000000000000000000000000010000002200000041007200690061006C00000000005C00000000000C00000033000000000000000C00000010000000030000000C00000016000000000000C00C00000012000000FF7F00000C00000013000000010000000C000000
310
1400000001000000540000000700000003000000E1D4CE8D95E2DE3F79BC1982C618D6BF0000000000000000C0BC6EBE3EA6DD3FF8087F04C725D7BF0000000000000000AFC155AB3D7ADE3F4CE20D38B8C0D5BF00000000000000000C00000014000000010000000C00000013000000891300003C00000006000000020000
310
00484B929C69AEDE3F62CF135DBFECD5BF0000000000000000C0C3A7920C39E73FC0E3BEFFB8F4A9BF00000000000000000C00000013000000112700003C0000000600000002000000C0C3A7920C39E73FC0E3BEFFB8F4A9BF0000000000000000F3F6DAC53F6CEA3FC0E3BEFFB8F4A9BF00000000000000000C0000001600
310
0000000000C00C00000012000000FF7F00000C00000017000000000000000C000000130000009A3A00000C00000016000000000000C00C00000012000000FF7F00000C00000017000000FFFFFFFF0C0000003300000000000000
100
AcDbMLeader
270
     2
300
CONTEXT_DATA{
 40
1.0
 10
0.8257140030252386
 20
-0.050695210665658
 30
0.0
 41
0.025
140
0.025
145
0.025
174
     1
175
     1
176
     0
177
     0
290
     1
304
Plated Thru Hole To GND
 11
0.0
 21
0.0
 31
1.0
340
DC
 12
0.8507140030252386
 22
-0.0379820455906237
 32
0.0
 13
1.0
 23
0.0
 33
0.0
 42
0.0
 43
0.3698292346132204
 44
0.0
 45
1.0
170
     1
 90
-1073741824
171
     1
172
     5
 91
-1073741824
141
0.0
 92
        0
291
     0
292
     0
173
     0
293
     0
142
0.0
143
0.0
294
     0
295
     0
296
     0
110
0.6117857901614059
120
0.2533734439318933
130
0.0
111
1.0
121
0.0
131
0.0
112
0.0
122
1.0
132
0.0
297
     0
302
LEADER{
290
     1
291
     1
 10
0.7257140030252387
 20
-0.050695210665658
 30
0.0
 11
1.0
 21
0.0
 31
0.0
 90
        0
 40
0.1
304
LEADER_LINE{
 10
0.4632717952435535
 20
-0.3616807502659323
 30
0.0
 91
        0
305
}
271
     0
303
}
272
     9
273
     9
301
}
340
277
 90
   345632
170
     1
 91
-1056964608
341
14
171
    -2
290
     1
291
     1
 41
0.1
 42
0.025
172
     2
343
DC
173
     1
 95
        1
174
     1
175
     0
 92
-1056964608
292
     0
 93
-1056964608
 10
1.0
 20
1.0
 30
1.0
 43
0.0
176
     0
293
     0
294
     0
178
     0
179
     1
 45
1.0
271
     0
272
     9
273
     9
295
     0
  0
DIMENSION
  5
346
330
1F
100
AcDbEntity
  8
Notes
 62
     7
100
AcDbDimension
280
     0
  2
*D8
 10
0.3671054605287978
 20
-0.7835524213210699
 30
0.0
 11
-0.0110735782322884
 21
-0.7835524213210699
 31
0.0
 70
   160
  1
4x 25 Ohm\PTransmission Line Gap
 71
     6
 42
0.034000000000038
 73
     0
 74
     0
 75
     0
  3
Mounting
100
AcDbAlignedDimension
 13
0.3331054605287598
 23
-0.6368000449083127
 33
0.0
 14
0.3671054605287978
 24
-0.6324306020665569
 34
0.0
 50
180.0
100
AcDbRotatedDimension
1001
ACAD
1000
DSTYLE
1002
{
1070
    41
1040
0.25
1070
    42
1040
0.2
1070
    44
1040
0.25
1070
   140
1040
0.18
1070
   147
1040
0.25
1002
}
  0
DIMENSION
  5
347
330
1F
100
AcDbEntity
  8
Notes
 62
     7
100
AcDbDimension
280
     0
  2
*D9
 10
0.0989982454605461
 20
0.8593095330924205
 30
0.0
 11
0.445858162565088
 21
0.8593095330924205
 31
0.0
 70
   160
  1
2x 50 Ohm\PTransmission Line Gap
 71
     6
 42
0.0313604103170349
 73
     0
 74
     0
 75
     0
  3
Mounting
100
AcDbAlignedDimension
 13
0.0676378351435112
 23
0.695527275507823
 33
0.0
 14
0.0989982454605461
 24
0.6652807868221933
 34
0.0
 50
180.0
100
AcDbRotatedDimension
1001
ACAD
1000
DSTYLE
1002
{
1070
    41
1040
0.25
1070
    42
1040
0.2
1070
    44
1040
0.25
1070
   140
1040
0.18
1070
   147
1040
0.25
1002
}
  0
MTEXT
  5
348
102
{ACAD_XDICTIONARY
360
349
102
}
330
1F
100
AcDbEntity
  8
Notes
100
AcDbMText
 10
0.1534771414080644
 20
-1.465182106084568
 30
0.0
 40
0.024
 41
2.020470711610352
 46
0.0
 71
     5
 72
     5
  3
\pxi-3,l4,ql,t4;{\fArial|b0|i0|c0|p34;\W1;\C7;1.^IThe component has been designed and qualified with this mounting footprint with a 0.030" test board with Dk value of approximately 3.5 comprised of commonly used board substrate materials such as RO435
  3
0 and Isola I-tera MT40. Deviations from the recommended mounting footprint may reduce RF and power handling performance. It is the customer's responsibility to qualify the component in the end application. \P\pi1,l0,tz;\P\pi-3,l4,t4;2.^I1x 50 ohm and
  3
 2x 25 ohm transmission lines are for reference only and can be oriented in any direction. Customer to determine transmission line and gap dimensions to achieve 50 and 25 ohm impedance for end application. \P\pi1,l0,tz;\P\pi-3,l4,t4;3.^ITo ensure prop
  3
er electrical and thermal performance there must be a ground plane with 100% solder connection underneath the part orientated as shown with text facing up.\P\pi1,l0,tz;\P\pi-3,l4,t4;4.^IPTH connecting pads to ground are representative. \P\pi1,l0,tz;\P
  3
\pi-3,l4,t4;5.^IGround vias under part should be filled to prevent solder wicking.\P\pi1,l0,tz;\P\pi-3,l4,t4;6.^ISolder mask and solder stencil dimensions may vary due to different manufacturer capabilities and process variations. Layers may be modifie
  1
d to account for manufacturer capabilities.\P\pi1,l0,tz;\P\pi-3,l4,t4;7.^IDimensions are in inches.\P\pi1,l0,tz;\P\pqr;XMB0810G3-5050G_Mounting_Footprint_250819.dxf}
  7
RomanS
 73
     1
 44
1.0
101
Embedded Object
 70
     5
 10
1.0
 20
0.0
 30
0.0
 11
0.1534771414080644
 21
-1.465182106084568
 31
0.0
 40
2.020470711610352
 41
0.0
 42
1.97088130968622
 43
0.8359836289222375
 71
     2
 72
     1
 44
2.020470711610352
 45
0.375
 73
     0
 74
     0
 46
1.035285266794354
1001
AcadAnnotative
1000
AnnotativeData
1002
{
1070
     1
1070
     0
1002
}
  0
LWPOLYLINE
  5
34C
330
1F
100
AcDbEntity
  8
PCB_Land_Pattern
100
AcDbPolyline
 90
        4
 70
     1
 43
0.0
 10
0.1056378351435114
 20
0.4138629165186183
 10
0.1056378351435114
 20
0.343862916518618
 10
-0.0153621648564908
 20
0.343862916518618
 10
-0.0153621648564908
 20
0.4138629165186183
  0
LWPOLYLINE
  5
34D
330
1F
100
AcDbEntity
  8
PCB_Solder_Mask
100
AcDbPolyline
 90
        4
 70
     1
 43
0.0
 10
0.1076378351435103
 20
0.4158629165186181
 10
0.1076378351435103
 20
0.3418629165186182
 10
-0.0173621648564897
 20
0.3418629165186182
 10
-0.0173621648564897
 20
0.4158629165186181
  0
LWPOLYLINE
  5
34E
330
1F
100
AcDbEntity
  8
PCB_Land_Pattern
100
AcDbPolyline
 90
        4
 70
     1
 43
0.0
 10
-0.294383616352377
 20
-0.3551370834820338
 10
-0.294383616352377
 20
-0.3061370834820343
 10
-0.4243836163523796
 20
-0.3061370834820343
 10
-0.4243836163523796
 20
-0.3551370834820338
  0
LWPOLYLINE
  5
34F
330
1F
100
AcDbEntity
  8
PCB_Solder_Mask
100
AcDbPolyline
 90
        4
 70
     1
 43
0.0
 10
-0.2923836163523781
 20
-0.3571370834820335
 10
-0.2923836163523781
 20
-0.3041370834820345
 10
-0.4263836163523785
 20
-0.3041370834820345
 10
-0.4263836163523785
 20
-0.3571370834820335
  0
LWPOLYLINE
  5
350
330
1F
100
AcDbEntity
  8
PCB_Land_Pattern
100
AcDbPolyline
 90
        4
 70
     1
 43
0.0
 10
0.2356054605287596
 20
-0.3551370834820338
 10
0.2356054605287596
 20
-0.3061370834820343
 10
0.3656054605287551
 20
-0.3061370834820343
 10
0.3656054605287551
 20
-0.3551370834820338
  0
LWPOLYLINE
  5
351
330
1F
100
AcDbEntity
  8
PCB_Solder_Mask
100
AcDbPolyline
 90
        4
 70
     1
 43
0.0
 10
0.2336054605287607
 20
-0.3571370834820335
 10
0.2336054605287607
 20
-0.3041370834820345
 10
0.367605460528754
 20
-0.3041370834820345
 10
0.367605460528754
 20
-0.3571370834820335
  0
LWPOLYLINE
  5
352
330
1F
100
AcDbEntity
  8
Component_Pads
100
AcDbPolyline
 90
       11
 70
     1
 43
0.0
 10
0.2355536913327114
 20
-0.3461370834813797
 42
-0.0512265874025458
 10
0.2404843826627001
 20
-0.3401370834820403
 10
0.2356054605287596
 20
-0.3401370834820403
 10
0.2356054605287596
 20
-0.3061370834820343
 10
0.3596054605287549
 20
-0.3061370834820343
 10
0.3596054605287549
 20
-0.3106337494478444
 42
-0.0516850095128958
 10
0.3656378351444331
 20
-0.305646781097308
 10
0.3656378351444331
 20
-0.315974203417503
 42
0.1985010364767537
 10
0.3566846886805806
 20
-0.3371370834826513
 10
0.2671933381980267
 20
-0.3371370834826655
 42
0.2015127546084039
 10
0.2457690529136585
 20
-0.3461370834813797
  0
LWPOLYLINE
  5
353
330
1F
100
AcDbEntity
  8
Component_Pads
100
AcDbPolyline
 90
       11
 70
     1
 43
0.0
 10
-0.2943318471563252
 20
-0.3461370834813797
 10
-0.3045562856180837
 20
-0.3461370834813797
 42
0.2015127546084394
 10
-0.3259805709024555
 20
-0.3371370834826655
 10
-0.415476532334349
 20
-0.3371370834826513
 42
0.1993688312586308
 10
-0.4243621648555625
 20
-0.3159460078252598
 10
-0.4243621648555625
 20
-0.3056826949380058
 42
-0.0512577191930077
 10
-0.4183836163523793
 20
-0.3106337494478444
 10
-0.4183836163523793
 20
-0.3061370834820343
 10
-0.294383616352377
 20
-0.3061370834820343
 10
-0.294383616352377
 20
-0.3401370834820403
 10
-0.299262538486321
 20
-0.3401370834820403
 42
-0.051226587402546
  0
LWPOLYLINE
  5
354
330
1F
100
AcDbEntity
  8
Component_Pads
100
AcDbPolyline
 90
       53
 70
     1
 43
0.0
 10
0.0985700713543345
 20
-0.3461370834813797
 10
0.0875574009805185
 20
-0.3461370834813797
 42
0.3936109468171583
 10
0.0037182693077007
 20
-0.3461370834813797
 10
-0.0073267756811326
 20
-0.3461370834813797
 10
-0.0073267756811326
 20
-0.3401370834813795
 10
-0.0513975540298297
 20
-0.3401370834813795
 10
-0.0513975540298297
 20
-0.3461370834813797
 10
-0.0624225990194844
 20
-0.3461370834813797
 42
0.3936109468171583
 10
-0.1462617306922986
 20
-0.3461370834813797
 10
-0.1573482271779518
 20
-0.3461370834820405
 10
-0.1573482271779518
 20
-0.3401370834820403
 10
-0.2673836163523795
 20
-0.3401370834820403
 10
-0.2673836163523795
 20
-0.2791370834820404
 10
-0.4183836163523793
 20
-0.2791370834820404
 10
-0.4183836163523793
 20
-0.1908613466030422
 10
-0.4243621648555625
 20
-0.1908613466030422
 10
-0.4243621648555625
 20
-0.1798381087436658
 42
0.3938864130464558
 10
-0.4243621648555625
 20
-0.0959560582210335
 10
-0.4243621648555625
 20
-0.084932124949435
 10
-0.4183621648555623
 20
-0.084932124949435
 10
-0.4183621648555623
 20
0.3533679148903142
 10
-0.4243621648555625
 20
0.3533679148903142
 10
-0.4243621648555625
 20
0.3643790338962143
 42
0.1795792728607788
 10
-0.407852998872901
 20
0.4038629165186203
 10
-0.3998247234359553
 20
0.4038629165186203
 10
-0.3998247234359553
 20
0.39786291651862
 10
-0.1426870477231361
 20
0.39786291651862
 10
-0.1426870477231361
 20
0.4038629165186203
 10
-0.1345586820677482
 20
0.4038629165186203
 42
0.9205043423739887
 10
-0.0742656476440331
 20
0.4038629165186203
 10
-0.0661870477231368
 20
0.4038629165186203
 10
-0.0661870477231368
 20
0.39786291651862
 10
-0.0503621648564803
 20
0.39786291651862
 10
-0.0503621648564803
 20
0.3088629165186143
 10
0.1406378351435329
 20
0.3088629165186143
 10
0.1406378351435329
 20
0.39786291651862
 10
0.3411752765921534
 20
0.39786291651862
 10
0.3411752765921534
 20
0.4038629165186203
 10
0.349288669161119
 20
0.4038629165186203
 42
0.1785939534988935
 10
0.3656378351444331
 20
0.3645509565058385
 10
0.3656378351444331
 20
0.3533679148903142
 10
0.3596378351444329
 20
0.3533679148903142
 10
0.3596378351444329
 20
-0.084932124949435
 10
0.3656378351444331
 20
-0.084932124949435
 10
0.3656378351444331
 20
-0.0959775176445481
 42
0.3936109468349859
 10
0.3656378351444331
 20
-0.1798166493201441
 10
0.3656378351444331
 20
-0.190888835822661
 42
-0.0001527728383405
 10
0.3656054605287551
 20
-0.1908613466030422
 10
0.3596054605287549
 20
-0.1908613466030422
 10
0.3596054605287549
 20
-0.2791370834820404
 10
0.2086054605287586
 20
-0.2791370834820404
 10
0.2086054605287586
 20
-0.3401370834820403
 10
0.0985700713543345
 20
-0.3401370834820403
  0
LWPOLYLINE
  5
355
330
1F
100
AcDbEntity
  8
Component_Pads
100
AcDbPolyline
 90
       10
 70
     1
 43
0.0
 10
0.0073878351441081
 20
0.4038629165186203
 10
0.015491317932252
 20
0.4038629165186203
 42
0.9205043423739887
 10
0.0757843523559672
 20
0.4038629165186203
 10
0.0838878351441075
 20
0.4038629165186203
 10
0.0838878351441075
 20
0.39786291651862
 10
0.1056378351435114
 20
0.39786291651862
 10
0.1056378351435114
 20
0.343862916518618
 10
-0.0153621648564872
 20
0.343862916518618
 10
-0.0153621648564872
 20
0.39786291651862
 10
0.0073878351441081
 20
0.39786291651862
  0
LWPOLYLINE
  5
356
330
1F
100
AcDbEntity
  8
PCB_Top
100
AcDbPolyline
 90
        5
 70
     1
 43
0.0
 10
0.2681054605287585
 20
-0.6368014424712385
 10
0.2681054605287585
 20
-0.3551370834820338
 10
0.3331054605287598
 20
-0.3551370834820338
 10
0.3331054605287598
 20
-0.6368014424712385
 42
-0.4813247739323174
 10
0.3011138721419826
 20
-0.6396971415335475
 42
0.3836105632872154
  0
LWPOLYLINE
  5
357
330
1F
100
AcDbEntity
  8
PCB_Solder_Stencil
100
AcDbPolyline
 90
        4
 70
     1
 43
0.0
 10
0.2356054605287596
 20
-0.3061370834820343
 10
0.3656054605287551
 20
-0.3061370834820343
 10
0.3656054605287551
 20
-0.3461370834813797
 10
0.2356054605287596
 20
-0.3461370834813797
  0
LWPOLYLINE
  5
358
330
1F
100
AcDbEntity
  8
PCB_Solder_Stencil
100
AcDbPolyline
 90
        4
 70
     1
 43
0.0
 10
-0.294383616352377
 20
-0.3061370834820343
 10
-0.4243836163523796
 20
-0.3061370834820343
 10
-0.4243836163523796
 20
-0.3461370834813797
 10
-0.294383616352377
 20
-0.3461370834813797
  0
LWPOLYLINE
  5
359
330
1F
100
AcDbEntity
  8
PCB_Solder_Stencil
100
AcDbPolyline
 90
        4
 70
     1
 43
0.0
 10
-0.0153621648564872
 20
0.343862916518618
 10
0.1056378351435114
 20
0.343862916518618
 10
0.1056378351435114
 20
0.4038629165186203
 10
-0.0153621648564872
 20
0.4038629165186203
  0
LWPOLYLINE
  5
35A
330
1F
100
AcDbEntity
  8
PCB_Land_Pattern
100
AcDbPolyline
 90
       12
 70
     1
 43
0.0
 10
-0.4353621648555404
 20
0.4138629165186183
 10
-0.0503621648564519
 20
0.4138629165186183
 10
-0.0503621648564803
 20
0.3088629165186143
 10
0.1406378351435329
 20
0.3088629165186143
 10
0.1406378351435329
 20
0.4138629165186183
 10
0.3766378351443365
 20
0.4138629165186183
 10
0.3766378351444324
 20
-0.2791370834820297
 10
0.2086054605287622
 20
-0.2791370834820048
 10
0.2086054605287764
 20
-0.3551370834820338
 10
-0.2673836163523582
 20
-0.3551370834820338
 10
-0.2673836163523795
 20
-0.2791370834820404
 10
-0.4353621648555617
 20
-0.2791370834820404
  0
LWPOLYLINE
  5
35B
330
1F
100
AcDbEntity
  8
PCB_Solder_Stencil
100
AcDbPolyline
 90
       12
 70
     1
 43
0.0
 10
-0.4333621648555415
 20
0.4118629165186185
 10
-0.0523621648564507
 20
0.4118629165186185
 10
-0.0523621648564792
 20
0.3068629165186145
 10
0.1426378351435318
 20
0.3068629165186145
 10
0.1426378351435318
 20
0.4118629165186185
 10
0.3746378351443376
 20
0.4118629165186185
 10
0.3746378351444335
 20
-0.2771370834820295
 10
0.2066054605287633
 20
-0.2771370834820046
 10
0.2066054605287775
 20
-0.353137083482034
 10
-0.2653836163523593
 20
-0.353137083482034
 10
-0.2653836163523806
 20
-0.2771370834820406
 10
-0.4333621648555628
 20
-0.2771370834820406
  0
LWPOLYLINE
  5
35C
330
1F
100
AcDbEntity
  8
PCB_Solder_Mask
100
AcDbPolyline
 90
       12
 70
     1
 43
0.0
 10
-0.4373621648555393
 20
0.4158629165186185
 10
-0.048362164856453
 20
0.4158629165186185
 10
-0.0483621648564814
 20
0.3108629165186141
 10
0.138637835143534
 20
0.3108629165186141
 10
0.138637835143534
 20
0.4158629165186181
 10
0.3786378351443353
 20
0.4158629165186181
 10
0.3786378351444313
 20
-0.2811370834820299
 10
0.2106054605287611
 20
-0.2811370834820051
 10
0.2106054605287753
 20
-0.3571370834820335
 10
-0.2693836163523571
 20
-0.3571370834820335
 10
-0.2693836163523784
 20
-0.2811370834820401
 10
-0.4373621648555606
 20
-0.2811370834820401
  0
CIRCLE
  5
35D
330
1F
100
AcDbEntity
  8
PCB_Plated_Holes
100
AcDbCircle
 10
-0.6322959511019733
 20
0.5723791011921123
 30
0.0
 40
0.02
  0
CIRCLE
  5
35E
330
1F
100
AcDbEntity
  8
PCB_Plated_Holes
100
AcDbCircle
 10
-0.6322959511019733
 20
0.4723791011921126
 30
0.0
 40
0.02
  0
CIRCLE
  5
35F
330
1F
100
AcDbEntity
  8
PCB_Plated_Holes
100
AcDbCircle
 10
-0.6322959511019733
 20
0.3723791011921125
 30
0.0
 40
0.02
  0
CIRCLE
  5
360
330
1F
100
AcDbEntity
  8
PCB_Plated_Holes
100
AcDbCircle
 10
-0.6322959511019733
 20
0.2723791011921124
 30
0.0
 40
0.02
  0
CIRCLE
  5
361
330
1F
100
AcDbEntity
  8
PCB_Plated_Holes
100
AcDbCircle
 10
-0.6322959511019733
 20
-0.0276208988078877
 30
0.0
 40
0.02
  0
CIRCLE
  5
362
330
1F
100
AcDbEntity
  8
PCB_Plated_Holes
100
AcDbCircle
 10
-0.6322959511019733
 20
-0.1276208988078875
 30
0.0
 40
0.02
  0
CIRCLE
  5
363
330
1F
100
AcDbEntity
  8
PCB_Plated_Holes
100
AcDbCircle
 10
-0.6322959511019733
 20
-0.2276208988078876
 30
0.0
 40
0.02
  0
CIRCLE
  5
364
330
1F
100
AcDbEntity
  8
PCB_Plated_Holes
100
AcDbCircle
 10
-0.6322959511019733
 20
-0.3276208988078877
 30
0.0
 40
0.02
  0
CIRCLE
  5
365
330
1F
100
AcDbEntity
  8
PCB_Plated_Holes
100
AcDbCircle
 10
-0.5786054707359192
 20
-0.4276208988078878
 30
0.0
 40
0.02
  0
CIRCLE
  5
366
330
1F
100
AcDbEntity
  8
PCB_Plated_Holes
100
AcDbCircle
 10
-0.5786054707359192
 20
-0.5276208988078875
 30
0.0
 40
0.02
  0
CIRCLE
  5
367
330
1F
100
AcDbEntity
  8
PCB_Plated_Holes
100
AcDbCircle
 10
-0.5322959511019754
 20
0.6723791011921123
 30
0.0
 40
0.02
  0
CIRCLE
  5
368
330
1F
100
AcDbEntity
  8
PCB_Plated_Holes
100
AcDbCircle
 10
-0.5322959511019754
 20
0.5723791011921123
 30
0.0
 40
0.02
  0
CIRCLE
  5
369
330
1F
100
AcDbEntity
  8
PCB_Plated_Holes
100
AcDbCircle
 10
-0.5322959511019754
 20
0.4723791011921126
 30
0.0
 40
0.02
  0
CIRCLE
  5
36A
330
1F
100
AcDbEntity
  8
PCB_Plated_Holes
100
AcDbCircle
 10
-0.5322959511019754
 20
0.3723791011921125
 30
0.0
 40
0.02
  0
CIRCLE
  5
36B
330
1F
100
AcDbEntity
  8
PCB_Plated_Holes
100
AcDbCircle
 10
-0.5322959511019754
 20
0.2723791011921124
 30
0.0
 40
0.02
  0
CIRCLE
  5
36C
330
1F
100
AcDbEntity
  8
PCB_Plated_Holes
100
AcDbCircle
 10
-0.5322959511019754
 20
0.1723791011921123
 30
0.0
 40
0.02
  0
CIRCLE
  5
36D
330
1F
100
AcDbEntity
  8
PCB_Plated_Holes
100
AcDbCircle
 10
-0.5322959511019754
 20
0.0723791011921122
 30
0.0
 40
0.02
  0
CIRCLE
  5
36E
330
1F
100
AcDbEntity
  8
PCB_Plated_Holes
100
AcDbCircle
 10
-0.5322959511019754
 20
-0.0276208988078877
 30
0.0
 40
0.02
  0
CIRCLE
  5
36F
330
1F
100
AcDbEntity
  8
PCB_Plated_Holes
100
AcDbCircle
 10
-0.5322959511019754
 20
-0.1276208988078875
 30
0.0
 40
0.02
  0
CIRCLE
  5
370
330
1F
100
AcDbEntity
  8
PCB_Plated_Holes
100
AcDbCircle
 10
-0.5322959511019754
 20
-0.2276208988078876
 30
0.0
 40
0.02
  0
CIRCLE
  5
371
330
1F
100
AcDbEntity
  8
PCB_Plated_Holes
100
AcDbCircle
 10
-0.5322959511019754
 20
-0.3276208988078877
 30
0.0
 40
0.02
  0
CIRCLE
  5
372
330
1F
100
AcDbEntity
  8
PCB_Plated_Holes
100
AcDbCircle
 10
-0.432295951101974
 20
0.6723791011921123
 30
0.0
 40
0.02
  0
CIRCLE
  5
373
330
1F
100
AcDbEntity
  8
PCB_Plated_Holes
100
AcDbCircle
 10
-0.432295951101974
 20
0.5723791011921123
 30
0.0
 40
0.02
  0
CIRCLE
  5
374
330
1F
100
AcDbEntity
  8
PCB_Plated_Holes
100
AcDbCircle
 10
-0.432295951101974
 20
0.4723791011921126
 30
0.0
 40
0.02
  0
CIRCLE
  5
375
330
1F
100
AcDbEntity
  8
PCB_Plated_Holes
100
AcDbCircle
 10
-0.432295951101974
 20
0.3723791011921125
 30
0.0
 40
0.02
  0
CIRCLE
  5
376
330
1F
100
AcDbEntity
  8
PCB_Plated_Holes
100
AcDbCircle
 10
-0.432295951101974
 20
0.2723791011921124
 30
0.0
 40
0.02
  0
CIRCLE
  5
377
330
1F
100
AcDbEntity
  8
PCB_Plated_Holes
100
AcDbCircle
 10
-0.432295951101974
 20
0.1723791011921123
 30
0.0
 40
0.02
  0
CIRCLE
  5
378
330
1F
100
AcDbEntity
  8
PCB_Plated_Holes
100
AcDbCircle
 10
-0.432295951101974
 20
0.0723791011921122
 30
0.0
 40
0.02
  0
CIRCLE
  5
379
330
1F
100
AcDbEntity
  8
PCB_Plated_Holes
100
AcDbCircle
 10
-0.432295951101974
 20
-0.0276208988078877
 30
0.0
 40
0.02
  0
CIRCLE
  5
37A
330
1F
100
AcDbEntity
  8
PCB_Plated_Holes
100
AcDbCircle
 10
-0.432295951101974
 20
-0.1276208988078875
 30
0.0
 40
0.02
  0
CIRCLE
  5
37B
330
1F
100
AcDbEntity
  8
PCB_Plated_Holes
100
AcDbCircle
 10
-0.432295951101974
 20
-0.2276208988078876
 30
0.0
 40
0.02
  0
CIRCLE
  5
37C
330
1F
100
AcDbEntity
  8
PCB_Plated_Holes
100
AcDbCircle
 10
-0.3322959511019761
 20
0.6723791011921123
 30
0.0
 40
0.02
  0
CIRCLE
  5
37D
330
1F
100
AcDbEntity
  8
PCB_Plated_Holes
100
AcDbCircle
 10
-0.3322959511019761
 20
0.5723791011921123
 30
0.0
 40
0.02
  0
CIRCLE
  5
37E
330
1F
100
AcDbEntity
  8
PCB_Plated_Holes
100
AcDbCircle
 10
-0.3322959511019761
 20
0.4723791011921126
 30
0.0
 40
0.02
  0
CIRCLE
  5
37F
330
1F
100
AcDbEntity
  8
PCB_Plated_Holes
100
AcDbCircle
 10
-0.3322959511019761
 20
0.3723791011921125
 30
0.0
 40
0.02
  0
CIRCLE
  5
380
330
1F
100
AcDbEntity
  8
PCB_Plated_Holes
100
AcDbCircle
 10
-0.3322959511019761
 20
0.2723791011921124
 30
0.0
 40
0.02
  0
CIRCLE
  5
381
330
1F
100
AcDbEntity
  8
PCB_Plated_Holes
100
AcDbCircle
 10
-0.3322959511019761
 20
0.1723791011921123
 30
0.0
 40
0.02
  0
CIRCLE
  5
382
330
1F
100
AcDbEntity
  8
PCB_Plated_Holes
100
AcDbCircle
 10
-0.3322959511019761
 20
0.0723791011921122
 30
0.0
 40
0.02
  0
CIRCLE
  5
383
330
1F
100
AcDbEntity
  8
PCB_Plated_Holes
100
AcDbCircle
 10
-0.3322959511019761
 20
-0.0276208988078877
 30
0.0
 40
0.02
  0
CIRCLE
  5
384
330
1F
100
AcDbEntity
  8
PCB_Plated_Holes
100
AcDbCircle
 10
-0.3322959511019761
 20
-0.1276208988078875
 30
0.0
 40
0.02
  0
CIRCLE
  5
385
330
1F
100
AcDbEntity
  8
PCB_Plated_Holes
100
AcDbCircle
 10
-0.3322959511019761
 20
-0.2276208988078876
 30
0.0
 40
0.02
  0
CIRCLE
  5
386
330
1F
100
AcDbEntity
  8
PCB_Plated_Holes
100
AcDbCircle
 10
-0.2322959511019746
 20
0.6723791011921123
 30
0.0
 40
0.02
  0
CIRCLE
  5
387
330
1F
100
AcDbEntity
  8
PCB_Plated_Holes
100
AcDbCircle
 10
-0.2322959511019746
 20
0.5723791011921123
 30
0.0
 40
0.02
  0
CIRCLE
  5
388
330
1F
100
AcDbEntity
  8
PCB_Plated_Holes
100
AcDbCircle
 10
-0.2322959511019746
 20
0.4723791011921126
 30
0.0
 40
0.02
  0
CIRCLE
  5
389
330
1F
100
AcDbEntity
  8
PCB_Plated_Holes
100
AcDbCircle
 10
-0.2322959511019746
 20
0.3723791011921125
 30
0.0
 40
0.02
  0
CIRCLE
  5
38A
330
1F
100
AcDbEntity
  8
PCB_Plated_Holes
100
AcDbCircle
 10
-0.2322959511019746
 20
0.2723791011921124
 30
0.0
 40
0.02
  0
CIRCLE
  5
38B
330
1F
100
AcDbEntity
  8
PCB_Plated_Holes
100
AcDbCircle
 10
-0.2322959511019746
 20
0.1723791011921123
 30
0.0
 40
0.02
  0
CIRCLE
  5
38C
330
1F
100
AcDbEntity
  8
PCB_Plated_Holes
100
AcDbCircle
 10
-0.2322959511019746
 20
0.0723791011921122
 30
0.0
 40
0.02
  0
CIRCLE
  5
38D
330
1F
100
AcDbEntity
  8
PCB_Plated_Holes
100
AcDbCircle
 10
-0.2322959511019746
 20
-0.0276208988078877
 30
0.0
 40
0.02
  0
CIRCLE
  5
38E
330
1F
100
AcDbEntity
  8
PCB_Plated_Holes
100
AcDbCircle
 10
-0.2322959511019746
 20
-0.1276208988078875
 30
0.0
 40
0.02
  0
CIRCLE
  5
38F
330
1F
100
AcDbEntity
  8
PCB_Plated_Holes
100
AcDbCircle
 10
-0.2322959511019746
 20
-0.2276208988078876
 30
0.0
 40
0.02
  0
CIRCLE
  5
390
330
1F
100
AcDbEntity
  8
PCB_Plated_Holes
100
AcDbCircle
 10
-0.1322959511019732
 20
0.6723791011921123
 30
0.0
 40
0.02
  0
CIRCLE
  5
391
330
1F
100
AcDbEntity
  8
PCB_Plated_Holes
100
AcDbCircle
 10
-0.1322959511019732
 20
0.5723791011921123
 30
0.0
 40
0.02
  0
CIRCLE
  5
392
330
1F
100
AcDbEntity
  8
PCB_Plated_Holes
100
AcDbCircle
 10
-0.1322959511019732
 20
0.4723791011921126
 30
0.0
 40
0.02
  0
CIRCLE
  5
393
330
1F
100
AcDbEntity
  8
PCB_Plated_Holes
100
AcDbCircle
 10
-0.1322959511019732
 20
0.3723791011921125
 30
0.0
 40
0.02
  0
CIRCLE
  5
394
330
1F
100
AcDbEntity
  8
PCB_Plated_Holes
100
AcDbCircle
 10
-0.1322959511019732
 20
0.2723791011921124
 30
0.0
 40
0.02
  0
CIRCLE
  5
395
330
1F
100
AcDbEntity
  8
PCB_Plated_Holes
100
AcDbCircle
 10
-0.1322959511019732
 20
0.1723791011921123
 30
0.0
 40
0.02
  0
CIRCLE
  5
396
330
1F
100
AcDbEntity
  8
PCB_Plated_Holes
100
AcDbCircle
 10
-0.1322959511019732
 20
0.0723791011921122
 30
0.0
 40
0.02
  0
CIRCLE
  5
397
330
1F
100
AcDbEntity
  8
PCB_Plated_Holes
100
AcDbCircle
 10
-0.1322959511019732
 20
-0.0276208988078877
 30
0.0
 40
0.02
  0
CIRCLE
  5
398
330
1F
100
AcDbEntity
  8
PCB_Plated_Holes
100
AcDbCircle
 10
-0.1322959511019732
 20
-0.1276208988078875
 30
0.0
 40
0.02
  0
CIRCLE
  5
399
330
1F
100
AcDbEntity
  8
PCB_Plated_Holes
100
AcDbCircle
 10
-0.1322959511019732
 20
-0.2276208988078876
 30
0.0
 40
0.02
  0
CIRCLE
  5
39A
330
1F
100
AcDbEntity
  8
PCB_Plated_Holes
100
AcDbCircle
 10
-0.1322959511019732
 20
-0.3276208988078877
 30
0.0
 40
0.02
  0
CIRCLE
  5
39B
330
1F
100
AcDbEntity
  8
PCB_Plated_Holes
100
AcDbCircle
 10
-0.1322959511019732
 20
-0.4276208988078878
 30
0.0
 40
0.02
  0
CIRCLE
  5
39C
330
1F
100
AcDbEntity
  8
PCB_Plated_Holes
100
AcDbCircle
 10
-0.1322959511019732
 20
-0.5276208988078875
 30
0.0
 40
0.02
  0
CIRCLE
  5
39D
330
1F
100
AcDbEntity
  8
PCB_Plated_Holes
100
AcDbCircle
 10
-0.0322959511019754
 20
0.2723791011921124
 30
0.0
 40
0.02
  0
CIRCLE
  5
39E
330
1F
100
AcDbEntity
  8
PCB_Plated_Holes
100
AcDbCircle
 10
-0.0322959511019754
 20
0.1723791011921123
 30
0.0
 40
0.02
  0
CIRCLE
  5
39F
330
1F
100
AcDbEntity
  8
PCB_Plated_Holes
100
AcDbCircle
 10
-0.0322959511019754
 20
0.0723791011921122
 30
0.0
 40
0.02
  0
CIRCLE
  5
3A0
330
1F
100
AcDbEntity
  8
PCB_Plated_Holes
100
AcDbCircle
 10
-0.0322959511019754
 20
-0.0276208988078877
 30
0.0
 40
0.02
  0
CIRCLE
  5
3A1
330
1F
100
AcDbEntity
  8
PCB_Plated_Holes
100
AcDbCircle
 10
-0.0322959511019754
 20
-0.1276208988078875
 30
0.0
 40
0.02
  0
CIRCLE
  5
3A2
330
1F
100
AcDbEntity
  8
PCB_Plated_Holes
100
AcDbCircle
 10
-0.0322959511019754
 20
-0.2276208988078876
 30
0.0
 40
0.02
  0
CIRCLE
  5
3A3
330
1F
100
AcDbEntity
  8
PCB_Plated_Holes
100
AcDbCircle
 10
-0.0322959511019754
 20
-0.3276208988078877
 30
0.0
 40
0.02
  0
CIRCLE
  5
3A4
330
1F
100
AcDbEntity
  8
PCB_Plated_Holes
100
AcDbCircle
 10
-0.0322959511019754
 20
-0.4276208988078878
 30
0.0
 40
0.02
  0
CIRCLE
  5
3A5
330
1F
100
AcDbEntity
  8
PCB_Plated_Holes
100
AcDbCircle
 10
-0.0322959511019754
 20
-0.5276208988078875
 30
0.0
 40
0.02
  0
CIRCLE
  5
3A6
330
1F
100
AcDbEntity
  8
PCB_Plated_Holes
100
AcDbCircle
 10
0.0677040488980261
 20
0.2723791011921124
 30
0.0
 40
0.02
  0
CIRCLE
  5
3A7
330
1F
100
AcDbEntity
  8
PCB_Plated_Holes
100
AcDbCircle
 10
0.0677040488980261
 20
0.1723791011921123
 30
0.0
 40
0.02
  0
CIRCLE
  5
3A8
330
1F
100
AcDbEntity
  8
PCB_Plated_Holes
100
AcDbCircle
 10
0.0677040488980261
 20
0.0723791011921122
 30
0.0
 40
0.02
  0
CIRCLE
  5
3A9
330
1F
100
AcDbEntity
  8
PCB_Plated_Holes
100
AcDbCircle
 10
0.0677040488980261
 20
-0.0276208988078877
 30
0.0
 40
0.02
  0
CIRCLE
  5
3AA
330
1F
100
AcDbEntity
  8
PCB_Plated_Holes
100
AcDbCircle
 10
0.0677040488980261
 20
-0.1276208988078875
 30
0.0
 40
0.02
  0
CIRCLE
  5
3AB
330
1F
100
AcDbEntity
  8
PCB_Plated_Holes
100
AcDbCircle
 10
0.0677040488980261
 20
-0.2276208988078876
 30
0.0
 40
0.02
  0
CIRCLE
  5
3AC
330
1F
100
AcDbEntity
  8
PCB_Plated_Holes
100
AcDbCircle
 10
0.0677040488980261
 20
-0.3276208988078877
 30
0.0
 40
0.02
  0
CIRCLE
  5
3AD
330
1F
100
AcDbEntity
  8
PCB_Plated_Holes
100
AcDbCircle
 10
0.0677040488980261
 20
-0.4276208988078878
 30
0.0
 40
0.02
  0
CIRCLE
  5
3AE
330
1F
100
AcDbEntity
  8
PCB_Plated_Holes
100
AcDbCircle
 10
0.0677040488980261
 20
-0.5276208988078875
 30
0.0
 40
0.02
  0
CIRCLE
  5
3AF
330
1F
100
AcDbEntity
  8
PCB_Plated_Holes
100
AcDbCircle
 10
0.0677040488980261
 20
-0.627620898807888
 30
0.0
 40
0.02
  0
CIRCLE
  5
3B0
330
1F
100
AcDbEntity
  8
PCB_Plated_Holes
100
AcDbCircle
 10
0.1389982454605452
 20
0.5878629165186045
 30
0.0
 40
0.02
  0
CIRCLE
  5
3B1
330
1F
100
AcDbEntity
  8
PCB_Plated_Holes
100
AcDbCircle
 10
0.1389982454605452
 20
0.487862916518604
 30
0.0
 40
0.02
  0
CIRCLE
  5
3B2
330
1F
100
AcDbEntity
  8
PCB_Plated_Holes
100
AcDbCircle
 10
0.1677040488980239
 20
0.3723791011921125
 30
0.0
 40
0.02
  0
CIRCLE
  5
3B3
330
1F
100
AcDbEntity
  8
PCB_Plated_Holes
100
AcDbCircle
 10
0.1677040488980239
 20
0.2723791011921124
 30
0.0
 40
0.02
  0
CIRCLE
  5
3B4
330
1F
100
AcDbEntity
  8
PCB_Plated_Holes
100
AcDbCircle
 10
0.1677040488980239
 20
0.1723791011921123
 30
0.0
 40
0.02
  0
CIRCLE
  5
3B5
330
1F
100
AcDbEntity
  8
PCB_Plated_Holes
100
AcDbCircle
 10
0.1677040488980239
 20
0.0723791011921122
 30
0.0
 40
0.02
  0
CIRCLE
  5
3B6
330
1F
100
AcDbEntity
  8
PCB_Plated_Holes
100
AcDbCircle
 10
0.1677040488980239
 20
-0.0276208988078877
 30
0.0
 40
0.02
  0
CIRCLE
  5
3B7
330
1F
100
AcDbEntity
  8
PCB_Plated_Holes
100
AcDbCircle
 10
0.1677040488980239
 20
-0.1276208988078875
 30
0.0
 40
0.02
  0
CIRCLE
  5
3B8
330
1F
100
AcDbEntity
  8
PCB_Plated_Holes
100
AcDbCircle
 10
0.1677040488980239
 20
-0.2276208988078876
 30
0.0
 40
0.02
  0
CIRCLE
  5
3B9
330
1F
100
AcDbEntity
  8
PCB_Plated_Holes
100
AcDbCircle
 10
0.1677040488980239
 20
-0.3276208988078877
 30
0.0
 40
0.02
  0
CIRCLE
  5
3BA
330
1F
100
AcDbEntity
  8
PCB_Plated_Holes
100
AcDbCircle
 10
0.2677040488980253
 20
0.6723791011921123
 30
0.0
 40
0.02
  0
CIRCLE
  5
3BB
330
1F
100
AcDbEntity
  8
PCB_Plated_Holes
100
AcDbCircle
 10
0.2677040488980253
 20
0.5723791011921123
 30
0.0
 40
0.02
  0
CIRCLE
  5
3BC
330
1F
100
AcDbEntity
  8
PCB_Plated_Holes
100
AcDbCircle
 10
0.2677040488980253
 20
0.4723791011921126
 30
0.0
 40
0.02
  0
CIRCLE
  5
3BD
330
1F
100
AcDbEntity
  8
PCB_Plated_Holes
100
AcDbCircle
 10
0.2677040488980253
 20
0.3723791011921125
 30
0.0
 40
0.02
  0
CIRCLE
  5
3BE
330
1F
100
AcDbEntity
  8
PCB_Plated_Holes
100
AcDbCircle
 10
0.2677040488980253
 20
0.2723791011921124
 30
0.0
 40
0.02
  0
CIRCLE
  5
3BF
330
1F
100
AcDbEntity
  8
PCB_Plated_Holes
100
AcDbCircle
 10
0.2677040488980253
 20
0.1723791011921123
 30
0.0
 40
0.02
  0
CIRCLE
  5
3C0
330
1F
100
AcDbEntity
  8
PCB_Plated_Holes
100
AcDbCircle
 10
0.2677040488980253
 20
0.0723791011921122
 30
0.0
 40
0.02
  0
CIRCLE
  5
3C1
330
1F
100
AcDbEntity
  8
PCB_Plated_Holes
100
AcDbCircle
 10
0.2677040488980253
 20
-0.0276208988078877
 30
0.0
 40
0.02
  0
CIRCLE
  5
3C2
330
1F
100
AcDbEntity
  8
PCB_Plated_Holes
100
AcDbCircle
 10
0.2677040488980253
 20
-0.1276208988078875
 30
0.0
 40
0.02
  0
CIRCLE
  5
3C3
330
1F
100
AcDbEntity
  8
PCB_Plated_Holes
100
AcDbCircle
 10
0.2677040488980253
 20
-0.2276208988078876
 30
0.0
 40
0.02
  0
CIRCLE
  5
3C4
330
1F
100
AcDbEntity
  8
PCB_Plated_Holes
100
AcDbCircle
 10
0.3677040488980268
 20
0.6723791011921123
 30
0.0
 40
0.02
  0
CIRCLE
  5
3C5
330
1F
100
AcDbEntity
  8
PCB_Plated_Holes
100
AcDbCircle
 10
0.3677040488980268
 20
0.5723791011921123
 30
0.0
 40
0.02
  0
CIRCLE
  5
3C6
330
1F
100
AcDbEntity
  8
PCB_Plated_Holes
100
AcDbCircle
 10
0.3677040488980268
 20
0.4723791011921126
 30
0.0
 40
0.02
  0
CIRCLE
  5
3C7
330
1F
100
AcDbEntity
  8
PCB_Plated_Holes
100
AcDbCircle
 10
0.3677040488980268
 20
0.3723791011921125
 30
0.0
 40
0.02
  0
CIRCLE
  5
3C8
330
1F
100
AcDbEntity
  8
PCB_Plated_Holes
100
AcDbCircle
 10
0.3677040488980268
 20
0.2723791011921124
 30
0.0
 40
0.02
  0
CIRCLE
  5
3C9
330
1F
100
AcDbEntity
  8
PCB_Plated_Holes
100
AcDbCircle
 10
0.3677040488980268
 20
0.1723791011921123
 30
0.0
 40
0.02
  0
CIRCLE
  5
3CA
330
1F
100
AcDbEntity
  8
PCB_Plated_Holes
100
AcDbCircle
 10
0.3677040488980268
 20
0.0723791011921122
 30
0.0
 40
0.02
  0
CIRCLE
  5
3CB
330
1F
100
AcDbEntity
  8
PCB_Plated_Holes
100
AcDbCircle
 10
0.3677040488980268
 20
-0.0276208988078877
 30
0.0
 40
0.02
  0
CIRCLE
  5
3CC
330
1F
100
AcDbEntity
  8
PCB_Plated_Holes
100
AcDbCircle
 10
0.3677040488980268
 20
-0.1276208988078875
 30
0.0
 40
0.02
  0
CIRCLE
  5
3CD
330
1F
100
AcDbEntity
  8
PCB_Plated_Holes
100
AcDbCircle
 10
0.3677040488980268
 20
-0.2276208988078876
 30
0.0
 40
0.02
  0
CIRCLE
  5
3CE
330
1F
100
AcDbEntity
  8
PCB_Plated_Holes
100
AcDbCircle
 10
0.4677040488980247
 20
0.6723791011921123
 30
0.0
 40
0.02
  0
CIRCLE
  5
3CF
330
1F
100
AcDbEntity
  8
PCB_Plated_Holes
100
AcDbCircle
 10
0.4677040488980247
 20
0.5723791011921123
 30
0.0
 40
0.02
  0
CIRCLE
  5
3D0
330
1F
100
AcDbEntity
  8
PCB_Plated_Holes
100
AcDbCircle
 10
0.4677040488980247
 20
0.4723791011921126
 30
0.0
 40
0.02
  0
CIRCLE
  5
3D1
330
1F
100
AcDbEntity
  8
PCB_Plated_Holes
100
AcDbCircle
 10
0.4677040488980247
 20
0.3723791011921125
 30
0.0
 40
0.02
  0
CIRCLE
  5
3D2
330
1F
100
AcDbEntity
  8
PCB_Plated_Holes
100
AcDbCircle
 10
0.4677040488980247
 20
0.2723791011921124
 30
0.0
 40
0.02
  0
CIRCLE
  5
3D3
330
1F
100
AcDbEntity
  8
PCB_Plated_Holes
100
AcDbCircle
 10
0.4677040488980247
 20
0.1723791011921123
 30
0.0
 40
0.02
  0
CIRCLE
  5
3D4
330
1F
100
AcDbEntity
  8
PCB_Plated_Holes
100
AcDbCircle
 10
0.4677040488980247
 20
0.0723791011921122
 30
0.0
 40
0.02
  0
CIRCLE
  5
3D5
330
1F
100
AcDbEntity
  8
PCB_Plated_Holes
100
AcDbCircle
 10
0.4677040488980247
 20
-0.0276208988078877
 30
0.0
 40
0.02
  0
CIRCLE
  5
3D6
330
1F
100
AcDbEntity
  8
PCB_Plated_Holes
100
AcDbCircle
 10
0.4677040488980247
 20
-0.1276208988078875
 30
0.0
 40
0.02
  0
CIRCLE
  5
3D7
330
1F
100
AcDbEntity
  8
PCB_Plated_Holes
100
AcDbCircle
 10
0.4677040488980247
 20
-0.2276208988078876
 30
0.0
 40
0.02
  0
CIRCLE
  5
3D8
330
1F
100
AcDbEntity
  8
PCB_Plated_Holes
100
AcDbCircle
 10
0.4391925989094823
 20
-0.3103913614222549
 30
0.0
 40
0.02
  0
CIRCLE
  5
3D9
330
1F
100
AcDbEntity
  8
PCB_Plated_Holes
100
AcDbCircle
 10
0.5677040488980261
 20
0.6723791011921123
 30
0.0
 40
0.02
  0
CIRCLE
  5
3DA
330
1F
100
AcDbEntity
  8
PCB_Plated_Holes
100
AcDbCircle
 10
0.5677040488980261
 20
0.5723791011921123
 30
0.0
 40
0.02
  0
CIRCLE
  5
3DB
330
1F
100
AcDbEntity
  8
PCB_Plated_Holes
100
AcDbCircle
 10
0.5677040488980261
 20
0.4723791011921126
 30
0.0
 40
0.02
  0
CIRCLE
  5
3DC
330
1F
100
AcDbEntity
  8
PCB_Plated_Holes
100
AcDbCircle
 10
0.5677040488980261
 20
0.3723791011921125
 30
0.0
 40
0.02
  0
CIRCLE
  5
3DD
330
1F
100
AcDbEntity
  8
PCB_Plated_Holes
100
AcDbCircle
 10
0.5677040488980261
 20
0.2723791011921124
 30
0.0
 40
0.02
  0
CIRCLE
  5
3DE
330
1F
100
AcDbEntity
  8
PCB_Plated_Holes
100
AcDbCircle
 10
0.5677040488980261
 20
0.1723791011921123
 30
0.0
 40
0.02
  0
CIRCLE
  5
3DF
330
1F
100
AcDbEntity
  8
PCB_Plated_Holes
100
AcDbCircle
 10
0.5677040488980261
 20
0.0723791011921122
 30
0.0
 40
0.02
  0
CIRCLE
  5
3E0
330
1F
100
AcDbEntity
  8
PCB_Plated_Holes
100
AcDbCircle
 10
0.5677040488980261
 20
-0.0276208988078877
 30
0.0
 40
0.02
  0
CIRCLE
  5
3E1
330
1F
100
AcDbEntity
  8
PCB_Plated_Holes
100
AcDbCircle
 10
0.5677040488980261
 20
-0.1276208988078875
 30
0.0
 40
0.02
  0
CIRCLE
  5
3E2
330
1F
100
AcDbEntity
  8
PCB_Plated_Holes
100
AcDbCircle
 10
0.5677040488980261
 20
-0.2276208988078876
 30
0.0
 40
0.02
  0
CIRCLE
  5
3E3
330
1F
100
AcDbEntity
  8
PCB_Plated_Holes
100
AcDbCircle
 10
0.5677040488980261
 20
-0.3276208988078877
 30
0.0
 40
0.02
  0
CIRCLE
  5
3E4
330
1F
100
AcDbEntity
  8
PCB_Plated_Holes
100
AcDbCircle
 10
0.5257682590750968
 20
-0.4276208988078878
 30
0.0
 40
0.02
  0
CIRCLE
  5
3E5
330
1F
100
AcDbEntity
  8
PCB_Plated_Holes
100
AcDbCircle
 10
0.5257682590750968
 20
-0.5276208988078875
 30
0.0
 40
0.02
  0
CIRCLE
  5
3E6
330
1F
100
AcDbEntity
  8
PCB_Plated_Holes
100
AcDbCircle
 10
0.5257682590750968
 20
-0.627620898807888
 30
0.0
 40
0.02
  0
CIRCLE
  5
3E7
330
1F
100
AcDbEntity
  8
PCB_Plated_Holes
100
AcDbCircle
 10
0.667704048898024
 20
0.5723791011921123
 30
0.0
 40
0.02
  0
CIRCLE
  5
3E8
330
1F
100
AcDbEntity
  8
PCB_Plated_Holes
100
AcDbCircle
 10
0.667704048898024
 20
0.4723791011921126
 30
0.0
 40
0.02
  0
CIRCLE
  5
3E9
330
1F
100
AcDbEntity
  8
PCB_Plated_Holes
100
AcDbCircle
 10
0.667704048898024
 20
0.3723791011921125
 30
0.0
 40
0.02
  0
CIRCLE
  5
3EA
330
1F
100
AcDbEntity
  8
PCB_Plated_Holes
100
AcDbCircle
 10
0.667704048898024
 20
0.2723791011921124
 30
0.0
 40
0.02
  0
CIRCLE
  5
3EB
330
1F
100
AcDbEntity
  8
PCB_Plated_Holes
100
AcDbCircle
 10
0.667704048898024
 20
0.1723791011921123
 30
0.0
 40
0.02
  0
CIRCLE
  5
3EC
330
1F
100
AcDbEntity
  8
PCB_Plated_Holes
100
AcDbCircle
 10
0.667704048898024
 20
-0.0276208988078877
 30
0.0
 40
0.02
  0
CIRCLE
  5
3ED
330
1F
100
AcDbEntity
  8
PCB_Plated_Holes
100
AcDbCircle
 10
0.667704048898024
 20
-0.1276208988078875
 30
0.0
 40
0.02
  0
CIRCLE
  5
3EE
330
1F
100
AcDbEntity
  8
PCB_Plated_Holes
100
AcDbCircle
 10
0.667704048898024
 20
-0.2276208988078876
 30
0.0
 40
0.02
  0
CIRCLE
  5
3EF
330
1F
100
AcDbEntity
  8
PCB_Plated_Holes
100
AcDbCircle
 10
0.667704048898024
 20
-0.3276208988078877
 30
0.0
 40
0.02
  0
CIRCLE
  5
3F0
330
1F
100
AcDbEntity
  8
PCB_Plated_Holes
100
AcDbCircle
 10
0.667704048898024
 20
-0.4276208988078878
 30
0.0
 40
0.02
  0
CIRCLE
  5
3F1
330
1F
100
AcDbEntity
  8
PCB_Plated_Holes
100
AcDbCircle
 10
0.667704048898024
 20
-0.5276208988078875
 30
0.0
 40
0.02
  0
CIRCLE
  5
3F2
330
1F
100
AcDbEntity
  8
PCB_Plated_Holes
100
AcDbCircle
 10
-0.0487225751735245
 20
0.5878629165186045
 30
0.0
 40
0.02
  0
CIRCLE
  5
3F3
330
1F
100
AcDbEntity
  8
PCB_Plated_Holes
100
AcDbCircle
 10
-0.0487225751735245
 20
0.487862916518604
 30
0.0
 40
0.02
  0
CIRCLE
  5
3F4
330
1F
100
AcDbEntity
  8
PCB_Plated_Holes
100
AcDbCircle
 10
-0.4658836163523788
 20
-0.4291370834820336
 30
0.0
 40
0.02
  0
CIRCLE
  5
3F5
330
1F
100
AcDbEntity
  8
PCB_Plated_Holes
100
AcDbCircle
 10
-0.4658836163523788
 20
-0.5291370834820333
 30
0.0
 40
0.02
  0
CIRCLE
  5
3F6
330
1F
100
AcDbEntity
  8
PCB_Plated_Holes
100
AcDbCircle
 10
-0.4658836163523788
 20
-0.6291370834820338
 30
0.0
 40
0.02
  0
LWPOLYLINE
  5
3F7
330
1F
100
AcDbEntity
  8
PCB_Top
100
AcDbPolyline
 90
      622
 70
     1
 43
0.0
 10
0.2086267472704364
 20
-0.389137083482026
 10
0.2086054605287515
 20
-0.3551356859191079
 10
0.2086054605287622
 20
-0.2791370834820546
 10
0.3926054605287561
 20
-0.2791370834820288
 10
0.3926054605287561
 20
-0.3891370834820265
 10
0.3671054605287978
 20
-0.389137083482034
 10
0.3671054605287978
 20
-0.6324306020665569
 10
0.4092985790639752
 20
-0.6463016863761517
 10
0.4242358870736425
 20
-0.6494707763398591
 10
0.4387479080685104
 20
-0.6522334494040472
 10
0.4528404084317792
 20
-0.6545973758799493
 10
0.4665191545466456
 20
-0.6565702260787978
 10
0.4797899127963206
 20
-0.6581596703118242
 10
0.4926584495639972
 20
-0.6593733788902619
 10
0.5051305312328829
 20
-0.660219022125343
 10
0.5172119241861779
 20
-0.6607042703283002
 10
0.5289083948070861
 20
-0.6608367938103666
 10
0.5402257094788041
 20
-0.6606242628827737
 10
0.5511696345845394
 20
-0.6600743478567548
 10
0.5617459365074922
 20
-0.6591947190435424
 10
0.5719603816308628
 20
-0.6579930467543687
 10
0.5818187363378549
 20
-0.6564770013004662
 10
0.5913267670116689
 20
-0.6546542529930673
 10
0.6004902400355086
 20
-0.6525324721434052
 10
0.6093149217925742
 20
-0.6501193290627123
 10
0.6178065786660661
 20
-0.6474224940622211
 10
0.6259709770391915
 20
-0.6444496374531639
 10
0.6338138832951472
 20
-0.6412084295467731
 10
0.6413410638171407
 20
-0.637706540654281
 10
0.6485582849883649
 20
-0.6339516410869211
 10
0.6554713131920309
 20
-0.6299514011559256
 10
0.6620859148113354
 20
-0.625713491172526
 10
0.6684078562294822
 20
-0.6212455814479565
 10
0.6744429038296716
 20
-0.6165553422934478
 10
0.6801968239951073
 20
-0.6116504440202349
 10
0.6856753831089897
 20
-0.6065385569395483
 10
0.690884347554519
 20
-0.6012273513626205
 10
0.6958294837149026
 20
-0.5957244976006857
 10
0.7005165579733408
 20
-0.5900376659649745
 10
0.7049513367130303
 20
-0.5841745267667209
 10
0.7091395863171784
 20
-0.5781427503171566
 10
0.7130870731689854
 20
-0.5719500069275148
 10
0.7167995636516516
 20
-0.565603966909027
 10
0.7202828241483808
 20
-0.5591123005729273
 10
0.7235426210423768
 20
-0.5524826782304464
 10
0.7265847207168364
 20
-0.5457227701928185
 10
0.7294148895549668
 20
-0.538840246771275
 10
0.7320388939399649
 20
-0.5318427782770492
 10
0.734462500255038
 20
-0.5247380350213727
 10
0.7366914748833829
 20
-0.5175336873154795
 10
0.7387315842082032
 20
-0.5102374054706003
 10
0.7405885946127029
 20
-0.5028568597979693
 10
0.7422682724800822
 20
-0.4953997206088179
 10
0.7437763841935415
 20
-0.4878736582143795
 10
0.7451186961362844
 20
-0.4802863429258855
 10
0.7463009746915148
 20
-0.4726454450545701
 10
0.7473289862424295
 20
-0.4649586349116639
 10
0.7482084971722358
 20
-0.4572335828084011
 10
0.7489452738641305
 20
-0.4494779590560132
 10
0.7495450827013208
 20
-0.4416994339657335
 10
0.7500136900670036
 20
-0.4339056778487933
 10
0.7503568623443826
 20
-0.4261043610164271
 10
0.7505803659166653
 20
-0.4183031537798652
 10
0.7506899671670447
 20
-0.4105097264503419
 10
0.7506914324787246
 20
-0.4027317493390888
 10
0.7505905282349126
 20
-0.3949768927573389
 10
0.7503930208188053
 20
-0.3872528270163249
 10
0.7501046766136064
 20
-0.3795672224272781
 10
0.7497312620025163
 20
-0.3719277493014328
 10
0.7492783462155082
 20
-0.3643414025784057
 10
0.7487497825192016
 20
-0.3568092989634009
 10
0.7481485406416546
 20
-0.349329528496237
 10
0.7474775830089584
 20
-0.3419001562029731
 10
0.7467398720471899
 20
-0.3345192471096654
 10
0.7459383701824436
 20
-0.327184866242372
 10
0.7450760398407966
 20
-0.3198950786271499
 10
0.7441558434483398
 20
-0.3126479492900565
 10
0.7431807434311573
 20
-0.3054415432571504
 10
0.7421537022153331
 20
-0.2982739255544873
 10
0.7410776822269547
 20
-0.2911431612081268
 10
0.7399556458921062
 20
-0.2840473152441243
 10
0.7387905556368715
 20
-0.2769844526885379
 10
0.7375853738873417
 20
-0.2699526385674247
 10
0.7363430630695938
 20
-0.2629499379068436
 10
0.7350665856097188
 20
-0.2559744157328501
 10
0.7337589039337971
 20
-0.2490241370715029
 10
0.7324229804679199
 20
-0.2420971669488594
 10
0.7310617776381712
 20
-0.2351915703909766
 10
0.7296782578706349
 20
-0.2283054124239126
 10
0.7282753835913951
 20
-0.2214367580737235
 10
0.7268561172265393
 20
-0.2145836723664676
 10
0.7254234212021551
 20
-0.2077442203282027
 10
0.7239802579443229
 20
-0.2009164669849852
 10
0.7225295898791302
 20
-0.194098477362874
 10
0.7210743794326611
 20
-0.1872883164879253
 10
0.7196175890310031
 20
-0.1804840493861972
 10
0.7181621811002437
 20
-0.173683741083746
 10
0.7167111180664599
 20
-0.1668854566066305
 10
0.7152673623557462
 20
-0.1600872609809079
 10
0.7138338763941832
 20
-0.1532872192326353
 10
0.7124136226078584
 20
-0.14648339638787
 10
0.7110095634228522
 20
-0.1396738574726699
 10
0.7096246612652557
 20
-0.1328566675130922
 10
0.708261878561153
 20
-0.1260298915351949
 10
0.706924177736628
 20
-0.1191915945650344
 10
0.7056145212177683
 20
-0.1123398416286685
 10
0.7043358714306578
 20
-0.1054726977521545
 10
0.7030911908013806
 20
-0.0985882279615504
 10
0.7018834417560243
 20
-0.0916844972829134
 10
0.7007155867206692
 20
-0.0847595707423006
 10
0.69959058812141
 20
-0.07781151336577
 10
0.6985114083843236
 20
-0.0708383901793788
 10
0.6974810099354976
 20
-0.0638382662091841
 10
0.6965023552010195
 20
-0.056809206481244
 10
0.6955784066069768
 20
-0.0497492760216156
 10
0.6947121265794465
 20
-0.0426565398563561
 10
0.6939064775445197
 20
-0.0355290630115235
 10
0.6931644219282838
 20
-0.028364910513174
 10
0.6924889221568194
 20
-0.0211621473873667
 10
0.691882940656214
 20
-0.0139188386601577
 10
0.6913494398525515
 20
-0.0066330493576059
 10
0.6908913821719196
 20
0.0006971554942332
 10
0.6905117300404023
 20
0.0080737108693008
 10
0.6902134458840834
 20
0.0154985517415396
 10
0.6899994921290507
 20
0.0229736130848926
 10
0.6898728312013916
 20
0.0305008298733016
 10
0.6898364255271865
 20
0.0380821370807096
 10
0.6898932375325231
 20
0.0457194696810603
 10
0.6900462296434889
 20
0.0534147626482939
 10
0.6902983642861642
 20
0.061169950956355
 10
0.6906526038866368
 20
0.0689869695791856
 10
0.6911117329196977
 20
0.0768676601150746
 10
0.6916744429803999
 20
0.0848117165222862
 10
0.6923353327840438
 20
0.0928166851190575
 10
0.6930888230946409
 20
0.1008800188479748
 10
0.6939293346762021
 20
0.1089991706516225
 10
0.6948512882927425
 20
0.1171715934725848
 10
0.695849104708266
 20
0.1253947402534479
 10
0.6969172046867876
 20
0.1336660639367961
 10
0.6980500089923183
 20
0.1419830174652148
 10
0.6992419383888731
 20
0.1503430537812882
 10
0.700487413640456
 20
0.1587436258276016
 10
0.7017808555110819
 20
0.1671821865467402
 10
0.7031166847647583
 20
0.1756561888812884
 10
0.7044893221655038
 20
0.184163085773831
 10
0.7058931884773259
 20
0.1927003301669532
 10
0.7073227044642323
 20
0.2012653750032403
 10
0.7087722908902379
 20
0.209855673225277
 10
0.7102363685193503
 20
0.2184686777756477
 10
0.7117093581155878
 20
0.2271018415969381
 10
0.7131856804429546
 20
0.2357526176317326
 10
0.714659756265462
 20
0.2444184588226168
 10
0.7161260063471247
 20
0.2530968181121747
 10
0.7175788514519539
 20
0.2617851484429918
 10
0.7190127123439574
 20
0.2704809027576527
 10
0.7204220097871499
 20
0.2791815339987425
 10
0.7218011645455391
 20
0.2878844951088464
 10
0.7231445973831363
 20
0.2965872390305488
 10
0.7244467290639563
 20
0.305287218706435
 10
0.7257019803520102
 20
0.3139818870790898
 10
0.7269047720113058
 20
0.3226686970910983
 10
0.7280495248058543
 20
0.331345101685045
 10
0.729130659499667
 20
0.3400085538035151
 10
0.730142596856755
 20
0.3486565063890938
 10
0.7310797576411332
 20
0.3572864123843655
 10
0.7319365626168093
 20
0.3658957247319154
 10
0.7327074325477945
 20
0.3744818963743288
 10
0.7333867881981
 20
0.3830423802541896
 10
0.7339690503317407
 20
0.3915746293140838
 10
0.7344486397127206
 20
0.400076096496596
 10
0.7348199771050546
 20
0.4085442347443103
 10
0.7350774832727574
 20
0.4169764969998129
 10
0.7352155789798332
 20
0.4253703362056878
 10
0.7352286849902967
 20
0.4337232053045206
 10
0.7351112220681629
 20
0.4420325572388957
 10
0.7348576109774357
 20
0.4502958449513983
 10
0.73446227248213
 20
0.4585105213846133
 10
0.733919627346257
 20
0.4666740394811253
 10
0.7332240963338244
 20
0.4747838521835197
 10
0.7323701002088506
 20
0.4828374124343813
 10
0.7313520597353396
 20
0.4908321731762948
 10
0.7301643956773028
 20
0.4987655873518455
 10
0.7288015287987584
 20
0.5066351079036182
 10
0.7272578798637106
 20
0.5144381877741973
 10
0.7255278696361743
 20
0.5221722799061684
 10
0.7236059188801569
 20
0.5298348372421163
 10
0.7214864483596735
 20
0.5374233127246253
 10
0.7191638788387316
 20
0.5449351592962813
 10
0.716632631081346
 20
0.5523678298996689
 10
0.7138871258515281
 20
0.5597187774773725
 10
0.7109217839132818
 20
0.5669854549719778
 10
0.7077310260306256
 20
0.5741653153260687
 10
0.7043092729675707
 20
0.5812558114822313
 10
0.7006509688901481
 20
0.5882543929277518
 10
0.696753389609647
 20
0.5951580910588774
 10
0.6926193104136403
 20
0.6019631252768583
 10
0.6882521384444332
 20
0.6086656216899029
 10
0.6836552808443273
 20
0.6152617064062201
 10
0.6788321447556207
 20
0.6217475055340183
 10
0.6737861373206187
 20
0.6281191451815054
 10
0.6685206656816228
 20
0.6343727514568905
 10
0.6630391369809381
 20
0.6405044504683817
 10
0.6573449583608593
 20
0.6465103683241882
 10
0.651441536963695
 20
0.6523866311325173
 10
0.6453322799317434
 20
0.6581293650015785
 10
0.6390205944073096
 20
0.6637346960395801
 10
0.6325098875326951
 20
0.6691987503547301
 10
0.6258035664501982
 20
0.6745176540552374
 10
0.6189050383021275
 20
0.6796875332493105
 10
0.6118177102307776
 20
0.684704514045158
 10
0.6045449893784536
 20
0.6895647225509878
 10
0.5970902828874607
 20
0.6942642848750085
 10
0.589456997900097
 20
0.6987993271254292
 10
0.5816485415586677
 20
0.703165975410458
 10
0.5736683210054708
 20
0.7073603558383033
 10
0.5655197433828079
 20
0.711378594517174
 10
0.5572062158329878
 20
0.715216817555278
 10
0.5487311454983051
 20
0.7188711510608239
 10
0.5400979395210684
 20
0.7223377211420204
 10
0.5313100050435758
 20
0.725612653907076
 10
0.5223707492081254
 20
0.728692075464199
 10
0.5132835791570294
 20
0.7315721119215981
 10
0.5040519020325789
 20
0.7342488893874819
 10
0.4946791249770826
 20
0.7367185339700582
 10
0.4851686551328421
 20
0.7389771717775365
 10
0.4755238996421589
 20
0.741020928918124
 10
0.4657482656473349
 20
0.7428459315000305
 10
0.4558451602906679
 20
0.744448305631464
 10
0.4458179907144669
 20
0.7458241774206323
 10
0.4356701640610297
 20
0.7469696729757449
 10
0.4254050874726616
 20
0.7478809184050097
 10
0.4150261680916607
 20
0.7485540398166353
 10
0.4045368130603287
 20
0.7489851633188303
 10
0.3939404295209705
 20
0.7491704150198029
 10
0.383240424615888
 20
0.7491059210277622
 10
0.3724402054873828
 20
0.748787807450916
 10
0.3615431792777564
 20
0.748212200397473
 10
0.3505527531293104
 20
0.7473752259756417
 10
0.3394723341843466
 20
0.7462730102936308
 10
0.3283053295851701
 20
0.7449016794596486
 10
0.3170551464740789
 20
0.7432573595819037
 10
0.3057251919933748
 20
0.7413361767686042
 10
0.2943188732853663
 20
0.7391342571279589
 10
0.2828395974923481
 20
0.7366477267681764
 10
0.2712907717566253
 20
0.7338727117974653
 10
0.2596758032204995
 20
0.7308053383240334
 10
0.2479980990262725
 20
0.7274417324560898
 10
0.2362610663162492
 20
0.7237780203018427
 10
0.2244681122327279
 20
0.7198103279695008
 10
0.2126226439180101
 20
0.7155347815672722
 10
0.2007280685144011
 20
0.7109475072033656
 10
0.1887877931641988
 20
0.7060446309859901
 10
0.1768052250097121
 20
0.700822279023353
 10
0.1647837711932354
 20
0.6952765774236638
 10
0.1527268388570775
 20
0.6894036522951304
 10
0.1396378351435317
 20
0.6831996297459613
 10
0.0989982454605461
 20
0.6652807868221933
 10
0.0989982454605461
 20
0.4478629165186039
 10
0.1406378351435329
 20
0.4478629165186039
 10
0.1406378351435329
 20
0.4138629165186041
 10
0.1406378351435329
 20
0.3088629165186143
 10
-0.0503621648564732
 20
0.3088629165186143
 10
-0.0503621648564732
 20
0.4138629165186041
 10
-0.0503621648564732
 20
0.4478629165186039
 10
-0.0087225751735254
 20
0.4478629165186039
 10
-0.0087225751735254
 20
0.6640623251258396
 10
-0.049362164856511
 20
0.6831996297459613
 10
-0.0624841002545225
 20
0.6894299815406111
 10
-0.0746385216557997
 20
0.695380850253446
 10
-0.0868200629354235
 20
0.7010545435480449
 10
-0.0990233579685089
 20
0.7064533690879871
 10
-0.1112430406301712
 20
0.7115796345368511
 10
-0.1234737447955183
 20
0.7164356475582157
 10
-0.1357101043396653
 20
0.7210237158156608
 10
-0.147946753137731
 20
0.7253461469727652
 10
-0.1601783250648268
 20
0.7294052486931073
 10
-0.1723994539960607
 20
0.7332033286402671
 10
-0.184604773806555
 20
0.7367426944778229
 10
-0.1967889183714213
 20
0.7400256538693535
 10
-0.2089465215657711
 20
0.7430545144784389
 10
-0.2210722172647195
 20
0.7458315839686578
 10
-0.233160639343378
 20
0.7483591700035888
 10
-0.2452064216768619
 20
0.7506395802468111
 10
-0.2572041981402897
 20
0.7526751223619037
 10
-0.2691486026087659
 20
0.7544681040124459
 10
-0.2810342689574128
 20
0.7560208328620166
 10
-0.2928558310613383
 20
0.7573356165741947
 10
-0.3046079227956611
 20
0.7584147628125595
 10
-0.3162851780354892
 20
0.7592605792406899
 10
-0.3278822306559412
 20
0.7598753735221649
 10
-0.3393937145321288
 20
0.7602614533205636
 10
-0.3508142635391671
 20
0.7604211262994647
 10
-0.3621385115521711
 20
0.7603567001224479
 10
-0.3733610924462489
 20
0.7600704824530915
 10
-0.3844766400965191
 20
0.7595647809549751
 10
-0.3954797883780969
 20
0.7588419032916774
 10
-0.4063651711660903
 20
0.7579041571267773
 10
-0.4171274223356179
 20
0.7567538501238542
 10
-0.4277611757617912
 20
0.7553932899464871
 10
-0.4382610653197255
 20
0.7538247842582551
 10
-0.4486217248845286
 20
0.7520506407227368
 10
-0.4588377883313264
 20
0.7500731670035115
 10
-0.4689038895352234
 20
0.7478946707641585
 10
-0.4788146623713346
 20
0.7455174596682564
 10
-0.4885647407147751
 20
0.7429438413793843
 10
-0.4981487584406601
 20
0.7401761235611213
 10
-0.5075613494240976
 20
0.7372166138770467
 10
-0.5167971475402098
 20
0.7340676199907393
 10
-0.5258507866641047
 20
0.7307314495657776
 10
-0.5347169006708974
 20
0.7272104102657418
 10
-0.5433901234357031
 20
0.7235068097542099
 10
-0.5518650888336332
 20
0.7196229556947614
 10
-0.5601364307398065
 20
0.7155611557509754
 10
-0.5681987830293274
 20
0.7113237175864305
 10
-0.5760467795773146
 20
0.7069129488647064
 10
-0.5836750542588867
 20
0.7023311572493811
 10
-0.5910782409491518
 20
0.697580650404035
 10
-0.5982509735232249
 20
0.6926637359922463
 10
-0.6051878858562212
 20
0.6875827216775936
 10
-0.6118836118232523
 20
0.6823399151236571
 10
-0.6183327852994332
 20
0.6769376239940148
 10
-0.624530040159879
 20
0.6713781559522465
 10
-0.6304700102796979
 20
0.6656638186619306
 10
-0.6361473295340119
 20
0.6597969197866465
 10
-0.6415566317979291
 20
0.653779766989973
 10
-0.6466925509465647
 20
0.6476146679354895
 10
-0.6515497208550336
 20
0.6413039302867749
 10
-0.6561227753984476
 20
0.6348498617074077
 10
-0.6604063484519181
 20
0.6282547698609675
 10
-0.6643959765721661
 20
0.6215210775085316
 10
-0.6680950529890595
 20
0.6146522091856959
 10
-0.6715110162833362
 20
0.6076521052353634
 10
-0.6746513384683972
 20
0.6005247102633069
 10
-0.6775234915576256
 20
0.5932739688752995
 10
-0.6801349475644117
 20
0.5859038256771134
 10
-0.6824931785021527
 20
0.5784182252745223
 10
-0.6846056563842389
 20
0.5708211122732983
 10
-0.6864798532240535
 20
0.5631164312792146
 10
-0.6881232410350009
 20
0.5553081268980438
 10
-0.6895432918304643
 20
0.5474001437355592
 10
-0.6907474776238339
 20
0.5393964263975333
 10
-0.691743270428507
 20
0.5313009194897389
 10
-0.6925381422578703
 20
0.5231175676179492
 10
-0.6931395651253141
 20
0.5148503153879367
 10
-0.6935550110442357
 20
0.5065031074054747
 10
-0.6937919520280183
 20
0.4980798882763354
 10
-0.6938578600900592
 20
0.4895846026062918
 10
-0.6937602072437521
 20
0.4810211950011172
 10
-0.6935064655024768
 20
0.4723936100665842
 10
-0.6931041068796411
 20
0.463705792408466
 10
-0.6925606033886212
 20
0.4549616866325344
 10
-0.6918834270428143
 20
0.4461652373445633
 10
-0.6910800498556143
 20
0.437320389150325
 10
-0.6901579438404078
 20
0.4284310866555927
 10
-0.6891245810105922
 20
0.4195012744661391
 10
-0.6879874333795542
 20
0.4105348971877372
 10
-0.686753972960684
 20
0.4015358994261593
 10
-0.685431671767379
 20
0.392508225787179
 10
-0.6840280018130223
 20
0.3834558208765686
 10
-0.6825504351110112
 20
0.3743826293001011
 10
-0.6810064436747361
 20
0.3652925956635493
 10
-0.6794034995175871
 20
0.3561896645726863
 10
-0.6777490746529545
 20
0.3470777806332848
 10
-0.676050641094232
 20
0.3379608884511174
 10
-0.6743156708548064
 20
0.3288429326319573
 10
-0.672551635948075
 20
0.3197278577815776
 10
-0.6707660083874281
 20
0.3106196085057502
 10
-0.6689662601862559
 20
0.301522129410249
 10
-0.6671598633579486
 20
0.2924393651008459
 10
-0.6653542899158964
 20
0.2833752601833144
 10
-0.6635570118734933
 20
0.2743337592634276
 10
-0.6617755012441329
 20
0.2653188069469574
 10
-0.6600172300411984
 20
0.2563343478396773
 10
-0.6582896702780907
 20
0.2473843265473601
 10
-0.656600293968193
 20
0.2384726876757788
 10
-0.6549565731249026
 20
0.2296033758307057
 10
-0.6533659797616061
 20
0.2207803356179139
 10
-0.6518359858916974
 20
0.2120075116431765
 10
-0.6503740635285702
 20
0.2032888485122664
 10
-0.6489876846856113
 20
0.194628290830956
 10
-0.6476843213762145
 20
0.1860297832050182
 10
-0.6464714456137699
 20
0.1774972702402264
 10
-0.6453565294116679
 20
0.1690346965423526
 10
-0.6443470447833058
 20
0.1606460067171707
 10
-0.6434504637420666
 20
0.1523351453704524
 10
-0.6426742583013479
 20
0.1441060571079715
 10
-0.6420259004745397
 20
0.1359626865354997
 10
-0.6415128622750288
 20
0.1279089782588114
 10
-0.641142615716209
 20
0.1199488768836785
 10
-0.6409226328114777
 20
0.1120863270158745
 10
-0.6408603855742179
 20
0.1043252732611712
 10
-0.6409630740980213
 20
0.0966695025722091
 10
-0.6412316443209996
 20
0.0891191758795866
 10
-0.6416607880257992
 20
0.0816708280918572
 10
-0.64224492507525
 20
0.0743208364644428
 10
-0.6429784753321961
 20
0.0670655782527643
 10
-0.643855858659471
 20
0.0599014307122436
 10
-0.6448714949199151
 20
0.0528247710983036
 10
-0.6460198039763619
 20
0.0458319766663644
 10
-0.6472952056916519
 20
0.0389194246718487
 10
-0.6486921199286187
 20
0.0320834923701767
 10
-0.6502049665501027
 20
0.0253205570167721
 10
-0.6518281654189444
 20
0.0186269958670549
 10
-0.6535561363979774
 20
0.0119991861764479
 10
-0.6553832993500351
 20
0.0054335052003722
 10
-0.6573040741379615
 20
-0.0010736698057503
 10
-0.6593128806245936
 20
-0.0075259615864987
 10
-0.6614041386727614
 20
-0.0139269928864501
 10
-0.6635722681453125
 20
-0.0202803864501835
 10
-0.6658116889050767
 20
-0.026589765022278
 10
-0.6681168208148982
 20
-0.0328587513473098
 10
-0.6704820837376069
 20
-0.0390909681698597
 10
-0.6729018975360468
 20
-0.0452900382345041
 10
-0.6753706820730479
 20
-0.0514595842858219
 10
-0.6778828572114542
 20
-0.0576032290683921
 10
-0.6804328428140991
 20
-0.0637245953267929
 10
-0.6830150587438233
 20
-0.0698273058056023
 10
-0.6856239248634602
 20
-0.0759149832493975
 10
-0.6882538610358502
 20
-0.0819912504027594
 10
-0.6908992871238305
 20
-0.0880597300102641
 10
-0.6935546229902379
 20
-0.0941240448164909
 10
-0.696214288497913
 20
-0.1001878175660176
 10
-0.6988727035096858
 20
-0.1062546710034233
 10
-0.7015242878884003
 20
-0.1123282278732853
 10
-0.7041634614968864
 20
-0.1184121109201834
 10
-0.7067846441979917
 20
-0.1245099428886949
 10
-0.7093822558545462
 20
-0.1306253465233977
 10
-0.7119507163293939
 20
-0.1367619445688719
 10
-0.7144844454853648
 20
-0.1429233597696937
 10
-0.7169778631852957
 20
-0.149113214870443
 10
-0.7194253892920309
 20
-0.1553351326156971
 10
-0.7218214436684037
 20
-0.1615927357500348
 10
-0.7241604461772547
 20
-0.1678896470180344
 10
-0.7264368166814137
 20
-0.1742294891642748
 10
-0.728644975043725
 20
-0.1806158849333332
 10
-0.730779341127029
 20
-0.1870524570697887
 10
-0.732834334794152
 20
-0.1935428283182192
 10
-0.7348043759079382
 20
-0.2000906214232039
 10
-0.736683884331228
 20
-0.2066994591293199
 10
-0.7384672799268551
 20
-0.2133729641811461
 10
-0.7401489825576526
 20
-0.2201147593232617
 10
-0.7417234120864649
 20
-0.2269284673002438
 10
-0.7431849883761253
 20
-0.2338177108566706
 10
-0.7445281312894743
 20
-0.2407861127371218
 10
-0.745747260689349
 20
-0.2478372956861738
 10
-0.7468367964385827
 20
-0.2549748824484066
 10
-0.7477911584000161
 20
-0.2622024957683982
 10
-0.7486047664364897
 20
-0.2695237583907266
 10
-0.7492720404108333
 20
-0.2769422930599701
 10
-0.7497874001858911
 20
-0.2844617225207075
 10
-0.7501452656244929
 20
-0.2920856695175162
 10
-0.7503400565894829
 20
-0.299817756794976
 10
-0.750366192943698
 20
-0.3076616070976641
 10
-0.7502181128012886
 20
-0.3156208086415493
 10
-0.749892462685633
 20
-0.3236947716810361
 10
-0.7493901781793575
 20
-0.3318747922476444
 10
-0.7487126876506061
 20
-0.3401512341004764
 10
-0.7478614194675366
 20
-0.3485144609986372
 10
-0.7468378019982858
 20
-0.3569548367012301
 10
-0.7456432636110187
 20
-0.3654627249673599
 10
-0.7442792326738755
 20
-0.374028489556129
 10
-0.7427471375550106
 20
-0.3826424942266433
 10
-0.7410484066225714
 20
-0.3912951027380051
 10
-0.7391844682447122
 20
-0.3999766788493195
 10
-0.737156750789584
 20
-0.4086775863196897
 10
-0.7349666826253305
 20
-0.4173881889082196
 10
-0.7326156921201026
 20
-0.4260988503740136
 10
-0.7301052076420547
 20
-0.4347999344761755
 10
-0.7274366575593341
 20
-0.4434818049738097
 10
-0.7246114702400952
 20
-0.4521348256260192
 10
-0.7216310740524854
 20
-0.4607493601919082
 10
-0.7184968973646484
 20
-0.4693157724305808
 10
-0.7152103685447458
 20
-0.4778244261011411
 10
-0.7117729159609212
 20
-0.4862656849626923
 10
-0.7081859679813256
 20
-0.4946299127743395
 10
-0.7044509529741099
 20
-0.5029074732951866
 10
-0.7005692993074213
 20
-0.5110887302843361
 10
-0.6965424353494179
 20
-0.519164047500893
 10
-0.6923717894682398
 20
-0.5271237887039613
 10
-0.6880587900320414
 20
-0.5349583176526452
 10
-0.6836048654089773
 20
-0.5426579981060478
 10
-0.6790114439671875
 20
-0.5502131938232733
 10
-0.6742799540748337
 20
-0.5576142685634258
 10
-0.669411824100056
 20
-0.5648515860856094
 10
-0.6644084824110159
 20
-0.5719155101489273
 10
-0.6592713573758502
 20
-0.5787964045124845
 10
-0.6540018773627168
 20
-0.5854846329353843
 10
-0.6486014707397665
 20
-0.5919705591767306
 10
-0.6430715658751432
 20
-0.5982445469956277
 10
-0.6374135911370083
 20
-0.6042969601511797
 10
-0.6316289748934985
 20
-0.6101181624024897
 10
-0.6257191455127753
 20
-0.6156985175086618
 10
-0.619685531362979
 20
-0.6210283892288011
 10
-0.6135295608122711
 20
-0.62609814132201
 10
-0.6072526622287917
 20
-0.6308981375473933
 10
-0.6008562639806918
 20
-0.6354187416640551
 10
-0.5943417944361294
 20
-0.6396503174310988
 10
-0.5877106819632481
 20
-0.6435832286076293
 10
-0.5809643549301989
 20
-0.647207838952749
 10
-0.5741042417051326
 20
-0.6505145122255627
 10
-0.5671317706562001
 20
-0.6534936121851747
 10
-0.5600483701515522
 20
-0.6561355025906881
 10
-0.5528554685593328
 20
-0.6584305472012071
 10
-0.5455544942477033
 20
-0.6603691097758367
 10
-0.538146875584804
 20
-0.6619415540736791
 10
-0.5306340409387893
 20
-0.6631382438538394
 10
-0.5230174186778065
 20
-0.6639495428754217
 10
-0.51529843717001
 20
-0.6643658148975291
 10
-0.5074785247835472
 20
-0.6643774236792659
 10
-0.4995591098865689
 20
-0.6639747329797361
 10
-0.4915416208472259
 20
-0.6631481065580429
 10
-0.4834274860336656
 20
-0.6618879081732923
 10
-0.4752181338140425
 20
-0.6601845015845856
 10
-0.4669149925565002
 20
-0.6580282505510287
 10
-0.4258836163523796
 20
-0.6439542482166596
 10
-0.4258836163523796
 20
-0.389137083482034
 10
-0.4513836163523806
 20
-0.3891370834820278
 10
-0.4513836163523806
 20
-0.2791370834820404
 10
-0.2673836163523795
 20
-0.2791370834820404
 10
-0.2673836163523795
 20
-0.3891370834820336
 10
-0.2928836163523769
 20
-0.389137083482034
 10
-0.2928836163523769
 20
-0.6558241178159685
 10
-0.2582712631240618
 20
-0.6446788242438695
 10
-0.254074120761107
 20
-0.6431167150084188
 10
-0.2512750082019757
 20
-0.6419899536656013
 10
-0.2464995570330366
 20
-0.6396754724563217
 10
-0.2413426730635315
 20
-0.6371257672166557
 10
-0.2361944480127391
 20
-0.6347748680554349
 10
-0.2310548526686134
 20
-0.6326181364874178
 10
-0.225923857819101
 20
-0.6306509340273623
 10
-0.2208014342521594
 20
-0.6288686221900291
 10
-0.2156875527557354
 20
-0.6272665624901741
 10
-0.2105821841177864
 20
-0.625840116442558
 10
-0.2054852991262592
 20
-0.6245846455619395
 10
-0.2003968685691113
 20
-0.6234955113630756
 10
-0.1953168632342894
 20
-0.6225680753607268
 10
-0.1902452539097439
 20
-0.621797699069651
 10
-0.1851820113834321
 20
-0.621179744004607
 10
-0.1801271064433045
 20
-0.6207095716803526
 10
-0.1750805098773114
 20
-0.6203825436116484
 10
-0.1700421924734066
 20
-0.6201940213132513
 10
-0.1650121250195404
 20
-0.6201393662999202
 10
-0.1599902783036633
 20
-0.6202139400864147
 10
-0.1549766231137291
 20
-0.6204131041874934
 10
-0.149971130237688
 20
-0.6207322201179136
 10
-0.1449737704634941
 20
-0.6211666493924355
 10
-0.1399845145790977
 20
-0.6217117535258172
 10
-0.1350033333724525
 20
-0.6223628940328175
 10
-0.130030197631509
 20
-0.6231154324281949
 10
-0.1250650781442211
 20
-0.6239647302267084
 10
-0.1201079456985354
 20
-0.6249061489431158
 10
-0.1151587710824096
 20
-0.6259350500921768
 10
-0.1102175250837902
 20
-0.6270467951886501
 10
-0.1052841784906349
 20
-0.6282367457472926
 10
-0.1003587020908903
 20
-0.6295002632828659
 10
-0.0954410666725103
 20
-0.6308327093101261
 10
-0.0905312430234489
 20
-0.6322294453438327
 10
-0.0856292019316563
 20
-0.6336858328987454
 10
-0.0807349141850828
 20
-0.6351972334896212
 10
-0.0758483505716825
 20
-0.6367590086312207
 10
-0.0709694818794056
 20
-0.6383665198383009
 10
-0.0660982788962059
 20
-0.6400151286256204
 10
-0.0612347124100303
 20
-0.6417001965079399
 10
-0.0563787532088362
 20
-0.6434170850000154
 10
-0.0515303720805775
 20
-0.6451611556166075
 10
-0.0466895398131975
 20
-0.6469277698724741
 10
-0.0418562271946534
 20
-0.6487122892823747
 10
-0.0370304050128993
 20
-0.6505100753610665
 10
-0.032212044055882
 20
-0.6523164896233098
 10
-0.0274011151115552
 20
-0.6541268935838618
 10
-0.0225975889678694
 20
-0.6559366487574821
 10
-0.0178014364127819
 20
-0.6577411166589294
 10
-0.0130126282342396
 20
-0.6595356588029615
 10
-0.0082311352201927
 20
-0.6613156367043383
 10
-0.0034569281585988
 20
-0.6630764118778174
 10
0.0013100221625919
 20
-0.6648133458381578
 10
0.0060697449554326
 20
-0.666521800100119
 10
0.0108222694319622
 20
-0.6681971361784589
 10
0.0155676248042376
 20
-0.6698347155879354
 10
0.0203058402843048
 20
-0.6714298998433091
 10
0.0250369450842101
 20
-0.6729780504593377
 10
0.029760968416003
 20
-0.6744745289507792
 10
0.0344779394917296
 20
-0.6759146968323933
 10
0.0391878875234362
 20
-0.6772939156189377
 10
0.0438908417231794
 20
-0.6786075468251723
 10
0.0485868313029982
 20
-0.6798509519658547
 10
0.053275885474946
 20
-0.6810194925557438
 10
0.0579580334510723
 20
-0.6821085301095984
 10
0.0626333044434198
 20
-0.6831134261421781
 10
0.067301727664038
 20
-0.6840295421682399
 10
0.0719633323249802
 20
-0.6848522397025443
 10
0.076618147638289
 20
-0.6855768802598483
 10
0.0812662028160141
 20
-0.6861988253549108
 10
0.0859075270702015
 20
-0.6867134365024912
 10
0.0905421496129044
 20
-0.6871160752173484
 10
0.0951700996561655
 20
-0.6874021030142404
 10
0.099791406412038
 20
-0.6875668814079257
 10
0.1044060990925679
 20
-0.6876057719131641
 10
0.109014206909805
 20
-0.6875141360447135
 10
0.1136157590757918
 20
-0.6872873353173317
 10
0.1182107848025815
 20
-0.6869207312457793
 10
0.1227993133022203
 20
-0.6864096853448132
 10
0.1273813737867577
 20
-0.6857495591291931
 10
0.13195699546824
 20
-0.684935714113677
 10
0.1365262075587204
 20
-0.6839635118130243
 10
0.1410890392702377
 20
-0.682828313741994
 10
0.145645519814849
 20
-0.6815254814153429
 10
0.1501956784045966
 20
-0.6800503763478316
 10
0.1547395442515338
 20
-0.6783983600542181
 10
0.1592771465677032
 20
-0.676564794049261
 10
0.163808514565158
 20
-0.6745450398477191
 10
0.1683336774559443
 20
-0.6723344589643512
 10
0.1728526644521082
 20
-0.6699284129139161
 10
0.1773655047656994
 20
-0.6673222632111715
 10
0.1818722276087641
 20
-0.6645113713708773
 10
0.1863728621933553
 20
-0.6614910989077912
 10
0.1908674377315194
 20
-0.658256807336672
 10
0.1949153461675301
 20
-0.6542310665031819
 10
0.1993532713012307
 20
-0.6504394772313456
 10
0.2039825728413795
 20
-0.6465268710546193
 10
0.2341054605287951
 20
-0.620891368656682
 10
0.2341054605287951
 20
-0.389137083482034
  0
CIRCLE
  5
3F8
330
1F
100
AcDbEntity
  8
PCB_Plated_Holes
100
AcDbCircle
 10
-0.2528836163523778
 20
-0.4291370834820336
 30
0.0
 40
0.02
  0
CIRCLE
  5
3F9
330
1F
100
AcDbEntity
  8
PCB_Plated_Holes
100
AcDbCircle
 10
-0.2528836163523778
 20
-0.5291370834820333
 30
0.0
 40
0.02
  0
CIRCLE
  5
3FA
330
1F
100
AcDbEntity
  8
PCB_Plated_Holes
100
AcDbCircle
 10
0.407105460528797
 20
-0.4291370834820336
 30
0.0
 40
0.02
  0
CIRCLE
  5
3FB
330
1F
100
AcDbEntity
  8
PCB_Plated_Holes
100
AcDbCircle
 10
0.407105460528797
 20
-0.5291370834820333
 30
0.0
 40
0.02
  0
CIRCLE
  5
3FC
330
1F
100
AcDbEntity
  8
PCB_Plated_Holes
100
AcDbCircle
 10
0.1941054605287959
 20
-0.4291370834820336
 30
0.0
 40
0.02
  0
CIRCLE
  5
3FD
330
1F
100
AcDbEntity
  8
PCB_Plated_Holes
100
AcDbCircle
 10
0.1941054605287959
 20
-0.5291370834820333
 30
0.0
 40
0.02
  0
ENDSEC
  0
SECTION
  2
OBJECTS
  0
DICTIONARY
  5
C
330
0
100
AcDbDictionary
281
     1
  3
ACAD_CIP_PREVIOUS_PRODUCT_INFO
350
1A5
  3
ACAD_COLOR
350
73
  3
ACAD_DETAILVIEWSTYLE
350
1AB
  3
ACAD_GROUP
350
D
  3
ACAD_LAYOUT
350
1A
  3
ACAD_MATERIAL
350
72
  3
ACAD_MLEADERSTYLE
350
D7
  3
ACAD_MLINESTYLE
350
17
  3
ACAD_PLOTSETTINGS
350
19
  3
ACAD_PLOTSTYLENAME
350
E
  3
ACAD_SCALELIST
350
B6
  3
ACAD_SECTIONVIEWSTYLE
350
1A8
  3
ACAD_TABLESTYLE
350
86
  3
ACAD_VISUALSTYLE
350
99
  3
ACDB_RECOMPOSE_DATA
350
45B
  3
AcDbVariableDictionary
350
66
  0
DICTIONARY
  5
18E
330
2
100
AcDbDictionary
280
     1
281
     1
  3
ACAD_LAYERSTATES
360
18F
  0
DICTIONARY
  5
E6
330
10
100
AcDbDictionary
280
     1
281
     1
  0
DICTIONARY
  5
266
330
265
100
AcDbDictionary
280
     1
281
     1
  0
DICTIONARY
  5
26C
330
26B
100
AcDbDictionary
280
     1
281
     1
  0
DICTIONARY
  5
15D
330
1F
100
AcDbDictionary
280
     1
281
     1
  0
DICTIONARY
  5
349
330
348
100
AcDbDictionary
280
     1
281
     1
  3
AcDbContextDataManager
360
34A
  0
XRECORD
  5
1A5
102
{ACAD_REACTORS
330
C
102
}
330
C
100
AcDbXrecord
280
     1
300
ACD
300
2021
300

  0
DICTIONARY
  5
73
102
{ACAD_REACTORS
330
C
102
}
330
C
100
AcDbDictionary
281
     1
  0
DICTIONARY
  5
1AB
102
{ACAD_REACTORS
330
C
102
}
330
C
100
AcDbDictionary
281
     1
  3
Imperial24
350
1AC
  0
DICTIONARY
  5
D
102
{ACAD_REACTORS
330
C
102
}
330
C
100
AcDbDictionary
281
     1
  0
DICTIONARY
  5
1A
102
{ACAD_REACTORS
330
C
102
}
330
C
100
AcDbDictionary
281
     1
  3
Layout1
350
59
  3
Layout2
350
5E
  3
Model
350
22
  0
DICTIONARY
  5
72
102
{ACAD_REACTORS
330
C
102
}
330
C
100
AcDbDictionary
281
     1
  3
ByBlock
350
97
  3
ByLayer
350
96
  3
Global
350
98
  0
DICTIONARY
  5
D7
102
{ACAD_REACTORS
330
C
102
}
330
C
100
AcDbDictionary
281
     1
  3
Annotative
350
E5
  3
datasheet
350
277
  3
Standard
350
D8
  0
DICTIONARY
  5
17
102
{ACAD_REACTORS
330
C
102
}
330
C
100
AcDbDictionary
281
     1
  3
Standard
350
18
  0
DICTIONARY
  5
19
102
{ACAD_REACTORS
330
C
102
}
330
C
100
AcDbDictionary
281
     1
  0
ACDBDICTIONARYWDFLT
  5
E
102
{ACAD_REACTORS
330
C
102
}
330
C
100
AcDbDictionary
281
     1
  3
Normal
350
F
100
AcDbDictionaryWithDefault
340
F
  0
DICTIONARY
  5
B6
102
{ACAD_REACTORS
330
C
102
}
330
C
100
AcDbDictionary
281
     1
  3
A0
350
B7
  3
A1
350
124
  3
A2
350
125
  3
A3
350
126
  3
A4
350
127
  3
A5
350
128
  3
A6
350
129
  3
A7
350
12A
  3
A8
350
12B
  3
A9
350
12C
  3
B0
350
12D
  3
B1
350
12E
  3
B2
350
12F
  3
B3
350
130
  3
B4
350
131
  3
B5
350
132
  3
B6
350
133
  3
B7
350
134
  3
B8
350
135
  3
B9
350
136
  3
C0
350
137
  3
C1
350
138
  3
C2
350
139
  3
C3
350
13A
  3
C4
350
13B
  3
C5
350
13C
  3
C6
350
13D
  3
C7
350
13E
  3
C8
350
13F
  3
C9
350
140
  3
D0
350
141
  3
D1
350
142
  3
D2
350
143
  0
DICTIONARY
  5
1A8
102
{ACAD_REACTORS
330
C
102
}
330
C
100
AcDbDictionary
281
     1
  3
Imperial24
350
1AA
  0
DICTIONARY
  5
86
102
{ACAD_REACTORS
330
C
102
}
330
C
100
AcDbDictionary
281
     1
  3
Standard
350
87
  0
DICTIONARY
  5
99
102
{ACAD_REACTORS
330
C
102
}
330
C
100
AcDbDictionary
281
     1
  3
2dWireframe
350
9F
  3
Basic
350
9E
  3
Brighten
350
A5
  3
ColorChange
350
A9
  3
Conceptual
350
A2
  3
Dim
350
A4
  3
EdgeColorOff
350
175
  3
Facepattern
350
A8
  3
Flat
350
9A
  3
FlatWithEdges
350
9B
  3
Gouraud
350
9C
  3
GouraudWithEdges
350
9D
  3
Hidden
350
A1
  3
JitterOff
350
173
  3
Linepattern
350
A7
  3
OverhangOff
350
174
  3
Realistic
350
A3
  3
Shaded
350
182
  3
Shaded with edges
350
181
  3
Shades of Gray
350
17E
  3
Sketchy
350
17F
  3
Thicken
350
A6
  3
Wireframe
350
A0
  3
X-Ray
350
180
  0
XRECORD
  5
45B
102
{ACAD_REACTORS
330
C
102
}
330
C
100
AcDbXrecord
280
     1
 90
        1
330
87
  0
DICTIONARY
  5
66
102
{ACAD_REACTORS
330
C
102
}
330
C
100
AcDbDictionary
281
     1
  3
CANNOSCALE
350
F0
  3
CMLEADERSTYLE
350
EF
  3
CTABLESTYLE
350
89
  3
CVIEWDETAILSTYLE
350
1B7
  3
CVIEWSECTIONSTYLE
350
1B8
  3
DIMASSOC
350
67
  3
HIDETEXT
350
6B
  3
LAYEREVAL
350
14D
  3
LAYERNOTIFY
350
14E
  0
DICTIONARY
  5
18F
102
{ACAD_REACTORS
330
18E
102
}
330
18E
100
AcDbDictionary
281
     1
  0
DICTIONARY
  5
34A
102
{ACAD_REACTORS
330
349
102
}
330
349
100
AcDbDictionary
281
     1
  3
ACDB_ANNOTATIONSCALES
350
34B
  0
ACDBDETAILVIEWSTYLE
  5
1AC
102
{ACAD_REACTORS
330
1AB
102
}
330
1AB
100
AcDbModelDocViewStyle
 70
     0
  3
Imperial24
290
     0
300
Imperial24
 90
        0
100
AcDbDetailViewStyle
 70
     0
 71
     0
 90
        3
 71
     1
340
11
 62
   256
 40
0.24
340
0
 62
   256
 40
0.24
300

 40
0.36
280
     3
 71
     2
340
16
 90
       25
 62
   256
 71
     3
340
11
 62
   256
 40
0.24
 90
        1
 40
0.75
 90
        1
300
%<\AcVar ViewType \f "%tc1">% %<\AcVar ViewDetailId>%\PSCALE %<\AcVar ViewScale \f "%sn">%
 71
     4
340
16
 90
       25
 62
   256
340
16
 90
       25
 62
   256
280
     0
  0
LAYOUT
  5
59
102
{ACAD_REACTORS
330
1A
102
}
330
1A
100
AcDbPlotSettings
  1

  2
None
  4

  6

 40
0.0
 41
0.0
 42
0.0
 43
0.0
 44
0.0
 45
0.0
 46
0.0
 47
0.0
 48
0.0
 49
0.0
140
0.0
141
0.0
142
1.0
143
1.0
 70
   688
 72
     0
 73
     0
 74
     5
  7

 75
    16
147
1.0
 76
     0
 77
     2
 78
   300
148
0.0
149
0.0
100
AcDbLayout
  1
Layout1
 70
     1
 71
     1
 10
0.0
 20
0.0
 11
12.0
 21
9.0
 12
0.0
 22
0.0
 32
0.0
 14
0.0
 24
0.0
 34
0.0
 15
0.0
 25
0.0
 35
0.0
146
0.0
 13
0.0
 23
0.0
 33
0.0
 16
1.0
 26
0.0
 36
0.0
 17
0.0
 27
1.0
 37
0.0
 76
     0
330
58
  0
LAYOUT
  5
5E
102
{ACAD_REACTORS
330
1A
102
}
330
1A
100
AcDbPlotSettings
  1

  2
None
  4

  6

 40
0.0
 41
0.0
 42
0.0
 43
0.0
 44
0.0
 45
0.0
 46
0.0
 47
0.0
 48
0.0
 49
0.0
140
0.0
141
0.0
142
1.0
143
1.0
 70
   688
 72
     0
 73
     0
 74
     5
  7

 75
    16
147
1.0
 76
     0
 77
     2
 78
   300
148
0.0
149
0.0
100
AcDbLayout
  1
Layout2
 70
     1
 71
     2
 10
0.0
 20
0.0
 11
12.0
 21
9.0
 12
0.0
 22
0.0
 32
0.0
 14
0.0
 24
0.0
 34
0.0
 15
0.0
 25
0.0
 35
0.0
146
0.0
 13
0.0
 23
0.0
 33
0.0
 16
1.0
 26
0.0
 36
0.0
 17
0.0
 27
1.0
 37
0.0
 76
     0
330
5D
  0
LAYOUT
  5
22
102
{ACAD_XDICTIONARY
360
194
102
}
102
{ACAD_REACTORS
330
1A
102
}
330
1A
100
AcDbPlotSettings
  1

  2
none_device
  4
ANSI_A_(8.50_x_11.00_Inches)
  6

 40
6.349999904632568
 41
19.04999923706055
 42
6.350006103515625
 43
19.04998779296875
 44
215.8999938964844
 45
279.3999938964844
 46
0.0
 47
0.0
 48
0.0
 49
0.0
140
0.0
141
0.0
142
1.0
143
2.584895464708373
 70
 11952
 72
     0
 73
     1
 74
     0
  7

 75
     0
147
0.3868628397755418
 76
     0
 77
     2
 78
   300
148
0.0
149
0.0
100
AcDbLayout
  1
Model
 70
     1
 71
     0
 10
0.0
 20
0.0
 11
12.0
 21
9.0
 12
0.0
 22
0.0
 32
0.0
 14
0.0
 24
0.0
 34
0.0
 15
0.0
 25
0.0
 35
0.0
146
0.0
 13
0.0
 23
0.0
 33
0.0
 16
1.0
 26
0.0
 36
0.0
 17
0.0
 27
1.0
 37
0.0
 76
     0
330
1F
331
94
  0
MATERIAL
  5
97
102
{ACAD_XDICTIONARY
360
188
102
}
102
{ACAD_REACTORS
330
72
102
}
330
72
100
AcDbMaterial
  1
ByBlock
 94
       63
  0
MATERIAL
  5
96
102
{ACAD_XDICTIONARY
360
186
102
}
102
{ACAD_REACTORS
330
72
102
}
330
72
100
AcDbMaterial
  1
ByLayer
 94
       63
  0
MATERIAL
  5
98
102
{ACAD_XDICTIONARY
360
110
102
}
102
{ACAD_REACTORS
330
72
102
}
330
72
100
AcDbMaterial
  1
Global
 43
0.0208000000566244
 43
0.0
 43
0.0
 43
0.0
 43
0.0
 43
0.0208000000566244
 43
0.0
 43
0.0
 43
0.0
 43
0.0
 43
1.0
 43
0.0
 43
0.0
 43
0.0
 43
0.0
 43
1.0
 49
0.0208000000566244
 49
0.0
 49
0.0
 49
0.0
 49
0.0
 49
0.0208000000566244
 49
0.0
 49
0.0
 49
0.0
 49
0.0
 49
1.0
 49
0.0
 49
0.0
 49
0.0
 49
0.0
 49
1.0
142
0.0208000000566244
142
0.0
142
0.0
142
0.0
142
0.0
142
0.0208000000566244
142
0.0
142
0.0
142
0.0
142
0.0
142
1.0
142
0.0
142
0.0
142
0.0
142
0.0
142
1.0
144
0.0208000000566244
144
0.0
144
0.0
144
0.0
144
0.0
144
0.0208000000566244
144
0.0
144
0.0
144
0.0
144
0.0
144
1.0
144
0.0
144
0.0
144
0.0
144
0.0
144
1.0
 94
       63
1001
ACAD
1070
    -1
1070
     3
1070
     0
1000

1071
        0
1070
     0
  0
MLEADERSTYLE
  5
E5
102
{ACAD_REACTORS
330
D7
102
}
330
D7
100
AcDbMLeaderStyle
179
     2
170
     2
171
     1
172
     0
 90
        2
 40
0.0
 41
0.0
173
     1
 91
-1056964608
340
14
 92
       -2
290
     1
 42
0.09
291
     1
 43
0.36
  3
Standard
 44
0.18
300

342
11
174
     1
178
     1
175
     1
176
     0
 93
-1056964608
 45
0.18
292
     0
297
     0
 46
0.18
 94
-1056964608
 47
1.0
 49
1.0
140
1.0
293
     1
141
0.0
294
     1
177
     0
142
1.0
295
     0
296
     1
143
0.125
271
     0
272
     9
273
     9
298
     0
  0
MLEADERSTYLE
  5
277
102
{ACAD_REACTORS
330
27F
330
D7
330
345
102
}
330
D7
100
AcDbMLeaderStyle
179
     2
170
     2
171
     1
172
     0
 90
        2
 40
0.0
 41
0.0
173
     1
 91
-1056964608
340
14
 92
       -2
290
     1
 42
0.05
291
     1
 43
0.1
  3
Standard
 44
0.075
300

342
DC
174
     1
178
     1
175
     1
176
     0
 93
-1056964608
 45
0.1
292
     0
297
     0
 46
0.18
 94
-1056964608
 47
1.0
 49
1.0
140
1.0
293
     1
141
0.0
294
     1
177
     0
142
1.0
295
     0
296
     0
143
0.1
271
     0
272
     9
273
     9
298
     0
  0
MLEADERSTYLE
  5
D8
102
{ACAD_REACTORS
330
D7
102
}
330
D7
100
AcDbMLeaderStyle
179
     2
170
     2
171
     1
172
     0
 90
        2
 40
0.0
 41
0.0
173
     1
 91
-1056964608
340
14
 92
       -2
290
     1
 42
0.09
291
     1
 43
0.36
  3
Standard
 44
0.18
300

342
11
174
     1
178
     1
175
     1
176
     0
 93
-1056964608
 45
0.18
292
     0
297
     0
 46
0.18
 94
-1056964608
 47
1.0
 49
1.0
140
1.0
293
     1
141
0.0
294
     1
177
     0
142
1.0
295
     0
296
     0
143
0.125
271
     0
272
     9
273
     9
298
     0
  0
MLINESTYLE
  5
18
102
{ACAD_REACTORS
330
17
102
}
330
17
100
AcDbMlineStyle
  2
STANDARD
 70
     0
  3

 62
   256
 51
90.0
 52
90.0
 71
     2
 49
0.5
 62
   256
  6
BYLAYER
 49
-0.5
 62
   256
  6
BYLAYER
  0
ACDBPLACEHOLDER
  5
F
102
{ACAD_REACTORS
330
E
102
}
330
E
  0
SCALE
  5
B7
102
{ACAD_REACTORS
330
B6
102
}
330
B6
100
AcDbScale
 70
     0
300
1:1
140
1.0
141
1.0
290
     1
  0
SCALE
  5
124
102
{ACAD_REACTORS
330
B6
102
}
330
B6
100
AcDbScale
 70
     0
300
1:2
140
1.0
141
2.0
290
     0
  0
SCALE
  5
125
102
{ACAD_REACTORS
330
B6
102
}
330
B6
100
AcDbScale
 70
     0
300
1:4
140
1.0
141
4.0
290
     0
  0
SCALE
  5
126
102
{ACAD_REACTORS
330
B6
102
}
330
B6
100
AcDbScale
 70
     0
300
1:5
140
1.0
141
5.0
290
     0
  0
SCALE
  5
127
102
{ACAD_REACTORS
330
B6
102
}
330
B6
100
AcDbScale
 70
     0
300
1:8
140
1.0
141
8.0
290
     0
  0
SCALE
  5
128
102
{ACAD_REACTORS
330
B6
102
}
330
B6
100
AcDbScale
 70
     0
300
1:10
140
1.0
141
10.0
290
     0
  0
SCALE
  5
129
102
{ACAD_REACTORS
330
B6
102
}
330
B6
100
AcDbScale
 70
     0
300
1:16
140
1.0
141
16.0
290
     0
  0
SCALE
  5
12A
102
{ACAD_REACTORS
330
B6
102
}
330
B6
100
AcDbScale
 70
     0
300
1:20
140
1.0
141
20.0
290
     0
  0
SCALE
  5
12B
102
{ACAD_REACTORS
330
B6
102
}
330
B6
100
AcDbScale
 70
     0
300
1:30
140
1.0
141
30.0
290
     0
  0
SCALE
  5
12C
102
{ACAD_REACTORS
330
B6
102
}
330
B6
100
AcDbScale
 70
     0
300
1:40
140
1.0
141
40.0
290
     0
  0
SCALE
  5
12D
102
{ACAD_REACTORS
330
B6
102
}
330
B6
100
AcDbScale
 70
     0
300
1:50
140
1.0
141
50.0
290
     0
  0
SCALE
  5
12E
102
{ACAD_REACTORS
330
B6
102
}
330
B6
100
AcDbScale
 70
     0
300
1:100
140
1.0
141
100.0
290
     0
  0
SCALE
  5
12F
102
{ACAD_REACTORS
330
B6
102
}
330
B6
100
AcDbScale
 70
     0
300
2:1
140
2.0
141
1.0
290
     0
  0
SCALE
  5
130
102
{ACAD_REACTORS
330
B6
102
}
330
B6
100
AcDbScale
 70
     0
300
4:1
140
4.0
141
1.0
290
     0
  0
SCALE
  5
131
102
{ACAD_REACTORS
330
B6
102
}
330
B6
100
AcDbScale
 70
     0
300
8:1
140
8.0
141
1.0
290
     0
  0
SCALE
  5
132
102
{ACAD_REACTORS
330
B6
102
}
330
B6
100
AcDbScale
 70
     0
300
10:1
140
10.0
141
1.0
290
     0
  0
SCALE
  5
133
102
{ACAD_REACTORS
330
B6
102
}
330
B6
100
AcDbScale
 70
     0
300
100:1
140
100.0
141
1.0
290
     0
  0
SCALE
  5
134
102
{ACAD_REACTORS
330
B6
102
}
330
B6
100
AcDbScale
 70
     0
300
1/128" = 1'-0"
140
0.0078125
141
12.0
290
     0
  0
SCALE
  5
135
102
{ACAD_REACTORS
330
B6
102
}
330
B6
100
AcDbScale
 70
     0
300
1/64" = 1'-0"
140
0.015625
141
12.0
290
     0
  0
SCALE
  5
136
102
{ACAD_REACTORS
330
B6
102
}
330
B6
100
AcDbScale
 70
     0
300
1/32" = 1'-0"
140
0.03125
141
12.0
290
     0
  0
SCALE
  5
137
102
{ACAD_REACTORS
330
B6
102
}
330
B6
100
AcDbScale
 70
     0
300
1/16" = 1'-0"
140
0.0625
141
12.0
290
     0
  0
SCALE
  5
138
102
{ACAD_REACTORS
330
B6
102
}
330
B6
100
AcDbScale
 70
     0
300
3/32" = 1'-0"
140
0.09375
141
12.0
290
     0
  0
SCALE
  5
139
102
{ACAD_REACTORS
330
B6
102
}
330
B6
100
AcDbScale
 70
     0
300
1/8" = 1'-0"
140
0.125
141
12.0
290
     0
  0
SCALE
  5
13A
102
{ACAD_REACTORS
330
B6
102
}
330
B6
100
AcDbScale
 70
     0
300
3/16" = 1'-0"
140
0.1875
141
12.0
290
     0
  0
SCALE
  5
13B
102
{ACAD_REACTORS
330
B6
102
}
330
B6
100
AcDbScale
 70
     0
300
1/4" = 1'-0"
140
0.25
141
12.0
290
     0
  0
SCALE
  5
13C
102
{ACAD_REACTORS
330
B6
102
}
330
B6
100
AcDbScale
 70
     0
300
3/8" = 1'-0"
140
0.375
141
12.0
290
     0
  0
SCALE
  5
13D
102
{ACAD_REACTORS
330
B6
102
}
330
B6
100
AcDbScale
 70
     0
300
1/2" = 1'-0"
140
0.5
141
12.0
290
     0
  0
SCALE
  5
13E
102
{ACAD_REACTORS
330
B6
102
}
330
B6
100
AcDbScale
 70
     0
300
3/4" = 1'-0"
140
0.75
141
12.0
290
     0
  0
SCALE
  5
13F
102
{ACAD_REACTORS
330
B6
102
}
330
B6
100
AcDbScale
 70
     0
300
1" = 1'-0"
140
1.0
141
12.0
290
     0
  0
SCALE
  5
140
102
{ACAD_REACTORS
330
B6
102
}
330
B6
100
AcDbScale
 70
     0
300
1-1/2" = 1'-0"
140
1.5
141
12.0
290
     0
  0
SCALE
  5
141
102
{ACAD_REACTORS
330
B6
102
}
330
B6
100
AcDbScale
 70
     0
300
3" = 1'-0"
140
3.0
141
12.0
290
     0
  0
SCALE
  5
142
102
{ACAD_REACTORS
330
B6
102
}
330
B6
100
AcDbScale
 70
     0
300
6" = 1'-0"
140
6.0
141
12.0
290
     0
  0
SCALE
  5
143
102
{ACAD_REACTORS
330
B6
102
}
330
B6
100
AcDbScale
 70
     0
300
1'-0" = 1'-0"
140
12.0
141
12.0
290
     0
  0
ACDBSECTIONVIEWSTYLE
  5
1AA
102
{ACAD_REACTORS
330
1A8
102
}
330
1A8
100
AcDbModelDocViewStyle
 70
     0
  3
Imperial24
290
     0
300
Imperial24
 90
        0
100
AcDbSectionViewStyle
 70
     0
 71
     0
 90
       78
 71
     1
340
11
 62
   256
 40
0.24
340
0
340
0
 62
   256
 40
0.24
300
I, O, Q, S, X, Z
 40
0.48
 90
        3
 40
0.18
 90
        1
 71
     2
340
16
 90
       25
 62
   256
340
16
 90
       50
 62
   256
 40
0.24
 40
0.0
 40
0.24
 71
     3
340
11
 62
   256
 40
0.24
 90
        1
 40
0.75
 90
        1
300
%<\AcVar ViewType \f "%tc1">% %<\AcVar ViewSectionStartId>%-%<\AcVar ViewSectionEndId>%\PSCALE %<\AcVar ViewScale \f "%sn">%
 71
     4
 62
   256
 62
   257
300
ANSI31
 40
1.0
 90
        0
290
     0
290
     0
 90
        6
 40
0.0
 40
1.570796326794896
 40
0.2617993877991494
 40
1.308996938995747
 40
-0.2617993877991494
 40
1.832595714594046
  0
TABLESTYLE
  5
87
102
{ACAD_XDICTIONARY
360
104
102
}
102
{ACAD_REACTORS
330
86
102
}
330
86
100
AcDbTableStyle
280
     0
  3
Standard
 70
     0
 71
     0
 40
0.06
 41
0.06
280
     0
281
     0
  7
Standard
140
0.18
170
     2
 62
     0
 63
     7
283
     0
 90
      512
 91
        0
  1

274
    -2
284
     1
 64
     0
275
    -2
285
     1
 65
     0
276
    -2
286
     1
 66
     0
277
    -2
287
     1
 67
     0
278
    -2
288
     1
 68
     0
279
    -2
289
     1
 69
     0
  7
Standard
140
0.25
170
     5
 62
     0
 63
     7
283
     0
 90
      512
 91
        0
  1

274
    -2
284
     1
 64
     0
275
    -2
285
     1
 65
     0
276
    -2
286
     1
 66
     0
277
    -2
287
     1
 67
     0
278
    -2
288
     1
 68
     0
279
    -2
289
     1
 69
     0
  7
Standard
140
0.18
170
     5
 62
     0
 63
     7
283
     0
 90
      512
 91
        0
  1

274
    -2
284
     1
 64
     0
275
    -2
285
     1
 65
     0
276
    -2
286
     1
 66
     0
277
    -2
287
     1
 67
     0
278
    -2
288
     1
 68
     0
279
    -2
289
     1
 69
     0
  0
VISUALSTYLE
  5
9F
102
{ACAD_REACTORS
330
99
102
}
330
99
100
AcDbVisualStyle
  2
2dWireframe
 70
     4
177
     3
291
     0
 70
    58
 90
        0
176
     1
 90
        2
176
     1
 90
        1
176
     1
 90
        0
176
     1
 40
0.6
176
     1
 40
30.0
176
     1
 62
     7
420
 16777215
176
     1
 90
        1
176
     1
 90
        4
176
     1
 62
     7
176
     1
 62
   257
176
     1
 90
        1
176
     1
 90
        1
176
     1
 40
1.0
176
     1
 90
        0
176
     1
 62
   257
176
     1
 40
1.0
176
     1
 90
        1
176
     1
 90
        6
176
     1
 90
        2
176
     1
 62
     7
176
     1
 90
        5
176
     1
 90
        0
176
     1
 90
        0
176
     1
290
     0
176
     1
 90
        1
176
     1
 40
0.0
176
     1
 90
        0
176
     1
290
     1
176
     1
290
     1
176
     1
290
     0
176
     1
290
     0
176
     1
290
     0
176
     1
290
     0
176
     1
290
     0
176
     1
290
     0
176
     1
290
     0
176
     1
 90
       50
176
     1
 40
0.0
176
     1
 40
1.0
176
     1
 90
        0
176
     1
 62
    18
420
        0
176
     1
 90
       50
176
     1
 90
        3
176
     1
 62
     5
420
      255
176
     1
290
     0
176
     1
 90
       50
176
     1
 90
       50
176
     1
 90
       50
176
     1
290
     0
176
     1
 90
       50
176
     1
 62
   256
176
     0
 40
1.0
176
     0
 90
        2
176
     1
  1
strokes_ogs.tif
176
     1
290
     0
176
     1
 40
1.0
176
     1
 40
1.0
176
     1
  0
VISUALSTYLE
  5
9E
102
{ACAD_REACTORS
330
99
102
}
330
99
100
AcDbVisualStyle
  2
Basic
 70
     7
177
     3
291
     1
 70
    58
 90
        1
176
     1
 90
        0
176
     1
 90
        1
176
     1
 90
        0
176
     1
 40
0.6
176
     1
 40
30.0
176
     1
 62
     7
420
 16777215
176
     1
 90
        0
176
     1
 90
        4
176
     1
 62
     7
176
     1
 62
   257
176
     1
 90
        1
176
     1
 90
        1
176
     1
 40
1.0
176
     1
 90
        8
176
     1
 62
     7
176
     1
 40
1.0
176
     1
 90
        1
176
     1
 90
        6
176
     1
 90
        2
176
     1
 62
     7
176
     1
 90
        5
176
     1
 90
        0
176
     1
 90
        0
176
     1
290
     0
176
     1
 90
        1
176
     1
 40
0.0
176
     1
 90
        0
176
     1
290
     0
176
     1
290
     1
176
     1
290
     1
176
     1
290
     0
176
     1
290
     0
176
     1
290
     0
176
     1
290
     0
176
     1
290
     0
176
     1
290
     0
176
     1
 90
       50
176
     1
 40
0.0
176
     1
 40
1.0
176
     1
 90
        0
176
     1
 62
    18
420
        0
176
     1
 90
       50
176
     1
 90
        3
176
     1
 62
     5
420
      255
176
     1
290
     0
176
     1
 90
       50
176
     1
 90
       50
176
     1
 90
       50
176
     1
290
     0
176
     1
 90
       50
176
     1
 62
   256
176
     0
 40
1.0
176
     0
 90
        2
176
     1
  1
strokes_ogs.tif
176
     1
290
     0
176
     1
 40
1.0
176
     1
 40
1.0
176
     1
  0
VISUALSTYLE
  5
A5
102
{ACAD_REACTORS
330
99
102
}
330
99
100
AcDbVisualStyle
  2
Brighten
 70
    12
177
     3
291
     1
 70
    58
 90
        2
176
     1
 90
        2
176
     1
 90
        1
176
     1
 90
        0
176
     1
 40
0.6
176
     1
 40
30.0
176
     1
 62
     7
420
 16777215
176
     1
 90
        1
176
     1
 90
        4
176
     1
 62
     7
176
     1
 62
   257
176
     1
 90
        1
176
     1
 90
        1
176
     1
 40
1.0
176
     1
 90
        8
176
     1
 62
     7
176
     1
 40
1.0
176
     1
 90
        1
176
     1
 90
        6
176
     1
 90
        2
176
     1
 62
     7
176
     1
 90
        5
176
     1
 90
        0
176
     1
 90
        0
176
     1
290
     0
176
     1
 90
        1
176
     1
 40
50.0
176
     1
 90
        0
176
     1
290
     0
176
     1
290
     1
176
     1
290
     1
176
     1
290
     0
176
     1
290
     0
176
     1
290
     0
176
     1
290
     0
176
     1
290
     0
176
     1
290
     0
176
     1
 90
       50
176
     1
 40
0.0
176
     1
 40
1.0
176
     1
 90
        0
176
     1
 62
    18
420
        0
176
     1
 90
       50
176
     1
 90
        3
176
     1
 62
     5
420
      255
176
     1
290
     0
176
     1
 90
       50
176
     1
 90
       50
176
     1
 90
       50
176
     1
290
     0
176
     1
 90
       50
176
     1
 62
   256
176
     0
 40
1.0
176
     0
 90
        2
176
     1
  1
strokes_ogs.tif
176
     1
290
     0
176
     1
 40
1.0
176
     1
 40
1.0
176
     1
  0
VISUALSTYLE
  5
A9
102
{ACAD_REACTORS
330
99
102
}
330
99
100
AcDbVisualStyle
  2
ColorChange
 70
    16
177
     3
291
     1
 70
    58
 90
        2
176
     1
 90
        2
176
     1
 90
        3
176
     1
 90
        0
176
     1
 40
0.6
176
     1
 40
30.0
176
     1
 62
     8
420
  8421504
176
     1
 90
        1
176
     1
 90
        4
176
     1
 62
     7
176
     1
 62
   257
176
     1
 90
        1
176
     1
 90
        1
176
     1
 40
1.0
176
     1
 90
        8
176
     1
 62
     8
420
  8421504
176
     1
 40
1.0
176
     1
 90
        1
176
     1
 90
        6
176
     1
 90
        2
176
     1
 62
     7
176
     1
 90
        5
176
     1
 90
        0
176
     1
 90
        0
176
     1
290
     0
176
     1
 90
        1
176
     1
 40
0.0
176
     1
 90
        0
176
     1
290
     0
176
     1
290
     1
176
     1
290
     1
176
     1
290
     0
176
     1
290
     0
176
     1
290
     0
176
     1
290
     0
176
     1
290
     0
176
     1
290
     0
176
     1
 90
       50
176
     1
 40
0.0
176
     1
 40
1.0
176
     1
 90
        0
176
     1
 62
    18
420
        0
176
     1
 90
       50
176
     1
 90
        3
176
     1
 62
     5
420
      255
176
     1
290
     0
176
     1
 90
       50
176
     1
 90
       50
176
     1
 90
       50
176
     1
290
     0
176
     1
 90
       50
176
     1
 62
   256
176
     0
 40
1.0
176
     0
 90
        2
176
     1
  1
strokes_ogs.tif
176
     1
290
     0
176
     1
 40
1.0
176
     1
 40
1.0
176
     1
  0
VISUALSTYLE
  5
A2
102
{ACAD_REACTORS
330
99
102
}
330
99
100
AcDbVisualStyle
  2
Conceptual
 70
     9
177
     3
291
     0
 70
    58
 90
        3
176
     1
 90
        2
176
     1
 90
        1
176
     1
 90
        0
176
     1
 40
0.6
176
     1
 40
30.0
176
     1
 62
     7
420
 16777215
176
     1
 90
        2
176
     1
 90
        2
176
     1
 62
     7
176
     1
 62
   257
176
     1
 90
        1
176
     1
 90
        1
176
     1
 40
40.0
176
     1
 90
        8
176
     1
 62
     7
176
     1
 40
1.0
176
     1
 90
        1
176
     1
 90
        6
176
     1
 90
        2
176
     1
 62
     7
176
     1
 90
        3
176
     1
 90
        0
176
     1
 90
        0
176
     1
290
     0
176
     1
 90
        1
176
     1
 40
0.0
176
     1
 90
        0
176
     1
290
     0
176
     1
290
     1
176
     1
290
     1
176
     1
290
     0
176
     1
290
     0
176
     1
290
     0
176
     1
290
     0
176
     1
290
     0
176
     1
290
     0
176
     1
 90
       50
176
     1
 40
0.0
176
     1
 40
1.0
176
     1
 90
        0
176
     1
 62
    18
420
        0
176
     1
 90
       50
176
     1
 90
        3
176
     1
 62
     5
420
      255
176
     1
290
     0
176
     1
 90
       50
176
     1
 90
       50
176
     1
 90
       50
176
     1
290
     0
176
     1
 90
       50
176
     1
 62
   256
176
     0
 40
1.0
176
     0
 90
        2
176
     1
  1
strokes_ogs.tif
176
     1
290
     0
176
     1
 40
1.0
176
     1
 40
1.0
176
     1
  0
VISUALSTYLE
  5
A4
102
{ACAD_REACTORS
330
99
102
}
330
99
100
AcDbVisualStyle
  2
Dim
 70
    11
177
     3
291
     1
 70
    58
 90
        2
176
     1
 90
        2
176
     1
 90
        1
176
     1
 90
        0
176
     1
 40
0.6
176
     1
 40
30.0
176
     1
 62
     7
420
 16777215
176
     1
 90
        1
176
     1
 90
        4
176
     1
 62
     7
176
     1
 62
   257
176
     1
 90
        1
176
     1
 90
        1
176
     1
 40
1.0
176
     1
 90
        8
176
     1
 62
     7
176
     1
 40
1.0
176
     1
 90
        1
176
     1
 90
        6
176
     1
 90
        2
176
     1
 62
     7
176
     1
 90
        5
176
     1
 90
        0
176
     1
 90
        0
176
     1
290
     0
176
     1
 90
        1
176
     1
 40
-50.0
176
     1
 90
        0
176
     1
290
     0
176
     1
290
     1
176
     1
290
     1
176
     1
290
     0
176
     1
290
     0
176
     1
290
     0
176
     1
290
     0
176
     1
290
     0
176
     1
290
     0
176
     1
 90
       50
176
     1
 40
0.0
176
     1
 40
1.0
176
     1
 90
        0
176
     1
 62
    18
420
        0
176
     1
 90
       50
176
     1
 90
        3
176
     1
 62
     5
420
      255
176
     1
290
     0
176
     1
 90
       50
176
     1
 90
       50
176
     1
 90
       50
176
     1
290
     0
176
     1
 90
       50
176
     1
 62
   256
176
     0
 40
1.0
176
     0
 90
        2
176
     1
  1
strokes_ogs.tif
176
     1
290
     0
176
     1
 40
1.0
176
     1
 40
1.0
176
     1
  0
VISUALSTYLE
  5
175
102
{ACAD_REACTORS
330
99
102
}
330
99
100
AcDbVisualStyle
  2
EdgeColorOff
 70
    22
177
     3
291
     1
 70
    58
 90
        2
176
     0
 90
        2
176
     0
 90
        0
176
     0
 90
        0
176
     0
 40
0.6
176
     0
 40
30.0
176
     0
 62
     7
420
 16777215
176
     0
 90
        1
176
     0
 90
        4
176
     0
 62
     7
176
     0
 62
   257
176
     0
 90
        1
176
     0
 90
        1
176
     0
 40
1.0
176
     0
 90
        8
176
     2
 62
     7
176
     0
 40
1.0
176
     0
 90
        1
176
     0
 90
        6
176
     0
 90
        2
176
     0
 62
     7
176
     0
 90
        5
176
     0
 90
        0
176
     0
 90
        0
176
     0
290
     0
176
     0
 90
        1
176
     0
 40
0.0
176
     0
 90
        0
176
     0
290
     0
176
     1
290
     1
176
     1
290
     1
176
     1
290
     0
176
     1
290
     0
176
     1
290
     0
176
     1
290
     0
176
     1
290
     0
176
     1
290
     0
176
     1
 90
       50
176
     1
 40
0.0
176
     1
 40
1.0
176
     1
 90
        0
176
     1
 62
    18
420
        0
176
     1
 90
       50
176
     1
 90
        3
176
     1
 62
     5
420
      255
176
     1
290
     0
176
     1
 90
       50
176
     1
 90
       50
176
     1
 90
       50
176
     1
290
     0
176
     1
 90
       50
176
     1
 62
   256
176
     0
 40
1.0
176
     0
 90
        2
176
     1
  1
strokes_ogs.tif
176
     1
290
     0
176
     1
 40
1.0
176
     1
 40
1.0
176
     1
  0
VISUALSTYLE
  5
A8
102
{ACAD_REACTORS
330
99
102
}
330
99
100
AcDbVisualStyle
  2
Facepattern
 70
    15
177
     3
291
     1
 70
    58
 90
        2
176
     1
 90
        2
176
     1
 90
        1
176
     1
 90
        0
176
     1
 40
0.6
176
     1
 40
30.0
176
     1
 62
     7
420
 16777215
176
     1
 90
        1
176
     1
 90
        4
176
     1
 62
     7
176
     1
 62
   257
176
     1
 90
        1
176
     1
 90
        1
176
     1
 40
1.0
176
     1
 90
        8
176
     1
 62
     7
176
     1
 40
1.0
176
     1
 90
        1
176
     1
 90
        6
176
     1
 90
        2
176
     1
 62
     7
176
     1
 90
        5
176
     1
 90
        0
176
     1
 90
        0
176
     1
290
     0
176
     1
 90
        1
176
     1
 40
0.0
176
     1
 90
        0
176
     1
290
     0
176
     1
290
     1
176
     1
290
     1
176
     1
290
     0
176
     1
290
     0
176
     1
290
     0
176
     1
290
     0
176
     1
290
     0
176
     1
290
     0
176
     1
 90
       50
176
     1
 40
0.0
176
     1
 40
1.0
176
     1
 90
        0
176
     1
 62
    18
420
        0
176
     1
 90
       50
176
     1
 90
        3
176
     1
 62
     5
420
      255
176
     1
290
     0
176
     1
 90
       50
176
     1
 90
       50
176
     1
 90
       50
176
     1
290
     0
176
     1
 90
       50
176
     1
 62
   256
176
     0
 40
1.0
176
     0
 90
        2
176
     1
  1
strokes_ogs.tif
176
     1
290
     0
176
     1
 40
1.0
176
     1
 40
1.0
176
     1
  0
VISUALSTYLE
  5
9A
102
{ACAD_REACTORS
330
99
102
}
330
99
100
AcDbVisualStyle
  2
Flat
 70
     0
177
     3
291
     1
 70
    58
 90
        2
176
     1
 90
        1
176
     1
 90
        1
176
     1
 90
        2
176
     1
 40
0.6
176
     1
 40
30.0
176
     1
 62
     7
420
 16777215
176
     1
 90
        0
176
     1
 90
        0
176
     1
 62
     7
176
     1
 62
   257
176
     1
 90
        1
176
     1
 90
        1
176
     1
 40
1.0
176
     1
 90
        8
176
     1
 62
     7
176
     1
 40
1.0
176
     1
 90
        1
176
     1
 90
        6
176
     1
 90
        2
176
     1
 62
     7
176
     1
 90
        5
176
     1
 90
        0
176
     1
 90
        0
176
     1
290
     0
176
     1
 90
       13
176
     1
 40
0.0
176
     1
 90
        0
176
     1
290
     0
176
     1
290
     1
176
     1
290
     1
176
     1
290
     0
176
     1
290
     0
176
     1
290
     0
176
     1
290
     0
176
     1
290
     0
176
     1
290
     0
176
     1
 90
       50
176
     1
 40
0.0
176
     1
 40
1.0
176
     1
 90
        0
176
     1
 62
    18
420
        0
176
     1
 90
       50
176
     1
 90
        3
176
     1
 62
     5
420
      255
176
     1
290
     0
176
     1
 90
       50
176
     1
 90
       50
176
     1
 90
       50
176
     1
290
     0
176
     1
 90
       50
176
     1
 62
   256
176
     0
 40
1.0
176
     0
 90
        2
176
     1
  1
strokes_ogs.tif
176
     1
290
     0
176
     1
 40
1.0
176
     1
 40
1.0
176
     1
  0
VISUALSTYLE
  5
9B
102
{ACAD_REACTORS
330
99
102
}
330
99
100
AcDbVisualStyle
  2
FlatWithEdges
 70
     1
177
     3
291
     1
 70
    58
 90
        2
176
     1
 90
        1
176
     1
 90
        1
176
     1
 90
        2
176
     1
 40
0.6
176
     1
 40
30.0
176
     1
 62
     7
420
 16777215
176
     1
 90
        1
176
     1
 90
        0
176
     1
 62
     7
176
     1
 62
   257
176
     1
 90
        1
176
     1
 90
        1
176
     1
 40
1.0
176
     1
 90
        0
176
     1
 62
   257
176
     1
 40
1.0
176
     1
 90
        1
176
     1
 90
        6
176
     1
 90
        2
176
     1
 62
     7
176
     1
 90
        5
176
     1
 90
        0
176
     1
 90
        0
176
     1
290
     0
176
     1
 90
       13
176
     1
 40
0.0
176
     1
 90
        0
176
     1
290
     0
176
     1
290
     1
176
     1
290
     1
176
     1
290
     0
176
     1
290
     0
176
     1
290
     0
176
     1
290
     0
176
     1
290
     0
176
     1
290
     0
176
     1
 90
       50
176
     1
 40
0.0
176
     1
 40
1.0
176
     1
 90
        0
176
     1
 62
    18
420
        0
176
     1
 90
       50
176
     1
 90
        3
176
     1
 62
     5
420
      255
176
     1
290
     0
176
     1
 90
       50
176
     1
 90
       50
176
     1
 90
       50
176
     1
290
     0
176
     1
 90
       50
176
     1
 62
   256
176
     0
 40
1.0
176
     0
 90
        2
176
     1
  1
strokes_ogs.tif
176
     1
290
     0
176
     1
 40
1.0
176
     1
 40
1.0
176
     1
  0
VISUALSTYLE
  5
9C
102
{ACAD_REACTORS
330
99
102
}
330
99
100
AcDbVisualStyle
  2
Gouraud
 70
     2
177
     3
291
     1
 70
    58
 90
        2
176
     1
 90
        2
176
     1
 90
        1
176
     1
 90
        2
176
     1
 40
0.6
176
     1
 40
30.0
176
     1
 62
     7
420
 16777215
176
     1
 90
        0
176
     1
 90
        0
176
     1
 62
     7
176
     1
 62
   257
176
     1
 90
        1
176
     1
 90
        1
176
     1
 40
1.0
176
     1
 90
        0
176
     1
 62
     7
176
     1
 40
1.0
176
     1
 90
        1
176
     1
 90
        6
176
     1
 90
        2
176
     1
 62
     7
176
     1
 90
        5
176
     1
 90
        0
176
     1
 90
        0
176
     1
290
     0
176
     1
 90
       13
176
     1
 40
0.0
176
     1
 90
        0
176
     1
290
     0
176
     1
290
     1
176
     1
290
     1
176
     1
290
     0
176
     1
290
     0
176
     1
290
     0
176
     1
290
     0
176
     1
290
     0
176
     1
290
     0
176
     1
 90
       50
176
     1
 40
0.0
176
     1
 40
1.0
176
     1
 90
        0
176
     1
 62
    18
420
        0
176
     1
 90
       50
176
     1
 90
        3
176
     1
 62
     5
420
      255
176
     1
290
     0
176
     1
 90
       50
176
     1
 90
       50
176
     1
 90
       50
176
     1
290
     0
176
     1
 90
       50
176
     1
 62
   256
176
     0
 40
1.0
176
     0
 90
        2
176
     1
  1
strokes_ogs.tif
176
     1
290
     0
176
     1
 40
1.0
176
     1
 40
1.0
176
     1
  0
VISUALSTYLE
  5
9D
102
{ACAD_REACTORS
330
99
102
}
330
99
100
AcDbVisualStyle
  2
GouraudWithEdges
 70
     3
177
     3
291
     1
 70
    58
 90
        2
176
     1
 90
        2
176
     1
 90
        1
176
     1
 90
        2
176
     1
 40
0.6
176
     1
 40
30.0
176
     1
 62
     7
420
 16777215
176
     1
 90
        1
176
     1
 90
        0
176
     1
 62
     7
176
     1
 62
   257
176
     1
 90
        1
176
     1
 90
        1
176
     1
 40
1.0
176
     1
 90
        0
176
     1
 62
   257
176
     1
 40
1.0
176
     1
 90
        1
176
     1
 90
        6
176
     1
 90
        2
176
     1
 62
     7
176
     1
 90
        5
176
     1
 90
        0
176
     1
 90
        0
176
     1
290
     0
176
     1
 90
       13
176
     1
 40
0.0
176
     1
 90
        0
176
     1
290
     0
176
     1
290
     1
176
     1
290
     1
176
     1
290
     0
176
     1
290
     0
176
     1
290
     0
176
     1
290
     0
176
     1
290
     0
176
     1
290
     0
176
     1
 90
       50
176
     1
 40
0.0
176
     1
 40
1.0
176
     1
 90
        0
176
     1
 62
    18
420
        0
176
     1
 90
       50
176
     1
 90
        3
176
     1
 62
     5
420
      255
176
     1
290
     0
176
     1
 90
       50
176
     1
 90
       50
176
     1
 90
       50
176
     1
290
     0
176
     1
 90
       50
176
     1
 62
   256
176
     0
 40
1.0
176
     0
 90
        2
176
     1
  1
strokes_ogs.tif
176
     1
290
     0
176
     1
 40
1.0
176
     1
 40
1.0
176
     1
  0
VISUALSTYLE
  5
A1
102
{ACAD_REACTORS
330
99
102
}
330
99
100
AcDbVisualStyle
  2
Hidden
 70
     6
177
     3
291
     0
 70
    58
 90
        1
176
     1
 90
        2
176
     1
 90
        2
176
     1
 90
        0
176
     1
 40
0.6
176
     1
 40
30.0
176
     1
 62
     7
420
 16777215
176
     1
 90
        2
176
     1
 90
        2
176
     1
 62
     7
176
     1
 62
   257
176
     1
 90
        2
176
     1
 90
        1
176
     1
 40
40.0
176
     1
 90
        0
176
     1
 62
   257
176
     1
 40
1.0
176
     1
 90
        1
176
     1
 90
        6
176
     1
 90
        2
176
     1
 62
     7
176
     1
 90
        3
176
     1
 90
        0
176
     1
 90
        0
176
     1
290
     0
176
     1
 90
        1
176
     1
 40
0.0
176
     1
 90
        0
176
     1
290
     0
176
     1
290
     1
176
     1
290
     1
176
     1
290
     0
176
     1
290
     0
176
     1
290
     0
176
     1
290
     0
176
     1
290
     0
176
     1
290
     0
176
     1
 90
       50
176
     1
 40
0.0
176
     1
 40
1.0
176
     1
 90
        0
176
     1
 62
    18
420
        0
176
     1
 90
       50
176
     1
 90
        3
176
     1
 62
     5
420
      255
176
     1
290
     0
176
     1
 90
       50
176
     1
 90
       50
176
     1
 90
       50
176
     1
290
     0
176
     1
 90
       50
176
     1
 62
   256
176
     0
 40
1.0
176
     0
 90
        2
176
     1
  1
strokes_ogs.tif
176
     1
290
     0
176
     1
 40
1.0
176
     1
 40
1.0
176
     1
  0
VISUALSTYLE
  5
173
102
{ACAD_REACTORS
330
99
102
}
330
99
100
AcDbVisualStyle
  2
JitterOff
 70
    20
177
     3
291
     1
 70
    58
 90
        2
176
     0
 90
        2
176
     0
 90
        0
176
     0
 90
        0
176
     0
 40
0.6
176
     0
 40
30.0
176
     0
 62
     7
420
 16777215
176
     0
 90
        1
176
     0
 90
        4
176
     0
 62
     7
176
     0
 62
   257
176
     0
 90
        1
176
     0
 90
        1
176
     0
 40
1.0
176
     0
 90
       10
176
     2
 62
     7
176
     0
 40
1.0
176
     0
 90
        1
176
     0
 90
        6
176
     0
 90
        2
176
     0
 62
     7
176
     0
 90
        5
176
     0
 90
        0
176
     0
 90
        0
176
     0
290
     0
176
     0
 90
        1
176
     0
 40
0.0
176
     0
 90
        0
176
     0
290
     0
176
     1
290
     1
176
     1
290
     1
176
     1
290
     0
176
     1
290
     0
176
     1
290
     0
176
     1
290
     0
176
     1
290
     0
176
     1
290
     0
176
     1
 90
       50
176
     1
 40
0.0
176
     1
 40
1.0
176
     1
 90
        0
176
     1
 62
    18
420
        0
176
     1
 90
       50
176
     1
 90
        3
176
     1
 62
     5
420
      255
176
     1
290
     0
176
     1
 90
       50
176
     1
 90
       50
176
     1
 90
       50
176
     1
290
     0
176
     1
 90
       50
176
     1
 62
   256
176
     0
 40
1.0
176
     0
 90
        2
176
     1
  1
strokes_ogs.tif
176
     1
290
     0
176
     1
 40
1.0
176
     1
 40
1.0
176
     1
  0
VISUALSTYLE
  5
A7
102
{ACAD_REACTORS
330
99
102
}
330
99
100
AcDbVisualStyle
  2
Linepattern
 70
    14
177
     3
291
     1
 70
    58
 90
        2
176
     1
 90
        2
176
     1
 90
        1
176
     1
 90
        0
176
     1
 40
0.6
176
     1
 40
30.0
176
     1
 62
     7
420
 16777215
176
     1
 90
        1
176
     1
 90
        4
176
     1
 62
     7
176
     1
 62
   257
176
     1
 90
        7
176
     1
 90
        7
176
     1
 40
1.0
176
     1
 90
        8
176
     1
 62
     7
176
     1
 40
1.0
176
     1
 90
        1
176
     1
 90
        6
176
     1
 90
        2
176
     1
 62
     7
176
     1
 90
        5
176
     1
 90
        0
176
     1
 90
        0
176
     1
290
     0
176
     1
 90
        1
176
     1
 40
0.0
176
     1
 90
        0
176
     1
290
     0
176
     1
290
     1
176
     1
290
     1
176
     1
290
     0
176
     1
290
     0
176
     1
290
     0
176
     1
290
     0
176
     1
290
     0
176
     1
290
     0
176
     1
 90
       50
176
     1
 40
0.0
176
     1
 40
1.0
176
     1
 90
        0
176
     1
 62
    18
420
        0
176
     1
 90
       50
176
     1
 90
        3
176
     1
 62
     5
420
      255
176
     1
290
     0
176
     1
 90
       50
176
     1
 90
       50
176
     1
 90
       50
176
     1
290
     0
176
     1
 90
       50
176
     1
 62
   256
176
     0
 40
1.0
176
     0
 90
        2
176
     1
  1
strokes_ogs.tif
176
     1
290
     0
176
     1
 40
1.0
176
     1
 40
1.0
176
     1
  0
VISUALSTYLE
  5
174
102
{ACAD_REACTORS
330
99
102
}
330
99
100
AcDbVisualStyle
  2
OverhangOff
 70
    21
177
     3
291
     1
 70
    58
 90
        2
176
     0
 90
        2
176
     0
 90
        0
176
     0
 90
        0
176
     0
 40
0.6
176
     0
 40
30.0
176
     0
 62
     7
420
 16777215
176
     0
 90
        1
176
     0
 90
        4
176
     0
 62
     7
176
     0
 62
   257
176
     0
 90
        1
176
     0
 90
        1
176
     0
 40
1.0
176
     0
 90
        9
176
     2
 62
     7
176
     0
 40
1.0
176
     0
 90
        1
176
     0
 90
        6
176
     0
 90
        2
176
     0
 62
     7
176
     0
 90
        5
176
     0
 90
        0
176
     0
 90
        0
176
     0
290
     0
176
     0
 90
        1
176
     0
 40
0.0
176
     0
 90
        0
176
     0
290
     0
176
     1
290
     1
176
     1
290
     1
176
     1
290
     0
176
     1
290
     0
176
     1
290
     0
176
     1
290
     0
176
     1
290
     0
176
     1
290
     0
176
     1
 90
       50
176
     1
 40
0.0
176
     1
 40
1.0
176
     1
 90
        0
176
     1
 62
    18
420
        0
176
     1
 90
       50
176
     1
 90
        3
176
     1
 62
     5
420
      255
176
     1
290
     0
176
     1
 90
       50
176
     1
 90
       50
176
     1
 90
       50
176
     1
290
     0
176
     1
 90
       50
176
     1
 62
   256
176
     0
 40
1.0
176
     0
 90
        2
176
     1
  1
strokes_ogs.tif
176
     1
290
     0
176
     1
 40
1.0
176
     1
 40
1.0
176
     1
  0
VISUALSTYLE
  5
A3
102
{ACAD_REACTORS
330
99
102
}
330
99
100
AcDbVisualStyle
  2
Realistic
 70
     8
177
     3
291
     0
 70
    58
 90
        2
176
     1
 90
        3
176
     1
 90
        0
176
     1
 90
        2
176
     1
 40
0.6
176
     1
 40
30.0
176
     1
 62
     7
420
 16777215
176
     1
 90
        0
176
     1
 90
        0
176
     1
 62
     7
176
     1
 62
   257
176
     1
 90
        1
176
     1
 90
        1
176
     1
 40
1.0
176
     1
 90
        8
176
     1
 62
   257
176
     1
 40
1.0
176
     1
 90
        1
176
     1
 90
        6
176
     1
 90
        2
176
     1
 62
     7
176
     1
 90
        3
176
     1
 90
        0
176
     1
 90
        0
176
     1
290
     0
176
     1
 90
       13
176
     1
 40
0.0
176
     1
 90
        0
176
     1
290
     0
176
     1
290
     1
176
     1
290
     1
176
     1
290
     0
176
     1
290
     0
176
     1
290
     0
176
     1
290
     0
176
     1
290
     0
176
     1
290
     0
176
     1
 90
       50
176
     1
 40
0.0
176
     1
 40
1.0
176
     1
 90
        0
176
     1
 62
    18
420
        0
176
     1
 90
       50
176
     1
 90
        3
176
     1
 62
     5
420
      255
176
     1
290
     0
176
     1
 90
       50
176
     1
 90
       50
176
     1
 90
       50
176
     1
290
     0
176
     1
 90
       50
176
     1
 62
   256
176
     0
 40
1.0
176
     0
 90
        2
176
     1
  1
strokes_ogs.tif
176
     1
290
     0
176
     1
 40
1.0
176
     1
 40
1.0
176
     1
  0
VISUALSTYLE
  5
182
102
{ACAD_REACTORS
330
99
102
}
330
99
100
AcDbVisualStyle
  2
Shaded
 70
    27
177
     3
291
     0
 70
    58
 90
        2
176
     1
 90
        2
176
     1
 90
        1
176
     1
 90
        2
176
     1
 40
0.6
176
     1
 40
30.0
176
     1
 62
     7
420
 16777215
176
     1
 90
        0
176
     1
 90
        4
176
     1
 62
     7
176
     1
 62
   257
176
     1
 90
        1
176
     1
 90
        1
176
     1
 40
1.0
176
     1
 90
        8
176
     1
 62
   257
176
     1
 40
1.0
176
     1
 90
        1
176
     1
 90
        6
176
     1
 90
        2
176
     1
 62
     8
420
  7895160
176
     1
 90
        3
176
     1
 90
        0
176
     1
 90
        0
176
     1
290
     0
176
     1
 90
        5
176
     1
 40
0.0
176
     1
 90
        0
176
     1
290
     0
176
     1
290
     1
176
     1
290
     1
176
     1
290
     0
176
     1
290
     0
176
     1
290
     0
176
     1
290
     0
176
     1
290
     0
176
     1
290
     0
176
     1
 90
       50
176
     1
 40
0.0
176
     1
 40
1.0
176
     1
 90
        0
176
     1
 62
    18
420
        0
176
     1
 90
       50
176
     1
 90
        3
176
     1
 62
     5
420
      255
176
     1
290
     0
176
     1
 90
       50
176
     1
 90
       50
176
     1
 90
       50
176
     1
290
     0
176
     1
 90
       50
176
     1
 62
   256
176
     0
 40
1.0
176
     0
 90
        2
176
     1
  1
strokes_ogs.tif
176
     1
290
     0
176
     1
 40
1.0
176
     1
 40
1.0
176
     1
  0
VISUALSTYLE
  5
181
102
{ACAD_REACTORS
330
99
102
}
330
99
100
AcDbVisualStyle
  2
Shaded with edges
 70
    26
177
     3
291
     0
 70
    58
 90
        2
176
     1
 90
        2
176
     1
 90
        1
176
     1
 90
        2
176
     1
 40
0.6
176
     1
 40
30.0
176
     1
 62
     7
420
 16777215
176
     1
 90
        1
176
     1
 90
        2
176
     1
 62
     7
176
     1
 62
   257
176
     1
 90
        2
176
     1
 90
        1
176
     1
 40
1.0
176
     1
 90
        8
176
     1
 62
   257
176
     1
 40
1.0
176
     1
 90
        1
176
     1
 90
        6
176
     1
 90
        2
176
     1
 62
     7
176
     1
 90
        3
176
     1
 90
        0
176
     1
 90
        0
176
     1
290
     0
176
     1
 90
        5
176
     1
 40
0.0
176
     1
 90
        0
176
     1
290
     0
176
     1
290
     1
176
     1
290
     1
176
     1
290
     0
176
     1
290
     0
176
     1
290
     0
176
     1
290
     0
176
     1
290
     0
176
     1
290
     0
176
     1
 90
       50
176
     1
 40
0.0
176
     1
 40
1.0
176
     1
 90
        0
176
     1
 62
    18
420
        0
176
     1
 90
       50
176
     1
 90
        3
176
     1
 62
     5
420
      255
176
     1
290
     0
176
     1
 90
       50
176
     1
 90
       50
176
     1
 90
       50
176
     1
290
     0
176
     1
 90
       50
176
     1
 62
   256
176
     0
 40
1.0
176
     0
 90
        2
176
     1
  1
strokes_ogs.tif
176
     1
290
     0
176
     1
 40
1.0
176
     1
 40
1.0
176
     1
  0
VISUALSTYLE
  5
17E
102
{ACAD_REACTORS
330
99
102
}
330
99
100
AcDbVisualStyle
  2
Shades of Gray
 70
    23
177
     3
291
     0
 70
    58
 90
        2
176
     1
 90
        2
176
     1
 90
        3
176
     1
 90
        0
176
     1
 40
0.6
176
     1
 40
30.0
176
     1
 62
     7
420
 16777215
176
     1
 90
        2
176
     1
 90
        2
176
     1
 62
     7
176
     1
 62
     7
176
     1
 90
        1
176
     1
 90
        1
176
     1
 40
40.0
176
     1
 90
        8
176
     1
 62
     7
176
     1
 40
1.0
176
     1
 90
        1
176
     1
 90
        6
176
     1
 90
        2
176
     1
 62
     7
176
     1
 90
        3
176
     1
 90
        0
176
     1
 90
        0
176
     1
290
     0
176
     1
 90
        1
176
     1
 40
0.0
176
     1
 90
        0
176
     1
290
     0
176
     1
290
     1
176
     1
290
     1
176
     1
290
     0
176
     1
290
     0
176
     1
290
     0
176
     1
290
     0
176
     1
290
     0
176
     1
290
     0
176
     1
 90
       50
176
     1
 40
0.0
176
     1
 40
1.0
176
     1
 90
        0
176
     1
 62
    18
420
        0
176
     1
 90
       50
176
     1
 90
        3
176
     1
 62
     5
420
      255
176
     1
290
     0
176
     1
 90
       50
176
     1
 90
       50
176
     1
 90
       50
176
     1
290
     0
176
     1
 90
       50
176
     1
 62
   256
176
     0
 40
1.0
176
     0
 90
        2
176
     1
  1
strokes_ogs.tif
176
     1
290
     0
176
     1
 40
1.0
176
     1
 40
1.0
176
     1
  0
VISUALSTYLE
  5
17F
102
{ACAD_REACTORS
330
99
102
}
330
99
100
AcDbVisualStyle
  2
Sketchy
 70
    24
177
     3
291
     0
 70
    58
 90
        1
176
     1
 90
        2
176
     1
 90
        2
176
     1
 90
        0
176
     1
 40
0.6
176
     1
 40
30.0
176
     1
 62
     7
420
 16777215
176
     1
 90
        2
176
     1
 90
        2
176
     1
 62
     7
176
     1
 62
     7
176
     1
 90
        1
176
     1
 90
        1
176
     1
 40
40.0
176
     1
 90
       11
176
     1
 62
     7
176
     1
 40
1.0
176
     1
 90
        1
176
     1
 90
        6
176
     1
 90
        2
176
     1
 62
     7
176
     1
 90
        6
176
     1
 90
        0
176
     1
 90
        0
176
     1
290
     0
176
     1
 90
        1
176
     1
 40
0.0
176
     1
 90
        0
176
     1
290
     0
176
     1
290
     1
176
     1
290
     1
176
     1
290
     0
176
     1
290
     0
176
     1
290
     0
176
     1
290
     0
176
     1
290
     0
176
     1
290
     0
176
     1
 90
       50
176
     1
 40
0.0
176
     1
 40
1.0
176
     1
 90
        0
176
     1
 62
    18
420
        0
176
     1
 90
       50
176
     1
 90
        3
176
     1
 62
     5
420
      255
176
     1
290
     0
176
     1
 90
       50
176
     1
 90
       50
176
     1
 90
       50
176
     1
290
     0
176
     1
 90
       50
176
     1
 62
   256
176
     0
 40
1.0
176
     0
 90
        2
176
     1
  1
strokes_ogs.tif
176
     1
290
     0
176
     1
 40
1.0
176
     1
 40
1.0
176
     1
  0
VISUALSTYLE
  5
A6
102
{ACAD_REACTORS
330
99
102
}
330
99
100
AcDbVisualStyle
  2
Thicken
 70
    13
177
     3
291
     1
 70
    58
 90
        2
176
     1
 90
        2
176
     1
 90
        1
176
     1
 90
        0
176
     1
 40
0.6
176
     1
 40
30.0
176
     1
 62
     7
420
 16777215
176
     1
 90
        1
176
     1
 90
        4
176
     1
 62
     7
176
     1
 62
   257
176
     1
 90
        1
176
     1
 90
        1
176
     1
 40
1.0
176
     1
 90
       12
176
     1
 62
     7
176
     1
 40
1.0
176
     1
 90
        1
176
     1
 90
        6
176
     1
 90
        2
176
     1
 62
     7
176
     1
 90
        5
176
     1
 90
        0
176
     1
 90
        0
176
     1
290
     0
176
     1
 90
        1
176
     1
 40
0.0
176
     1
 90
        0
176
     1
290
     0
176
     1
290
     1
176
     1
290
     1
176
     1
290
     0
176
     1
290
     0
176
     1
290
     0
176
     1
290
     0
176
     1
290
     0
176
     1
290
     0
176
     1
 90
       50
176
     1
 40
0.0
176
     1
 40
1.0
176
     1
 90
        0
176
     1
 62
    18
420
        0
176
     1
 90
       50
176
     1
 90
        3
176
     1
 62
     5
420
      255
176
     1
290
     0
176
     1
 90
       50
176
     1
 90
       50
176
     1
 90
       50
176
     1
290
     0
176
     1
 90
       50
176
     1
 62
   256
176
     0
 40
1.0
176
     0
 90
        2
176
     1
  1
strokes_ogs.tif
176
     1
290
     0
176
     1
 40
1.0
176
     1
 40
1.0
176
     1
  0
VISUALSTYLE
  5
A0
102
{ACAD_REACTORS
330
99
102
}
330
99
100
AcDbVisualStyle
  2
Wireframe
 70
     5
177
     3
291
     0
 70
    58
 90
        0
176
     1
 90
        2
176
     1
 90
        0
176
     1
 90
        0
176
     1
 40
0.6
176
     1
 40
30.0
176
     1
 62
     7
420
 16777215
176
     1
 90
        1
176
     1
 90
        4
176
     1
 62
     7
176
     1
 62
   257
176
     1
 90
        1
176
     1
 90
        1
176
     1
 40
1.0
176
     1
 90
        0
176
     1
 62
   257
176
     1
 40
1.0
176
     1
 90
        1
176
     1
 90
        6
176
     1
 90
        2
176
     1
 62
     7
176
     1
 90
        3
176
     1
 90
        0
176
     1
 90
        0
176
     1
290
     0
176
     1
 90
        1
176
     1
 40
0.0
176
     1
 90
        0
176
     1
290
     0
176
     1
290
     1
176
     1
290
     1
176
     1
290
     0
176
     1
290
     0
176
     1
290
     0
176
     1
290
     0
176
     1
290
     0
176
     1
290
     0
176
     1
 90
       50
176
     1
 40
0.0
176
     1
 40
1.0
176
     1
 90
        0
176
     1
 62
    18
420
        0
176
     1
 90
       50
176
     1
 90
        3
176
     1
 62
     5
420
      255
176
     1
290
     0
176
     1
 90
       50
176
     1
 90
       50
176
     1
 90
       50
176
     1
290
     0
176
     1
 90
       50
176
     1
 62
   256
176
     0
 40
1.0
176
     0
 90
        2
176
     1
  1
strokes_ogs.tif
176
     1
290
     0
176
     1
 40
1.0
176
     1
 40
1.0
176
     1
  0
VISUALSTYLE
  5
180
102
{ACAD_REACTORS
330
99
102
}
330
99
100
AcDbVisualStyle
  2
X-Ray
 70
    25
177
     3
291
     0
 70
    58
 90
        2
176
     1
 90
        2
176
     1
 90
        1
176
     1
 90
        1
176
     1
 40
0.5
176
     1
 40
30.0
176
     1
 62
     7
420
 16777215
176
     1
 90
        1
176
     1
 90
        0
176
     1
 62
     7
176
     1
 62
   257
176
     1
 90
        1
176
     1
 90
        1
176
     1
 40
1.0
176
     1
 90
        8
176
     1
 62
     7
176
     1
 40
1.0
176
     1
 90
        1
176
     1
 90
        6
176
     1
 90
        2
176
     1
 62
     7
176
     1
 90
        3
176
     1
 90
        0
176
     1
 90
        0
176
     1
290
     0
176
     1
 90
       13
176
     1
 40
0.0
176
     1
 90
        0
176
     1
290
     0
176
     1
290
     1
176
     1
290
     1
176
     1
290
     0
176
     1
290
     0
176
     1
290
     0
176
     1
290
     0
176
     1
290
     0
176
     1
290
     0
176
     1
 90
       50
176
     1
 40
0.0
176
     1
 40
1.0
176
     1
 90
        0
176
     1
 62
    18
420
        0
176
     1
 90
       50
176
     1
 90
        3
176
     1
 62
     5
420
      255
176
     1
290
     0
176
     1
 90
       50
176
     1
 90
       50
176
     1
 90
       50
176
     1
290
     0
176
     1
 90
       50
176
     1
 62
   256
176
     0
 40
1.0
176
     0
 90
        2
176
     1
  1
strokes_ogs.tif
176
     1
290
     0
176
     1
 40
1.0
176
     1
 40
1.0
176
     1
  0
DICTIONARYVAR
  5
F0
102
{ACAD_REACTORS
330
66
102
}
330
66
100
DictionaryVariables
280
     0
  1
1:1
  0
DICTIONARYVAR
  5
EF
102
{ACAD_REACTORS
330
66
102
}
330
66
100
DictionaryVariables
280
     0
  1
STANDARD
  0
DICTIONARYVAR
  5
89
102
{ACAD_REACTORS
330
66
102
}
330
66
100
DictionaryVariables
280
     0
  1
STANDARD
  0
DICTIONARYVAR
  5
1B7
102
{ACAD_REACTORS
330
66
102
}
330
66
100
DictionaryVariables
280
     0
  1
Imperial24
  0
DICTIONARYVAR
  5
1B8
102
{ACAD_REACTORS
330
66
102
}
330
66
100
DictionaryVariables
280
     0
  1
Imperial24
  0
DICTIONARYVAR
  5
67
102
{ACAD_REACTORS
330
66
102
}
330
66
100
DictionaryVariables
280
     0
  1
2
  0
DICTIONARYVAR
  5
6B
102
{ACAD_REACTORS
330
66
102
}
330
66
100
DictionaryVariables
280
     0
  1
1
  0
DICTIONARYVAR
  5
14D
102
{ACAD_REACTORS
330
66
102
}
330
66
100
DictionaryVariables
280
     0
  1
0
  0
DICTIONARYVAR
  5
14E
102
{ACAD_REACTORS
330
66
102
}
330
66
100
DictionaryVariables
280
     0
  1
0
  0
DICTIONARY
  5
34B
102
{ACAD_REACTORS
330
34A
102
}
330
34A
100
AcDbDictionary
281
     1
  0
DICTIONARY
  5
194
330
22
100
AcDbDictionary
280
     1
281
     1
  0
DICTIONARY
  5
188
330
97
100
AcDbDictionary
280
     1
281
     1
  3
FBXASSET
360
189
  0
DICTIONARY
  5
186
330
96
100
AcDbDictionary
280
     1
281
     1
  3
FBXASSET
360
187
  0
DICTIONARY
  5
110
330
98
100
AcDbDictionary
280
     1
281
     1
  3
BUMPTILE
360
112
  3
DIFFUSETILE
360
111
  3
FBXASSET
360
18A
  3
OPACITYTILE
360
113
  3
REFLECTIONTILE
360
114
  0
DICTIONARY
  5
104
330
87
100
AcDbDictionary
280
     1
281
     1
  3
ACAD_ROUNDTRIP_2008_TABLESTYLE_CELLSTYLEMAP
360
45A
  0
XRECORD
  5
189
102
{ACAD_REACTORS
330
188
102
}
330
188
100
AcDbXrecord
280
     1
 70
     1
 90
429727718
  1
508B35C9-AEE7-456F-BE74-D52651303AC6
310
504B03040A0000080000B670623B3DEE336E79000000790000001B0000006175746F6465736B2D64657369676E2D7061636B6167652E786D6C3C3F786D6C2076657273696F6E3D22312E302220656E636F64696E673D227574662D3822203F3E3C666F726D6174733E3C666F726D61743E687474703A2F2F736368656D612E
310
6175746F6465736B2E636F6D2F64657369676E2D7061636B6167652F323030393C2F666F726D61743E3C2F666F726D6174733E504B0304140006080800B670623BD486FD9CA0000000F4000000130000005B436F6E74656E745F54797065735D2E786D6C7D8EC10E82300C865F65E91D8A1E8C310C0EEA1BF002731658846E
310
D98AC1B77784ABF1D8FE5FBFBF75BBCE937A534CCEB38643598122B6FEE978D0B0485F9C41B54DDD7D022595594E1A469170414C76A4D9A4D207E29CF43ECE46F218070CC6BECC4078ACAA135ACF422C856C0E68EA1BF5669944DDD7BCDE7B1F8E415D77AECB980613C2E4AC91FC167A2B244592486606FC29C8FD7F045B9A
310
EF7053A7E60B504B0304140006080800B670623B28ED286BEB0000007C01000008000000636F72652E786D6C8D90416EC3201045AF82665B6183218D6D61A254764FD00B204C5C94182C03558F5F9C3852BBEB6A467FFE9B197D71FA9E6FE8CBACC17AD7012D0820E3B41FAD9B3A48F1826B40272956EFE32F1B20A766D3C1
310
268314D3EAD3B24BDABB685CCCAAF3A3D94515828980F42D371D04FD696655A814B3235C8B45E9AB9A4C419F5D8653B2237A1CB163DE672FD6AC209BF3C08E0D1B30EB19C3FC9D72FCC6EB231EFA33EDE96BDD341517E5064B11EDFCBCAF57A3A2194156843498524CAA0FCA5B7268F9E185D42D21A2DCEC7FA0B48CFF8492
310
759155FBBB0F2C80A4F991FB408A72CB22977B50B96EB9C91F504B0304140006080800B670623B55019EA25F0000007C00000007000000636E782E786D6C4DCB3B0E80201045D1AD90E915ED2CF8AC45050C11660C8261F98AB1B07AC9C97D42D718D865D3E909258CFD00CCE24AC6E326A164D74DC0B4128928FF32603847
310
2BA13128B1252AC747C6BAB984FC68F0B87FE8960A5C09FE86CFB69FBA01504B0304140006080800B670623B7BC41AC871010000D40300000C0000006662782F636F72652E786D6CC553ED6E8320147D15C2DF4501B56B6D90A64BBB27D80B50A5CE54C120983EFEAE1F4DD7A56BBA5FF3879273EEE59E7310BE393735EA95
310
ED2AA333CC428A91D2B9292A5D66D8BB63B0C26823B835C67D2BC348CB46657880B1E0A535BE9DA1DC68A7B403549B42CDA0EC3AE530CA6B5864B8CB3F552343E91D5474A7B095F949962A6421D0502778E72C0840D390E18DC5F170E664C205F7BE2A66B62A605A75AC94C522DDEEE3651AEF837817C741F2CE92E02D592D
310
83FD6ECB76EC7595A651C2C9D02CB8AB9A8BBADC2AE954814544691A3016D0E883256BBA58278B17BA5A53CAC9507ED3E4DBE2C9265F691747B3DCA9ADC382819091F8E1162272A8933DE82182932144F88C09DF060D8140C84E1EEA8B8F1340BDCA9DB1093085F157AA97B557309586747CD0EF0B4EA64E983A6E0EAEEFCE
310
889E9EF17847386AA94B30211D2C0FDE0D3AF9A4610EAD5536E8DD1969631B593F67E381C33F5157F17725E5A636F6BF1491F980C8FC7B90E13E8A2F504B0304140006080800B670623B70102A487D0000009D0000000B0000006662782F636E782E786D6C4DCCD10A83201886E15B91FFDC95A5C30335ACCDFB886521330D
310
A76397BF1A1DECE883878F57749FD5A3B74D2F17830472A901D9F088930B8B849267CC01754AA418F3DF0D5018572BE160506249B16C274D761E8BCFBB7A179E27F65CB39A0F14D396184C9921B81F34C3ACA1B4B99ABB6E6F062A25AA5F69DF23ACBE504B0304140006080800B670623B3610CA3329010000120200003100
310
00006662782F42384135303843342D343331462D343546312D424341352D3532343432364645413344462F636F72652E786D6C8D515B6EC32010BC0AE22B55850D0E446E848992B43E412FE000495162B07854397EA176A4F62F3F2C9A9D991D58BEBB8F37F0AD7D30CE76905418026DA553C65E3A98E219B510EC04F7CEC5
310
3F3408EC30EA0E16180A7EF12E4D0B249D8DDAC68C5AA7F4020E21E80881BCE54B0783FCD2E3500D296646B856D320AFC34557A4CAEDCC133C449F0380794839A138B47B86DB2345744D7A44594FD0E1B867883594369BFE63BF7EEF793D0B054FC9A8456E548E63CE46FB674D8A58F068C6477CE9F510B582A2C1F80D1182
310
70F349E816B32D65AFB8DD62CCEB42FF274A937A52948C8DEB66893BCB021484D7734370E5D2E9F608A3EF93F3119479ABA0E50B14B8C298119A43CCC4FCFCECB8A18B6388CEE7EF5D5D4F994BD86CBBA182D76543B9FCAE2FD7B24DF103504B0304140006080800B670623B1B8617914E0100003303000030000000666278
310
2F42384135303843342D343331462D343546312D424341352D3532343432364645413344462F636E782E786D6CD593C16EC32010447F0571AD6CE3D489D20813A9877E410FBD62D82434182CC055F3F75D1292E692438FBD206B7698593D61BEFD1E2DF982108D773D6D6B460938E5B571FB9ECE6957AD29D90A1EBC4F7736
310
4A9C1CA1A759A682EF839FA72269D8C9D92654AD71C72206887E0E0A22CAF926B15E498B01E0AA19451807D01A34B919F16B070157417138917400F2F6FA41FCF0092A45DEE414C19BDC21783E4BD39D891265658C3D8DEA00A3ACE59CBC8678ACB54CB26EEB6BD7839D7E9348BE70AD9C8321B9BCA7F9A4A26C542347DEE0
310
50F09802D22BA6749A800A394DD62899107273365E3C82CFC6A55557BC06C10774B7ABE7AEC3B0F34CF06446280E154026D0542C187BA9DAB6628BF7B6DBB0E5A65B3EB1F58631DE64BBE083F7B65CC218087E22CABB042E51D1F2268F1FE12B3EA24D40D63E9CFE00120194D60B9D5BC67FE6D39CDF37E20AF817881F504B
310
0304140006080800B670623BBFEF2E3B690500003C100000340000006662782F42384135303843342D343331462D343546312D424341352D3532343432364645413344462F6F626A656374732E786D6CAD575D739B3814FD2B0CFB0C98D84E931D4227B6938EA793B6534F3BFB90198F0099B001899144EAECAFDF231018B0
310
D37A3FFC609090EEE7B94757C1FB7D915B2F54C88CB31BDB7727B64559CC938CA53776A576CE956DBD0F03C1B9EA2DB32D460A7A63EB693B0C52C1ABD24C257447AA5C8D66EF177F5832A68CDA569C13296F6C193FD182B8A4523CA1F2D94D88226EBADBBBBEDB2C1C8A4D05299F46424B222853B014F30C52ACC6287F389C
310
D85E1878FA7B18E87FB36AFAF62AAFF667A83F635211161F291B8999FAB3D5DDC5FCDA99CF6653677679E13B8BFBC5CAF1DF4D27CBCBE5F2FAF6EE1A8AA51290642C117467871F101B91C581D77CEA2C36869F3229E68CD1B8F61F1ED6361B89092D294B90C78C4A68EB793D190E7D1D9BDEE7A91E1B95FDE9F3BCEAEFE809
310
6A6D6F9F7D4B79F4275C90E7A04248AA51D5C4C738DAE06F72885AC4796EBE65D22A88A22223B995679120E2D50EB1542F098381188D4EA111AE3DB043FF20AF6F2B4AE3D7D83D65E5AECA730D4D3BAC91BD05FEA992B565D95F549CD6069B90AB2A63EACA38A45E4B6A87D781574F86817E4C2FCCC72690D62E2729520E37
310
9BAF234797BAF6D62B3BFC781FED37BA1E4F2B2F052FA9501A3E80569BB8F6A9A364D4FA67654E6F803383981F82F21591FF84F23D9882BC896C3FDBCF8C162508933B2E0AE4C69DD43F6BD2BE38DDDBF10BF86CB4FA784D37F3AF16075E67EC9030DECA1FC0A55373F5DFF3378C591FA9BDF485C10B0A8C8BA909E5262639
310
A8E72163488806A595734C81CB77D1DE0ED7604A303B76913CEC0272F412782FF88EFF4636D8AA56DF7B322474C4B767303F625997056C7B032C473C592B36CEBD15F3F9FF5233B7ABCDC74D257624A60F8658567497B14CE1EC3C80B76FD02011038F9EE9EB0F2E12387A9C844D3F09855125116D1D731DF8B43D2CF4E0A0
310
79A020C6BE946BCE0B7EA1E1219331CD73C228AF5A2DDD31A4B1DA918CE91350854D40A71723140BFA92E94E62B0626016CEFA5864A50E5977E8753CEDBEE1CBB7F52780D20E17AF0BA0F5F9B02A3AD07DCC732EB6D1EBB661421BE0C39E21BABF0FE16D22EA6929407C8DE596724C88B749B6DB5512BC7B228ADFD7CB7EA6
310
3A22397E690BA8D5D8D4E40CEC8CDA23C2C0B7D5898640101CEC9C6D331CE328CB93CAFBBAC70A642DF70DF95155945B52F08AA973C23469FD69ADEF84F7BB18F983A8F8C90E37F5D35980B2139A1C523540813E824EF83448CF7C72B598CE97D7CEEDDDDD3B6736BFBC771677EF66CE6A7E7139F7A793E9EDF2B2B3A8B624
310
0CDA13AA5F8388264EC4A0129909F3B7F5A16CEDF08128E97D680ACA4B9BE7B7B58BB638F0B00700EF36AE8B32A705658A68F83EE897FC2B41573190D1CCAF0B92D233A47CFEB019D9809933F67DD1A5467F8CF69AD9A5AE859342D45355448C64F968A371DC2D596ADC6E43D93D1B466F877A64E2893E54F23C4B40388995
310
525E5005DA3983ED45412510D3EFCA13737B3863F74BD30F2A12E5B4B5E489A025CE25500DB855B11ACE5BBFA185D35DD48D8DC3CE7DC69F2944DB42AA6F6CF09BCA622ADD08C7A36E7C6AE18000BAB08E040135C2D21C9D75B3A91B77BB746C403F38018DFE6EC939DD92F16B40BC05294B9CDA035AAD6D330AE27FE4786B
310
8E45145EA34A75BE1C263A676A35A8ACC6297337400BF16C54EF515F3F77CB77EB3583889C754FFA29081AA98E2222ADEF05DA3E63D2EDEA8B8756C05A7FB6CABC4A91CBF325398202CC952E70A008A830324BA200D5E5EF8F5F04C75DB4B0EE3340E071C98B823333B83577596BF3849B69F2085AA0FAFA212F26BEFF5877
310
FDE622B28D88A42E49E43326DA82D31E8CB006401E1DA726059ECEC168F97A6599036306A135688F9AD2E61A6EA178F4CD51974A9F2CCB9F36FE5EBD14601068D9C3BF01504B0304140006080000B670623B000000000000000000000000350000006662782F42384135303843342D343331462D343546312D424341352D35
310
32343432364645413344462F76657274696365732E62696E504B0304140006080800B670623BF270F1330600000004000000360000006662782F42384135303843342D343331462D343546312D424341352D3532343432364645413344462F747269616E676C65732E62696E636660600000504B0304140006080000B67062
310
3B000000000000000000000000370000006662782F42384135303843342D343331462D343546312D424341352D3532343432364645413344462F617474726962757465732E62696E504B0304140006080800B670623B08DA0BD19000000041010000360000006662782F42384135303843342D343331462D343546312D4243
310
41352D3532343432364645413344462F6469726563746F72792E786D6C858F410AC3201045AF22B36F53E9A60B35CBEEBAE80D244E44489C6234F4F835464A48035D0DF398FF9F8AF63D0E6CC63039F212F8F9020C7D47C6792B21C5FE7403D62A1188E2E60C98D7234A5830286103A55745067B9D86B8A3CF9C7F90C11DE6
310
07FB144396D7B6A82D282E9A152AD114D5EF2CB866EEE831B8EEA07A7BB5A8D7D61A2BAAEB7FD5F70921FF497D00504B0304140006080800B670623B3B4606F3FE000000A00100003B0000006662782F42384135303843342D343331462D343546312D424341352D3532343432364645413344462F7265736F75726365732F
310
636F72652E786D6C8D504B6E833010BD0A9A6D65B08134808CA354A427E8052C332156828DFCA97AFC9A40A576D7CDCCE87D344F8F9FBEE647F689CE6B6B7A6039850C8DB2A336530F315C4903D94970676DF82583CCC8197B5861107C72362E3BA4AC096842428D1D7107A5F71820538F74F4E0D50D6799CB1892C2DFF345
310
AABB9C306779A2934E701F5C0A906D4FD609C2A1B7D129F4BCD858C163D4E3AED163FAA9AF1A1D88F67CA98E6D35906AA82A52BFB39ABCD5CD915C86331BD86BD3B665CD8BD52C78D0F34F46E550061C419494B6843142CB0F5677F4D0D58717DA7494F26295FF31C565FCA7296A13AA728FBBD93C0896823C09C18BB5AFB4
310
9E65A6BD762BBE01504B010214000A0000080000B670623B3DEE336E79000000790000001B00000000000000000000000000000000006175746F6465736B2D64657369676E2D7061636B6167652E786D6C504B01021400140006080800B670623BD486FD9CA0000000F40000001300000000000000000000000000B2000000
310
5B436F6E74656E745F54797065735D2E786D6C504B01021400140006080800B670623B28ED286BEB0000007C010000080000000000000000000000000083010000636F72652E786D6C504B01021400140006080800B670623B55019EA25F0000007C000000070000000000000000000000000094020000636E782E786D6C50
310
4B01021400140006080800B670623B7BC41AC871010000D40300000C00000000000000000000000000180300006662782F636F72652E786D6C504B01021400140006080800B670623B70102A487D0000009D0000000B00000000000000000000000000B30400006662782F636E782E786D6C504B01021400140006080800B6
310
70623B3610CA3329010000120200003100000000000000000000000000590500006662782F42384135303843342D343331462D343546312D424341352D3532343432364645413344462F636F72652E786D6C504B01021400140006080800B670623B1B8617914E010000330300003000000000000000000000000000D10600
310
006662782F42384135303843342D343331462D343546312D424341352D3532343432364645413344462F636E782E786D6C504B01021400140006080800B670623BBFEF2E3B690500003C10000034000000000000000000000000006D0800006662782F42384135303843342D343331462D343546312D424341352D35323434
310
32364645413344462F6F626A656374732E786D6C504B01021400140006080000B670623B0000000000000000000000003500000000000000000000000000280E00006662782F42384135303843342D343331462D343546312D424341352D3532343432364645413344462F76657274696365732E62696E504B010214001400
310
06080800B670623BF270F133060000000400000036000000000000000000000000007B0E00006662782F42384135303843342D343331462D343546312D424341352D3532343432364645413344462F747269616E676C65732E62696E504B01021400140006080000B670623B00000000000000000000000037000000000000
310
00000000000000D50E00006662782F42384135303843342D343331462D343546312D424341352D3532343432364645413344462F617474726962757465732E62696E504B01021400140006080800B670623B08DA0BD1900000004101000036000000000000000000000000002A0F00006662782F42384135303843342D3433
310
31462D343546312D424341352D3532343432364645413344462F6469726563746F72792E786D6C504B01021400140006080800B670623B3B4606F3FE000000A00100003B000000000000000000000000000E1000006662782F42384135303843342D343331462D343546312D424341352D3532343432364645413344462F72
310
65736F75726365732F636F72652E786D6C504B0506000000000E000E0080040000651100000000
  0
XRECORD
  5
187
102
{ACAD_REACTORS
330
186
102
}
330
186
100
AcDbXrecord
280
     1
 70
     1
 90
429727718
  1
887D55A9-D0DD-414E-B741-A7DCD4DA2B4C
310
504B03040A0000080000B670623B3DEE336E79000000790000001B0000006175746F6465736B2D64657369676E2D7061636B6167652E786D6C3C3F786D6C2076657273696F6E3D22312E302220656E636F64696E673D227574662D3822203F3E3C666F726D6174733E3C666F726D61743E687474703A2F2F736368656D612E
310
6175746F6465736B2E636F6D2F64657369676E2D7061636B6167652F323030393C2F666F726D61743E3C2F666F726D6174733E504B0304140006080800B670623BD486FD9CA0000000F4000000130000005B436F6E74656E745F54797065735D2E786D6C7D8EC10E82300C865F65E91D8A1E8C310C0EEA1BF002731658846E
310
D98AC1B77784ABF1D8FE5FBFBF75BBCE937A534CCEB38643598122B6FEE978D0B0485F9C41B54DDD7D022595594E1A469170414C76A4D9A4D207E29CF43ECE46F218070CC6BECC4078ACAA135ACF422C856C0E68EA1BF5669944DDD7BCDE7B1F8E415D77AECB980613C2E4AC91FC167A2B244592486606FC29C8FD7F045B9A
310
EF7053A7E60B504B0304140006080800B670623BBC1638F5EC0000007C01000008000000636F72652E786D6C8D90416EC3201045AF82665B61836BE2D8C24471DB9CA01740401C94182C03558F5F9C3852BBEB6A467FFE9B197D7EF89E6EE8CB2CC17AD7032D0820E394D7D68D3DA478C67B4007C117EFE32F1B202727D3C3
310
2A83E0E3E2D3BC49CABB685CCCAAF3DA6CA20CC14440EA969B1E82BA98491632C5EC08D76296EA2A4753D06797E194AC468F2356E77DF66CCD02825543D50CACC62D39ED70FDC68EB8FD68F6F8787A6784342D1DDA1D2F5758F068A7E77DB518198D065111D2624A31A93E69DD11D6D5EC85EC3B4278B9DAFF4069D6FF8492
310
75F1B5DADE7D600104CD8FDC0782976B16B9DC83CA75CD4DFC00504B0304140006080800B670623B55019EA25F0000007C00000007000000636E782E786D6C4DCB3B0E80201045D1AD90E915ED2CF8AC45050C11660C8261F98AB1B07AC9C97D42D718D865D3E909258CFD00CCE24AC6E326A164D74DC0B4128928FF326038
310
472BA13128B1252AC747C6BAB984FC68F0B87FE8960A5C09FE86CFB69FBA01504B0304140006080800B670623B3586FFB671010000D40300000C0000006662782F636F72652E786D6CC553ED6E8320147D15C2DF4541A76D6D90A6DDD627D80B50A4CE54C120983EFEAE1F4DD7A55BBA5FF3879273EEE59E7310B6393735EA
310
95ED2AA3731C851423A5A5292A5DE6D8BB63B0C268C39935C67D29C3488B46E578803167A535BE9D2169B453DA01AA4DA16650749D7218C91A1639EEE4876A4428BC838AEE14B6429E44A9C228041AEA38EB9C0501681A32BC313F1ECE8C4C3867DE57C5CC56054CAB8E95B298A7F12E5EEED224C8E87E11242FE936C8DE96
310
AB60BB7F4D295D66D12E5B30323473E6AAE6A24E5A259C2A308F29CD82280A68FC1E256B9AAE93F489AED694323294DF34F9B678B0C957DA3DC7B3DCA9ADC33C022123F1CD2D44E450277AD04338234388F01913BE0D1A0281909D38D4171F27807A259DB1093085F157AA17B557309586747CD0CF0B46A64E983A6E0EAEEF
310
CE881F9EF1FB8E70D44297604238581EBC1B74B249C31C5AAB6CD0BB33D2C636A27ECCC62F0EFF445DC5DF95244D6DEC7F2922F30191F9F720C37DE49F504B0304140006080800B670623B4220A0FF7D0000009D0000000B0000006662782F636E782E786D6C4DCCD10A83201886E15B91FFDCE542CB0335D0EC3E6259C84A
310
C3E9D8E5AF46073BFAE0E1E315DD675BD1DBA5978F41C2FD4600B9F088930F8B849267CC01754AA418F3DF0D50183727E164506249B1EC174D6E1ECB9A0F5D7D785E68DB8151CD286E5A5363CA6B8A39E90D36D40E96B086F55A43A544F52B1D7B86D517504B0304140006080800B670623B2FA3FEDE290100001202000031
310
0000006662782F45374635344235342D363743322D343832342D383044432D4334454645303536354442422F636F72652E786D6C8D515B6EC32010BC0AE22B55850D2E386E848994D7097A0117488A1283C5A3CAF10BB523B57FF961D1ECCCECC0F2ED7DBC816FED8371B687A4C210682B9D32F6D2C314CFA883602BB8772E
310
FEA141608751F7B0C050F08B77695A20E96CD43666D43AA5177008414708E42D5F7A18E4971E876A483133C2B59A06791D2EBA22556E679EE021FA1C00CC43CA09C5717D6274C7286AD7FB06D1AEA1A8C3873DDAD3E3E98859CB0EBB1DAF67A1E02919B5C88DCA71CCD968FFAC49110B1ECDF8882FBD1EA256503418BF2342
310
106E3E08DD60B6A1EC15771B8C795DE8FF4469524F8A92B1F1AD59E2CEB20005E1F5DC105CB9F4797B84D1F7C9F908CABC55D0F2050A5C61CC1AD2F27A26E6E767C7962E8E213A9FBF7775FDCC5CC266DB960A5E970DE5F2BBBE5CCB36C50F504B0304140006080800B670623B1B8617914E01000033030000300000006662
310
782F45374635344235342D363743322D343832342D383044432D4334454645303536354442422F636E782E786D6CD593C16EC32010447F0571AD6CE3D489D20813A9877E410FBD62D82434182CC055F3F75D1292E692438FBD206B7698593D61BEFD1E2DF982108D773D6D6B460938E5B571FB9ECE6957AD29D90A1EBC4F77
310
364A9C1CA1A759A682EF839FA72269D8C9D92654AD71C72206887E0E0A22CAF926B15E498B01E0AA19451807D01A34B919F16B070157417138917400F2F6FA41FCF0092A45DEE414C19BDC21783E4BD39D891265658C3D8DEA00A3ACE59CBC8678ACB54CB26EEB6BD7839D7E9348BE70AD9C8321B9BCA7F9A4A26C542347DE
310
E050F09802D22BA6749A800A394DD62899107273365E3C82CFC6A55557BC06C10774B7ABE7AEC3B0F34CF06446280E154026D0542C187BA9DAB6628BF7B6DBB0E5A65B3EB1F58631DE64BBE083F7B65CC218087E22CABB042E51D1F2268F1FE12B3EA24D40D63E9CFE00120194D60B9D5BC67FE6D39CDF37E20AF817881F50
310
4B0304140006080800B670623B29652116630500003C100000340000006662782F45374635344235342D363743322D343832342D383044432D4334454645303536354442422F6F626A656374732E786D6CAD575D739B3814FD2B0CFB0C989834C90EA1639B24E3E9A6EDD4D3CE3E64C623834CD8006224913AFDF57B040203
310
B65BEF871F0C12D2FD3CF7E8CA7FBFCB33E3957291B2E2D674ED8969D02262715A24B76625B7D6B569BC0F7CCE98EC2D338D82E4F4D654D366E0279C55A59E8AE99654991CCDDECFFF3444440B6A1A514684B83545F44C7362934AB2988A173B2692D8C97667BB76B3702836E1A47C1E092D09A78584A5982F20C5688C7287
310
C389E904BEA3BE07BEFAD7ABA6A75739B53F43FD69212429A20365233153D70BEF2E2E6FAC4BCF9B5ADEBB0BD79ADFCF43CBBD9A4E16EF168B9BD9DD0D140BC921495BC2E9D60C1E101B9E46BED37CEA2CD6861F3329624541A3DA7F7858DBAC25C6B4A4458C3CA654405BCFEBC970E8AAD8F43E4FD558ABEC4F9FE7557F47
310
4F506B7BFBEC5BCA367FC105710E2AB8A00A554D7CB4A30DFE26FBA86D18CBF4B75418399194A72433B274C3097F33032C554B027F2046A1932B842B0FCCC0DDCBEBDB8AD2F835768F59B9ADB24C41D30C6A64AF817F2A456D59FA83F2E3DA60137255A585BCD60EC9B7929AC18DEFD49381AF1ED30BFDB109A4B1CD488294
310
C3CDE6EBC8D185AABD6568061FEE37BB95AAC7E3CA4BCE4ACAA5820FA0D526AE7DAA2869B5EE5999531BE0CC20E6FBA07C41E43FA27CF7A6206F3CDD793B4F6B919C1462CB788EDCD893FA674CDA17AB7B3B7C019F8D561FAEE966FED562DFE98C1D12C6A9FC015C2A35D7FF3D7FC398F591DA4B5FE0BFA2C0189FEA50AE22
310
92817A1ED3020951A03432862970F976B33383259812CC8E5D240BBA801CBCF8CE2BBEE3BF910DB6AAD5F79E05123AE2DB33981FB1ACCB02B69D00CB014FD68AB573A7627EF9BFD4CC2C5C7D58557C4B22FAA88925A4DBB44825CECE3D78FB060D1231F0E885BE7D673C86A3874958F593906B5502D1563157814FDAC3420D
310
F69A070A22EC4B98E23CFF171A1E5311D12C23056555ABA53B8614563B92D17D02AAB009E8F46284624E5F53D5490C560CCCC2591FF1B45421EB0EBD8EA7ED13BE7C5D7E0428CD60FEF60779EB13E6664FF711CB185F6FDED60D139A001FF60CD1FD6D086F1D51474901E26B2CB794A343BC8ED3EDB612E0DD2351FCB65CF4
310
33D511C9E14B5B40ADC6A6263DB0336A8F700DDF56271A024E70B0B3629DE21847591E55DED73D56206AB927E46FAABC5C939C55853C274C93D69FD6FA4E78BF8B11DF898C9ECD60553FAD39283BA6F18984AA23E8884F83F45C5F5F859797B31B2B9C84A1E5B9DE9D35BFF25C6B76152E422F9C5DCC3D847F5801ED09D5AF
310
41441327A25FF15487F9EB725FB666F048A4701E9A827292E6F97569A32DF61DEC01C0BB8DCBBCCC684E0B49147C1FD54BF685A0AB18C868E6973949E819523E3DAC463660E68C7D9F55A9D1EFA3BD7A76A16AE1A810F95CE59B82A4D968A376DC2E8B44BBDD86B27B368CDE0ED548C7137DA860591A83706223A12CA712B4
310
7306DBF39C0A20A6DF95C7FAF670C6EED7A61F946493D1D6926782963813403548A78AE470DEF80D2D9CEAA26E4D1C76F60BFE74219A06527D6B82DF641A51616F703CAAC6A7160E08A00BEB4810A0274592A1B36E3675E36E978A0DE80727A0D6DF2D39A75BD27E0D8837276589537B40ABB56D5A41F48F1C6FCD3188C4EB
310
A6929D2FFB89CE995A4D00AE813BDD032DC48B56BD437DFDDC2DD7AED70C2272D63DE9A72068A45A92F0A4BE17A8A06B9366E16707AD80B1FC649459952097E74BB23805982B55E0401150A165964402AA8BDF9F3E7386BB686EDCA780C0D382E5392BF460A6EFB2C6EA1937D3F809B440D5F5435C4C5CF7A9EEFAF54564BD
310
2182DA24162F98680B4E7930C21A0079709CEAEB99A372305ABE0C0D7D6078105A83F6A0296DAEE1068A47DD1C55A9F4C9B2FC69E3EFD44B81028E963DF81B504B0304140006080000B670623B000000000000000000000000350000006662782F45374635344235342D363743322D343832342D383044432D433445464530
310
3536354442422F76657274696365732E62696E504B0304140006080800B670623BF270F1330600000004000000360000006662782F45374635344235342D363743322D343832342D383044432D4334454645303536354442422F747269616E676C65732E62696E636660600000504B0304140006080000B670623B00000000
310
0000000000000000370000006662782F45374635344235342D363743322D343832342D383044432D4334454645303536354442422F617474726962757465732E62696E504B0304140006080800B670623B08DA0BD19000000041010000360000006662782F45374635344235342D363743322D343832342D383044432D4334
310
454645303536354442422F6469726563746F72792E786D6C858F410AC3201045AF22B36F53E9A60B35CBEEBAE80D244E44489C6234F4F835464A48035D0DF398FF9F8AF63D0E6CC63039F212F8F9020C7D47C6792B21C5FE7403D62A1188E2E60C98D7234A5830286103A55745067B9D86B8A3CF9C7F90C11DE607FB144396
310
D7B6A82D282E9A152AD114D5EF2CB866EEE831B8EEA07A7BB5A8D7D61A2BAAEB7FD5F70921FF497D00504B0304140006080800B670623B6378F24DFF000000A00100003B0000006662782F45374635344235342D363743322D343832342D383044432D4334454645303536354442422F7265736F75726365732F636F72652E
310
786D6C8D504B6E833010BD0A9A6D65B0094E42641C85B639412F6099496225D8C89FAAC7AF09546A77DDCC8CDE47F3F4C4F16B7C149FE88371B603565228D06A37187BED20C50BD9437194C23B177FC9A0B06AC40E6618A4B87A97A615D2CE46B431A3D60DB8822A048C50E8473E3A08FA86A32A558A5911EEE5A4F45D5DB1
310
6465A6B34E8A107D0E502C4FE609D26370C96B0CA25A58295232C3AA3143FE692E063D485EF7F5AEE71BD2D2F39634AFFC44DAF7DD9E9CCE6F9CD25DCBFA762BAAD92C4534E34F46ED51451C40D694B6843142EB0FD61C283F34FC85EE0F948A6A96FF31A569F8A729191B37F51A77B105902C0779125254735F793DCBCC7B
310
EE567E03504B010214000A0000080000B670623B3DEE336E79000000790000001B00000000000000000000000000000000006175746F6465736B2D64657369676E2D7061636B6167652E786D6C504B01021400140006080800B670623BD486FD9CA0000000F40000001300000000000000000000000000B20000005B436F6E
310
74656E745F54797065735D2E786D6C504B01021400140006080800B670623BBC1638F5EC0000007C010000080000000000000000000000000083010000636F72652E786D6C504B01021400140006080800B670623B55019EA25F0000007C000000070000000000000000000000000095020000636E782E786D6C504B010214
310
00140006080800B670623B3586FFB671010000D40300000C00000000000000000000000000190300006662782F636F72652E786D6C504B01021400140006080800B670623B4220A0FF7D0000009D0000000B00000000000000000000000000B40400006662782F636E782E786D6C504B01021400140006080800B670623B2F
310
A3FEDE290100001202000031000000000000000000000000005A0500006662782F45374635344235342D363743322D343832342D383044432D4334454645303536354442422F636F72652E786D6C504B01021400140006080800B670623B1B8617914E010000330300003000000000000000000000000000D2060000666278
310
2F45374635344235342D363743322D343832342D383044432D4334454645303536354442422F636E782E786D6C504B01021400140006080800B670623B29652116630500003C10000034000000000000000000000000006E0800006662782F45374635344235342D363743322D343832342D383044432D4334454645303536
310
354442422F6F626A656374732E786D6C504B01021400140006080000B670623B0000000000000000000000003500000000000000000000000000230E00006662782F45374635344235342D363743322D343832342D383044432D4334454645303536354442422F76657274696365732E62696E504B01021400140006080800
310
B670623BF270F13306000000040000003600000000000000000000000000760E00006662782F45374635344235342D363743322D343832342D383044432D4334454645303536354442422F747269616E676C65732E62696E504B01021400140006080000B670623B0000000000000000000000003700000000000000000000
310
000000D00E00006662782F45374635344235342D363743322D343832342D383044432D4334454645303536354442422F617474726962757465732E62696E504B01021400140006080800B670623B08DA0BD190000000410100003600000000000000000000000000250F00006662782F45374635344235342D363743322D34
310
3832342D383044432D4334454645303536354442422F6469726563746F72792E786D6C504B01021400140006080800B670623B6378F24DFF000000A00100003B00000000000000000000000000091000006662782F45374635344235342D363743322D343832342D383044432D4334454645303536354442422F7265736F75
310
726365732F636F72652E786D6C504B0506000000000E000E0080040000611100000000
  0
XRECORD
  5
112
102
{ACAD_REACTORS
330
110
102
}
330
110
100
AcDbXrecord
280
     1
270
     1
271
     1
  0
XRECORD
  5
111
102
{ACAD_REACTORS
330
110
102
}
330
110
100
AcDbXrecord
280
     1
270
     1
271
     1
  0
XRECORD
  5
18A
102
{ACAD_REACTORS
330
110
102
}
330
110
100
AcDbXrecord
280
     1
 70
     0
 90
1778669749
  1
9BF507EE-FAF7-4A99-A33D-4EE51894BC40
310
504B03040A0000080000B670623B3DEE336E79000000790000001B0000006175746F6465736B2D64657369676E2D7061636B6167652E786D6C3C3F786D6C2076657273696F6E3D22312E302220656E636F64696E673D227574662D3822203F3E3C666F726D6174733E3C666F726D61743E687474703A2F2F736368656D612E
310
6175746F6465736B2E636F6D2F64657369676E2D7061636B6167652F323030393C2F666F726D61743E3C2F666F726D6174733E504B0304140006080800B670623BD486FD9CA0000000F4000000130000005B436F6E74656E745F54797065735D2E786D6C7D8EC10E82300C865F65E91D8A1E8C310C0EEA1BF002731658846E
310
D98AC1B77784ABF1D8FE5FBFBF75BBCE937A534CCEB38643598122B6FEE978D0B0485F9C41B54DDD7D022595594E1A469170414C76A4D9A4D207E29CF43ECE46F218070CC6BECC4078ACAA135ACF422C856C0E68EA1BF5669944DDD7BCDE7B1F8E415D77AECB980613C2E4AC91FC167A2B244592486606FC29C8FD7F045B9A
310
EF7053A7E60B504B0304140006080800B670623BCA089DFFEC0000007C01000008000000636F72652E786D6C8D90416E83301045AF62CDB632D8402020E32882F604BD80653BC44AB011B6AB1EBF262152BBEB6A467FFE9B197D76FA9EEFE84BAFDE38DB03CD08206DA553C64E3DC470C1474027CE56E7C22F1B202B66DDC3
310
260367D3EAE2B24BD2D9A06D48AA754AEFA2F05E0740F29E9A1EBCBCEA59642286E4F0B76C11F226269DD15797E0188D42CF2346A57DE662F40ABCAEC77628C6120F654571D50C04B7F5B9C1E3997CD4F550BE3745C3F20DE62C98F9755FAE5A04AD801784B498524C8A4F5A75E4D055873772EC0861F966FF03C545FD138A
310
C686B2D8DF7D621E384D8F3C069CE55B16A93C824A75CB8DFF00504B0304140006080800B670623B55019EA25F0000007C00000007000000636E782E786D6C4DCB3B0E80201045D1AD90E915ED2CF8AC45050C11660C8261F98AB1B07AC9C97D42D718D865D3E909258CFD00CCE24AC6E326A164D74DC0B4128928FF326038
310
472BA13128B1252AC747C6BAB984FC68F0B87FE8960A5C09FE86CFB69FBA01504B0304140006080800B670623B68FC0B7272010000D40300000C0000006662782F636F72652E786D6CC5535B6E833010BC8AE5DF0A6C1E8124328E22D29EA01770C0A128602363A31CBFCB234A53A555FA553EC09AD9F5CE8C31DB5DDA060D
310
D2F4B556190E7C8A9154852E6B5565D8D993B7C668C799D1DA7E29C3488956667884316795D1AE5BA0422B2B950554E9522EA0E87B69312A1A5864B82F3E642B7CE12C54F467BF13C55954D20F7CA0A18EB3DE1A1080E621E31BF3D3F1C2C88C73E65C5D2E6C5DC2B4FA544B8379921C36797888BC3C8A032F4E73EA6D927D
310
EA1DF6F42D49F2E8350D5346C666CE6CDD5ED515460A2B4BCC434A375E1078347C0FE22D5D6DE3D50B5D6F2965642CBF6B725DF96493AB958DC245EEDCD6631E809089F8E61622B2A81703E8219C913144F84C09DF070D8140C8561C9BAB8F3340832CAC363130A576376A108D933095FA747AD0CF0B46E64E983A6D0EAE1F
310
CE089F9EF1FB8E70D44255604258581E9D1D75B259C3125A278D37D80B52DAB4A279CEC62F0EFF44DDC43F9454E8469BFF5244960322CBEF41C6FBC83F01504B0304140006080800B670623B0F71DDB67E0000009D0000000B0000006662782F636E782E786D6C4DCCD10A83201886E15B91FFDCA54DB73F502386BB8F5816
310
32D3703976F9ABD1C18E3E78F87855FB990379BBFCF2296AE02706C4C5471A7C9C349475A408A4352AA7B4FEDD80C47E761A7606A3A69CCA72D0E0C6BE8475D3E0E3F3409428EA6B27A84079A782899AA2EC1A7AE3ECCC2FD858CB2D544655BFD2B67BD87C01504B0304140006080800B670623BE134B4FB28010000120200
310
00310000006662782F38353834323741342D343835462D343034322D383541392D4331303331363839454531452F636F72652E786D6C8D515B6EC32010BC0AE22B55850D0EA424C24451959EA0172086A42831583CAA1CBF503B52FB971F16CDCECC0EACD8DFC71BF836215AEF7A481A0C817183D7D65D7A98D3197108F652
310
04EFD31F1A044E8DA6871586525C82CFD3020DDE25E352419DD76601558C264130DCCAA58771F832A36A544E8511AFCDA486ABBA988634A55D7852C4144A00300FA927949C71DABD1D28A29C7D208A6987383B6CD13BC16BB2E1DBE3911C453B0BA5C8D9EA456E758963CFD684674DAA588A64C747FC2118958C86B2C3788B
310
0841B8FB247487D98EB257CC77188BB6D2FF89F2A49F1465EBD2BA5BE2CEB2082511EDDC9042FB7CBA3DC298FBE4430275DE2A9AE1054ADC60CC08E3A29D89E5F9C5714317C7987C28DFBBBA9E0A97B0D97643A568EB864AF95D5FA9759BF207504B0304140006080800B670623B1B8617914E010000330300003000000066
310
62782F38353834323741342D343835462D343034322D383541392D4331303331363839454531452F636E782E786D6CD593C16EC32010447F0571AD6CE3D489D20813A9877E410FBD62D82434182CC055F3F75D1292E692438FBD206B7698593D61BEFD1E2DF982108D773D6D6B460938E5B571FB9ECE6957AD29D90A1EBC4F
310
77364A9C1CA1A759A682EF839FA72269D8C9D92654AD71C72206887E0E0A22CAF926B15E498B01E0AA19451807D01A34B919F16B070157417138917400F2F6FA41FCF0092A45DEE414C19BDC21783E4BD39D891265658C3D8DEA00A3ACE59CBC8678ACB54CB26EEB6BD7839D7E9348BE70AD9C8321B9BCA7F9A4A26C542347
310
DEE050F09802D22BA6749A800A394DD62899107273365E3C82CFC6A55557BC06C10774B7ABE7AEC3B0F34CF06446280E154026D0542C187BA9DAB6628BF7B6DBB0E5A65B3EB1F58631DE64BBE083F7B65CC218087E22CABB042E51D1F2268F1FE12B3EA24D40D63E9CFE00120194D60B9D5BC67FE6D39CDF37E20AF817881F
310
504B0304140006080800B670623B5933D422630500003B100000340000006662782F38353834323741342D343835462D343034322D383541392D4331303331363839454531452F6F626A656374732E786D6CAD575B6FA33814FE2B887D0642934E9B156594264D158D3A534DD4D13E548A0C38942D60649B4EBABF7E3F8321
310
40924EF6928780CDF1B97EE762EFF32E4B8D37CA45C2F21BD3B547A641F39045491EDF98A5DC5AD7A6F1D9F73863B243661A39C9E88DA9B64DDF8B392B0BBD15D12D295339D85DDEFE618890E6D434C2940871638AF08566C426A5641115AF764424B1E3EDCE76ED9AB0CF36E6A47819302D08A7B984A6D8CFC1C5A89572FB
310
CB91E9F89EA3BEFB9EFAD754E3D3544E654F5F7E920B49F2F040D880CDD89D2CEE2E2EA7D6E56432B6269F2E5CEB7679BBB0DCABF168FE693E9FCEEEA6102C240727AD09A75BD3BF876F78127A4EFDA9D5582B7E4CA590E5390D2BFB6161A5B3E618D182E611E2985001691DAB47FDA5AB7CD3F93C566B2DB2BB7D9E55DD13
310
1D468DEECDB3AB290BFE8409E21C54704115AA6AFF68436BFC8DF65E0B184BF5B74418199194272435D224E084BF9B3E481589EFF5D828747285706581E9BB7B7E5D5D911ABFC6EE312DB7659A2A689A7E85EC0DF04FA5A8344BFEA2FCB834E8845895492EAFB541F2BDA0A63FF59C6AD3F7D4637CA13FD68E34B629891172
310
98597F1D183A57B9B75A98FE9765B05BAB7C3C2EBCE0ACA05C2AF8005A4DE09AA7F29216EB9E15397500C6F47CBE77CA7778FE2BD277AF0AE2C693DD6437D1522427B9D8329E2136F6A8FA19A3E6C56ADF0E5F50CF06D48734EDCEBF22F69C56D97EC138153F804B85E6FABFC7AFEFB32E523BE1F3BD372418E363EDCA7548
310
52949E8724474014288D94610BB57C1BEC4C7F854A89CA8E5324F55B871CBC78CE1BBEE3BFE68D6A5589EF3C730474506FCFA8FCF0659516D0ED04580EEA6425581B77CAE797FF4BCECC16EB2FEB926F49481F746159D06D922712BD730FDEAE42BD40F42C7AA5EF3F198F60E86110D6DD20645A9480B795CF95E3E3A659A8
310
C55E724F408873315335CFFB8584874484344D494E59D94869DB90C26A5B64F49C802CAC1D3ABE18A098D3B7444D123D8A9E5AE8F5214F0AE5B2B6E9B575DA3E61CBD3EA2B4009FA940524DD1305FB6A1FB294F14DF0BEA90BA109ECE1481FDC3FFAE8D60E75141700BE82725371B4873751B2DD960265F788137FACE6DD40
310
B575E4F0A5C99F46629D92131467A41EE11ABD8D4CCC039CA0AFB37C93A08B232B8F0AEFCA1E0A1015DF13FC83322B362463652ECF71D3A8B1A7D1BE65DE1D62C44F22C317D35F574FEB16153BA2D13E543D10A80E74C4A65E78A6B7CBCBD1D5DD9DB59C2DAFACC96C3AB566E3F1C29ADCDD5DBAD7D3C9ED7C822ED74F80A6
310
41755310DE4443F44A9E68373FADF6596BFA0F440AE7BECE2727AE9F4F2B1B53B1E7E00CF0DD1E5C65454A339A4BA2D0FBA05ED2EF0443458F47BDBFCA484CCFE0F2ED7E3DD0013B679C7B5499467F0ECEEADDB9CA85A34CE44B99053949D2C1416DB85DE4B136BB7165FBAC0B7AB3542BED4F8CA182A549847A1319316519
310
95A83A67147B9E5101C47487F2485F1ECE38FD568F839204296D3479219888530154036E6528FBFBC66F98E0D4107563A2D7D9AFF8D389681A08F58D89F22693900A3B407754734FC51C10C010D6D640809EE4718AC1BA3ED4AEDB53CA37283F68805A7E4B72CEB0A4EDEAD5DD8C14059A76AFAA56BA6901E13F32BC51C720
310
12AF41295B5BF61BAD3195181FB506E6B40F4C10AF5AF40EF9F5B159AE5DD1F43C72D635E94310D45C2D49785C5D0B94D3B54AB3C5A38349C0587D338AB48C11CBF339599C02CCA54A70A008A8D03C0B2201D5F9EFCF8F9CE12A9A19CB0410789EB32C63B95ECCF455D658BFE0621A3DA32C5075FB101723D77DAE867E7D0F
310
D90444509B44E2151B4DC2290B065803200FBAA9BE9D392A0603F2D5C2D00D6302A615680F66D2FA166E2079D4C551A54AB758161FCEFD4E450A14704CECFEDF504B0304140006080000B670623B000000000000000000000000350000006662782F38353834323741342D343835462D343034322D383541392D4331303331
310
363839454531452F76657274696365732E62696E504B0304140006080800B670623BF270F1330600000004000000360000006662782F38353834323741342D343835462D343034322D383541392D4331303331363839454531452F747269616E676C65732E62696E636660600000504B0304140006080000B670623B000000
310
000000000000000000370000006662782F38353834323741342D343835462D343034322D383541392D4331303331363839454531452F617474726962757465732E62696E504B0304140006080800B670623B08DA0BD19000000041010000360000006662782F38353834323741342D343835462D343034322D383541392D43
310
31303331363839454531452F6469726563746F72792E786D6C858F410AC3201045AF22B36F53E9A60B35CBEEBAE80D244E44489C6234F4F835464A48035D0DF398FF9F8AF63D0E6CC63039F212F8F9020C7D47C6792B21C5FE7403D62A1188E2E60C98D7234A5830286103A55745067B9D86B8A3CF9C7F90C11DE607FB1443
310
96D7B6A82D282E9A152AD114D5EF2CB866EEE831B8EEA07A7BB5A8D7D61A2BAAEB7FD5F70921FF497D00504B0304140006080800B670623BD9A3B367FE000000A00100003B0000006662782F38353834323741342D343835462D343034322D383541392D4331303331363839454531452F7265736F75726365732F636F7265
310
2E786D6C8D504B6E833010BD0A9A6D65B01D0201194711694FD00B586642AD043BF2A7EAF16B122AB5BB6E6646EFA3797AE2F8B5DC8A4FF4C1383B002B291468B59B8C9D0748F1420E501CA5F0CEC55F3228AC5A708015062966EFD27D83B4B3116DCCA875136EA00A012314FA968F0182FEC045952AC5AC08D7F2AEF455CD
310
58B232D3592745883E07289E4FD609D26370C96B0CA27AB252A464A64D63A6FCD35C0C7A904D73EE467EE664DCD58CD4ED4849D79C5A723ED1B7A61977AF2D6F45B59AA58866F9C9A83DAA8813484E6947182394BFB3BAA7FBBEDEBFD0434FA9A856F91F53BA4FFF342563E38E6F719FB60092E5200F428A6AED2BAF479979
310
AFDDCA6F504B010214000A0000080000B670623B3DEE336E79000000790000001B00000000000000000000000000000000006175746F6465736B2D64657369676E2D7061636B6167652E786D6C504B01021400140006080800B670623BD486FD9CA0000000F40000001300000000000000000000000000B20000005B436F6E
310
74656E745F54797065735D2E786D6C504B01021400140006080800B670623BCA089DFFEC0000007C010000080000000000000000000000000083010000636F72652E786D6C504B01021400140006080800B670623B55019EA25F0000007C000000070000000000000000000000000095020000636E782E786D6C504B010214
310
00140006080800B670623B68FC0B7272010000D40300000C00000000000000000000000000190300006662782F636F72652E786D6C504B01021400140006080800B670623B0F71DDB67E0000009D0000000B00000000000000000000000000B50400006662782F636E782E786D6C504B01021400140006080800B670623BE1
310
34B4FB280100001202000031000000000000000000000000005C0500006662782F38353834323741342D343835462D343034322D383541392D4331303331363839454531452F636F72652E786D6C504B01021400140006080800B670623B1B8617914E010000330300003000000000000000000000000000D3060000666278
310
2F38353834323741342D343835462D343034322D383541392D4331303331363839454531452F636E782E786D6C504B01021400140006080800B670623B5933D422630500003B10000034000000000000000000000000006F0800006662782F38353834323741342D343835462D343034322D383541392D4331303331363839
310
454531452F6F626A656374732E786D6C504B01021400140006080000B670623B0000000000000000000000003500000000000000000000000000240E00006662782F38353834323741342D343835462D343034322D383541392D4331303331363839454531452F76657274696365732E62696E504B01021400140006080800
310
B670623BF270F13306000000040000003600000000000000000000000000770E00006662782F38353834323741342D343835462D343034322D383541392D4331303331363839454531452F747269616E676C65732E62696E504B01021400140006080000B670623B0000000000000000000000003700000000000000000000
310
000000D10E00006662782F38353834323741342D343835462D343034322D383541392D4331303331363839454531452F617474726962757465732E62696E504B01021400140006080800B670623B08DA0BD190000000410100003600000000000000000000000000260F00006662782F38353834323741342D343835462D34
310
3034322D383541392D4331303331363839454531452F6469726563746F72792E786D6C504B01021400140006080800B670623BD9A3B367FE000000A00100003B000000000000000000000000000A1000006662782F38353834323741342D343835462D343034322D383541392D4331303331363839454531452F7265736F75
310
726365732F636F72652E786D6C504B0506000000000E000E0080040000611100000000
  0
XRECORD
  5
113
102
{ACAD_REACTORS
330
110
102
}
330
110
100
AcDbXrecord
280
     1
270
     1
271
     1
  0
XRECORD
  5
114
102
{ACAD_REACTORS
330
110
102
}
330
110
100
AcDbXrecord
280
     1
270
     1
271
     1
  0
CELLSTYLEMAP
  5
45A
102
{ACAD_REACTORS
330
104
102
}
330
104
100
AcDbCellStyleMap
 90
        3
300
CELLSTYLE
  1
TABLEFORMAT_BEGIN
 90
        5
170
     1
 91
        0
 92
    32768
 62
   257
 93
        1
300
CONTENTFORMAT
  1
CONTENTFORMAT_BEGIN
 90
        0
 91
        0
 92
      512
 93
        0
300

 40
0.0
140
1.0
 94
        5
 62
     0
340
11
144
0.25
309
CONTENTFORMAT_END
171
     1
301
MARGIN
  1
CELLMARGIN_BEGIN
 40
0.06
 40
0.06
 40
0.06
 40
0.06
 40
0.18
 40
0.18
309
CELLMARGIN_END
 94
        6
 95
        1
302
GRIDFORMAT
  1
GRIDFORMAT_BEGIN
 90
        0
 91
        1
 62
     0
 92
       -2
340
0
 93
        0
 40
0.045
309
GRIDFORMAT_END
 95
        2
302
GRIDFORMAT
  1
GRIDFORMAT_BEGIN
 90
        0
 91
        1
 62
     0
 92
       -2
340
0
 93
        0
 40
0.045
309
GRIDFORMAT_END
 95
        4
302
GRIDFORMAT
  1
GRIDFORMAT_BEGIN
 90
        0
 91
        1
 62
     0
 92
       -2
340
0
 93
        0
 40
0.045
309
GRIDFORMAT_END
 95
        8
302
GRIDFORMAT
  1
GRIDFORMAT_BEGIN
 90
        0
 91
        1
 62
     0
 92
       -2
340
0
 93
        0
 40
0.045
309
GRIDFORMAT_END
 95
       16
302
GRIDFORMAT
  1
GRIDFORMAT_BEGIN
 90
        0
 91
        1
 62
     0
 92
       -2
340
0
 93
        0
 40
0.045
309
GRIDFORMAT_END
 95
       32
302
GRIDFORMAT
  1
GRIDFORMAT_BEGIN
 90
        0
 91
        1
 62
     0
 92
       -2
340
0
 93
        0
 40
0.045
309
GRIDFORMAT_END
309
TABLEFORMAT_END
  1
CELLSTYLE_BEGIN
 90
        1
 91
        1
300
_TITLE
309
CELLSTYLE_END
300
CELLSTYLE
  1
TABLEFORMAT_BEGIN
 90
        5
170
     1
 91
        0
 92
        0
 62
   257
 93
        1
300
CONTENTFORMAT
  1
CONTENTFORMAT_BEGIN
 90
        0
 91
        0
 92
      512
 93
        0
300

 40
0.0
140
1.0
 94
        5
 62
     0
340
11
144
0.18
309
CONTENTFORMAT_END
171
     1
301
MARGIN
  1
CELLMARGIN_BEGIN
 40
0.06
 40
0.06
 40
0.06
 40
0.06
 40
0.18
 40
0.18
309
CELLMARGIN_END
 94
        6
 95
        1
302
GRIDFORMAT
  1
GRIDFORMAT_BEGIN
 90
        0
 91
        1
 62
     0
 92
       -2
340
0
 93
        0
 40
0.045
309
GRIDFORMAT_END
 95
        2
302
GRIDFORMAT
  1
GRIDFORMAT_BEGIN
 90
        0
 91
        1
 62
     0
 92
       -2
340
0
 93
        0
 40
0.045
309
GRIDFORMAT_END
 95
        4
302
GRIDFORMAT
  1
GRIDFORMAT_BEGIN
 90
        0
 91
        1
 62
     0
 92
       -2
340
0
 93
        0
 40
0.045
309
GRIDFORMAT_END
 95
        8
302
GRIDFORMAT
  1
GRIDFORMAT_BEGIN
 90
        0
 91
        1
 62
     0
 92
       -2
340
0
 93
        0
 40
0.045
309
GRIDFORMAT_END
 95
       16
302
GRIDFORMAT
  1
GRIDFORMAT_BEGIN
 90
        0
 91
        1
 62
     0
 92
       -2
340
0
 93
        0
 40
0.045
309
GRIDFORMAT_END
 95
       32
302
GRIDFORMAT
  1
GRIDFORMAT_BEGIN
 90
        0
 91
        1
 62
     0
 92
       -2
340
0
 93
        0
 40
0.045
309
GRIDFORMAT_END
309
TABLEFORMAT_END
  1
CELLSTYLE_BEGIN
 90
        2
 91
        1
300
_HEADER
309
CELLSTYLE_END
300
CELLSTYLE
  1
TABLEFORMAT_BEGIN
 90
        5
170
     1
 91
        0
 92
        0
 62
   257
 93
        1
300
CONTENTFORMAT
  1
CONTENTFORMAT_BEGIN
 90
        0
 91
        0
 92
      512
 93
        0
300

 40
0.0
140
1.0
 94
        2
 62
     0
340
11
144
0.18
309
CONTENTFORMAT_END
171
     1
301
MARGIN
  1
CELLMARGIN_BEGIN
 40
0.06
 40
0.06
 40
0.06
 40
0.06
 40
0.18
 40
0.18
309
CELLMARGIN_END
 94
        6
 95
        1
302
GRIDFORMAT
  1
GRIDFORMAT_BEGIN
 90
        0
 91
        1
 62
     0
 92
       -2
340
0
 93
        0
 40
0.045
309
GRIDFORMAT_END
 95
        2
302
GRIDFORMAT
  1
GRIDFORMAT_BEGIN
 90
        0
 91
        1
 62
     0
 92
       -2
340
0
 93
        0
 40
0.045
309
GRIDFORMAT_END
 95
        4
302
GRIDFORMAT
  1
GRIDFORMAT_BEGIN
 90
        0
 91
        1
 62
     0
 92
       -2
340
0
 93
        0
 40
0.045
309
GRIDFORMAT_END
 95
        8
302
GRIDFORMAT
  1
GRIDFORMAT_BEGIN
 90
        0
 91
        1
 62
     0
 92
       -2
340
0
 93
        0
 40
0.045
309
GRIDFORMAT_END
 95
       16
302
GRIDFORMAT
  1
GRIDFORMAT_BEGIN
 90
        0
 91
        1
 62
     0
 92
       -2
340
0
 93
        0
 40
0.045
309
GRIDFORMAT_END
 95
       32
302
GRIDFORMAT
  1
GRIDFORMAT_BEGIN
 90
        0
 91
        1
 62
     0
 92
       -2
340
0
 93
        0
 40
0.045
309
GRIDFORMAT_END
309
TABLEFORMAT_END
  1
CELLSTYLE_BEGIN
 90
        3
 91
        2
300
_DATA
309
CELLSTYLE_END
  0
ENDSEC
  0
SECTION
  2
ACDSDATA
 70
     2
 71
     8
  0
ACDSSCHEMA
 90
        0
  1
AcDb_Thumbnail_Schema
  2
AcDbDs::ID
280
    10
 91
        8
  2
Thumbnail_Data
280
    15
 91
        0
101
ACDSRECORD
 95
        0
 90
        1
  2
AcDbDs::TreatedAsObjectData
280
     1
291
     1
101
ACDSRECORD
 95
        0
 90
        2
  2
AcDbDs::Legacy
280
     1
291
     1
101
ACDSRECORD
  1
AcDbDs::ID
 90
        3
  2
AcDs:Indexable
280
     1
291
     1
101
ACDSRECORD
  1
AcDbDs::ID
 90
        4
  2
AcDbDs::HandleAttribute
280
     7
282
     1
  0
ACDSSCHEMA
 90
        1
  1
AcDbDs::TreatedAsObjectDataSchema
  2
AcDbDs::TreatedAsObjectData
280
     1
 91
        0
  0
ACDSSCHEMA
 90
        2
  1
AcDbDs::LegacySchema
  2
AcDbDs::Legacy
280
     1
 91
        0
  0
ACDSSCHEMA
 90
        3
  1
AcDbDs::IndexedPropertySchema
  2
AcDs:Indexable
280
     1
 91
        0
  0
ACDSSCHEMA
 90
        4
  1
AcDbDs::HandleAttributeSchema
  2
AcDbDs::HandleAttribute
280
     7
 91
        1
284
     1
  0
ACDSRECORD
 90
        0
  2
AcDbDs::ID
280
    10
320
22
  2
Thumbnail_Data
280
    15
 94
      897
310
89504E470D0A1A0A0000000D49484452000001000000009508030000008070D41000000300504C5445212830FFFFFF2128300000000000000000000000000000000000000000000000000000330000660000990000CC0000FF0033000033330033660033990033CC0033FF0066000066330066660066990066CC0066FF0099
310
000099330099660099990099CC0099FF00CC0000CC3300CC6600CC9900CCCC00CCFF00FF0000FF3300FF6600FF9900FFCC00FFFF3300003300333300663300993300CC3300FF3333003333333333663333993333CC3333FF3366003366333366663366993366CC3366FF3399003399333399663399993399CC3399FF33CC00
310
33CC3333CC6633CC9933CCCC33CCFF33FF0033FF3333FF6633FF9933FFCC33FFFF6600006600336600666600996600CC6600FF6633006633336633666633996633CC6633FF6666006666336666666666996666CC6666FF6699006699336699666699996699CC6699FF66CC0066CC3366CC6666CC9966CCCC66CCFF66FF0066
310
FF3366FF6666FF9966FFCC66FFFF9900009900339900669900999900CC9900FF9933009933339933669933999933CC9933FF9966009966339966669966999966CC9966FF9999009999339999669999999999CC9999FF99CC0099CC3399CC6699CC9999CCCC99CCFF99FF0099FF3399FF6699FF9999FFCC99FFFFCC0000CC00
310
33CC0066CC0099CC00CCCC00FFCC3300CC3333CC3366CC3399CC33CCCC33FFCC6600CC6633CC6666CC6699CC66CCCC66FFCC9900CC9933CC9966CC9999CC99CCCC99FFCCCC00CCCC33CCCC66CCCC99CCCCCCCCCCFFCCFF00CCFF33CCFF66CCFF99CCFFCCCCFFFFFF0000FF0033FF0066FF0099FF00CCFF00FFFF3300FF3333
310
FF3366FF3399FF33CCFF33FFFF6600FF6633FF6666FF6699FF66CCFF66FFFF9900FF9933FF9966FF9999FF99CCFF99FFFFCC00FFCC33FFCC66FFCC99FFCCCCFFCCFFFFFF00FFFF33FFFF66FFFF99FFFFCCFFFFFF0000000D0D0D1A1A1A2828283535354343435050505D5D5D6B6B6B787878868686939393A1A1A1AEAEAEBB
310
BBBBC9C9C9D6D6D6E4E4E4F1F1F1FFFFFF0000000000000000000000000000000000000000000000000000000000002E4550F10000003C4944415478DAEDC13101000000C2A0F54F6D0B2FA0000000000000000000000000000000000000000000000000000000000000000000000000008E06959500014F4AD9C200000000
310
49454E44AE426082
  0
ENDSEC
  0
EOF
